<?xml version="1.0" standalone="no"?>
<!DOCTYPE svg PUBLIC "-//W3C//DTD SVG 1.1//EN" "http://www.w3.org/Graphics/SVG/1.1/DTD/svg11.dtd" >
<svg xmlns="http://www.w3.org/2000/svg" xmlns:xlink="http://www.w3.org/1999/xlink" version="1.1">
<metadata>
Created by FontForge 20201107 at Wed Nov  7 06:08:24 2018
 By 
Copyright 2017 The Barlow Project Authors (https://github.com/jpt/barlow)
</metadata>
<defs>
<font id="BarlowCondensed-SemiBold" horiz-adv-x="439" >
  <font-face 
    font-family="Barlow Condensed SemiBold"
    font-weight="600"
    font-stretch="condensed"
    units-per-em="1000"
    panose-1="0 0 7 6 0 0 0 0 0 0"
    ascent="800"
    descent="-200"
    x-height="511"
    cap-height="700"
    bbox="-600.231 -223 995 1072"
    underline-thickness="50"
    underline-position="-100"
    unicode-range="U+000D-FB02"
  />
<missing-glyph horiz-adv-x="381" 
d="M5 0h371q5 0 5 5v690q0 5 -5 5h-371q-5 0 -5 -5v-690q0 -5 5 -5zM147.5 245.5q-3.5 3.5 -3.5 8.5v26q0 34 13.5 54.5t40.5 45.5q23 22 34 38t11 41q0 29 -12.5 45.5t-34.5 16.5q-23 0 -36.5 -17.5t-13.5 -46.5v-11q0 -11 -12 -11l-59 3q-5 0 -8.5 3.5t-3.5 8.5v7
q0 62 37.5 100.5t97.5 38.5q59 0 94 -36.5t35 -97.5q0 -45 -15.5 -70t-45.5 -53q-20 -18 -29.5 -31.5t-9.5 -32.5v-21q0 -5 -3.5 -8.5t-8.5 -3.5h-59q-5 0 -8.5 3.5zM149.5 103.5q-14.5 14.5 -14.5 36.5t14.5 36t36.5 14t36 -14t14 -36t-14 -36.5t-36 -14.5t-36.5 14.5z" />
    <glyph glyph-name="fi" unicode="fi" horiz-adv-x="504" 
d="M261.5 507.5q3.5 -3.5 3.5 -8.5v-59q0 -5 -3.5 -8.5t-8.5 -3.5h-62q-5 0 -5 -5v-411q0 -5 -3.5 -8.5t-8.5 -3.5h-91q-5 0 -8.5 3.5t-3.5 8.5v411q0 5 -5 5h-32q-5 0 -8.5 3.5t-3.5 8.5v59q0 5 3.5 8.5t8.5 3.5h32q5 0 5 5v25q0 90 41 127t131 36h8q5 0 8.5 -3.5t3.5 -8.5
l-2 -68q0 -5 -3.5 -8.5t-8.5 -3.5h-5q-30 -1 -44 -19.5t-14 -56.5v-20q0 -5 5 -5h62q5 0 8.5 -3.5zM346 601q-20 20 -20 51t20 51t51 20t50.5 -20t19.5 -51t-20 -51t-50 -20q-31 0 -51 20zM343.5 3.5q-3.5 3.5 -3.5 8.5v487q0 5 3.5 8.5t8.5 3.5h92q5 0 8.5 -3.5t3.5 -8.5
v-487q0 -5 -3.5 -8.5t-8.5 -3.5h-92q-5 0 -8.5 3.5z" />
    <glyph glyph-name="fl" unicode="fl" horiz-adv-x="489" 
d="M261.5 507.5q3.5 -3.5 3.5 -8.5v-59q0 -5 -3.5 -8.5t-8.5 -3.5h-62q-5 0 -5 -5v-411q0 -5 -3.5 -8.5t-8.5 -3.5h-91q-5 0 -8.5 3.5t-3.5 8.5v411q0 5 -5 5h-32q-5 0 -8.5 3.5t-3.5 8.5v59q0 5 3.5 8.5t8.5 3.5h32q5 0 5 5v25q0 90 41 127t131 36h8q5 0 8.5 -3.5t3.5 -8.5
l-2 -68q0 -5 -3.5 -8.5t-8.5 -3.5h-5q-30 -1 -44 -19.5t-14 -56.5v-20q0 -5 5 -5h62q5 0 8.5 -3.5zM335.5 3.5q-3.5 3.5 -3.5 8.5v676q0 5 3.5 8.5t8.5 3.5h92q5 0 8.5 -3.5t3.5 -8.5v-676q0 -5 -3.5 -8.5t-8.5 -3.5h-92q-5 0 -8.5 3.5z" />
    <glyph glyph-name="I_J.liga" unicode="IJ" horiz-adv-x="667" 
d="M57.5 3.5q-3.5 3.5 -3.5 8.5v676q0 5 3.5 8.5t8.5 3.5h92q5 0 8.5 -3.5t3.5 -8.5v-676q0 -5 -3.5 -8.5t-8.5 -3.5h-92q-5 0 -8.5 3.5zM292 41.5q-51 49.5 -51 131.5v74q0 5 3.5 8.5t8.5 3.5h92q5 0 8.5 -3.5t3.5 -8.5v-76q0 -35 19 -57t50 -22t50.5 22t19.5 57v517
q0 5 3.5 8.5t8.5 3.5h92q5 0 8.5 -3.5t3.5 -8.5v-515q0 -82 -51.5 -131.5t-134.5 -49.5t-134 49.5z" />
    <glyph glyph-name="f_f_i.liga" unicode="ffi" horiz-adv-x="770" 
d="M611.5 601q-19.5 20 -19.5 51t19.5 51t50.5 20t51 -20t20 -51t-20 -51t-51 -20t-50.5 20zM451 516q0 -5 5 -5h61q5 0 8.5 -3.5t3.5 -8.5v-58q0 -5 -3.5 -8.5t-8.5 -3.5h-61q-5 0 -5 -5v-412q0 -5 -3.5 -8.5t-8.5 -3.5h-92q-5 0 -8.5 3.5t-3.5 8.5v412q0 5 -5 5h-138
q-5 0 -5 -5v-412q0 -5 -3.5 -8.5t-8.5 -3.5h-92q-5 0 -8.5 3.5t-3.5 8.5v412q0 5 -5 5h-32q-5 0 -8.5 3.5t-3.5 8.5v58q0 5 3.5 8.5t8.5 3.5h32q5 0 5 5v37q0 85 41.5 119.5t130.5 31.5h4q5 0 8.5 -3.5t3.5 -8.5v-56q0 -5 -3.5 -8.5t-8.5 -3.5h-3q-31 -1 -44 -21t-13 -59
v-28q0 -5 5 -5h138q5 0 5 5v37q0 85 42 119.5t131 31.5h3q5 0 8.5 -3.5t3.5 -8.5v-56q0 -5 -3.5 -8.5t-8.5 -3.5h-3q-31 -1 -44 -21t-13 -59v-28zM608.5 3.5q-3.5 3.5 -3.5 8.5v487q0 5 3.5 8.5t8.5 3.5h92q5 0 8.5 -3.5t3.5 -8.5v-487q0 -5 -3.5 -8.5t-8.5 -3.5h-92
q-5 0 -8.5 3.5z" />
    <glyph glyph-name="f_f_l.liga" unicode="ffl" horiz-adv-x="757" 
d="M455 516q0 -5 5 -5h61q5 0 8.5 -3.5t3.5 -8.5v-58q0 -5 -3.5 -8.5t-8.5 -3.5h-61q-5 0 -5 -5v-412q0 -5 -3.5 -8.5t-8.5 -3.5h-92q-5 0 -8.5 3.5t-3.5 8.5v412q0 5 -5 5h-142q-5 0 -5 -5v-412q0 -5 -3.5 -8.5t-8.5 -3.5h-92q-5 0 -8.5 3.5t-3.5 8.5v412q0 5 -5 5h-32
q-5 0 -8.5 3.5t-3.5 8.5v58q0 5 3.5 8.5t8.5 3.5h32q5 0 5 5v37q0 85 41.5 119.5t130.5 31.5h4q5 0 8.5 -3.5t3.5 -8.5v-56q0 -5 -3.5 -8.5t-8.5 -3.5h-3q-31 -1 -44 -21t-13 -59v-28q0 -5 5 -5h142q5 0 5 5v37q0 85 42 119.5t131 31.5h3q5 0 8.5 -3.5t3.5 -8.5v-56
q0 -5 -3.5 -8.5t-8.5 -3.5h-3q-31 -1 -44 -21t-13 -59v-28zM603.5 696.5q3.5 3.5 8.5 3.5h92q5 0 8.5 -3.5t3.5 -8.5v-676q0 -5 -3.5 -8.5t-8.5 -3.5h-92q-5 0 -8.5 3.5t-3.5 8.5v676q0 5 3.5 8.5z" />
    <glyph glyph-name="g_j.liga" unicode="gj" horiz-adv-x="641" 
d="M484 601q-20 20 -20 51t20 51t51 20t50.5 -20t19.5 -51t-20 -51t-50 -20q-31 0 -51 20zM273 473.5q2 0.5 2 3.5v22q0 5 3.5 8.5t8.5 3.5h92q5 0 8.5 -3.5t3.5 -8.5v-480q0 -108 -49 -166.5t-175 -58.5q-22 0 -33 1q-12 1 -12 13v77q0 13 13 11q57 -1 87.5 14t41.5 44
t11 76v11q0 3 -2 3.5t-4 -2.5q-33 -43 -94 -43q-67 0 -102 43.5t-35 118.5v196q0 77 35.5 119.5t101.5 42.5q61 0 94 -43q2 -3 4 -2.5zM477 499q0 5 3.5 8.5t8.5 3.5h91q5 0 8.5 -3.5t3.5 -8.5v-515q0 -65 -13.5 -105.5t-52 -62.5t-110.5 -21q-12 0 -12 12l3 75q0 12 11 12
q59 1 59 90v515zM258.5 118.5q16.5 19.5 16.5 50.5v179q0 32 -16.5 51.5t-43.5 19.5t-44 -20t-17 -51v-179q0 -31 17 -50.5t44 -19.5t43.5 19.5z" />
    <glyph glyph-name="i_j.liga" unicode="ij" horiz-adv-x="420" 
d="M56 601q-20 20 -20 51t20 51t51 20t50.5 -20t19.5 -51t-20 -51t-50 -20q-31 0 -51 20zM262.5 601q-19.5 20 -19.5 51t19.5 51t50.5 20t51 -20t20 -51t-20 -51t-51 -20t-50.5 20zM52.5 3.5q-3.5 3.5 -3.5 8.5v487q0 5 3.5 8.5t8.5 3.5h92q5 0 8.5 -3.5t3.5 -8.5v-487
q0 -5 -3.5 -8.5t-8.5 -3.5h-92q-5 0 -8.5 3.5zM162 -193v75q0 12 12 12q44 0 62.5 23t18.5 67v515q0 5 3.5 8.5t8.5 3.5h92q5 0 8.5 -3.5t3.5 -8.5v-515q0 -67 -13 -106.5t-56 -61.5t-128 -21q-12 0 -12 12z" />
    <glyph glyph-name="hyphen_hyphen.liga" unicode="&#x2d;&#x2d;" horiz-adv-x="593" 
d="M30.5 250.5q-3.5 3.5 -3.5 8.5v76q0 5 3.5 8.5t8.5 3.5h515q5 0 8.5 -3.5t3.5 -8.5v-76q0 -5 -3.5 -8.5t-8.5 -3.5h-515q-5 0 -8.5 3.5z" />
    <glyph glyph-name=".notdef" horiz-adv-x="381" 
d="M5 0h371q5 0 5 5v690q0 5 -5 5h-371q-5 0 -5 -5v-690q0 -5 5 -5zM147.5 245.5q-3.5 3.5 -3.5 8.5v26q0 34 13.5 54.5t40.5 45.5q23 22 34 38t11 41q0 29 -12.5 45.5t-34.5 16.5q-23 0 -36.5 -17.5t-13.5 -46.5v-11q0 -11 -12 -11l-59 3q-5 0 -8.5 3.5t-3.5 8.5v7
q0 62 37.5 100.5t97.5 38.5q59 0 94 -36.5t35 -97.5q0 -45 -15.5 -70t-45.5 -53q-20 -18 -29.5 -31.5t-9.5 -32.5v-21q0 -5 -3.5 -8.5t-8.5 -3.5h-59q-5 0 -8.5 3.5zM149.5 103.5q-14.5 14.5 -14.5 36.5t14.5 36t36.5 14t36 -14t14 -36t-14 -36.5t-36 -14.5t-36.5 14.5z" />
    <glyph glyph-name=".null" horiz-adv-x="0" 
 />
    <glyph glyph-name="nonmarkingreturn" unicode="&#xd;" horiz-adv-x="200" 
 />
    <glyph glyph-name="NULL" horiz-adv-x="0" 
 />
    <glyph glyph-name="NULL" horiz-adv-x="0" 
 />
    <glyph glyph-name="space" unicode=" " horiz-adv-x="200" 
 />
    <glyph glyph-name="exclam" unicode="!" horiz-adv-x="269" 
d="M91.5 239.5q-3.5 3.5 -3.5 8.5l-12 440q0 5 3.5 8.5t8.5 3.5h92q5 0 8.5 -3.5t3.5 -8.5l-11 -440q0 -5 -3.5 -8.5t-8.5 -3.5h-69q-5 0 -8.5 3.5zM84 22q-20 20 -20 51t20 50.5t51 19.5t50.5 -19.5t19.5 -50.5t-20 -51t-50 -20q-31 0 -51 20z" />
    <glyph glyph-name="quotedbl" unicode="&#x22;" horiz-adv-x="306" 
d="M32 480.5q-4 3.5 -4 8.5l-10 196q0 12 11 12h87q11 0 11 -12l-10 -196q0 -5 -4 -8.5t-9 -3.5h-63q-5 0 -9 3.5zM192 480.5q-4 3.5 -4 8.5l-10 196q0 12 11 12h87q11 0 11 -12l-10 -196q0 -5 -4 -8.5t-9 -3.5h-63q-5 0 -9 3.5z" />
    <glyph glyph-name="numbersign" unicode="#" horiz-adv-x="606" 
d="M561.5 416.5q-3.5 -3.5 -8.5 -3.5h-61q-6 0 -6 -5l-17 -120q0 -5 4 -5h46q5 0 8.5 -3.5t3.5 -8.5v-75q0 -5 -3.5 -8.5t-8.5 -3.5h-61q-6 0 -6 -5l-21 -145q-1 -11 -13 -11l-92 1q-12 0 -11 13l21 142q0 5 -4 5h-105q-6 0 -6 -5l-21 -145q-1 -11 -13 -11l-92 1
q-12 0 -11 13l21 142q0 5 -4 5h-47q-5 0 -8.5 3.5t-3.5 8.5v75q0 5 3.5 8.5t8.5 3.5h62q6 0 6 5l17 120q0 5 -4 5h-47q-5 0 -8.5 3.5t-3.5 8.5v76q0 5 3.5 8.5t8.5 3.5h62q6 0 6 5l21 145q1 11 13 11l92 -1q12 0 11 -13l-21 -142q0 -5 4 -5h105q6 0 6 5l21 145q1 11 13 11
l92 -1q12 0 11 -13l-21 -142q0 -5 4 -5h46q5 0 8.5 -3.5t3.5 -8.5v-76q0 -5 -3.5 -8.5zM353 288l17 120q0 5 -4 5h-105q-6 0 -6 -5l-17 -120q0 -5 4 -5h105q6 0 6 5z" />
    <glyph glyph-name="dollar" unicode="$" horiz-adv-x="434" 
d="M366.5 58.5q-37.5 -48.5 -100.5 -61.5q-5 -2 -5 -6l1 -60q0 -5 -3.5 -8.5t-8.5 -3.5h-63q-5 0 -8.5 3.5t-3.5 8.5l1 60q0 5 -4 6q-64 13 -101 60.5t-37 115.5v26q0 5 3.5 8.5t8.5 3.5h91q5 0 8.5 -3.5t3.5 -8.5v-20q0 -39 19.5 -63t50.5 -24t51 22.5t20 59.5q0 26 -11 45
t-31 36t-64 49q-50 36 -80.5 64t-51 67.5t-20.5 91.5q0 71 37 118t101 59q5 2 5 6l-1 66q0 5 3.5 8.5t8.5 3.5h62q5 0 8.5 -3.5t3.5 -8.5l-2 -67q0 -5 4 -6q63 -14 100 -63t37 -120v-24q0 -5 -3.5 -8.5t-8.5 -3.5h-90q-5 0 -8.5 3.5t-3.5 8.5v26q0 39 -19.5 62.5t-51.5 23.5
q-30 0 -49 -21.5t-19 -59.5q0 -36 20.5 -61t80.5 -69q61 -45 92 -73.5t48 -62.5t17 -81q0 -73 -37.5 -121.5z" />
    <glyph glyph-name="percent" unicode="%" horiz-adv-x="772" 
d="M128.5 424.5q-34.5 20.5 -54.5 55.5t-20 77q0 41 20 76t54.5 55.5t75.5 20.5q40 0 74.5 -20.5t54.5 -55.5t20 -76q0 -42 -20 -77t-54 -55.5t-75 -20.5t-75.5 20.5zM161 4q-2 4 1 10l364 678q4 8 15 8h58q7 0 9 -4t-1 -10l-364 -678q-4 -8 -15 -8h-58q-7 0 -9 4z
M264.5 492.5q24.5 26.5 24.5 64.5q0 37 -25 63.5t-60 26.5q-36 0 -61 -26t-25 -64t25 -64.5t61 -26.5t60.5 26.5zM493 11.5q-34 20.5 -54 55.5t-20 77q0 41 20 76t54 55.5t75 20.5t75 -20.5t54 -55.5t20 -76q0 -42 -20 -77t-54 -55.5t-75 -20.5t-75 20.5zM629 79.5
q25 26.5 25 64.5t-25 64t-61 26t-61 -26t-25 -64t25 -64.5t61 -26.5t61 26.5z" />
    <glyph glyph-name="ampersand" unicode="&#x26;" horiz-adv-x="581" 
d="M542 7q0 -7 -10 -7h-99q-9 0 -15 7l-29 39q-3 3 -7 1q-72 -56 -165 -56q-86 0 -135.5 44t-49.5 128q0 66 30 112.5t82 87.5q4 3 1 7q-48 67 -62 98.5t-14 68.5q0 78 46.5 124.5t123.5 46.5q51 0 91 -21.5t63 -60.5t23 -90q0 -62 -31.5 -106.5t-85.5 -85.5q-4 -3 -1 -7
q4 -6 38 -52l52 -71q2 -2 4 -2t3 2q25 35 46 76q6 11 17 5l68 -39q10 -7 4 -16q-34 -65 -70 -113q-3 -4 -1 -7q25 -31 80 -105q3 -4 3 -8zM200.5 583.5q-15.5 -19.5 -15.5 -50.5q0 -22 7.5 -40t36.5 -60q3 -5 7 -2q31 25 47.5 50t16.5 54q0 30 -16.5 49t-41.5 19
q-26 0 -41.5 -19.5zM320 130q4 3 1 7l-37 48l-69 90q-3 4 -7 1q-60 -50 -60 -104q0 -35 21 -58t59 -23q45 0 92 39z" />
    <glyph glyph-name="quotesingle" unicode="'" horiz-adv-x="152" 
d="M32 483.5q-4 3.5 -4 8.5l-10 195q0 12 11 12h93q11 0 11 -12l-11 -195q0 -5 -4 -8.5t-9 -3.5h-68q-5 0 -9 3.5z" />
    <glyph glyph-name="parenleft" unicode="(" horiz-adv-x="279" 
d="M102 -88q-46 76 -74 183t-28 235q0 129 28.5 238t74.5 184q4 8 14 8h90q7 0 9.5 -4t0.5 -10q-37 -82 -62 -188t-25 -228q0 -120 24.5 -225t62.5 -187q1 -2 1 -5q0 -4 -3 -6.5t-8 -2.5h-91q-10 0 -14 8z" />
    <glyph glyph-name="parenright" unicode=")" horiz-adv-x="279" 
d="M177 752q46 -75 74.5 -182.5t28.5 -234.5q0 -129 -28.5 -238t-75.5 -185q-4 -8 -14 -8h-90q-7 0 -9 4t0 10q37 84 61.5 189.5t24.5 226.5t-24.5 225t-61.5 187q-1 2 -1 6q0 8 10 8h91q10 0 14 -8z" />
    <glyph glyph-name="asterisk" unicode="*" horiz-adv-x="361" 
d="M150.5 398.5q-3.5 3.5 -3.5 8.5v95q0 3 -2 4t-4 -1l-81 -48q-4 -2 -6 -2q-6 0 -10 7l-21 39q-2 4 -2 6q0 6 6 10l85 50q2 2 2 4t-2 3l-85 49q-9 6 -4 16l21 41q2 5 7 6.5t10 -1.5l80 -49q2 -2 4 -1t2 4v95q0 5 3.5 8.5t8.5 3.5h44q5 0 8.5 -3.5t3.5 -8.5l-1 -95
q0 -3 2 -4t4 1l80 49q4 2 6 2q7 0 11 -7l21 -41q2 -4 2 -6q0 -5 -6 -10l-84 -49q-2 -1 -2 -3t2 -4l84 -50q10 -6 5 -16l-22 -41q-3 -5 -7.5 -6t-9.5 2l-80 49q-2 2 -4 1t-2 -4l1 -95q0 -5 -3.5 -8.5t-8.5 -3.5h-44q-5 0 -8.5 3.5z" />
    <glyph glyph-name="plus" unicode="+" 
d="M409.5 354.5q3.5 -3.5 3.5 -8.5v-64q0 -5 -3.5 -8.5t-8.5 -3.5h-132q-5 0 -5 -5v-132q0 -5 -3.5 -8.5t-8.5 -3.5h-64q-5 0 -8.5 3.5t-3.5 8.5v132q0 5 -5 5h-132q-5 0 -8.5 3.5t-3.5 8.5v64q0 5 3.5 8.5t8.5 3.5h132q5 0 5 5v132q0 5 3.5 8.5t8.5 3.5h64q5 0 8.5 -3.5
t3.5 -8.5v-132q0 -5 5 -5h132q5 0 8.5 -3.5z" />
    <glyph glyph-name="comma" unicode="," horiz-adv-x="199" 
d="M35.5 -87.5q-3.5 3.5 -2.5 9.5l26 224q1 11 12 11h80q13 0 10 -13l-49 -224q-2 -11 -13 -11h-54q-6 0 -9.5 3.5z" />
    <glyph glyph-name="hyphen" unicode="-" horiz-adv-x="325" 
d="M30.5 254.5q-3.5 3.5 -3.5 8.5v76q0 5 3.5 8.5t8.5 3.5h247q5 0 8.5 -3.5t3.5 -8.5v-76q0 -5 -3.5 -8.5t-8.5 -3.5h-247q-5 0 -8.5 3.5z" />
    <glyph glyph-name="period" unicode="." horiz-adv-x="211" 
d="M55 18q-20 20 -20 51t20 51t51 20t50.5 -20t19.5 -51t-20 -51t-50 -20q-31 0 -51 20z" />
    <glyph glyph-name="slash" unicode="/" horiz-adv-x="386" 
d="M22 4q-3 4 -1 10l205 676q3 10 13 10h92q6 0 9 -4t1 -10l-205 -676q-3 -10 -13 -10h-92q-6 0 -9 4z" />
    <glyph glyph-name="zero" unicode="0" horiz-adv-x="450" 
d="M89 42.5q-51 53.5 -51 140.5v334q0 87 51 140.5t135 53.5q85 0 136.5 -53.5t51.5 -140.5v-334q0 -87 -51.5 -140.5t-136.5 -53.5q-84 0 -135 53.5zM276.5 113.5q19.5 23.5 19.5 62.5v348q0 39 -19.5 62.5t-52.5 23.5q-32 0 -51 -23.5t-19 -62.5v-348q0 -39 19 -62.5
t51 -23.5q33 0 52.5 23.5z" />
    <glyph glyph-name="one" unicode="1" horiz-adv-x="274" 
d="M122 700h96q5 0 8.5 -3.5t3.5 -8.5v-676q0 -5 -3.5 -8.5t-8.5 -3.5h-92q-5 0 -8.5 3.5t-3.5 8.5v564q0 2 -1.5 4t-3.5 1l-82 -16h-3q-11 0 -11 11l-3 67q0 10 8 14l89 40q7 3 15 3z" />
    <glyph glyph-name="two" unicode="2" horiz-adv-x="425" 
d="M169 102q1 -2 4 -2h219q5 0 8.5 -3.5t3.5 -8.5v-76q0 -5 -3.5 -8.5t-8.5 -3.5h-349q-5 0 -8.5 3.5t-3.5 8.5v80q0 9 5 15l39 53q39 52 76.5 106t63.5 97q58 96 58 159q0 40 -17.5 63t-46.5 23t-46 -22.5t-16 -59.5v-39q0 -5 -3.5 -8.5t-8.5 -3.5h-94q-5 0 -8.5 3.5
t-3.5 8.5v43q4 80 54.5 129t130.5 49q79 0 127.5 -51.5t48.5 -135.5q0 -50 -17 -99t-54 -105q-25 -40 -59.5 -88t-45.5 -63q-30 -40 -44 -60q-2 -2 -1 -4z" />
    <glyph glyph-name="three" unicode="3" horiz-adv-x="426" 
d="M387 218q0 -49 -7 -84q-12 -68 -54.5 -105t-115.5 -37q-76 0 -124 40.5t-54 110.5q-2 22 -4 64q0 12 12 12h92q12 0 12 -12q2 -34 4 -51q5 -31 21 -47.5t41 -16.5q24 0 40 15.5t21 44.5q5 30 5 78q0 51 -7 85q-6 26 -21 40t-38 14q-15 0 -27 -9q-6 -4 -9 -4q-2 0 -8 4
l-47 48q-4 4 -4 9q0 4 3 8l125 170q2 2 0.5 4t-4.5 2h-190q-5 0 -8.5 3.5t-3.5 8.5v75q0 5 3.5 8.5t8.5 3.5h324q5 0 8.5 -3.5t3.5 -8.5v-79q0 -7 -5 -15l-114 -156q-4 -6 2 -7q41 -5 70.5 -39t39.5 -85q9 -40 9 -89z" />
    <glyph glyph-name="four" unicode="4" horiz-adv-x="459" 
d="M439.5 283.5q3.5 -3.5 3.5 -8.5v-81q0 -5 -3.5 -8.5t-8.5 -3.5h-30q-5 0 -5 -5v-165q0 -5 -3.5 -8.5t-8.5 -3.5h-92q-5 0 -8.5 3.5t-3.5 8.5v165q0 5 -5 5h-246q-5 0 -8.5 3.5t-3.5 8.5v65q0 9 2 15l139 416q3 10 13 10h100q6 0 9 -3.5t1 -10.5l-128 -393q-1 -6 4 -6h118
q5 0 5 5v120q0 5 3.5 8.5t8.5 3.5h92q5 0 8.5 -3.5t3.5 -8.5v-120q0 -5 5 -5h30q5 0 8.5 -3.5z" />
    <glyph glyph-name="five" unicode="5" horiz-adv-x="428" 
d="M400 216q0 -41 -4 -70q-5 -74 -52 -114t-125 -40q-74 0 -120 38t-56 114l-3 28q0 12 12 12h92q12 0 13 -12q0 -6 2 -18q12 -62 60 -62q25 0 40.5 16t20.5 45q4 25 4 64q0 37 -6 64q-5 26 -20.5 40.5t-38.5 14.5q-48 0 -62 -46q-3 -11 -13 -11h-93q-5 0 -8.5 3.5t-3.5 8.5
v397q0 5 3.5 8.5t8.5 3.5h326q5 0 8.5 -3.5t3.5 -8.5v-76q0 -5 -3.5 -8.5t-8.5 -3.5h-217q-5 0 -5 -5v-195q0 -3 2 -3.5t4 1.5q17 18 41.5 28.5t51.5 10.5q60 0 96.5 -38.5t43.5 -108.5q6 -31 6 -74z" />
    <glyph glyph-name="six" unicode="6" horiz-adv-x="429" 
d="M401 216q0 -23 -2 -65q-5 -76 -52.5 -117.5t-125.5 -41.5q-74 0 -120 38.5t-55 113.5q-6 27 -6 63l-1 325q0 81 49.5 128.5t130.5 47.5q76 0 124 -48t48 -128v-25q0 -5 -3.5 -8.5t-8.5 -3.5h-92q-5 0 -8.5 3.5t-3.5 8.5v19q0 34 -16.5 56.5t-39.5 22.5q-28 0 -45.5 -22
t-17.5 -57v-103q0 -3 2 -4t4 1q29 27 72 27q69 0 112 -44t50 -117q5 -33 5 -70zM284 224q0 26 -5 71q-12 58 -59 58q-24 0 -39.5 -15.5t-20.5 -45.5q-4 -35 -4 -68q0 -29 3 -67q5 -32 20.5 -49t40.5 -17t40.5 18t20.5 51q3 36 3 64z" />
    <glyph glyph-name="seven" unicode="7" horiz-adv-x="392" 
d="M90 13l165 581q2 6 -4 6h-135q-5 0 -5 -5v-36q0 -5 -3.5 -8.5t-8.5 -3.5h-71q-5 0 -8.5 3.5t-3.5 8.5l1 129q0 5 3.5 8.5t8.5 3.5h339q5 0 8.5 -3.5t3.5 -8.5v-81q0 -4 -2 -14l-167 -583q-3 -10 -14 -10h-97q-13 0 -10 13z" />
    <glyph glyph-name="eight" unicode="8" horiz-adv-x="434" 
d="M325 364q33 -19 50 -58q21 -47 21 -106q0 -53 -16 -93q-20 -54 -62.5 -84.5t-101.5 -30.5q-58 0 -100.5 30t-62.5 84q-15 42 -15 94q0 59 18 101q15 40 53 62q4 3 0 6q-33 21 -51 58q-20 43 -20 96q0 58 20 97q20 44 61.5 68t96.5 24q54 0 95.5 -23.5t62.5 -67.5
q22 -42 22 -98q0 -52 -20 -94q-18 -37 -51 -58q-6 -4 0 -7zM159 559q-7 -18 -7 -46q0 -30 10 -57q7 -21 21 -33t33 -12q21 0 35.5 12.5t21.5 35.5q8 24 8 54q0 34 -10 55q-7 21 -21 32.5t-34 11.5q-18 0 -31.5 -10.5t-20.5 -28.5zM281 206q0 38 -9 65q-6 24 -20.5 37.5
t-35.5 13.5t-35.5 -14t-20.5 -40q-8 -26 -8 -60q0 -31 6 -57q5 -28 20.5 -43.5t37.5 -15.5q23 0 39 16t21 45q5 27 5 53z" />
    <glyph glyph-name="nine" unicode="9" horiz-adv-x="423" 
d="M384 168q0 -81 -49.5 -128.5t-130.5 -47.5q-76 0 -124 48t-48 128v25q0 5 3.5 8.5t8.5 3.5h92q5 0 8.5 -3.5t3.5 -8.5v-19q0 -34 16.5 -56.5t39.5 -22.5q28 0 45.5 22t17.5 57v102q0 3 -2 4t-4 -1q-29 -26 -72 -26q-69 0 -112 44t-50 117q-5 33 -5 70q0 34 3 65
q4 76 51.5 117.5t126.5 41.5q73 0 119 -38.5t56 -113.5q5 -30 5 -63zM267 476q0 30 -3 67q-11 66 -60 66q-25 0 -41 -18t-21 -51q-2 -24 -2 -64q0 -37 5 -71q5 -28 20.5 -43t38.5 -15q24 0 39.5 15.5t19.5 45.5q4 35 4 68z" />
    <glyph glyph-name="colon" unicode=":" horiz-adv-x="252" 
d="M77 353q-20 20 -20 51t20 51t51 20t50.5 -20t19.5 -51t-20 -51t-50 -20q-31 0 -51 20zM77 22q-20 20 -20 51t20 51t51 20t50.5 -20t19.5 -51t-20 -51t-50 -20q-31 0 -51 20z" />
    <glyph glyph-name="semicolon" unicode=";" horiz-adv-x="218" 
d="M56 347.5q-21 22.5 -21 55.5q0 31 22.5 53.5t51.5 22.5t51.5 -22.5t22.5 -53.5q0 -33 -21 -55.5t-53 -22.5t-53 22.5zM42.5 -85.5q-3.5 3.5 -2.5 9.5l19 219q2 11 12 11h81q13 0 10 -13l-43 -219q-1 -11 -13 -11h-54q-6 0 -9.5 3.5z" />
    <glyph glyph-name="less" unicode="&#x3c;" 
d="M409 58.5q-4 -2.5 -10 0.5l-363 170q-9 5 -9 14v81q0 10 9 14l363 171q4 2 6 2q8 0 8 -11v-85q0 -9 -9 -14l-259 -114q-6 -3 0 -6l259 -114q9 -4 9 -14v-85q0 -7 -4 -9.5z" />
    <glyph glyph-name="equal" unicode="=" 
d="M30.5 375.5q-3.5 3.5 -3.5 8.5v64q0 5 3.5 8.5t8.5 3.5h362q5 0 8.5 -3.5t3.5 -8.5v-64q0 -5 -3.5 -8.5t-8.5 -3.5h-362q-5 0 -8.5 3.5zM30.5 184.5q-3.5 3.5 -3.5 8.5v64q0 5 3.5 8.5t8.5 3.5h362q5 0 8.5 -3.5t3.5 -8.5v-64q0 -5 -3.5 -8.5t-8.5 -3.5h-362
q-5 0 -8.5 3.5z" />
    <glyph glyph-name="greater" unicode="&#x3e;" 
d="M35 57q-8 0 -8 11v85q0 10 9 14l259 114q6 3 0 6l-259 114q-9 5 -9 14v85q0 7 4 9.5t10 -0.5l363 -171q9 -4 9 -14v-81q0 -9 -9 -14l-363 -170q-4 -2 -6 -2z" />
    <glyph glyph-name="question" unicode="?" horiz-adv-x="413" 
d="M138.5 217.5q-3.5 3.5 -3.5 8.5v41q0 48 19 77t56 63q32 29 48 52.5t16 58.5q0 39 -18 62.5t-48 23.5q-33 0 -52 -24.5t-19 -64.5v-21q0 -11 -12 -11l-92 4q-5 0 -8.5 4t-3.5 9v15q0 57 24 101.5t67 69t99 24.5q82 0 131 -51.5t49 -136.5q0 -45 -12 -76.5t-29 -51.5
t-44 -45q-28 -25 -41.5 -43.5t-13.5 -45.5v-34q0 -5 -3.5 -8.5t-8.5 -3.5h-92q-5 0 -8.5 3.5zM142.5 19q-19.5 20 -19.5 51t19.5 50.5t50.5 19.5t51 -19.5t20 -50.5t-20 -51t-51 -20t-50.5 20z" />
    <glyph glyph-name="at" unicode="@" horiz-adv-x="759" 
d="M578 605q68 -36 106 -101.5t38 -151.5q0 -25 -3 -51q-13 -97 -64 -151.5t-126 -54.5q-64 0 -98 40q-4 3 -7 -1q-15 -21 -37 -30.5t-44 -9.5q-51 0 -80.5 30t-29.5 77q0 17 5 49l4 33q2 24 8 64q18 114 117 114q13 0 27.5 -5t26.5 -16q7 -5 7 2v2q1 11 13 11h56
q12 0 11 -13l-24 -184q-1 -6 -1 -18q0 -34 16 -52t42 -18q36 0 60.5 36.5t32.5 96.5q3 23 3 43q0 67 -28 117t-78.5 77t-116.5 27q-72 0 -135 -37.5t-105 -104t-52 -150.5q-3 -24 -3 -46q0 -73 30 -125.5t79 -79.5t105 -27q75 0 135 42q5 3 8 3q6 0 9 -6l26 -42q2 -3 2 -8
t-5 -9q-36 -25 -84.5 -40t-104.5 -15q-80 0 -144 36.5t-100.5 104t-36.5 158.5q0 32 4 59q13 104 67 186.5t136.5 128.5t176.5 46q88 0 156 -36zM382.5 175q13.5 14 17.5 37l3 21l1 10l10 83l2 17q3 22 -7.5 36t-29.5 14t-33 -14t-17 -36l-3 -21q-6 -39 -6 -46l-8 -64
q-1 -24 9 -37.5t29 -13.5t32.5 14z" />
    <glyph glyph-name="A" unicode="A" horiz-adv-x="456" 
d="M325 11l-19 105q0 5 -6 5h-146q-6 0 -6 -5l-19 -105q-1 -11 -13 -11h-91q-14 0 -11 13l148 676q2 11 13 11h106q11 0 13 -11l148 -676v-4q0 -9 -11 -9h-93q-12 0 -13 11zM171 212h111q6 0 5 5l-58 316q-1 3 -3 3t-3 -3l-57 -316q-1 -5 5 -5z" />
    <glyph glyph-name="B" unicode="B" horiz-adv-x="462" 
d="M381.5 50q-53.5 -50 -139.5 -50h-176q-5 0 -8.5 3.5t-3.5 8.5v676q0 5 3.5 8.5t8.5 3.5h158q95 0 149 -48t54 -140q0 -103 -73 -147q-5 -3 -2 -6q39 -25 61 -67t22 -100q0 -92 -53.5 -142zM170 595v-186q0 -5 5 -5h51q41 0 64 25t23 71q0 48 -23 74t-64 26h-51
q-5 0 -5 -5zM296 129q23 28 23 79q0 52 -23 81.5t-63 29.5h-58q-5 0 -5 -5v-208q0 -5 5 -5h58q40 0 63 28z" />
    <glyph glyph-name="C" unicode="C" horiz-adv-x="457" 
d="M93.5 43.5q-51.5 51.5 -51.5 136.5v341q0 86 51.5 136.5t136.5 50.5q86 0 138 -50.5t52 -136.5v-12q0 -5 -3.5 -9t-8.5 -4l-93 -4q-12 0 -12 12v25q0 35 -20 57t-53 22q-32 0 -52 -22t-20 -57v-358q0 -35 20 -57t52 -22q33 0 53 22t20 57v25q0 5 3.5 8.5t8.5 3.5l93 -4
q5 0 8.5 -3.5t3.5 -8.5v-12q0 -85 -52 -136.5t-138 -51.5q-85 0 -136.5 51.5z" />
    <glyph glyph-name="D" unicode="D" horiz-adv-x="472" 
d="M57.5 3.5q-3.5 3.5 -3.5 8.5v676q0 5 3.5 8.5t8.5 3.5h171q86 0 137.5 -52t51.5 -139v-318q0 -87 -51.5 -139t-137.5 -52h-171q-5 0 -8.5 3.5zM175 100l60 1q33 0 53.5 26.5t21.5 70.5v304q0 45 -20.5 71.5t-55.5 26.5h-59q-5 0 -5 -5v-490q0 -5 5 -5z" />
    <glyph glyph-name="E" unicode="E" horiz-adv-x="435" 
d="M399.5 603.5q-3.5 -3.5 -8.5 -3.5h-216q-5 0 -5 -5v-189q0 -5 5 -5h128q5 0 8.5 -3.5t3.5 -8.5v-77q0 -5 -3.5 -8.5t-8.5 -3.5h-128q-5 0 -5 -5v-190q0 -5 5 -5h216q5 0 8.5 -3.5t3.5 -8.5v-76q0 -5 -3.5 -8.5t-8.5 -3.5h-325q-5 0 -8.5 3.5t-3.5 8.5v676q0 5 3.5 8.5
t8.5 3.5h325q5 0 8.5 -3.5t3.5 -8.5v-76q0 -5 -3.5 -8.5z" />
    <glyph glyph-name="F" unicode="F" horiz-adv-x="415" 
d="M398.5 603.5q-3.5 -3.5 -8.5 -3.5h-215q-5 0 -5 -5v-189q0 -5 5 -5h127q5 0 8.5 -3.5t3.5 -8.5v-77q0 -5 -3.5 -8.5t-8.5 -3.5h-127q-5 0 -5 -5v-283q0 -5 -3.5 -8.5t-8.5 -3.5h-92q-5 0 -8.5 3.5t-3.5 8.5v676q0 5 3.5 8.5t8.5 3.5h324q5 0 8.5 -3.5t3.5 -8.5v-76
q0 -5 -3.5 -8.5z" />
    <glyph glyph-name="G" unicode="G" horiz-adv-x="462" 
d="M93.5 41.5q-51.5 49.5 -51.5 131.5v354q0 82 51.5 131.5t136.5 49.5t137.5 -49.5t52.5 -132.5v-39q0 -5 -3.5 -8.5t-8.5 -3.5h-92q-5 0 -8.5 3.5t-3.5 8.5v41q0 36 -20.5 58t-53.5 22t-53 -22t-20 -58v-356q0 -36 20 -58t53 -22t53.5 22t20.5 58v96q0 5 -5 5h-61
q-5 0 -8.5 3.5t-3.5 8.5v73q0 5 3.5 8.5t8.5 3.5h170q5 0 8.5 -3.5t3.5 -8.5v-185q0 -82 -52.5 -131.5t-137.5 -49.5t-136.5 49.5z" />
    <glyph glyph-name="H" unicode="H" horiz-adv-x="477" 
d="M310.5 696.5q3.5 3.5 8.5 3.5h92q5 0 8.5 -3.5t3.5 -8.5v-676q0 -5 -3.5 -8.5t-8.5 -3.5h-92q-5 0 -8.5 3.5t-3.5 8.5v283q0 5 -5 5h-127q-5 0 -5 -5v-283q0 -5 -3.5 -8.5t-8.5 -3.5h-92q-5 0 -8.5 3.5t-3.5 8.5v676q0 5 3.5 8.5t8.5 3.5h92q5 0 8.5 -3.5t3.5 -8.5v-282
q0 -5 5 -5h127q5 0 5 5v282q0 5 3.5 8.5z" />
    <glyph glyph-name="I" unicode="I" horiz-adv-x="224" 
d="M57.5 3.5q-3.5 3.5 -3.5 8.5v676q0 5 3.5 8.5t8.5 3.5h92q5 0 8.5 -3.5t3.5 -8.5v-676q0 -5 -3.5 -8.5t-8.5 -3.5h-92q-5 0 -8.5 3.5z" />
    <glyph glyph-name="J" unicode="J" horiz-adv-x="443" 
d="M68 41.5q-51 49.5 -51 131.5v74q0 5 3.5 8.5t8.5 3.5h92q5 0 8.5 -3.5t3.5 -8.5v-76q0 -35 19 -57t50 -22t50.5 22t19.5 57v517q0 5 3.5 8.5t8.5 3.5h92q5 0 8.5 -3.5t3.5 -8.5v-515q0 -82 -51.5 -131.5t-134.5 -49.5t-134 49.5z" />
    <glyph glyph-name="K" unicode="K" horiz-adv-x="477" 
d="M57.5 3.5q-3.5 3.5 -3.5 8.5v676q0 5 3.5 8.5t8.5 3.5h92q5 0 8.5 -3.5t3.5 -8.5v-276q0 -4 2 -4.5t4 2.5l150 281q5 9 15 9h99q7 0 9 -4t-1 -10l-150 -281q-1 -4 -1 -6l162 -385q1 -2 1 -6q0 -8 -10 -8h-99q-11 0 -14 9l-118 289q-1 3 -3 2.5t-4 -2.5l-40 -67
q-2 -4 -2 -6v-213q0 -5 -3.5 -8.5t-8.5 -3.5h-92q-5 0 -8.5 3.5z" />
    <glyph glyph-name="L" unicode="L" horiz-adv-x="415" 
d="M57.5 3.5q-3.5 3.5 -3.5 8.5v676q0 5 3.5 8.5t8.5 3.5h92q5 0 8.5 -3.5t3.5 -8.5v-583q0 -5 5 -5h216q5 0 8.5 -3.5t3.5 -8.5v-76q0 -5 -3.5 -8.5t-8.5 -3.5h-325q-5 0 -8.5 3.5z" />
    <glyph glyph-name="M" unicode="M" horiz-adv-x="538" 
d="M383 700h92q5 0 8.5 -3.5t3.5 -8.5v-676q0 -5 -3.5 -8.5t-8.5 -3.5h-92q-5 0 -8.5 3.5t-3.5 8.5v472q0 4 -2 4t-4 -3l-87 -158q-5 -8 -9 -8t-9 8l-87 158q-2 3 -4 3t-2 -4v-472q0 -5 -3.5 -8.5t-8.5 -3.5h-92q-5 0 -8.5 3.5t-3.5 8.5v676q0 5 3.5 8.5t8.5 3.5h92
q10 0 15 -8l97 -171q3 -4 6 0l95 171q5 8 15 8z" />
    <glyph glyph-name="N" unicode="N" horiz-adv-x="507" 
d="M341.5 696.5q3.5 3.5 8.5 3.5h91q5 0 8.5 -3.5t3.5 -8.5v-676q0 -5 -3.5 -8.5t-8.5 -3.5h-105q-10 0 -13 10l-149 424q-1 3 -3.5 2.5t-2.5 -3.5l1 -421q0 -5 -3.5 -8.5t-8.5 -3.5h-91q-5 0 -8.5 3.5t-3.5 8.5v676q0 5 3.5 8.5t8.5 3.5h103q10 0 13 -10l150 -421
q1 -3 3.5 -2.5t2.5 3.5v418q0 5 3.5 8.5z" />
    <glyph glyph-name="O" unicode="O" horiz-adv-x="467" 
d="M94.5 44q-52.5 52 -52.5 138v336q0 86 52.5 138t138.5 52t139 -52t53 -138v-336q0 -86 -53 -138t-139 -52t-138.5 52zM288 115.5q21 23.5 21 61.5v346q0 38 -21 61.5t-55 23.5t-54.5 -23.5t-20.5 -61.5v-346q0 -38 20.5 -61.5t54.5 -23.5t55 23.5z" />
    <glyph glyph-name="P" unicode="P" horiz-adv-x="457" 
d="M346.5 675q40.5 -26 63 -73t22.5 -107q0 -90 -47.5 -145t-125.5 -55h-85q-5 0 -5 -5v-278q0 -5 -3.5 -8.5t-8.5 -3.5h-92q-5 0 -8.5 3.5t-3.5 8.5v677q0 5 3.5 8.5t8.5 3.5h188q53 0 93.5 -26zM293.5 414.5q22.5 28.5 22.5 77.5q0 50 -22.5 79.5t-59.5 29.5h-60
q-5 0 -5 -5v-205q0 -5 5 -5h60q37 0 59.5 28.5z" />
    <glyph glyph-name="Q" unicode="Q" horiz-adv-x="455" 
d="M362 654q51 -54 51 -141v-326q0 -69 -33 -118.5t-91 -67.5q-4 -1 -4 -5v-88q0 -5 -3.5 -8.5t-8.5 -3.5h-92q-5 0 -8.5 3.5t-3.5 8.5v88q0 4 -4 5q-57 19 -90 68t-33 118v326q0 87 51 141t134 54q84 0 135 -54zM297 525q0 37 -19.5 60t-50.5 23t-50 -23t-19 -60v-350
q0 -37 19 -60t50 -23t50.5 23t19.5 60v350z" />
    <glyph glyph-name="R" unicode="R" horiz-adv-x="461" 
d="M318 10l-85 287q-2 4 -5 4h-53q-5 0 -5 -5v-284q0 -5 -3.5 -8.5t-8.5 -3.5h-92q-5 0 -8.5 3.5t-3.5 8.5v676q0 5 3.5 8.5t8.5 3.5h188q53 0 93.5 -25.5t63 -72t22.5 -106.5q0 -62 -24 -107t-67 -68q-4 -1 -3 -6l98 -301q1 -2 1 -5q0 -9 -11 -9h-96q-10 0 -13 10zM170 595
v-199q0 -5 5 -5h61q36 0 58.5 28t22.5 76t-22.5 76.5t-58.5 28.5h-61q-5 0 -5 -5z" />
    <glyph glyph-name="S" unicode="S" horiz-adv-x="434" 
d="M85 42q-51 50 -51 131v26q0 5 3.5 8.5t8.5 3.5h91q5 0 8.5 -3.5t3.5 -8.5v-20q0 -39 19.5 -63t50.5 -24t51 22.5t20 59.5q0 26 -11 45t-31 36t-64 49q-50 36 -80.5 64t-51 67.5t-20.5 91.5q0 83 50 132t132 49q83 0 134 -51.5t51 -136.5v-24q0 -5 -3.5 -8.5t-8.5 -3.5
h-90q-5 0 -8.5 3.5t-3.5 8.5v26q0 39 -19.5 62.5t-51.5 23.5q-30 0 -49 -21.5t-19 -59.5q0 -36 20.5 -61t80.5 -69q61 -45 92 -73.5t48 -62.5t17 -81q0 -85 -51 -136.5t-134 -51.5t-134 50z" />
    <glyph glyph-name="T" unicode="T" horiz-adv-x="452" 
d="M421.5 696.5q3.5 -3.5 3.5 -8.5v-76q0 -5 -3.5 -8.5t-8.5 -3.5h-127q-5 0 -5 -5v-583q0 -5 -3.5 -8.5t-8.5 -3.5h-92q-5 0 -8.5 3.5t-3.5 8.5v583q0 5 -5 5h-120q-5 0 -8.5 3.5t-3.5 8.5v76q0 5 3.5 8.5t8.5 3.5h373q5 0 8.5 -3.5z" />
    <glyph glyph-name="U" unicode="U" horiz-adv-x="478" 
d="M101.5 47.5q-51.5 55.5 -51.5 146.5v494q0 5 3.5 8.5t8.5 3.5h92q5 0 8.5 -3.5t3.5 -8.5v-506q0 -40 20 -65t53 -25t53 25t20 65v506q0 5 3.5 8.5t8.5 3.5h92q5 0 8.5 -3.5t3.5 -8.5v-494q0 -91 -52 -146.5t-137 -55.5q-86 0 -137.5 55.5z" />
    <glyph glyph-name="V" unicode="V" horiz-adv-x="471" 
d="M171 11l-143 676l-1 4q0 9 11 9h101q12 0 13 -11l83 -481q1 -3 3 -3t3 3l81 481q1 11 13 11h98q13 0 10 -13l-144 -676q-2 -11 -13 -11h-102q-11 0 -13 11z" />
    <glyph glyph-name="W" unicode="W" horiz-adv-x="665" 
d="M157 11l-133 676l-1 4q0 9 11 9h96q12 0 13 -11l70 -417q1 -3 3 -3t3 3l63 417q1 11 13 11h80q12 0 13 -11l68 -417q1 -3 3 -3t3 3l63 417q1 11 13 11h93q13 0 11 -13l-127 -676q-1 -11 -13 -11h-85q-12 0 -13 11l-67 425q-1 4 -3 4t-3 -4l-62 -425q-1 -11 -13 -11h-86
q-12 0 -13 11z" />
    <glyph glyph-name="X" unicode="X" horiz-adv-x="460" 
d="M31 4q-2 4 0 10l137 333q1 3 0 6l-137 333q-1 2 -1 6q0 8 10 8h95q10 0 13 -10l80 -217q1 -3 3 -3t3 3l79 217q3 10 13 10h94q7 0 9 -4t0 -10l-137 -333q-1 -3 0 -6l137 -333q1 -2 1 -6q0 -8 -10 -8h-93q-11 0 -14 10l-79 216q-1 3 -3 3t-3 -3l-80 -216q-3 -10 -14 -10
h-94q-7 0 -9 4z" />
    <glyph glyph-name="Y" unicode="Y" horiz-adv-x="456" 
d="M173.5 4.5q-3.5 3.5 -3.5 8.5v273l-1 6l-139 394q-1 2 -1 5q0 9 11 9h96q11 0 14 -10l75 -257q1 -3 3 -3t3 3l75 257q3 10 14 10h96q6 0 9 -3.5t1 -10.5l-139 -394l-1 -6v-273q0 -5 -3.5 -8.5t-8.5 -3.5h-92q-5 0 -8.5 3.5z" />
    <glyph glyph-name="Z" unicode="Z" horiz-adv-x="406" 
d="M28.5 3.5q-3.5 3.5 -3.5 8.5v80q0 8 3 15l224 487q1 2 0 4t-3 2h-212q-5 0 -8.5 3.5t-3.5 8.5v76q0 5 3.5 8.5t8.5 3.5h328q5 0 8.5 -3.5t3.5 -8.5v-80q0 -7 -3 -15l-224 -487q-1 -2 0 -4t3 -2h212q5 0 8.5 -3.5t3.5 -8.5v-76q0 -5 -3.5 -8.5t-8.5 -3.5h-328
q-5 0 -8.5 3.5z" />
    <glyph glyph-name="bracketleft" unicode="[" horiz-adv-x="330" 
d="M30.5 -134.5q-3.5 3.5 -3.5 8.5v905q0 5 3.5 8.5t8.5 3.5h186q5 0 8.5 -3.5t3.5 -8.5v-76q0 -5 -3.5 -8.5t-8.5 -3.5h-77q-5 0 -5 -5v-718q0 -5 5 -5h77q5 0 8.5 -3.5t3.5 -8.5v-77q0 -5 -3.5 -8.5t-8.5 -3.5h-186q-5 0 -8.5 3.5z" />
    <glyph glyph-name="backslash" unicode="\" horiz-adv-x="386" 
d="M367 10q0 -10 -11 -10h-92q-10 0 -13 10l-205 676l-1 4q0 10 11 10h92q10 0 13 -10l205 -676z" />
    <glyph glyph-name="bracketright" unicode="]" horiz-adv-x="330" 
d="M298.5 -134.5q-3.5 -3.5 -8.5 -3.5h-185q-5 0 -8.5 3.5t-3.5 8.5v77q0 5 3.5 8.5t8.5 3.5h76q5 0 5 5v718q0 5 -5 5h-76q-5 0 -8.5 3.5t-3.5 8.5v76q0 5 3.5 8.5t8.5 3.5h185q5 0 8.5 -3.5t3.5 -8.5v-905q0 -5 -3.5 -8.5z" />
    <glyph glyph-name="asciicircum" unicode="^" horiz-adv-x="413" 
d="M32 304.5q-3 3.5 -1 10.5l123 375q3 10 13 10h78q10 0 13 -10l124 -375q1 -2 1 -5q0 -9 -11 -9h-74q-10 0 -13 10l-75 255q-1 3 -3 3.5t-3 -3.5l-76 -255q-3 -10 -13 -10h-74q-6 0 -9 3.5z" />
    <glyph glyph-name="underscore" unicode="_" horiz-adv-x="405" 
d="M20.5 3.5q-3.5 3.5 -3.5 8.5v65q0 5 3.5 8.5t8.5 3.5h347q5 0 8.5 -3.5t3.5 -8.5v-65q0 -5 -3.5 -8.5t-8.5 -3.5h-347q-5 0 -8.5 3.5z" />
    <glyph glyph-name="grave" unicode="`" horiz-adv-x="206" 
d="M183 583q0 -8 -11 -8h-58q-9 0 -14 8l-73 102q-3 5 -3 7q0 8 11 8h72q11 0 15 -8l59 -103z" />
    <glyph glyph-name="a" unicode="a" horiz-adv-x="434" 
d="M348 473q49 -46 49 -121v-340q0 -5 -3.5 -8.5t-8.5 -3.5h-92q-5 0 -8.5 3.5t-3.5 8.5v19q0 3 -2 4t-4 -2q-35 -41 -102 -41q-57 0 -100.5 32.5t-43.5 118.5q0 90 52.5 128t142.5 38h52q5 0 5 5v26q0 36 -18 57.5t-45 21.5q-21 0 -35 -13.5t-17 -36.5q-1 -12 -13 -12h-97
q-12 0 -11 12q5 68 53.5 109t121.5 41q79 0 128 -46zM258 107q23 19 23 53v57q0 5 -5 5h-52q-34 0 -55 -18.5t-21 -53.5q0 -31 16 -46.5t41 -15.5q30 0 53 19z" />
    <glyph glyph-name="b" unicode="b" horiz-adv-x="437" 
d="M361.5 476q37.5 -43 37.5 -119v-203q0 -74 -37 -118t-104 -44q-54 0 -90 35q-2 2 -4 1t-2 -4v-12q0 -5 -3.5 -8.5t-8.5 -3.5h-92q-5 0 -8.5 3.5t-3.5 8.5v676q0 5 3.5 8.5t8.5 3.5h92q5 0 8.5 -3.5t3.5 -8.5v-202q0 -3 2.5 -3.5t5.5 3.5q19 17 42.5 25t45.5 8
q66 0 103.5 -43zM267 399.5q-17 19.5 -45 19.5q-24 0 -40 -15.5t-20 -41.5v-213q4 -26 20 -41.5t40 -15.5q28 0 45 19.5t17 51.5v185q0 32 -17 51.5z" />
    <glyph glyph-name="c" unicode="c" horiz-adv-x="422" 
d="M85.5 36q-47.5 44 -47.5 119v202q0 73 47.5 117.5t129.5 44.5t130 -43.5t48 -110.5v-14q0 -5 -3.5 -8.5t-8.5 -3.5l-92 -4q-12 0 -12 12v10q0 25 -17.5 43.5t-44.5 18.5t-44 -20t-17 -51v-185q0 -31 17 -51t44 -20t44.5 18.5t17.5 44.5v10q0 5 3.5 8.5t8.5 3.5l92 -1
q5 0 8.5 -3.5t3.5 -8.5v-18q0 -69 -48 -111.5t-130 -42.5t-129.5 44z" />
    <glyph glyph-name="d" unicode="d" horiz-adv-x="437" 
d="M278.5 696.5q3.5 3.5 8.5 3.5h92q5 0 8.5 -3.5t3.5 -8.5v-676q0 -5 -3.5 -8.5t-8.5 -3.5h-92q-5 0 -8.5 3.5t-3.5 8.5v12q0 3 -2 4t-4 -1q-36 -35 -90 -35q-67 0 -104 44t-37 118v203q0 76 37.5 119t103.5 43q23 0 47 -8.5t43 -27.5q2 -2 4 -1t2 4v202q0 5 3.5 8.5z
M255 107.5q16 15.5 20 41.5v213q-4 26 -20 41.5t-40 15.5q-28 0 -45 -19.5t-17 -51.5v-185q0 -32 17 -51.5t45 -19.5q24 0 40 15.5z" />
    <glyph glyph-name="e" unicode="e" horiz-adv-x="426" 
d="M388.5 216.5q-3.5 -3.5 -8.5 -3.5h-221q-5 0 -5 -5v-45q0 -31 17 -51t44 -20q23 0 39.5 14.5t21.5 37.5q3 10 13 10l89 -4q5 0 8.5 -3.5t2.5 -9.5q-7 -70 -51 -107.5t-123 -37.5q-82 0 -129.5 43.5t-47.5 118.5v203q0 73 47.5 117.5t129.5 44.5t129.5 -44.5t47.5 -117.5
v-132q0 -5 -3.5 -8.5zM171 399q-17 -20 -17 -51v-45q0 -5 5 -5h113q5 0 5 5v45q0 32 -17 51.5t-45 19.5q-27 0 -44 -20z" />
    <glyph glyph-name="f" unicode="f" horiz-adv-x="291" 
d="M261.5 507.5q3.5 -3.5 3.5 -8.5v-59q0 -5 -3.5 -8.5t-8.5 -3.5h-62q-5 0 -5 -5v-411q0 -5 -3.5 -8.5t-8.5 -3.5h-91q-5 0 -8.5 3.5t-3.5 8.5v411q0 5 -5 5h-32q-5 0 -8.5 3.5t-3.5 8.5v59q0 5 3.5 8.5t8.5 3.5h32q5 0 5 5v25q0 90 41 127t131 36h8q5 0 8.5 -3.5t3.5 -8.5
l-2 -68q0 -5 -3.5 -8.5t-8.5 -3.5h-5q-30 -1 -44 -19.5t-14 -56.5v-20q0 -5 5 -5h62q5 0 8.5 -3.5z" />
    <glyph glyph-name="g" unicode="g" horiz-adv-x="431" 
d="M278.5 507.5q3.5 3.5 8.5 3.5h92q5 0 8.5 -3.5t3.5 -8.5v-480q0 -108 -49 -166.5t-175 -58.5q-22 0 -33 1q-12 1 -12 13v77q0 13 13 11q57 -1 87.5 14t41.5 44t11 76v11q0 3 -2 3.5t-4 -2.5q-33 -43 -94 -43q-67 0 -102 43.5t-35 118.5v196q0 77 35.5 119.5t101.5 42.5
q61 0 94 -43q2 -3 4 -2.5t2 3.5v22q0 5 3.5 8.5zM258.5 118.5q16.5 19.5 16.5 50.5v179q0 32 -16.5 51.5t-43.5 19.5t-44 -20t-17 -51v-179q0 -31 17 -50.5t44 -19.5t43.5 19.5z" />
    <glyph glyph-name="h" unicode="h" 
d="M363.5 475.5q33.5 -43.5 33.5 -123.5v-340q0 -5 -3.5 -8.5t-8.5 -3.5h-92q-5 0 -8.5 3.5t-3.5 8.5v331q0 36 -15 56t-43 20q-29 0 -45 -21t-16 -58v-328q0 -5 -3.5 -8.5t-8.5 -3.5h-92q-5 0 -8.5 3.5t-3.5 8.5v676q0 5 3.5 8.5t8.5 3.5h92q5 0 8.5 -3.5t3.5 -8.5v-209
q0 -3 2.5 -3.5t5.5 3.5q34 40 95 40q65 0 98.5 -43.5z" />
    <glyph glyph-name="i" unicode="i" horiz-adv-x="215" 
d="M56 601q-20 20 -20 51t20 51t51 20t50.5 -20t19.5 -51t-20 -51t-50 -20q-31 0 -51 20zM53.5 3.5q-3.5 3.5 -3.5 8.5v487q0 5 3.5 8.5t8.5 3.5h92q5 0 8.5 -3.5t3.5 -8.5v-487q0 -5 -3.5 -8.5t-8.5 -3.5h-92q-5 0 -8.5 3.5z" />
    <glyph glyph-name="j" unicode="j" horiz-adv-x="211" 
d="M53 601q-20 20 -20 51t20 51t51 20t50.5 -20t19.5 -51t-20 -51t-50 -20q-31 0 -51 20zM-47 -193v75q0 12 12 12q44 1 62.5 24t18.5 66v515q0 5 3.5 8.5t8.5 3.5h92q5 0 8.5 -3.5t3.5 -8.5v-515q0 -67 -13 -106.5t-56 -61.5t-128 -21q-12 0 -12 12z" />
    <glyph glyph-name="k" unicode="k" horiz-adv-x="433" 
d="M49.5 3.5q-3.5 3.5 -3.5 8.5v676q0 5 3.5 8.5t8.5 3.5h92q5 0 8.5 -3.5t3.5 -8.5v-356q0 -4 2 -4t4 3l109 172q4 8 14 8h96q7 0 9 -4.5t-2 -10.5l-104 -157q-2 -4 -1 -7l120 -318q1 -2 1 -5q0 -9 -11 -9h-95q-10 0 -13 10l-74 226q-1 3 -3 3.5t-3 -2.5l-47 -70
q-2 -4 -2 -6v-149q0 -5 -3.5 -8.5t-8.5 -3.5h-92q-5 0 -8.5 3.5z" />
    <glyph glyph-name="l" unicode="l" horiz-adv-x="199" 
d="M45.5 3.5q-3.5 3.5 -3.5 8.5v676q0 5 3.5 8.5t8.5 3.5h92q5 0 8.5 -3.5t3.5 -8.5v-676q0 -5 -3.5 -8.5t-8.5 -3.5h-92q-5 0 -8.5 3.5z" />
    <glyph glyph-name="m" unicode="m" horiz-adv-x="665" 
d="M589.5 473.5q33.5 -45.5 33.5 -126.5v-335q0 -5 -3.5 -8.5t-8.5 -3.5h-91q-5 0 -8.5 3.5t-3.5 8.5v327q0 38 -15 59t-41 21q-28 0 -44 -21t-16 -58v-328q0 -5 -3.5 -8.5t-8.5 -3.5h-91q-5 0 -8.5 3.5t-3.5 8.5v327q0 38 -15.5 59t-40.5 21q-28 0 -44 -21t-16 -58v-328
q0 -5 -3.5 -8.5t-8.5 -3.5h-91q-5 0 -8.5 3.5t-3.5 8.5v487q0 5 3.5 8.5t8.5 3.5h91q5 0 8.5 -3.5t3.5 -8.5v-16q0 -3 2 -4t4 2q20 20 45 29t49 9q74 0 109 -63q3 -4 9 3q20 32 50.5 46t61.5 14q65 0 98.5 -45.5z" />
    <glyph glyph-name="n" unicode="n" 
d="M363.5 475.5q33.5 -43.5 33.5 -123.5v-340q0 -5 -3.5 -8.5t-8.5 -3.5h-92q-5 0 -8.5 3.5t-3.5 8.5v331q0 36 -15 56t-43 20q-29 0 -45 -21t-16 -58v-328q0 -5 -3.5 -8.5t-8.5 -3.5h-92q-5 0 -8.5 3.5t-3.5 8.5v487q0 5 3.5 8.5t8.5 3.5h92q5 0 8.5 -3.5t3.5 -8.5v-20
q0 -3 2.5 -3.5t5.5 3.5q34 40 95 40q65 0 98.5 -43.5z" />
    <glyph glyph-name="o" unicode="o" horiz-adv-x="432" 
d="M85.5 36q-47.5 44 -47.5 119v201q0 74 48 118.5t130 44.5q83 0 131 -44.5t48 -118.5v-201q0 -75 -47.5 -119t-131.5 -44q-83 0 -130.5 44zM261.5 112.5q17.5 19.5 17.5 51.5v184q0 31 -17.5 51t-45.5 20t-45 -19.5t-17 -51.5v-184q0 -32 17 -51.5t45 -19.5t45.5 19.5z
" />
    <glyph glyph-name="p" unicode="p" horiz-adv-x="441" 
d="M366 475.5q37 -43.5 37 -118.5v-202q0 -77 -37 -120t-104 -43q-23 0 -47 8.5t-43 27.5q-2 2 -4 1t-2 -4v-202q0 -5 -3.5 -8.5t-8.5 -3.5h-92q-5 0 -8.5 3.5t-3.5 8.5v676q0 5 3.5 8.5t8.5 3.5h92q5 0 8.5 -3.5t3.5 -8.5v-12q0 -3 2.5 -3.5t5.5 3.5q35 32 88 32
q67 0 104 -43.5zM271 400q-17 20 -45 20q-27 0 -43.5 -20t-16.5 -52v-185q0 -32 16.5 -51.5t43.5 -19.5q28 0 45 19.5t17 51.5v185q0 32 -17 52z" />
    <glyph glyph-name="q" unicode="q" horiz-adv-x="441" 
d="M278.5 507.5q3.5 3.5 8.5 3.5h92q5 0 8.5 -3.5t3.5 -8.5v-676q0 -5 -3.5 -8.5t-8.5 -3.5h-92q-5 0 -8.5 3.5t-3.5 8.5v202q0 3 -2 4t-4 -1q-19 -19 -43 -27.5t-47 -8.5q-66 0 -103.5 43.5t-37.5 119.5v202q0 75 37 118.5t104 43.5q54 0 90 -35q2 -2 4 -1t2 4v12
q0 5 3.5 8.5zM255 107.5q16 15.5 20 41.5v213q-4 26 -20 42t-40 16q-28 0 -45 -20t-17 -52v-185q0 -32 17 -51.5t45 -19.5q24 0 40 15.5z" />
    <glyph glyph-name="r" unicode="r" horiz-adv-x="313" 
d="M297 507q8 -5 6 -15l-16 -93q-1 -12 -14 -7q-14 4 -26 4t-22 -3q-28 -4 -45.5 -31.5t-17.5 -65.5v-283q0 -5 -3.5 -8.5t-8.5 -3.5h-92q-5 0 -8.5 3.5t-3.5 8.5v486q0 5 3.5 8.5t8.5 3.5h92q5 0 8.5 -3.5t3.5 -8.5v-46q0 -4 2 -4.5t3 3.5q27 65 88 65q27 0 42 -10z" />
    <glyph glyph-name="s" unicode="s" horiz-adv-x="398" 
d="M77 32q-47 38 -47 103v7q0 5 3.5 8.5t8.5 3.5h86q5 0 8.5 -3.5t3.5 -8.5v-5q0 -24 18.5 -40t45.5 -16q26 0 41 15t15 38q0 20 -13 33.5t-28 20.5t-54 23q-57 22 -93.5 56t-36.5 101q0 70 44.5 109.5t120.5 39.5q78 0 123.5 -41.5t45.5 -111.5q0 -5 -3.5 -8.5t-8.5 -3.5
h-84q-5 0 -8.5 3.5t-3.5 8.5v6q0 24 -16.5 40t-41.5 16q-26 0 -41.5 -16.5t-15.5 -39.5q0 -19 12 -32t27 -20.5t50 -22.5q42 -17 70.5 -33.5t50 -47t21.5 -75.5q0 -67 -47 -106t-127 -39q-79 0 -126 38z" />
    <glyph glyph-name="t" unicode="t" horiz-adv-x="282" 
d="M256.5 432.5q-3.5 -3.5 -8.5 -3.5h-62q-5 0 -5 -5v-262q0 -35 13 -48.5t39 -12.5h7q5 0 8.5 -3.5t3.5 -8.5v-77q0 -5 -3.5 -8.5t-8.5 -3.5h-34q-68 0 -102.5 25t-34.5 94v305q0 5 -5 5h-35q-5 0 -8.5 3.5t-3.5 8.5v58q0 5 3.5 8.5t8.5 3.5h35q5 0 5 5v110q0 5 3.5 8.5
t8.5 3.5h88q5 0 8.5 -3.5t3.5 -8.5v-110q0 -5 5 -5h62q5 0 8.5 -3.5t3.5 -8.5v-58q0 -5 -3.5 -8.5z" />
    <glyph glyph-name="u" unicode="u" horiz-adv-x="438" 
d="M280.5 507.5q3.5 3.5 8.5 3.5h92q5 0 8.5 -3.5t3.5 -8.5v-487q0 -5 -3.5 -8.5t-8.5 -3.5h-92q-5 0 -8.5 3.5t-3.5 8.5v22q0 3 -2 4t-4 -2q-29 -43 -93 -43q-61 0 -98.5 36.5t-37.5 112.5v357q0 5 3.5 8.5t8.5 3.5h92q5 0 8.5 -3.5t3.5 -8.5v-332q0 -75 58 -75
q29 0 45 21.5t16 58.5v327q0 5 3.5 8.5z" />
    <glyph glyph-name="v" unicode="v" horiz-adv-x="415" 
d="M141 10l-122 489v4q0 9 11 9h102q12 0 13 -11l60 -311q1 -3 3 -3t3 3l59 311q1 11 13 11l102 -2q14 0 11 -13l-121 -487q-3 -10 -14 -10h-106q-11 0 -14 10z" />
    <glyph glyph-name="w" unicode="w" horiz-adv-x="592" 
d="M126 11l-107 488v4q0 9 11 9h88q12 0 13 -11l52 -311q1 -3 3 -3t3 3l55 311q1 11 13 11h78q12 0 13 -11l56 -312q1 -3 3 -3t3 3l53 312q1 11 13 11l87 -2q13 0 10 -13l-107 -486q-2 -11 -13 -11h-90q-12 0 -13 11l-53 292q-1 3 -3 3t-3 -3l-52 -292q-1 -11 -13 -11h-87
q-11 0 -13 11z" />
    <glyph glyph-name="x" unicode="x" horiz-adv-x="417" 
d="M19.5 3.5q-2.5 3.5 0.5 10.5l116 239q1 3 0 6l-116 238q-2 4 -2 6q0 8 11 8h100q10 0 14 -9l62 -136q3 -6 6 0l63 136q4 9 14 9h100q7 0 9.5 -3.5t-0.5 -10.5l-116 -238q-1 -3 0 -6l116 -239q2 -4 2 -6q0 -8 -11 -8h-100q-10 0 -14 9l-63 139q-3 6 -6 -1l-62 -138
q-4 -9 -14 -9h-100q-7 0 -9.5 3.5z" />
    <glyph glyph-name="y" unicode="y" horiz-adv-x="403" 
d="M36 -195.5q-2 3.5 -2 8.5v72q0 5 3 8.5t7 3.5q33 1 52 8.5t30.5 29t16.5 62.5l-1 6l-126 496v4q0 9 11 9h98q12 0 13 -11l61 -331q1 -3 3 -3t3 3l59 331q1 11 13 11l99 -2q14 0 11 -13l-134 -525q-19 -71 -40 -106t-59 -50t-109 -15h-5q-2 0 -4 3.5z" />
    <glyph glyph-name="z" unicode="z" horiz-adv-x="368" 
d="M27.5 3.5q-3.5 3.5 -3.5 8.5v85q0 8 4 15l172 288q3 6 -3 6h-157q-5 0 -8.5 3.5t-3.5 8.5v81q0 5 3.5 8.5t8.5 3.5h289q5 0 8.5 -3.5t3.5 -8.5v-85q0 -8 -4 -15l-177 -288q-3 -6 3 -6h171q5 0 8.5 -3.5t3.5 -8.5v-81q0 -5 -3.5 -8.5t-8.5 -3.5h-298q-5 0 -8.5 3.5z" />
    <glyph glyph-name="braceleft" unicode="{" horiz-adv-x="319" 
d="M122.5 -107.5q-29.5 30.5 -29.5 89.5v211q0 81 -55 90q-11 2 -11 12v69q0 11 11 13q55 9 55 88v206q0 59 29.5 89.5t85.5 30.5h71q5 0 8.5 -3.5t3.5 -8.5v-76q0 -5 -3.5 -8.5t-8.5 -3.5h-20q-23 0 -36.5 -18t-13.5 -49v-173q0 -91 -53 -118q-4 -3 0 -6q53 -29 53 -120
v-177q0 -32 13.5 -49.5t36.5 -17.5h20q5 0 8.5 -3.5t3.5 -8.5v-77q0 -5 -3.5 -8.5t-8.5 -3.5h-71q-56 0 -85.5 30.5z" />
    <glyph glyph-name="bar" unicode="|" horiz-adv-x="171" 
d="M30.5 -76.5q-3.5 3.5 -3.5 8.5v816q0 5 3.5 8.5t8.5 3.5h92q5 0 8.5 -3.5t3.5 -8.5v-816q0 -5 -3.5 -8.5t-8.5 -3.5h-92q-5 0 -8.5 3.5z" />
    <glyph glyph-name="braceright" unicode="}" horiz-adv-x="319" 
d="M39 -138q-5 0 -8.5 3.5t-3.5 8.5v77q0 5 3.5 8.5t8.5 3.5h20q24 0 37.5 17.5t13.5 49.5v177q0 91 52 120q5 3 0 6q-52 28 -52 118v173q0 31 -14 49t-37 18h-20q-5 0 -8.5 3.5t-3.5 8.5v76q0 5 3.5 8.5t8.5 3.5h72q56 0 85.5 -31t29.5 -89v-206q0 -79 54 -88q11 -2 11 -12
v-70q0 -10 -11 -12q-27 -5 -40.5 -27t-13.5 -63v-211q0 -58 -29.5 -89t-85.5 -31h-72z" />
    <glyph glyph-name="asciitilde" unicode="~" horiz-adv-x="480" 
d="M282.5 220q-18.5 7 -44.5 22q-25 15 -39 22t-31 7q-39 0 -67 -38q-7 -10 -16 -4l-49 30q-9 6 -6 16q16 43 51 70t77 27q22 0 40 -7t39 -19q27 -17 44 -24.5t37 -7.5q18 0 31 9.5t25 26.5q7 10 17 4l52 -33q10 -7 5 -16q-23 -41 -54 -66.5t-69 -25.5q-24 0 -42.5 7z" />
    <glyph glyph-name="uni00A0" unicode="&#xa0;" horiz-adv-x="200" 
 />
    <glyph glyph-name="exclamdown" unicode="&#xa1;" horiz-adv-x="269" 
d="M185 688q20 -20 20 -51t-19.5 -50.5t-50.5 -19.5t-51 19.5t-20 50.5t20 51t51 20q30 0 50 -20zM91.5 470.5q3.5 3.5 8.5 3.5h69q5 0 8.5 -3.5t3.5 -8.5l11 -440q0 -5 -3.5 -8.5t-8.5 -3.5h-92q-5 0 -8.5 3.5t-3.5 8.5l12 440q0 5 3.5 8.5z" />
    <glyph glyph-name="cent" unicode="&#xa2;" horiz-adv-x="422" 
d="M389.5 432.5q-3.5 -3.5 -8.5 -3.5l-92 -4q-12 0 -12 12v10q0 25 -17.5 43.5t-44.5 18.5t-44 -20t-17 -51v-185q0 -31 17 -51t44 -20t44.5 18.5t17.5 44.5v10q0 5 3.5 8.5t8.5 3.5l92 -1q5 0 8.5 -3.5t3.5 -8.5v-18q0 -58 -33.5 -97.5t-93.5 -51.5q-5 -2 -5 -6l3 -68
q0 -5 -3.5 -8.5t-8.5 -3.5h-74q-5 0 -8.5 3.5t-3.5 8.5l3 68q0 4 -5 6q-59 12 -92.5 54t-33.5 104v202q0 60 33.5 102t92.5 55q5 2 5 6l-3 68q0 5 3.5 8.5t8.5 3.5h74q5 0 8.5 -3.5t3.5 -8.5l-3 -68q0 -4 5 -6q59 -13 93 -53t34 -96v-14q0 -5 -3.5 -8.5z" />
    <glyph glyph-name="sterling" unicode="&#xa3;" horiz-adv-x="512" 
d="M212 102q1 -2 4 -2h259q5 0 8.5 -3.5t3.5 -8.5v-76q0 -5 -3.5 -8.5t-8.5 -3.5h-378q-5 0 -8.5 3.5t-3.5 8.5v79q0 8 7 15q32 32 32 103v81q0 5 -5 5h-53q-5 0 -8.5 3.5t-3.5 8.5v70q0 5 3.5 8.5t8.5 3.5h53q5 0 5 5v104q0 99 48.5 154.5t131.5 55.5q69 0 113.5 -39.5
t60.5 -114.5l1 -4q0 -8 -10 -10l-89 -11h-2q-10 0 -12 11q-14 68 -63 68q-64 0 -64 -105v-109q0 -5 5 -5h134q5 0 8.5 -3.5t3.5 -8.5v-70q0 -5 -3.5 -8.5t-8.5 -3.5h-134q-5 0 -5 -5v-80q0 -33 -7.5 -60t-18.5 -44q-2 -2 -1 -4z" />
    <glyph glyph-name="currency" unicode="&#xa4;" horiz-adv-x="547" 
d="M454 196q-1 -4 1 -7l64 -64q4 -4 4 -9q0 -4 -4 -8l-57 -50q-4 -4 -9 -4q-4 0 -8 4l-62 61q-2 3 -7 1q-47 -29 -106 -29q-56 0 -102 26q-4 2 -7 -1l-59 -58q-4 -4 -8 -4q-5 0 -9 4l-57 50q-4 4 -4 8q0 5 4 9l60 59q3 3 1 7q-33 50 -33 111q0 58 30 107q2 5 -1 7l-63 64
q-4 4 -4 9q0 4 4 8l56 49q4 4 9 4q4 0 8 -4l60 -60q3 -2 7 -1q49 29 108 29q62 0 111 -32q5 -1 7 1l63 63q4 4 9 4t8 -4l57 -49q4 -3 4 -8t-4 -9l-68 -68q-2 -2 -1 -7q27 -48 27 -103q0 -59 -29 -106zM190.5 222.5q33.5 -33.5 79.5 -33.5q47 0 80 33t33 80t-33.5 80.5
t-79.5 33.5q-47 0 -80 -33.5t-33 -80.5q0 -46 33.5 -79.5z" />
    <glyph glyph-name="yen" unicode="&#xa5;" horiz-adv-x="528" 
d="M459 696.5q3 -3.5 1 -10.5l-121 -343q-1 -6 4 -6h104q5 0 8.5 -3.5t3.5 -8.5v-42q0 -5 -3.5 -8.5t-8.5 -3.5h-122q-5 0 -5 -5v-47q0 -5 5 -5h122q5 0 8.5 -3.5t3.5 -8.5v-42q0 -5 -3.5 -8.5t-8.5 -3.5h-122q-5 0 -5 -5v-130q0 -5 -3.5 -8.5t-8.5 -3.5h-92q-5 0 -8.5 3.5
t-3.5 8.5v130q0 5 -5 5h-121q-5 0 -8.5 3.5t-3.5 8.5v42q0 5 3.5 8.5t8.5 3.5h121q5 0 5 5v47q0 5 -5 5h-121q-5 0 -8.5 3.5t-3.5 8.5v42q0 5 3.5 8.5t8.5 3.5h103q6 0 4 6l-121 343q-1 2 -1 5q0 9 11 9h96q11 0 14 -10l75 -257q1 -3 3 -3t3 3l75 257q3 10 14 10h96
q6 0 9 -3.5z" />
    <glyph glyph-name="brokenbar" unicode="&#xa6;" horiz-adv-x="171" 
d="M30.5 388.5q-3.5 3.5 -3.5 8.5v351q0 5 3.5 8.5t8.5 3.5h92q5 0 8.5 -3.5t3.5 -8.5v-351q0 -5 -3.5 -8.5t-8.5 -3.5h-92q-5 0 -8.5 3.5zM30.5 -76.5q-3.5 3.5 -3.5 8.5v347q0 5 3.5 8.5t8.5 3.5h92q5 0 8.5 -3.5t3.5 -8.5v-347q0 -5 -3.5 -8.5t-8.5 -3.5h-92
q-5 0 -8.5 3.5z" />
    <glyph glyph-name="section" unicode="&#xa7;" horiz-adv-x="419" 
d="M85.5 -159.5q-47.5 44.5 -47.5 117.5v15q0 5 3.5 8.5t8.5 3.5h92q5 0 8.5 -3.5t3.5 -8.5v-7q0 -31 16 -50.5t41 -19.5t41.5 19.5t16.5 48.5q0 25 -16 44t-36.5 32t-57.5 31q-44 23 -70 45t-40 55q-14 32 -14 76q0 52 27 92q21 33 54 50q6 4 1 7q-83 61 -83 149
q0 47 22 84t62 58t91 21q77 0 125 -46.5t48 -121.5v-11q0 -5 -3.5 -8.5t-8.5 -3.5h-92q-5 0 -8.5 3.5t-3.5 8.5v6q0 32 -16 52.5t-41 20.5q-26 0 -42 -20.5t-16 -50.5q0 -36 22 -58t71 -46t74.5 -40.5t43.5 -41.5q27 -39 27 -91q0 -51 -20 -88q-24 -46 -63 -63q-6 -4 0 -7
q38 -26 58.5 -60t20.5 -83q0 -73 -49 -118t-126 -45t-124.5 44.5zM263 203q10 22 10 49q0 33 -16 54q-8 11 -20 17.5t-26 6.5q-17 0 -29.5 -9.5t-19.5 -22.5q-10 -20 -10 -48q0 -29 10 -48q15 -31 50 -31t51 32z" />
    <glyph glyph-name="dieresis" unicode="&#xa8;" horiz-adv-x="346" 
d="M209 601q-20 20 -20 51t20 51t51 20t50.5 -20t19.5 -51t-20 -51t-50 -20q-31 0 -51 20zM37 601q-20 20 -20 51t20 51t51 20t50.5 -20t19.5 -51t-20 -51t-50 -20q-31 0 -51 20z" />
    <glyph glyph-name="copyright" unicode="&#xa9;" horiz-adv-x="807" 
d="M218.5 39q-82.5 47 -129.5 129.5t-47 183.5q0 100 47 181.5t129.5 128t184.5 46.5t184.5 -46.5t130 -128t47.5 -181.5q0 -101 -47.5 -183.5t-130 -129.5t-184.5 -47t-184.5 47zM553 96.5q67 38.5 105.5 106t38.5 149.5q0 81 -38.5 147.5t-105.5 104.5t-150 38t-150 -38
t-105.5 -104.5t-38.5 -147.5q0 -82 38 -149.5t105.5 -106t150.5 -38.5t150 38.5zM335.5 205q-25.5 25 -25.5 66v155q0 41 25.5 65.5t68.5 24.5t69.5 -24.5t26.5 -65.5v-1q0 -5 -3.5 -9t-8.5 -4l-38 -2q-12 0 -12 12v9q0 13 -9.5 22t-24.5 9q-14 0 -23 -9t-9 -22v-165
q0 -14 9 -22.5t23 -8.5q16 0 25 8.5t9 22.5v8q0 5 3.5 8.5t8.5 3.5l38 -2q5 0 8.5 -3.5t3.5 -8.5v-1q0 -41 -26.5 -66t-69.5 -25t-68.5 25z" />
    <glyph glyph-name="ordfeminine" unicode="&#xaa;" horiz-adv-x="286" 
d="M175 565q5 0 5 5v21q0 23 -10 37.5t-30 14.5q-13 0 -23.5 -7.5t-14.5 -20.5q-3 -10 -13 -10l-54 2q-5 0 -8.5 3.5t-2.5 9.5q4 40 36 64t78 24q54 0 86.5 -30t32.5 -80v-220q0 -5 -3.5 -8.5t-8.5 -3.5h-53q-12 0 -12 11v2q0 3 -2 4t-4 -2q-20 -20 -57 -20q-41 0 -71 22
t-30 79q0 58 33.5 80.5t93.5 22.5h32zM166 435q14 12 14 34v30q0 5 -5 5h-32q-23 0 -36.5 -11t-13.5 -32q0 -38 39 -38q20 0 34 12zM19.5 313.5q3.5 3.5 8.5 3.5h227q5 0 8.5 -3.5t3.5 -8.5v-39q0 -5 -3.5 -8.5t-8.5 -3.5h-227q-5 0 -8.5 3.5t-3.5 8.5v39q0 5 3.5 8.5z" />
    <glyph glyph-name="guillemotleft" unicode="&#xab;" horiz-adv-x="463" 
d="M247 115q0 -8 -11 -8h-80q-10 0 -15 8l-87 158q-2 6 -2 8q0 4 2 8l87 158q5 8 15 8h80q7 0 10 -4t-1 -10l-90 -157q-1 -3 0 -6l90 -157zM404 115q0 -8 -11 -8h-80q-10 0 -15 8l-87 158q-2 6 -2 8q0 4 2 8l87 158q5 8 15 8h80q7 0 10 -4t-1 -10l-90 -157q-1 -3 0 -6
l90 -157z" />
    <glyph glyph-name="logicalnot" unicode="&#xac;" 
d="M409.5 352.5q3.5 -3.5 3.5 -8.5v-69v-7h-1v-88q0 -5 -3.5 -8.5t-8.5 -3.5h-65q-5 0 -8.5 3.5t-3.5 8.5v83q0 5 -5 5h-279q-5 0 -8.5 3.5t-3.5 8.5v64q0 5 3.5 8.5t8.5 3.5h362q5 0 8.5 -3.5z" />
    <glyph glyph-name="uni00AD" unicode="&#xad;" horiz-adv-x="325" 
d="M30.5 254.5q-3.5 3.5 -3.5 8.5v76q0 5 3.5 8.5t8.5 3.5h247q5 0 8.5 -3.5t3.5 -8.5v-76q0 -5 -3.5 -8.5t-8.5 -3.5h-247q-5 0 -8.5 3.5z" />
    <glyph glyph-name="registered" unicode="&#xae;" horiz-adv-x="435" 
d="M320 685q46 -26 72.5 -70.5t26.5 -99.5q0 -57 -26.5 -103t-72.5 -72.5t-102 -26.5t-102 26.5t-72.5 72.5t-26.5 103q0 55 26.5 99.5t72.5 70.5t102 26t102 -26zM294 383.5q34 19.5 53.5 54t19.5 77.5q0 40 -19.5 73.5t-54 53t-75.5 19.5q-42 0 -76 -19.5t-53.5 -53
t-19.5 -73.5q0 -43 19.5 -77.5t53.5 -54t76 -19.5t76 19.5zM261 501q-3 -2 -2 -6l23 -59q1 -2 1 -5q0 -9 -11 -9h-19q-10 0 -13 10l-22 58q-2 4 -5 4h-6q-5 0 -5 -5v-55q0 -5 -3.5 -8.5t-8.5 -3.5h-17q-5 0 -8.5 3.5t-3.5 8.5v159q0 5 3.5 8.5t8.5 3.5h56q26 0 41.5 -16
t15.5 -41q0 -33 -25 -47zM202 565v-35q0 -5 5 -5h16q10 0 16 6.5t6 15.5q0 10 -6 16.5t-16 6.5h-16q-5 0 -5 -5z" />
    <glyph glyph-name="macron" unicode="&#xaf;" horiz-adv-x="391" 
d="M91.5 589.5q-3.5 3.5 -3.5 8.5v56q0 5 3.5 8.5t8.5 3.5h190q5 0 8.5 -3.5t3.5 -8.5v-56q0 -5 -3.5 -8.5t-8.5 -3.5h-190q-5 0 -8.5 3.5z" />
    <glyph glyph-name="degree" unicode="&#xb0;" horiz-adv-x="359" 
d="M97 500q-37 22 -58.5 60t-21.5 84q0 45 21.5 82.5t58.5 59.5t82 22t82.5 -22t59 -59.5t21.5 -82.5q0 -46 -21.5 -84t-59 -60t-82.5 -22t-82 22zM240 581q25 26 25 63t-25 63t-61 26t-61 -26t-25 -63t25 -63t61 -26t61 26z" />
    <glyph glyph-name="plusminus" unicode="&#xb1;" 
d="M409.5 415.5q3.5 -3.5 3.5 -8.5v-64q0 -5 -3.5 -8.5t-8.5 -3.5h-132q-5 0 -5 -5v-132q0 -5 -3.5 -8.5t-8.5 -3.5h-64q-5 0 -8.5 3.5t-3.5 8.5v132q0 5 -5 5h-132q-5 0 -8.5 3.5t-3.5 8.5v64q0 5 3.5 8.5t8.5 3.5h132q5 0 5 5v132q0 5 3.5 8.5t8.5 3.5h64q5 0 8.5 -3.5
t3.5 -8.5v-132q0 -5 5 -5h132q5 0 8.5 -3.5zM30.5 21.5q-3.5 3.5 -3.5 8.5v64q0 5 3.5 8.5t8.5 3.5h362q5 0 8.5 -3.5t3.5 -8.5v-64q0 -5 -3.5 -8.5t-8.5 -3.5h-362q-5 0 -8.5 3.5z" />
    <glyph glyph-name="uni00B2" unicode="&#xb2;" horiz-adv-x="258" 
d="M20.5 428.5q-3.5 3.5 -3.5 8.5v46q0 9 5 15l27 35q8 11 35 47t45 65q33 55 33 91q0 23 -10 35.5t-25 12.5t-24.5 -12.5t-9.5 -32.5v-19q0 -5 -3.5 -8.5t-8.5 -3.5h-53q-5 0 -8.5 3.5t-3.5 8.5v22q2 51 32.5 79.5t80.5 28.5t80 -29.5t30 -88.5q0 -30 -8 -56t-24 -55
q-14 -23 -67 -103l-15 -21q-2 -2 -1 -4t4 -2h107q5 0 8.5 -3.5t3.5 -8.5v-42q0 -5 -3.5 -8.5t-8.5 -3.5h-206q-5 0 -8.5 3.5z" />
    <glyph glyph-name="uni00B3" unicode="&#xb3;" horiz-adv-x="275" 
d="M250 557q0 -28 -5 -51q-5 -40 -33 -63t-72 -23q-48 0 -78.5 27t-33.5 71q-1 9 -1 27q0 12 12 12h52q12 0 12 -12q0 -10 1 -15q2 -21 11.5 -32.5t24.5 -11.5q26 0 34 33q5 25 5 46q0 22 -3 41q-8 37 -36 37q-8 0 -13 -4q-5 -3 -9 -3t-8 4l-25 27q-4 4 -4 9t3 8l72 89
q2 2 1 4t-4 2h-108q-5 0 -8.5 3.5t-3.5 8.5v42q0 5 3.5 8.5t8.5 3.5h190q5 0 8.5 -3.5t3.5 -8.5v-46q0 -8 -5 -15l-58 -76q-3 -5 1 -6q25 -7 41.5 -32t20.5 -57q3 -21 3 -44z" />
    <glyph glyph-name="acute" unicode="&#xb4;" horiz-adv-x="206" 
d="M24 579q-3 4 1 10l59 103q4 8 15 8h72q8 0 10 -4.5t-2 -10.5l-74 -103q-5 -7 -14 -7h-57q-7 0 -10 4z" />
    <glyph glyph-name="uni00B5" unicode="&#xb5;" horiz-adv-x="443" 
d="M284.5 507.5q3.5 3.5 8.5 3.5h92q5 0 8.5 -3.5t3.5 -8.5v-487q0 -5 -3.5 -8.5t-8.5 -3.5h-92q-5 0 -8.5 3.5t-3.5 8.5v22q0 3 -2 4t-4 -2q-29 -43 -93 -43h-15q-5 2 -5 -4v-177q0 -5 -3.5 -8.5t-8.5 -3.5h-92q-5 0 -8.5 3.5t-3.5 8.5v687q0 5 3.5 8.5t8.5 3.5h92
q5 0 8.5 -3.5t3.5 -8.5v-332q0 -75 58 -75q29 0 45 21.5t16 58.5v327q0 5 3.5 8.5z" />
    <glyph glyph-name="paragraph" unicode="&#xb6;" horiz-adv-x="498" 
d="M432 700q5 0 8.5 -3.5t3.5 -8.5v-876q0 -5 -3.5 -8.5t-8.5 -3.5h-73q-5 0 -8.5 3.5t-3.5 8.5v788q0 5 -5 5h-57q-5 0 -5 -5v-788q0 -5 -3.5 -8.5t-8.5 -3.5h-74q-5 0 -8.5 3.5t-3.5 8.5v435q0 4 -5 6q-70 13 -111 73t-41 149q0 64 23 115.5t65.5 80.5t98.5 29h220z" />
    <glyph glyph-name="periodcentered" unicode="&#xb7;" horiz-adv-x="215" 
d="M57 235q-20 20 -20 51t20 51t51 20t50.5 -20t19.5 -51t-20 -51t-50 -20q-31 0 -51 20z" />
    <glyph glyph-name="cedilla" unicode="&#xb8;" horiz-adv-x="140" 
d="M6 -169l5 36q1 11 14 9q17 -2 28.5 6.5t11.5 29.5q0 36 -39 73q-5 5 -5 9q0 2 3 4t7 2h49q9 0 15 -6q46 -45 46 -97q0 -47 -24.5 -66.5t-60.5 -19.5q-19 0 -41 6q-10 3 -9 14z" />
    <glyph glyph-name="uni00B9" unicode="&#xb9;" horiz-adv-x="153" 
d="M61 845h57q5 0 8.5 -3.5t3.5 -8.5v-396q0 -5 -3.5 -8.5t-8.5 -3.5h-53q-5 0 -8.5 3.5t-3.5 8.5v334q0 2 -1.5 4t-3.5 1l-19 -4h-3q-10 0 -10 11v33q0 10 9 14l21 11q10 4 15 4z" />
    <glyph glyph-name="ordmasculine" unicode="&#xba;" horiz-adv-x="290" 
d="M57 389q-32 29 -32 79v133q0 48 32 77.5t87 29.5t86.5 -29.5t31.5 -77.5v-133q0 -50 -31.5 -79t-86.5 -29t-87 29zM174 439.5q12 13.5 12 33.5v121q0 21 -12 34.5t-30 13.5t-30 -13.5t-12 -34.5v-121q0 -20 12 -33.5t30 -13.5t30 13.5zM22.5 258.5q-3.5 3.5 -3.5 8.5v39
q0 5 3.5 8.5t8.5 3.5h227q5 0 8.5 -3.5t3.5 -8.5v-39q0 -5 -3.5 -8.5t-8.5 -3.5h-227q-5 0 -8.5 3.5z" />
    <glyph glyph-name="guillemotright" unicode="&#xbb;" horiz-adv-x="463" 
d="M61 111q-3 4 1 10l89 157q2 3 0 6l-89 157l-2 6q0 8 11 8h79q10 0 15 -8l87 -158q2 -2 2 -8q0 -5 -2 -8l-87 -158q-5 -8 -15 -8h-79q-7 0 -10 4zM218 111q-3 4 1 10l89 157q2 3 0 6l-89 157l-2 6q0 8 11 8h79q10 0 15 -8l87 -158q2 -2 2 -8q0 -5 -2 -8l-87 -158
q-5 -8 -15 -8h-79q-7 0 -10 4z" />
    <glyph glyph-name="onequarter" unicode="&#xbc;" horiz-adv-x="697" 
d="M61 700h57q5 0 8.5 -3.5t3.5 -8.5v-396q0 -5 -3.5 -8.5t-8.5 -3.5h-53q-5 0 -8.5 3.5t-3.5 8.5v334q0 2 -1.5 4t-3.5 1l-19 -4h-3q-10 0 -10 11v33q0 10 9 14l21 11q10 4 15 4zM64.5 3.5q-2.5 3.5 1.5 10.5l414 678q4 8 14 8h59q7 0 9.5 -3.5t-1.5 -10.5l-415 -678
q-4 -8 -14 -8h-58q-7 0 -9.5 3.5zM684.5 173.5q3.5 -3.5 3.5 -8.5v-45q0 -5 -3.5 -8.5t-8.5 -3.5h-12q-5 0 -5 -5v-91q0 -5 -3.5 -8.5t-8.5 -3.5h-52q-5 0 -8.5 3.5t-3.5 8.5v91q0 5 -5 5h-138q-5 0 -8.5 3.5t-3.5 8.5v36q0 9 2 15l80 239q3 10 13 10h57q6 0 9 -3.5t1 -10.5
l-71 -223q-1 -6 4 -6h55q5 0 5 5v61q0 5 3.5 8.5t8.5 3.5h52q5 0 8.5 -3.5t3.5 -8.5v-61q0 -5 5 -5h12q5 0 8.5 -3.5z" />
    <glyph glyph-name="onehalf" unicode="&#xbd;" horiz-adv-x="682" 
d="M61 700h57q5 0 8.5 -3.5t3.5 -8.5v-396q0 -5 -3.5 -8.5t-8.5 -3.5h-53q-5 0 -8.5 3.5t-3.5 8.5v334q0 2 -1.5 4t-3.5 1l-19 -4h-3q-10 0 -10 11v33q0 10 9 14l21 11q10 4 15 4zM64.5 3.5q-2.5 3.5 1.5 10.5l414 678q4 8 14 8h59q7 0 9.5 -3.5t-1.5 -10.5l-415 -678
q-4 -8 -14 -8h-58q-7 0 -9.5 3.5zM443.5 3.5q-3.5 3.5 -3.5 8.5v46q0 9 5 15l27 35q8 11 35 47t45 65q33 55 33 91q0 23 -10 35.5t-25 12.5t-24.5 -12.5t-9.5 -32.5v-19q0 -5 -3.5 -8.5t-8.5 -3.5h-53q-5 0 -8.5 3.5t-3.5 8.5v22q2 51 32.5 79.5t80.5 28.5t80 -29.5
t30 -88.5q0 -30 -8 -56t-24 -55q-14 -23 -67 -103l-15 -21q-2 -2 -1 -4t4 -2h107q5 0 8.5 -3.5t3.5 -8.5v-42q0 -5 -3.5 -8.5t-8.5 -3.5h-206q-5 0 -8.5 3.5z" />
    <glyph glyph-name="threequarters" unicode="&#xbe;" horiz-adv-x="771" 
d="M250 411q0 -28 -5 -51q-5 -40 -33 -63t-72 -23q-48 0 -78.5 27t-33.5 71q-1 9 -1 27q0 12 12 12h52q12 0 12 -12q0 -10 1 -15q2 -21 11.5 -32.5t24.5 -11.5q26 0 34 33q5 25 5 46q0 22 -3 41q-8 37 -36 37q-8 0 -13 -4q-5 -3 -9 -3t-8 4l-25 27q-4 4 -4 9t3 8l72 89
q2 2 1 4t-4 2h-108q-5 0 -8.5 3.5t-3.5 8.5v42q0 5 3.5 8.5t8.5 3.5h190q5 0 8.5 -3.5t3.5 -8.5v-46q0 -8 -5 -15l-58 -76q-3 -5 1 -6q25 -7 41.5 -32t20.5 -57q3 -21 3 -44zM138.5 3.5q-2.5 3.5 1.5 10.5l414 678q4 8 14 8h59q7 0 9.5 -3.5t-1.5 -10.5l-415 -678
q-4 -8 -14 -8h-58q-7 0 -9.5 3.5zM758.5 173.5q3.5 -3.5 3.5 -8.5v-45q0 -5 -3.5 -8.5t-8.5 -3.5h-12q-5 0 -5 -5v-91q0 -5 -3.5 -8.5t-8.5 -3.5h-52q-5 0 -8.5 3.5t-3.5 8.5v91q0 5 -5 5h-138q-5 0 -8.5 3.5t-3.5 8.5v36q0 9 2 15l80 239q3 10 13 10h57q6 0 9 -3.5t1 -10.5
l-71 -223q-1 -6 4 -6h55q5 0 5 5v61q0 5 3.5 8.5t8.5 3.5h52q5 0 8.5 -3.5t3.5 -8.5v-61q0 -5 5 -5h12q5 0 8.5 -3.5z" />
    <glyph glyph-name="questiondown" unicode="&#xbf;" horiz-adv-x="413" 
d="M270.5 481q19.5 -20 19.5 -51t-19.5 -50.5t-50.5 -19.5t-51 19.5t-20 50.5t20 51t51 20t50.5 -20zM274.5 282.5q3.5 -3.5 3.5 -8.5v-41q0 -48 -19 -77t-56 -63q-32 -29 -48 -52.5t-16 -58.5q0 -39 18.5 -62.5t47.5 -23.5q33 0 52 24.5t19 64.5v21q0 11 12 11l92 -4
q5 0 8.5 -4t3.5 -9v-15q0 -57 -24 -101.5t-67 -69t-99 -24.5q-82 0 -131 51.5t-49 136.5q0 45 12 76.5t29 51.5t44 45q28 25 41.5 43.5t13.5 45.5v34q0 5 3.5 8.5t8.5 3.5h92q5 0 8.5 -3.5z" />
    <glyph glyph-name="Agrave" unicode="&#xc0;" horiz-adv-x="456" 
d="M325 11l-19 105q0 5 -6 5h-146q-6 0 -6 -5l-19 -105q-1 -11 -13 -11h-91q-14 0 -11 13l148 676q2 11 13 11h106q11 0 13 -11l148 -676v-4q0 -9 -11 -9h-93q-12 0 -13 11zM171 212h111q6 0 5 5l-58 316q-1 3 -3 3t-3 -3l-57 -316q-1 -5 5 -5zM265 772q0 -8 -11 -8h-58
q-9 0 -14 8l-73 102q-3 5 -3 7q0 8 11 8h72q11 0 15 -8l59 -103z" />
    <glyph glyph-name="Aacute" unicode="&#xc1;" horiz-adv-x="456" 
d="M325 11l-19 105q0 5 -6 5h-146q-6 0 -6 -5l-19 -105q-1 -11 -13 -11h-91q-14 0 -11 13l148 676q2 11 13 11h106q11 0 13 -11l148 -676v-4q0 -9 -11 -9h-93q-12 0 -13 11zM171 212h111q6 0 5 5l-58 316q-1 3 -3 3t-3 -3l-57 -316q-1 -5 5 -5zM172 768q-3 4 1 10l59 103
q4 8 15 8h72q8 0 10 -4.5t-2 -10.5l-74 -103q-5 -7 -14 -7h-57q-7 0 -10 4z" />
    <glyph glyph-name="Acircumflex" unicode="&#xc2;" horiz-adv-x="456" 
d="M325 11l-19 105q0 5 -6 5h-146q-6 0 -6 -5l-19 -105q-1 -11 -13 -11h-91q-14 0 -11 13l148 676q2 11 13 11h106q11 0 13 -11l148 -676v-4q0 -9 -11 -9h-93q-12 0 -13 11zM171 212h111q6 0 5 5l-58 316q-1 3 -3 3t-3 -3l-57 -316q-1 -5 5 -5zM95.5 767.5
q-2.5 3.5 1.5 10.5l63 103q4 8 14 8h103q9 0 14 -8l66 -103q2 -6 2 -7q0 -7 -10 -7h-70q-10 0 -15 8l-34 63q-3 5 -6 0l-35 -63q-5 -8 -15 -8h-69q-7 0 -9.5 3.5z" />
    <glyph glyph-name="Atilde" unicode="&#xc3;" horiz-adv-x="456" 
d="M325 11l-19 105q0 5 -6 5h-146q-6 0 -6 -5l-19 -105q-1 -11 -13 -11h-91q-14 0 -11 13l148 676q2 11 13 11h106q11 0 13 -11l148 -676v-4q0 -9 -11 -9h-93q-12 0 -13 11zM171 212h111q6 0 5 5l-58 316q-1 3 -3 3t-3 -3l-57 -316q-1 -5 5 -5zM268 787.5q-12 4.5 -29 14.5
q-7 4 -15 9t-14 7.5t-14 2.5q-23 0 -38 -23q-7 -10 -17 -4l-32 23q-9 6 -5 16q14 32 35.5 47.5t47.5 15.5q16 0 30 -6t32 -17q4 -2 12 -7.5t15.5 -8.5t15.5 -3q24 0 38 22q6 12 16 5l32 -22q5 -3 5 -10q0 -6 -4 -13q-17 -28 -40.5 -40.5t-45.5 -12.5q-13 0 -25 4.5z" />
    <glyph glyph-name="Adieresis" unicode="&#xc4;" horiz-adv-x="456" 
d="M325 11l-19 105q0 5 -6 5h-146q-6 0 -6 -5l-19 -105q-1 -11 -13 -11h-91q-14 0 -11 13l148 676q2 11 13 11h106q11 0 13 -11l148 -676v-4q0 -9 -11 -9h-93q-12 0 -13 11zM171 212h111q6 0 5 5l-58 316q-1 3 -3 3t-3 -3l-57 -316q-1 -5 5 -5zM263 790q-20 20 -20 51t20 51
t51 20t50.5 -20t19.5 -51t-20 -51t-50 -20q-31 0 -51 20zM91 790q-20 20 -20 51t20 51t51 20t50.5 -20t19.5 -51t-20 -51t-50 -20q-31 0 -51 20z" />
    <glyph glyph-name="Aring" unicode="&#xc5;" horiz-adv-x="456" 
d="M325 11l-19 105q0 5 -6 5h-146q-6 0 -6 -5l-19 -105q-1 -11 -13 -11h-91q-14 0 -11 13l148 676q2 11 13 11h106q11 0 13 -11l148 -676v-4q0 -9 -11 -9h-93q-12 0 -13 11zM171 212h111q6 0 5 5l-58 316q-1 3 -3 3t-3 -3l-57 -316q-1 -5 5 -5zM145 791.5q-34 34.5 -34 84.5
t34 84t84 34q49 0 83 -34t34 -84t-34 -84.5t-83 -34.5q-50 0 -84 34.5zM267 836.5q16 16.5 16 39.5q0 24 -16 40t-38 16q-23 0 -39 -16t-16 -40q0 -23 16 -39.5t39 -16.5q22 0 38 16.5z" />
    <glyph glyph-name="AE" unicode="&#xc6;" horiz-adv-x="735" 
d="M699.5 603.5q-3.5 -3.5 -8.5 -3.5h-215q-5 0 -5 -5v-189q0 -5 5 -5h127q5 0 8.5 -3.5t3.5 -8.5v-77q0 -5 -3.5 -8.5t-8.5 -3.5h-127q-5 0 -5 -5v-190q0 -5 5 -5h215q5 0 8.5 -3.5t3.5 -8.5v-76q0 -5 -3.5 -8.5t-8.5 -3.5h-325q-5 0 -8.5 3.5t-3.5 8.5v104q0 5 -5 5h-163
q-4 0 -6 -4l-43 -108q-3 -9 -14 -9h-97q-7 0 -9 4t0 10l286 677q4 9 14 9h374q5 0 8.5 -3.5t3.5 -8.5v-76q0 -5 -3.5 -8.5zM220.5 214q1.5 -2 3.5 -2h125q5 0 5 5l1 319q0 4 -2 4t-4 -3l-129 -319q-1 -2 0.5 -4z" />
    <glyph glyph-name="Ccedilla" unicode="&#xc7;" horiz-adv-x="457" 
d="M416.5 500q-3.5 -4 -8.5 -4l-93 -4q-12 0 -12 12v25q0 35 -20 57t-53 22q-32 0 -52 -22t-20 -57v-358q0 -35 20 -57t52 -22q33 0 53 22t20 57v25q0 5 3.5 8.5t8.5 3.5l93 -4q5 0 8.5 -3.5t3.5 -8.5v-12q0 -73 -39 -122t-106 -62q-6 -2 -2 -6q38 -44 38 -89
q0 -47 -24.5 -66.5t-60.5 -19.5q-20 0 -42 6q-9 3 -8 14l5 35q1 12 14 10q14 -2 24.5 4.5t14.5 23.5q1 3 1 9q0 35 -43 76l-5 3q-67 13 -106 61.5t-39 122.5v341q0 86 51.5 136.5t136.5 50.5q86 0 138 -50.5t52 -136.5v-12q0 -5 -3.5 -9z" />
    <glyph glyph-name="Egrave" unicode="&#xc8;" horiz-adv-x="435" 
d="M399.5 603.5q-3.5 -3.5 -8.5 -3.5h-216q-5 0 -5 -5v-189q0 -5 5 -5h128q5 0 8.5 -3.5t3.5 -8.5v-77q0 -5 -3.5 -8.5t-8.5 -3.5h-128q-5 0 -5 -5v-190q0 -5 5 -5h216q5 0 8.5 -3.5t3.5 -8.5v-76q0 -5 -3.5 -8.5t-8.5 -3.5h-325q-5 0 -8.5 3.5t-3.5 8.5v676q0 5 3.5 8.5
t8.5 3.5h325q5 0 8.5 -3.5t3.5 -8.5v-76q0 -5 -3.5 -8.5zM266 772q0 -8 -11 -8h-58q-9 0 -14 8l-73 102q-3 5 -3 7q0 8 11 8h72q11 0 15 -8l59 -103z" />
    <glyph glyph-name="Eacute" unicode="&#xc9;" horiz-adv-x="435" 
d="M399.5 603.5q-3.5 -3.5 -8.5 -3.5h-216q-5 0 -5 -5v-189q0 -5 5 -5h128q5 0 8.5 -3.5t3.5 -8.5v-77q0 -5 -3.5 -8.5t-8.5 -3.5h-128q-5 0 -5 -5v-190q0 -5 5 -5h216q5 0 8.5 -3.5t3.5 -8.5v-76q0 -5 -3.5 -8.5t-8.5 -3.5h-325q-5 0 -8.5 3.5t-3.5 8.5v676q0 5 3.5 8.5
t8.5 3.5h325q5 0 8.5 -3.5t3.5 -8.5v-76q0 -5 -3.5 -8.5zM173 768q-3 4 1 10l59 103q4 8 15 8h72q8 0 10 -4.5t-2 -10.5l-74 -103q-5 -7 -14 -7h-57q-7 0 -10 4z" />
    <glyph glyph-name="Ecircumflex" unicode="&#xca;" horiz-adv-x="435" 
d="M399.5 603.5q-3.5 -3.5 -8.5 -3.5h-216q-5 0 -5 -5v-189q0 -5 5 -5h128q5 0 8.5 -3.5t3.5 -8.5v-77q0 -5 -3.5 -8.5t-8.5 -3.5h-128q-5 0 -5 -5v-190q0 -5 5 -5h216q5 0 8.5 -3.5t3.5 -8.5v-76q0 -5 -3.5 -8.5t-8.5 -3.5h-325q-5 0 -8.5 3.5t-3.5 8.5v676q0 5 3.5 8.5
t8.5 3.5h325q5 0 8.5 -3.5t3.5 -8.5v-76q0 -5 -3.5 -8.5zM96.5 767.5q-2.5 3.5 1.5 10.5l63 103q4 8 14 8h103q9 0 14 -8l66 -103q2 -6 2 -7q0 -7 -10 -7h-70q-10 0 -15 8l-34 63q-3 5 -6 0l-35 -63q-5 -8 -15 -8h-69q-7 0 -9.5 3.5z" />
    <glyph glyph-name="Edieresis" unicode="&#xcb;" horiz-adv-x="435" 
d="M399.5 603.5q-3.5 -3.5 -8.5 -3.5h-216q-5 0 -5 -5v-189q0 -5 5 -5h128q5 0 8.5 -3.5t3.5 -8.5v-77q0 -5 -3.5 -8.5t-8.5 -3.5h-128q-5 0 -5 -5v-190q0 -5 5 -5h216q5 0 8.5 -3.5t3.5 -8.5v-76q0 -5 -3.5 -8.5t-8.5 -3.5h-325q-5 0 -8.5 3.5t-3.5 8.5v676q0 5 3.5 8.5
t8.5 3.5h325q5 0 8.5 -3.5t3.5 -8.5v-76q0 -5 -3.5 -8.5zM264 790q-20 20 -20 51t20 51t51 20t50.5 -20t19.5 -51t-20 -51t-50 -20q-31 0 -51 20zM92 790q-20 20 -20 51t20 51t51 20t50.5 -20t19.5 -51t-20 -51t-50 -20q-31 0 -51 20z" />
    <glyph glyph-name="Igrave" unicode="&#xcc;" horiz-adv-x="224" 
d="M57.5 3.5q-3.5 3.5 -3.5 8.5v676q0 5 3.5 8.5t8.5 3.5h92q5 0 8.5 -3.5t3.5 -8.5v-676q0 -5 -3.5 -8.5t-8.5 -3.5h-92q-5 0 -8.5 3.5zM149 772q0 -8 -11 -8h-58q-9 0 -14 8l-73 102q-3 5 -3 7q0 8 11 8h72q11 0 15 -8l59 -103z" />
    <glyph glyph-name="Iacute" unicode="&#xcd;" horiz-adv-x="224" 
d="M57.5 3.5q-3.5 3.5 -3.5 8.5v676q0 5 3.5 8.5t8.5 3.5h92q5 0 8.5 -3.5t3.5 -8.5v-676q0 -5 -3.5 -8.5t-8.5 -3.5h-92q-5 0 -8.5 3.5zM56 768q-3 4 1 10l59 103q4 8 15 8h72q8 0 10 -4.5t-2 -10.5l-74 -103q-5 -7 -14 -7h-57q-7 0 -10 4z" />
    <glyph glyph-name="Icircumflex" unicode="&#xce;" horiz-adv-x="224" 
d="M57.5 3.5q-3.5 3.5 -3.5 8.5v676q0 5 3.5 8.5t8.5 3.5h92q5 0 8.5 -3.5t3.5 -8.5v-676q0 -5 -3.5 -8.5t-8.5 -3.5h-92q-5 0 -8.5 3.5zM-20.5 767.5q-2.5 3.5 1.5 10.5l63 103q4 8 14 8h103q9 0 14 -8l66 -103q2 -6 2 -7q0 -7 -10 -7h-70q-10 0 -15 8l-34 63q-3 5 -6 0
l-35 -63q-5 -8 -15 -8h-69q-7 0 -9.5 3.5z" />
    <glyph glyph-name="Idieresis" unicode="&#xcf;" horiz-adv-x="224" 
d="M57.5 3.5q-3.5 3.5 -3.5 8.5v676q0 5 3.5 8.5t8.5 3.5h92q5 0 8.5 -3.5t3.5 -8.5v-676q0 -5 -3.5 -8.5t-8.5 -3.5h-92q-5 0 -8.5 3.5zM147 790q-20 20 -20 51t20 51t51 20t50.5 -20t19.5 -51t-20 -51t-50 -20q-31 0 -51 20zM-25 790q-20 20 -20 51t20 51t51 20t50.5 -20
t19.5 -51t-20 -51t-50 -20q-31 0 -51 20z" />
    <glyph glyph-name="Eth" unicode="&#xd0;" horiz-adv-x="507" 
d="M409.5 648q51.5 -52 51.5 -139v-318q0 -87 -51.5 -139t-137.5 -52h-171q-5 0 -8.5 3.5t-3.5 8.5v315q0 5 -5 5h-18q-5 0 -8.5 3.5t-3.5 8.5v44q0 5 3.5 8.5t8.5 3.5h18q5 0 5 5v283q0 5 3.5 8.5t8.5 3.5h171q86 0 137.5 -52zM345 502q0 45 -20.5 71.5t-55.5 26.5h-59
q-5 0 -5 -5v-190q0 -5 5 -5h50q5 0 8.5 -3.5t3.5 -8.5v-44q0 -5 -3.5 -8.5t-8.5 -3.5h-50q-5 0 -5 -5v-222q0 -5 5 -5l60 1q33 0 53.5 26.5t21.5 70.5v304z" />
    <glyph glyph-name="Ntilde" unicode="&#xd1;" horiz-adv-x="507" 
d="M341.5 696.5q3.5 3.5 8.5 3.5h91q5 0 8.5 -3.5t3.5 -8.5v-676q0 -5 -3.5 -8.5t-8.5 -3.5h-105q-10 0 -13 10l-149 424q-1 3 -3.5 2.5t-2.5 -3.5l1 -421q0 -5 -3.5 -8.5t-8.5 -3.5h-91q-5 0 -8.5 3.5t-3.5 8.5v676q0 5 3.5 8.5t8.5 3.5h103q10 0 13 -10l150 -421
q1 -3 3.5 -2.5t2.5 3.5v418q0 5 3.5 8.5zM292 791.5q-12 4.5 -29 14.5q-7 4 -15 9t-14 7.5t-14 2.5q-23 0 -38 -23q-7 -10 -17 -4l-32 23q-9 6 -5 16q14 32 35.5 47.5t47.5 15.5q16 0 30 -6t32 -17q4 -2 12 -7.5t15.5 -8.5t15.5 -3q24 0 38 22q6 12 16 5l32 -22q5 -3 5 -10
q0 -6 -4 -13q-17 -28 -40.5 -40.5t-45.5 -12.5q-13 0 -25 4.5z" />
    <glyph glyph-name="Ograve" unicode="&#xd2;" horiz-adv-x="467" 
d="M94.5 44q-52.5 52 -52.5 138v336q0 86 52.5 138t138.5 52t139 -52t53 -138v-336q0 -86 -53 -138t-139 -52t-138.5 52zM288 115.5q21 23.5 21 61.5v346q0 38 -21 61.5t-55 23.5t-54.5 -23.5t-20.5 -61.5v-346q0 -38 20.5 -61.5t54.5 -23.5t55 23.5zM270 771q0 -8 -11 -8
h-58q-9 0 -14 8l-73 102q-3 5 -3 7q0 8 11 8h72q11 0 15 -8l59 -103z" />
    <glyph glyph-name="Oacute" unicode="&#xd3;" horiz-adv-x="467" 
d="M94.5 44q-52.5 52 -52.5 138v336q0 86 52.5 138t138.5 52t139 -52t53 -138v-336q0 -86 -53 -138t-139 -52t-138.5 52zM288 115.5q21 23.5 21 61.5v346q0 38 -21 61.5t-55 23.5t-54.5 -23.5t-20.5 -61.5v-346q0 -38 20.5 -61.5t54.5 -23.5t55 23.5zM177 767q-3 4 1 10
l59 103q4 8 15 8h72q8 0 10 -4.5t-2 -10.5l-74 -103q-5 -7 -14 -7h-57q-7 0 -10 4z" />
    <glyph glyph-name="Ocircumflex" unicode="&#xd4;" horiz-adv-x="467" 
d="M94.5 44q-52.5 52 -52.5 138v336q0 86 52.5 138t138.5 52t139 -52t53 -138v-336q0 -86 -53 -138t-139 -52t-138.5 52zM288 115.5q21 23.5 21 61.5v346q0 38 -21 61.5t-55 23.5t-54.5 -23.5t-20.5 -61.5v-346q0 -38 20.5 -61.5t54.5 -23.5t55 23.5zM100.5 766.5
q-2.5 3.5 1.5 10.5l63 103q4 8 14 8h103q9 0 14 -8l66 -103q2 -6 2 -7q0 -7 -10 -7h-70q-10 0 -15 8l-34 63q-3 5 -6 0l-35 -63q-5 -8 -15 -8h-69q-7 0 -9.5 3.5z" />
    <glyph glyph-name="Otilde" unicode="&#xd5;" horiz-adv-x="467" 
d="M94.5 44q-52.5 52 -52.5 138v336q0 86 52.5 138t138.5 52t139 -52t53 -138v-336q0 -86 -53 -138t-139 -52t-138.5 52zM288 115.5q21 23.5 21 61.5v346q0 38 -21 61.5t-55 23.5t-54.5 -23.5t-20.5 -61.5v-346q0 -38 20.5 -61.5t54.5 -23.5t55 23.5zM273 786.5
q-12 4.5 -29 14.5q-7 4 -15 9t-14 7.5t-14 2.5q-23 0 -38 -23q-7 -10 -17 -4l-32 23q-9 6 -5 16q14 32 35.5 47.5t47.5 15.5q16 0 30 -6t32 -17q4 -2 12 -7.5t15.5 -8.5t15.5 -3q24 0 38 22q6 12 16 5l32 -22q5 -3 5 -10q0 -6 -4 -13q-17 -28 -40.5 -40.5t-45.5 -12.5
q-13 0 -25 4.5z" />
    <glyph glyph-name="Odieresis" unicode="&#xd6;" horiz-adv-x="467" 
d="M94.5 44q-52.5 52 -52.5 138v336q0 86 52.5 138t138.5 52t139 -52t53 -138v-336q0 -86 -53 -138t-139 -52t-138.5 52zM288 115.5q21 23.5 21 61.5v346q0 38 -21 61.5t-55 23.5t-54.5 -23.5t-20.5 -61.5v-346q0 -38 20.5 -61.5t54.5 -23.5t55 23.5zM268 789q-20 20 -20 51
t20 51t51 20t50.5 -20t19.5 -51t-20 -51t-50 -20q-31 0 -51 20zM96 789q-20 20 -20 51t20 51t51 20t50.5 -20t19.5 -51t-20 -51t-50 -20q-31 0 -51 20z" />
    <glyph glyph-name="multiply" unicode="&#xd7;" horiz-adv-x="389" 
d="M357 416q0 -5 -4 -9l-92 -92q-2 -2 -2 -4t2 -4l93 -93q4 -6 4 -8q0 -4 -5 -9l-46 -46q-4 -4 -8 -4q-2 0 -8 4l-93 93q-2 2 -4 2t-4 -2l-93 -93q-4 -4 -9 -4q-4 0 -8 4l-46 46q-4 6 -4 8q0 4 4 8l94 94q4 4 0 8l-93 92q-4 4 -4 9q0 4 4 8l46 46q4 4 8 4q5 0 8 -4l93 -93
q2 -2 4 -2t4 2l93 93q4 4 8 4q5 0 8 -4l46 -46q4 -4 4 -8z" />
    <glyph glyph-name="Oslash" unicode="&#xd8;" horiz-adv-x="597" 
d="M435 695l-31 -72q-1 -4 0 -6q23 -43 23 -99v-336q0 -86 -53 -138t-139 -52q-57 0 -100 23q-5 3 -7 -2l-23 -50q-4 -10 -16 -5l-51 26q-10 5 -5 16l34 77q1 4 0 6q-23 43 -23 99v336q0 86 52.5 138t138.5 52q59 0 101 -24q5 -3 7 2l23 50q2 5 6.5 7t9.5 -2l48 -30
q10 -6 5 -16zM160 295q0 -4 2 -4t4 3l127 281q2 4 -1 7q-21 26 -57 26q-34 0 -54.5 -23.5t-20.5 -61.5v-228zM311 405q0 4 -2 4t-4 -3l-127 -281q-2 -4 1 -7q21 -26 56 -26q34 0 55 23.5t21 61.5v228z" />
    <glyph glyph-name="Ugrave" unicode="&#xd9;" horiz-adv-x="478" 
d="M101.5 47.5q-51.5 55.5 -51.5 146.5v494q0 5 3.5 8.5t8.5 3.5h92q5 0 8.5 -3.5t3.5 -8.5v-506q0 -40 20 -65t53 -25t53 25t20 65v506q0 5 3.5 8.5t8.5 3.5h92q5 0 8.5 -3.5t3.5 -8.5v-494q0 -91 -52 -146.5t-137 -55.5q-86 0 -137.5 55.5zM276 772q0 -8 -11 -8h-58
q-9 0 -14 8l-73 102q-3 5 -3 7q0 8 11 8h72q11 0 15 -8l59 -103z" />
    <glyph glyph-name="Uacute" unicode="&#xda;" horiz-adv-x="478" 
d="M101.5 47.5q-51.5 55.5 -51.5 146.5v494q0 5 3.5 8.5t8.5 3.5h92q5 0 8.5 -3.5t3.5 -8.5v-506q0 -40 20 -65t53 -25t53 25t20 65v506q0 5 3.5 8.5t8.5 3.5h92q5 0 8.5 -3.5t3.5 -8.5v-494q0 -91 -52 -146.5t-137 -55.5q-86 0 -137.5 55.5zM183 768q-3 4 1 10l59 103
q4 8 15 8h72q8 0 10 -4.5t-2 -10.5l-74 -103q-5 -7 -14 -7h-57q-7 0 -10 4z" />
    <glyph glyph-name="Ucircumflex" unicode="&#xdb;" horiz-adv-x="478" 
d="M101.5 47.5q-51.5 55.5 -51.5 146.5v494q0 5 3.5 8.5t8.5 3.5h92q5 0 8.5 -3.5t3.5 -8.5v-506q0 -40 20 -65t53 -25t53 25t20 65v506q0 5 3.5 8.5t8.5 3.5h92q5 0 8.5 -3.5t3.5 -8.5v-494q0 -91 -52 -146.5t-137 -55.5q-86 0 -137.5 55.5zM106.5 767.5q-2.5 3.5 1.5 10.5
l63 103q4 8 14 8h103q9 0 14 -8l66 -103q2 -6 2 -7q0 -7 -10 -7h-70q-10 0 -15 8l-34 63q-3 5 -6 0l-35 -63q-5 -8 -15 -8h-69q-7 0 -9.5 3.5z" />
    <glyph glyph-name="Udieresis" unicode="&#xdc;" horiz-adv-x="478" 
d="M101.5 47.5q-51.5 55.5 -51.5 146.5v494q0 5 3.5 8.5t8.5 3.5h92q5 0 8.5 -3.5t3.5 -8.5v-506q0 -40 20 -65t53 -25t53 25t20 65v506q0 5 3.5 8.5t8.5 3.5h92q5 0 8.5 -3.5t3.5 -8.5v-494q0 -91 -52 -146.5t-137 -55.5q-86 0 -137.5 55.5zM274 790q-20 20 -20 51t20 51
t51 20t50.5 -20t19.5 -51t-20 -51t-50 -20q-31 0 -51 20zM102 790q-20 20 -20 51t20 51t51 20t50.5 -20t19.5 -51t-20 -51t-50 -20q-31 0 -51 20z" />
    <glyph glyph-name="Yacute" unicode="&#xdd;" horiz-adv-x="456" 
d="M173.5 4.5q-3.5 3.5 -3.5 8.5v273l-1 6l-139 394q-1 2 -1 5q0 9 11 9h96q11 0 14 -10l75 -257q1 -3 3 -3t3 3l75 257q3 10 14 10h96q6 0 9 -3.5t1 -10.5l-139 -394l-1 -6v-273q0 -5 -3.5 -8.5t-8.5 -3.5h-92q-5 0 -8.5 3.5zM172 768q-3 4 1 10l59 103q4 8 15 8h72
q8 0 10 -4.5t-2 -10.5l-74 -103q-5 -7 -14 -7h-57q-7 0 -10 4z" />
    <glyph glyph-name="Thorn" unicode="&#xde;" horiz-adv-x="457" 
d="M346 529q41 -26 63.5 -73t22.5 -108q0 -91 -48 -146t-126 -55h-84q-5 0 -5 -5v-130q0 -5 -3.5 -8.5t-8.5 -3.5h-92q-5 0 -8.5 3.5t-3.5 8.5v676q0 5 3.5 8.5t8.5 3.5h92q5 0 8.5 -3.5t3.5 -8.5v-128q0 -5 5 -5h79q52 0 93 -26zM293.5 268.5q22.5 28.5 22.5 77.5
q0 50 -22.5 79t-59.5 29h-60q-5 0 -5 -5v-204q0 -5 5 -5h60q37 0 59.5 28.5z" />
    <glyph glyph-name="germandbls" unicode="&#xdf;" horiz-adv-x="450" 
d="M49.5 4.5q-3.5 3.5 -3.5 8.5v480q0 103 46 159t129 56q84 0 132 -50.5t50 -136.5q0 -101 -65 -142q-6 -3 0 -6q35 -23 54.5 -67t19.5 -105q0 -95 -50.5 -148t-142.5 -53h-12q-5 0 -8.5 3.5t-3.5 8.5v75q0 5 3.5 8.5t8.5 3.5l12 1q38 0 59 29.5t21 83.5t-19 83.5t-52 31.5
h-14q-5 0 -8.5 3.5t-3.5 8.5v67q0 5 3.5 8.5t8.5 3.5h12q29 0 46 23.5t17 66.5q0 47 -18 73.5t-49 26.5q-29 0 -44.5 -25.5t-15.5 -72.5v-499q0 -5 -3.5 -8.5t-8.5 -3.5l-92 1q-5 0 -8.5 3.5z" />
    <glyph glyph-name="agrave" unicode="&#xe0;" horiz-adv-x="433" 
d="M348 473q49 -46 49 -121v-340q0 -5 -3.5 -8.5t-8.5 -3.5h-92q-5 0 -8.5 3.5t-3.5 8.5v19q0 3 -2 4t-4 -2q-35 -41 -102 -41q-57 0 -100.5 32.5t-43.5 118.5q0 90 52.5 128t142.5 38h52q5 0 5 5v26q0 36 -18 57.5t-45 21.5q-21 0 -35 -13.5t-17 -36.5q-1 -12 -13 -12h-97
q-12 0 -11 12q5 68 53.5 109t121.5 41q79 0 128 -46zM258 107q23 19 23 53v57q0 5 -5 5h-52q-34 0 -55 -18.5t-21 -53.5q0 -31 16 -46.5t41 -15.5q30 0 53 19zM253 583q0 -8 -11 -8h-58q-9 0 -14 8l-73 102q-3 5 -3 7q0 8 11 8h72q11 0 15 -8l59 -103z" />
    <glyph glyph-name="aacute" unicode="&#xe1;" horiz-adv-x="433" 
d="M348 473q49 -46 49 -121v-340q0 -5 -3.5 -8.5t-8.5 -3.5h-92q-5 0 -8.5 3.5t-3.5 8.5v19q0 3 -2 4t-4 -2q-35 -41 -102 -41q-57 0 -100.5 32.5t-43.5 118.5q0 90 52.5 128t142.5 38h52q5 0 5 5v26q0 36 -18 57.5t-45 21.5q-21 0 -35 -13.5t-17 -36.5q-1 -12 -13 -12h-97
q-12 0 -11 12q5 68 53.5 109t121.5 41q79 0 128 -46zM258 107q23 19 23 53v57q0 5 -5 5h-52q-34 0 -55 -18.5t-21 -53.5q0 -31 16 -46.5t41 -15.5q30 0 53 19zM161 579q-3 4 1 10l59 103q4 8 15 8h72q8 0 10 -4.5t-2 -10.5l-74 -103q-5 -7 -14 -7h-57q-7 0 -10 4z" />
    <glyph glyph-name="acircumflex" unicode="&#xe2;" horiz-adv-x="433" 
d="M348 473q49 -46 49 -121v-340q0 -5 -3.5 -8.5t-8.5 -3.5h-92q-5 0 -8.5 3.5t-3.5 8.5v19q0 3 -2 4t-4 -2q-35 -41 -102 -41q-57 0 -100.5 32.5t-43.5 118.5q0 90 52.5 128t142.5 38h52q5 0 5 5v26q0 36 -18 57.5t-45 21.5q-21 0 -35 -13.5t-17 -36.5q-1 -12 -13 -12h-97
q-12 0 -11 12q5 68 53.5 109t121.5 41q79 0 128 -46zM258 107q23 19 23 53v57q0 5 -5 5h-52q-34 0 -55 -18.5t-21 -53.5q0 -31 16 -46.5t41 -15.5q30 0 53 19zM83.5 578.5q-2.5 3.5 1.5 10.5l63 103q4 8 14 8h103q9 0 14 -8l66 -103q2 -6 2 -7q0 -7 -10 -7h-70q-10 0 -15 8
l-34 63q-3 5 -6 0l-35 -63q-5 -8 -15 -8h-69q-7 0 -9.5 3.5z" />
    <glyph glyph-name="atilde" unicode="&#xe3;" horiz-adv-x="433" 
d="M348 473q49 -46 49 -121v-340q0 -5 -3.5 -8.5t-8.5 -3.5h-92q-5 0 -8.5 3.5t-3.5 8.5v19q0 3 -2 4t-4 -2q-35 -41 -102 -41q-57 0 -100.5 32.5t-43.5 118.5q0 90 52.5 128t142.5 38h52q5 0 5 5v26q0 36 -18 57.5t-45 21.5q-21 0 -35 -13.5t-17 -36.5q-1 -12 -13 -12h-97
q-12 0 -11 12q5 68 53.5 109t121.5 41q79 0 128 -46zM258 107q23 19 23 53v57q0 5 -5 5h-52q-34 0 -55 -18.5t-21 -53.5q0 -31 16 -46.5t41 -15.5q30 0 53 19zM256 598.5q-12 4.5 -29 14.5q-7 4 -15 9t-14 7.5t-14 2.5q-23 0 -38 -23q-7 -10 -17 -4l-32 23q-9 6 -5 16
q14 32 35.5 47.5t47.5 15.5q16 0 30 -6t32 -17q4 -2 12 -7.5t15.5 -8.5t15.5 -3q24 0 38 22q6 12 16 5l32 -22q5 -3 5 -10q0 -6 -4 -13q-17 -28 -40.5 -40.5t-45.5 -12.5q-13 0 -25 4.5z" />
    <glyph glyph-name="adieresis" unicode="&#xe4;" horiz-adv-x="433" 
d="M348 473q49 -46 49 -121v-340q0 -5 -3.5 -8.5t-8.5 -3.5h-92q-5 0 -8.5 3.5t-3.5 8.5v19q0 3 -2 4t-4 -2q-35 -41 -102 -41q-57 0 -100.5 32.5t-43.5 118.5q0 90 52.5 128t142.5 38h52q5 0 5 5v26q0 36 -18 57.5t-45 21.5q-21 0 -35 -13.5t-17 -36.5q-1 -12 -13 -12h-97
q-12 0 -11 12q5 68 53.5 109t121.5 41q79 0 128 -46zM258 107q23 19 23 53v57q0 5 -5 5h-52q-34 0 -55 -18.5t-21 -53.5q0 -31 16 -46.5t41 -15.5q30 0 53 19zM252 601q-20 20 -20 51t20 51t51 20t50.5 -20t19.5 -51t-20 -51t-50 -20q-31 0 -51 20zM80 601q-20 20 -20 51
t20 51t51 20t50.5 -20t19.5 -51t-20 -51t-50 -20q-31 0 -51 20z" />
    <glyph glyph-name="aring" unicode="&#xe5;" horiz-adv-x="433" 
d="M348 473q49 -46 49 -121v-340q0 -5 -3.5 -8.5t-8.5 -3.5h-92q-5 0 -8.5 3.5t-3.5 8.5v19q0 3 -2 4t-4 -2q-35 -41 -102 -41q-57 0 -100.5 32.5t-43.5 118.5q0 90 52.5 128t142.5 38h52q5 0 5 5v26q0 36 -18 57.5t-45 21.5q-21 0 -35 -13.5t-17 -36.5q-1 -12 -13 -12h-97
q-12 0 -11 12q5 68 53.5 109t121.5 41q79 0 128 -46zM258 107q23 19 23 53v57q0 5 -5 5h-52q-34 0 -55 -18.5t-21 -53.5q0 -31 16 -46.5t41 -15.5q30 0 53 19zM133 602.5q-34 34.5 -34 84.5t34 84t84 34q49 0 83 -34t34 -84t-34 -84.5t-83 -34.5q-50 0 -84 34.5zM255 647.5
q16 16.5 16 39.5q0 24 -16 40t-38 16q-23 0 -39 -16t-16 -40q0 -23 16 -39.5t39 -16.5q22 0 38 16.5z" />
    <glyph glyph-name="ae" unicode="&#xe6;" horiz-adv-x="674" 
d="M29 142q0 87 48 122t137 35h60q5 0 5 5v36q0 36 -16.5 57.5t-46.5 21.5q-23 0 -40.5 -13.5t-21.5 -35.5q-1 -12 -13 -12l-92 3q-12 0 -12 12q4 67 54 106.5t122 39.5q40 0 68.5 -13.5t50.5 -41.5q4 -3 7 0q45 55 128 55q78 0 126 -45t48 -117v-134q0 -5 -3.5 -8.5
t-8.5 -3.5h-223q-5 0 -5 -5v-43q0 -28 17.5 -47t44.5 -19q22 0 37.5 14t22.5 34q5 11 14 10l90 -10q12 -2 11 -13q-8 -67 -51 -103.5t-115 -36.5q-50 0 -87 19t-48 44q-1 6 -3 3q-11 -28 -55 -47t-103 -19q-147 0 -147 150zM406 299h114q5 0 5 5v44q0 31 -17.5 51t-44.5 20
q-28 0 -45 -19.5t-17 -51.5v-44q0 -5 5 -5zM256.5 100q22.5 18 22.5 48v57q0 5 -5 5h-51q-35 0 -55.5 -17t-20.5 -49q0 -31 16 -46.5t42 -15.5q29 0 51.5 18z" />
    <glyph glyph-name="ccedilla" unicode="&#xe7;" horiz-adv-x="422" 
d="M389.5 342.5q-3.5 -3.5 -8.5 -3.5l-92 -4q-12 0 -12 12v10q0 25 -17.5 43.5t-44.5 18.5t-44 -20t-17 -51v-185q0 -31 17 -51t44 -20t44.5 18.5t17.5 44.5v10q0 5 3.5 8.5t8.5 3.5l92 -1q5 0 8.5 -3.5t3.5 -8.5v-18q0 -59 -35 -99t-97 -51q-6 -2 -2 -6q37 -41 37 -89
q0 -47 -24.5 -66.5t-60.5 -19.5q-20 0 -42 6q-9 3 -8 14l5 35q2 12 14 9q14 -2 24.5 5.5t14.5 23.5q1 3 1 9q0 35 -43 76l-5 3q-63 11 -98.5 53t-35.5 106v202q0 73 47.5 117.5t129.5 44.5t130 -43.5t48 -110.5v-14q0 -5 -3.5 -8.5z" />
    <glyph glyph-name="egrave" unicode="&#xe8;" horiz-adv-x="426" 
d="M388.5 216.5q-3.5 -3.5 -8.5 -3.5h-221q-5 0 -5 -5v-45q0 -31 17 -51t44 -20q23 0 39.5 14.5t21.5 37.5q3 10 13 10l89 -4q5 0 8.5 -3.5t2.5 -9.5q-7 -70 -51 -107.5t-123 -37.5q-82 0 -129.5 43.5t-47.5 118.5v203q0 73 47.5 117.5t129.5 44.5t129.5 -44.5t47.5 -117.5
v-132q0 -5 -3.5 -8.5zM171 399q-17 -20 -17 -51v-45q0 -5 5 -5h113q5 0 5 5v45q0 32 -17 51.5t-45 19.5q-27 0 -44 -20zM250 583q0 -8 -11 -8h-58q-9 0 -14 8l-73 102q-3 5 -3 7q0 8 11 8h72q11 0 15 -8l59 -103z" />
    <glyph glyph-name="eacute" unicode="&#xe9;" horiz-adv-x="426" 
d="M388.5 216.5q-3.5 -3.5 -8.5 -3.5h-221q-5 0 -5 -5v-45q0 -31 17 -51t44 -20q23 0 39.5 14.5t21.5 37.5q3 10 13 10l89 -4q5 0 8.5 -3.5t2.5 -9.5q-7 -70 -51 -107.5t-123 -37.5q-82 0 -129.5 43.5t-47.5 118.5v203q0 73 47.5 117.5t129.5 44.5t129.5 -44.5t47.5 -117.5
v-132q0 -5 -3.5 -8.5zM171 399q-17 -20 -17 -51v-45q0 -5 5 -5h113q5 0 5 5v45q0 32 -17 51.5t-45 19.5q-27 0 -44 -20zM157 579q-3 4 1 10l59 103q4 8 15 8h72q8 0 10 -4.5t-2 -10.5l-74 -103q-5 -7 -14 -7h-57q-7 0 -10 4z" />
    <glyph glyph-name="ecircumflex" unicode="&#xea;" horiz-adv-x="426" 
d="M388.5 216.5q-3.5 -3.5 -8.5 -3.5h-221q-5 0 -5 -5v-45q0 -31 17 -51t44 -20q23 0 39.5 14.5t21.5 37.5q3 10 13 10l89 -4q5 0 8.5 -3.5t2.5 -9.5q-7 -70 -51 -107.5t-123 -37.5q-82 0 -129.5 43.5t-47.5 118.5v203q0 73 47.5 117.5t129.5 44.5t129.5 -44.5t47.5 -117.5
v-132q0 -5 -3.5 -8.5zM171 399q-17 -20 -17 -51v-45q0 -5 5 -5h113q5 0 5 5v45q0 32 -17 51.5t-45 19.5q-27 0 -44 -20zM80.5 578.5q-2.5 3.5 1.5 10.5l63 103q4 8 14 8h103q9 0 14 -8l66 -103q2 -6 2 -7q0 -7 -10 -7h-70q-10 0 -15 8l-34 63q-3 5 -6 0l-35 -63
q-5 -8 -15 -8h-69q-7 0 -9.5 3.5z" />
    <glyph glyph-name="edieresis" unicode="&#xeb;" horiz-adv-x="426" 
d="M388.5 216.5q-3.5 -3.5 -8.5 -3.5h-221q-5 0 -5 -5v-45q0 -31 17 -51t44 -20q23 0 39.5 14.5t21.5 37.5q3 10 13 10l89 -4q5 0 8.5 -3.5t2.5 -9.5q-7 -70 -51 -107.5t-123 -37.5q-82 0 -129.5 43.5t-47.5 118.5v203q0 73 47.5 117.5t129.5 44.5t129.5 -44.5t47.5 -117.5
v-132q0 -5 -3.5 -8.5zM171 399q-17 -20 -17 -51v-45q0 -5 5 -5h113q5 0 5 5v45q0 32 -17 51.5t-45 19.5q-27 0 -44 -20zM248 601q-20 20 -20 51t20 51t51 20t50.5 -20t19.5 -51t-20 -51t-50 -20q-31 0 -51 20zM76 601q-20 20 -20 51t20 51t51 20t50.5 -20t19.5 -51t-20 -51
t-50 -20q-31 0 -51 20z" />
    <glyph glyph-name="igrave" unicode="&#xec;" horiz-adv-x="182" 
d="M36.5 3.5q-3.5 3.5 -3.5 8.5v487q0 5 3.5 8.5t8.5 3.5h92q5 0 8.5 -3.5t3.5 -8.5v-487q0 -5 -3.5 -8.5t-8.5 -3.5h-92q-5 0 -8.5 3.5zM128 583q0 -8 -11 -8h-58q-9 0 -14 8l-73 102q-3 5 -3 7q0 8 11 8h72q11 0 15 -8l59 -103z" />
    <glyph glyph-name="iacute" unicode="&#xed;" horiz-adv-x="182" 
d="M36.5 3.5q-3.5 3.5 -3.5 8.5v487q0 5 3.5 8.5t8.5 3.5h92q5 0 8.5 -3.5t3.5 -8.5v-487q0 -5 -3.5 -8.5t-8.5 -3.5h-92q-5 0 -8.5 3.5zM35 579q-3 4 1 10l59 103q4 8 15 8h72q8 0 10 -4.5t-2 -10.5l-74 -103q-5 -7 -14 -7h-57q-7 0 -10 4z" />
    <glyph glyph-name="icircumflex" unicode="&#xee;" horiz-adv-x="182" 
d="M36.5 3.5q-3.5 3.5 -3.5 8.5v487q0 5 3.5 8.5t8.5 3.5h92q5 0 8.5 -3.5t3.5 -8.5v-487q0 -5 -3.5 -8.5t-8.5 -3.5h-92q-5 0 -8.5 3.5zM-41.5 578.5q-2.5 3.5 1.5 10.5l63 103q4 8 14 8h103q9 0 14 -8l66 -103q2 -6 2 -7q0 -7 -10 -7h-70q-10 0 -15 8l-34 63q-3 5 -6 0
l-35 -63q-5 -8 -15 -8h-69q-7 0 -9.5 3.5z" />
    <glyph glyph-name="idieresis" unicode="&#xef;" horiz-adv-x="182" 
d="M36.5 3.5q-3.5 3.5 -3.5 8.5v487q0 5 3.5 8.5t8.5 3.5h92q5 0 8.5 -3.5t3.5 -8.5v-487q0 -5 -3.5 -8.5t-8.5 -3.5h-92q-5 0 -8.5 3.5zM126 601q-20 20 -20 51t20 51t51 20t50.5 -20t19.5 -51t-20 -51t-50 -20q-31 0 -51 20zM-46 601q-20 20 -20 51t20 51t51 20t50.5 -20
t19.5 -51t-20 -51t-50 -20q-31 0 -51 20z" />
    <glyph glyph-name="eth" unicode="&#xf0;" horiz-adv-x="443" 
d="M403 614q0 -8 -10 -11l-58 -16q-6 -2 -3 -6q29 -54 45.5 -114t17.5 -133v-179q0 -75 -47.5 -119t-131.5 -44q-83 0 -130.5 44t-47.5 119v179q0 47 21 84t57 58t81 21q43 0 68 -23q4 -4 3 1q-10 40 -33 82q-2 4 -6 3l-74 -19l-4 -1q-8 0 -11 10l-7 26l-1 4q0 8 10 11
l57 15q2 1 3 3t0 4q-36 52 -52 72q-4 6 -4 8q0 7 11 7h86q9 0 15 -7l25 -35l15 -20q1 -2 2.5 -3t3.5 0l76 21l4 1q8 0 11 -10l7 -29zM261.5 376q-17.5 20 -45.5 20t-45 -19.5t-17 -51.5v-162q0 -32 17 -51.5t45 -19.5t45.5 20t17.5 51v162q0 31 -17.5 51z" />
    <glyph glyph-name="ntilde" unicode="&#xf1;" 
d="M157 610q-7 -12 -17 -4l-29 22q-8 6 -5 16q12 32 32.5 47.5t45.5 15.5t56 -23q5 -3 12.5 -8t14 -8t13.5 -3q22 0 35 22q3 5 8 6.5t9 -2.5l28 -21q8 -7 4 -16q-14 -32 -37 -46t-46 -14q-12 0 -23 4.5t-27 14.5l-13.5 9t-13 7.5t-12.5 2.5q-21 0 -35 -22zM363.5 475.5
q33.5 -43.5 33.5 -123.5v-340q0 -5 -3.5 -8.5t-8.5 -3.5h-92q-5 0 -8.5 3.5t-3.5 8.5v331q0 36 -15 56t-43 20q-29 0 -45 -21t-16 -58v-328q0 -5 -3.5 -8.5t-8.5 -3.5h-92q-5 0 -8.5 3.5t-3.5 8.5v487q0 5 3.5 8.5t8.5 3.5h92q5 0 8.5 -3.5t3.5 -8.5v-20q0 -3 2.5 -3.5
t5.5 3.5q34 40 95 40q65 0 98.5 -43.5z" />
    <glyph glyph-name="ograve" unicode="&#xf2;" horiz-adv-x="432" 
d="M85.5 36q-47.5 44 -47.5 119v201q0 74 48 118.5t130 44.5q83 0 131 -44.5t48 -118.5v-201q0 -75 -47.5 -119t-131.5 -44q-83 0 -130.5 44zM261.5 112.5q17.5 19.5 17.5 51.5v184q0 31 -17.5 51t-45.5 20t-45 -19.5t-17 -51.5v-184q0 -32 17 -51.5t45 -19.5t45.5 19.5z
M253 583q0 -8 -11 -8h-58q-9 0 -14 8l-73 102q-3 5 -3 7q0 8 11 8h72q11 0 15 -8l59 -103z" />
    <glyph glyph-name="oacute" unicode="&#xf3;" horiz-adv-x="432" 
d="M85.5 36q-47.5 44 -47.5 119v201q0 74 48 118.5t130 44.5q83 0 131 -44.5t48 -118.5v-201q0 -75 -47.5 -119t-131.5 -44q-83 0 -130.5 44zM261.5 112.5q17.5 19.5 17.5 51.5v184q0 31 -17.5 51t-45.5 20t-45 -19.5t-17 -51.5v-184q0 -32 17 -51.5t45 -19.5t45.5 19.5z
M160 579q-3 4 1 10l59 103q4 8 15 8h72q8 0 10 -4.5t-2 -10.5l-74 -103q-5 -7 -14 -7h-57q-7 0 -10 4z" />
    <glyph glyph-name="ocircumflex" unicode="&#xf4;" horiz-adv-x="432" 
d="M85.5 36q-47.5 44 -47.5 119v201q0 74 48 118.5t130 44.5q83 0 131 -44.5t48 -118.5v-201q0 -75 -47.5 -119t-131.5 -44q-83 0 -130.5 44zM261.5 112.5q17.5 19.5 17.5 51.5v184q0 31 -17.5 51t-45.5 20t-45 -19.5t-17 -51.5v-184q0 -32 17 -51.5t45 -19.5t45.5 19.5z
M83.5 578.5q-2.5 3.5 1.5 10.5l63 103q4 8 14 8h103q9 0 14 -8l66 -103q2 -6 2 -7q0 -7 -10 -7h-70q-10 0 -15 8l-34 63q-3 5 -6 0l-35 -63q-5 -8 -15 -8h-69q-7 0 -9.5 3.5z" />
    <glyph glyph-name="otilde" unicode="&#xf5;" horiz-adv-x="432" 
d="M85.5 36q-47.5 44 -47.5 119v201q0 74 48 118.5t130 44.5q83 0 131 -44.5t48 -118.5v-201q0 -75 -47.5 -119t-131.5 -44q-83 0 -130.5 44zM261.5 112.5q17.5 19.5 17.5 51.5v184q0 31 -17.5 51t-45.5 20t-45 -19.5t-17 -51.5v-184q0 -32 17 -51.5t45 -19.5t45.5 19.5z
M256 598.5q-12 4.5 -29 14.5q-7 4 -15 9t-14 7.5t-14 2.5q-23 0 -38 -23q-7 -10 -17 -4l-32 23q-9 6 -5 16q14 32 35.5 47.5t47.5 15.5q16 0 30 -6t32 -17q4 -2 12 -7.5t15.5 -8.5t15.5 -3q24 0 38 22q6 12 16 5l32 -22q5 -3 5 -10q0 -6 -4 -13q-17 -28 -40.5 -40.5
t-45.5 -12.5q-13 0 -25 4.5z" />
    <glyph glyph-name="odieresis" unicode="&#xf6;" horiz-adv-x="432" 
d="M85.5 36q-47.5 44 -47.5 119v201q0 74 48 118.5t130 44.5q83 0 131 -44.5t48 -118.5v-201q0 -75 -47.5 -119t-131.5 -44q-83 0 -130.5 44zM261.5 112.5q17.5 19.5 17.5 51.5v184q0 31 -17.5 51t-45.5 20t-45 -19.5t-17 -51.5v-184q0 -32 17 -51.5t45 -19.5t45.5 19.5z
M251 601q-20 20 -20 51t20 51t51 20t50.5 -20t19.5 -51t-20 -51t-50 -20q-31 0 -51 20zM79 601q-20 20 -20 51t20 51t51 20t50.5 -20t19.5 -51t-20 -51t-50 -20q-31 0 -51 20z" />
    <glyph glyph-name="divide" unicode="&#xf7;" 
d="M175.5 435.5q-18.5 18.5 -18.5 44.5t18.5 44t44.5 18t44.5 -18.5t18.5 -43.5q0 -26 -18.5 -44.5t-44.5 -18.5t-44.5 18.5zM30.5 275.5q-3.5 3.5 -3.5 8.5v64q0 5 3.5 8.5t8.5 3.5h362q5 0 8.5 -3.5t3.5 -8.5v-64q0 -5 -3.5 -8.5t-8.5 -3.5h-362q-5 0 -8.5 3.5z
M175.5 112.5q-18.5 18.5 -18.5 44.5t18.5 44t44.5 18t44.5 -18.5t18.5 -43.5q0 -26 -18.5 -44.5t-44.5 -18.5t-44.5 18.5z" />
    <glyph glyph-name="oslash" unicode="&#xf8;" horiz-adv-x="462" 
d="M404 507l-29 -56q-1 -4 0 -7q23 -38 23 -88v-201q0 -75 -47.5 -119t-131.5 -44q-38 0 -68 9q-4 2 -6 -3l-21 -42q-2 -5 -7 -6.5t-10 1.5l-58 36q-9 6 -5 16l25 49q2 4 0 7q-28 38 -28 96v201q0 74 48 118.5t130 44.5q42 0 75 -12q5 0 6 3l23 45q2 5 7 6t10 -2l59 -36
q9 -6 5 -16zM159.5 234.5q2.5 -0.5 3.5 3.5l85 169q2 5 -2 6q-12 6 -27 6q-28 0 -45 -19.5t-17 -51.5v-109q0 -4 2.5 -4.5zM279.5 258.5q-2.5 0.5 -3.5 -3.5l-79 -153q-2 -5 3 -7q12 -2 19 -2q28 0 45.5 19.5t17.5 51.5v90q0 4 -2.5 4.5z" />
    <glyph glyph-name="ugrave" unicode="&#xf9;" 
d="M280.5 507.5q3.5 3.5 8.5 3.5h92q5 0 8.5 -3.5t3.5 -8.5v-487q0 -5 -3.5 -8.5t-8.5 -3.5h-92q-5 0 -8.5 3.5t-3.5 8.5v22q0 3 -2 4t-4 -2q-29 -43 -93 -43q-61 0 -98.5 36.5t-37.5 112.5v357q0 5 3.5 8.5t8.5 3.5h92q5 0 8.5 -3.5t3.5 -8.5v-332q0 -75 58 -75
q29 0 45 21.5t16 58.5v327q0 5 3.5 8.5zM253 583q0 -8 -11 -8h-58q-9 0 -14 8l-73 102q-3 5 -3 7q0 8 11 8h72q11 0 15 -8l59 -103z" />
    <glyph glyph-name="uacute" unicode="&#xfa;" 
d="M280.5 507.5q3.5 3.5 8.5 3.5h92q5 0 8.5 -3.5t3.5 -8.5v-487q0 -5 -3.5 -8.5t-8.5 -3.5h-92q-5 0 -8.5 3.5t-3.5 8.5v22q0 3 -2 4t-4 -2q-29 -43 -93 -43q-61 0 -98.5 36.5t-37.5 112.5v357q0 5 3.5 8.5t8.5 3.5h92q5 0 8.5 -3.5t3.5 -8.5v-332q0 -75 58 -75
q29 0 45 21.5t16 58.5v327q0 5 3.5 8.5zM160 579q-3 4 1 10l59 103q4 8 15 8h72q8 0 10 -4.5t-2 -10.5l-74 -103q-5 -7 -14 -7h-57q-7 0 -10 4z" />
    <glyph glyph-name="ucircumflex" unicode="&#xfb;" 
d="M280.5 507.5q3.5 3.5 8.5 3.5h92q5 0 8.5 -3.5t3.5 -8.5v-487q0 -5 -3.5 -8.5t-8.5 -3.5h-92q-5 0 -8.5 3.5t-3.5 8.5v22q0 3 -2 4t-4 -2q-29 -43 -93 -43q-61 0 -98.5 36.5t-37.5 112.5v357q0 5 3.5 8.5t8.5 3.5h92q5 0 8.5 -3.5t3.5 -8.5v-332q0 -75 58 -75
q29 0 45 21.5t16 58.5v327q0 5 3.5 8.5zM83.5 578.5q-2.5 3.5 1.5 10.5l63 103q4 8 14 8h103q9 0 14 -8l66 -103q2 -6 2 -7q0 -7 -10 -7h-70q-10 0 -15 8l-34 63q-3 5 -6 0l-35 -63q-5 -8 -15 -8h-69q-7 0 -9.5 3.5z" />
    <glyph glyph-name="udieresis" unicode="&#xfc;" 
d="M280.5 507.5q3.5 3.5 8.5 3.5h92q5 0 8.5 -3.5t3.5 -8.5v-487q0 -5 -3.5 -8.5t-8.5 -3.5h-92q-5 0 -8.5 3.5t-3.5 8.5v22q0 3 -2 4t-4 -2q-29 -43 -93 -43q-61 0 -98.5 36.5t-37.5 112.5v357q0 5 3.5 8.5t8.5 3.5h92q5 0 8.5 -3.5t3.5 -8.5v-332q0 -75 58 -75
q29 0 45 21.5t16 58.5v327q0 5 3.5 8.5zM252 601q-20 20 -20 51t20 51t51 20t50.5 -20t19.5 -51t-20 -51t-50 -20q-31 0 -51 20zM80 601q-20 20 -20 51t20 51t51 20t50.5 -20t19.5 -51t-20 -51t-50 -20q-31 0 -51 20z" />
    <glyph glyph-name="yacute" unicode="&#xfd;" horiz-adv-x="403" 
d="M36 -195.5q-2 3.5 -2 8.5v72q0 5 3 8.5t7 3.5q33 1 52 8.5t30.5 29t16.5 62.5l-1 6l-126 496v4q0 9 11 9h98q12 0 13 -11l61 -331q1 -3 3 -3t3 3l59 331q1 11 13 11l99 -2q14 0 11 -13l-134 -525q-19 -71 -40 -106t-59 -50t-109 -15h-5q-2 0 -4 3.5zM145 579q-3 4 1 10
l59 103q4 8 15 8h72q8 0 10 -4.5t-2 -10.5l-74 -103q-5 -7 -14 -7h-57q-7 0 -10 4z" />
    <glyph glyph-name="thorn" unicode="&#xfe;" horiz-adv-x="433" 
d="M361 476.5q35 -42.5 35 -119.5v-202q0 -76 -34.5 -119.5t-101.5 -43.5q-28 0 -53.5 12t-42.5 39q-2 3 -4 3t-2 -4v-230q0 -5 -3.5 -8.5t-8.5 -3.5h-92q-5 0 -8.5 3.5t-3.5 8.5v876q0 5 3.5 8.5t8.5 3.5h92q5 0 8.5 -3.5t3.5 -8.5v-220q0 -3 2 -3q3 0 6 5q32 49 94 49
q66 0 101 -42.5zM263 399q-17 20 -44 20t-44 -20t-17 -51v-185q0 -31 17 -51t44 -20t44 20t17 51v185q0 31 -17 51z" />
    <glyph glyph-name="ydieresis" unicode="&#xff;" horiz-adv-x="403" 
d="M36 -195.5q-2 3.5 -2 8.5v72q0 5 3 8.5t7 3.5q33 1 52 8.5t30.5 29t16.5 62.5l-1 6l-126 496v4q0 9 11 9h98q12 0 13 -11l61 -331q1 -3 3 -3t3 3l59 331q1 11 13 11l99 -2q14 0 11 -13l-134 -525q-19 -71 -40 -106t-59 -50t-109 -15h-5q-2 0 -4 3.5zM236 601
q-20 20 -20 51t20 51t51 20t50.5 -20t19.5 -51t-20 -51t-50 -20q-31 0 -51 20zM64 601q-20 20 -20 51t20 51t51 20t50.5 -20t19.5 -51t-20 -51t-50 -20q-31 0 -51 20z" />
    <glyph glyph-name="Amacron" unicode="&#x100;" horiz-adv-x="456" 
d="M325 11l-19 105q0 5 -6 5h-146q-6 0 -6 -5l-19 -105q-1 -11 -13 -11h-91q-14 0 -11 13l148 676q2 11 13 11h106q11 0 13 -11l148 -676v-4q0 -9 -11 -9h-93q-12 0 -13 11zM171 212h111q6 0 5 5l-58 316q-1 3 -3 3t-3 -3l-57 -316q-1 -5 5 -5zM121.5 778.5
q-3.5 3.5 -3.5 8.5v56q0 5 3.5 8.5t8.5 3.5h190q5 0 8.5 -3.5t3.5 -8.5v-56q0 -5 -3.5 -8.5t-8.5 -3.5h-190q-5 0 -8.5 3.5z" />
    <glyph glyph-name="amacron" unicode="&#x101;" horiz-adv-x="433" 
d="M348 473q49 -46 49 -121v-340q0 -5 -3.5 -8.5t-8.5 -3.5h-92q-5 0 -8.5 3.5t-3.5 8.5v19q0 3 -2 4t-4 -2q-35 -41 -102 -41q-57 0 -100.5 32.5t-43.5 118.5q0 90 52.5 128t142.5 38h52q5 0 5 5v26q0 36 -18 57.5t-45 21.5q-21 0 -35 -13.5t-17 -36.5q-1 -12 -13 -12h-97
q-12 0 -11 12q5 68 53.5 109t121.5 41q79 0 128 -46zM258 107q23 19 23 53v57q0 5 -5 5h-52q-34 0 -55 -18.5t-21 -53.5q0 -31 16 -46.5t41 -15.5q30 0 53 19zM110.5 589.5q-3.5 3.5 -3.5 8.5v56q0 5 3.5 8.5t8.5 3.5h190q5 0 8.5 -3.5t3.5 -8.5v-56q0 -5 -3.5 -8.5
t-8.5 -3.5h-190q-5 0 -8.5 3.5z" />
    <glyph glyph-name="Abreve" unicode="&#x102;" horiz-adv-x="456" 
d="M325 11l-19 105q0 5 -6 5h-146q-6 0 -6 -5l-19 -105q-1 -11 -13 -11h-91q-14 0 -11 13l148 676q2 11 13 11h106q11 0 13 -11l148 -676v-4q0 -9 -11 -9h-93q-12 0 -13 11zM171 212h111q6 0 5 5l-58 316q-1 3 -3 3t-3 -3l-57 -316q-1 -5 5 -5zM150 769q-31 28 -35 74v2
q0 10 11 10h39q12 0 13 -12q3 -22 17 -35.5t34 -13.5t34 13.5t17 35.5q2 12 13 12h39q13 0 11 -12q-4 -46 -35.5 -74t-78.5 -28q-48 0 -79 28z" />
    <glyph glyph-name="abreve" unicode="&#x103;" horiz-adv-x="433" 
d="M348 473q49 -46 49 -121v-340q0 -5 -3.5 -8.5t-8.5 -3.5h-92q-5 0 -8.5 3.5t-3.5 8.5v19q0 3 -2 4t-4 -2q-35 -41 -102 -41q-57 0 -100.5 32.5t-43.5 118.5q0 90 52.5 128t142.5 38h52q5 0 5 5v26q0 36 -18 57.5t-45 21.5q-21 0 -35 -13.5t-17 -36.5q-1 -12 -13 -12h-97
q-12 0 -11 12q5 68 53.5 109t121.5 41q79 0 128 -46zM258 107q23 19 23 53v57q0 5 -5 5h-52q-34 0 -55 -18.5t-21 -53.5q0 -31 16 -46.5t41 -15.5q30 0 53 19zM138 580q-31 28 -35 74v2q0 10 11 10h39q12 0 13 -12q3 -22 17 -35.5t34 -13.5t34 13.5t17 35.5q2 12 13 12h39
q13 0 11 -12q-4 -46 -35.5 -74t-78.5 -28q-48 0 -79 28z" />
    <glyph glyph-name="Aogonek" unicode="&#x104;" horiz-adv-x="456" 
d="M325 11l-19 105q0 5 -6 5h-146q-6 0 -6 -5l-19 -105q-1 -11 -13 -11h-91q-14 0 -11 13l148 676q2 11 13 11h106q11 0 13 -11l148 -676v-4q0 -9 -11 -9h-93q-12 0 -13 11zM171 212h111q6 0 5 5l-58 316q-1 3 -3 3t-3 -3l-57 -316q-1 -5 5 -5zM449 -173q0 -7 -8 -10
q-22 -6 -41 -6q-37 0 -61.5 19.5t-24.5 66.5q0 52 46 97q6 6 15 6h49q4 0 7 -2t3 -4q0 -4 -5 -9q-39 -39 -39 -73l1 -8q4 -16 14.5 -23t24.5 -5h3q10 0 11 -9l5 -36v-4z" />
    <glyph glyph-name="aogonek" unicode="&#x105;" horiz-adv-x="433" 
d="M384 -124q10 0 11 -10l5 -35v-3q0 -8 -9 -11q-22 -6 -41 -6q-35 0 -60 19.5t-25 65.5q0 53 45 98q3 2 2 4t-4 2h-15q-5 0 -8.5 3.5t-3.5 8.5v19q0 3 -2 4t-4 -2q-35 -41 -102 -41q-57 0 -100.5 32.5t-43.5 118.5q0 90 52.5 128t142.5 38h52q5 0 5 5v26q0 36 -18 57.5
t-45 21.5q-21 0 -35 -13.5t-17 -36.5q-1 -12 -13 -12h-97q-12 0 -11 12q5 68 53.5 109t121.5 41q79 0 128 -46t49 -121v-340l-1 -12h-1q-54 -47 -54 -86q0 -22 11.5 -31.5t28.5 -6.5h3zM258 107q23 19 23 53v57q0 5 -5 5h-52q-34 0 -55 -18.5t-21 -53.5q0 -31 16 -46.5
t41 -15.5q30 0 53 19z" />
    <glyph glyph-name="Cacute" unicode="&#x106;" horiz-adv-x="457" 
d="M93.5 43.5q-51.5 51.5 -51.5 136.5v341q0 86 51.5 136.5t136.5 50.5q86 0 138 -50.5t52 -136.5v-12q0 -5 -3.5 -9t-8.5 -4l-93 -4q-12 0 -12 12v25q0 35 -20 57t-53 22q-32 0 -52 -22t-20 -57v-358q0 -35 20 -57t52 -22q33 0 53 22t20 57v25q0 5 3.5 8.5t8.5 3.5l93 -4
q5 0 8.5 -3.5t3.5 -8.5v-12q0 -85 -52 -136.5t-138 -51.5q-85 0 -136.5 51.5zM174 768q-3 4 1 10l59 103q4 8 15 8h72q8 0 10 -4.5t-2 -10.5l-74 -103q-5 -7 -14 -7h-57q-7 0 -10 4z" />
    <glyph glyph-name="cacute" unicode="&#x107;" horiz-adv-x="422" 
d="M85.5 36q-47.5 44 -47.5 119v202q0 73 47.5 117.5t129.5 44.5t130 -43.5t48 -110.5v-14q0 -5 -3.5 -8.5t-8.5 -3.5l-92 -4q-12 0 -12 12v10q0 25 -17.5 43.5t-44.5 18.5t-44 -20t-17 -51v-185q0 -31 17 -51t44 -20t44.5 18.5t17.5 44.5v10q0 5 3.5 8.5t8.5 3.5l92 -1
q5 0 8.5 -3.5t3.5 -8.5v-18q0 -69 -48 -111.5t-130 -42.5t-129.5 44zM159 579q-3 4 1 10l59 103q4 8 15 8h72q8 0 10 -4.5t-2 -10.5l-74 -103q-5 -7 -14 -7h-57q-7 0 -10 4z" />
    <glyph glyph-name="Ccircumflex" unicode="&#x108;" horiz-adv-x="457" 
d="M93.5 43.5q-51.5 51.5 -51.5 136.5v341q0 86 51.5 136.5t136.5 50.5q86 0 138 -50.5t52 -136.5v-12q0 -5 -3.5 -9t-8.5 -4l-93 -4q-12 0 -12 12v25q0 35 -20 57t-53 22q-32 0 -52 -22t-20 -57v-358q0 -35 20 -57t52 -22q33 0 53 22t20 57v25q0 5 3.5 8.5t8.5 3.5l93 -4
q5 0 8.5 -3.5t3.5 -8.5v-12q0 -85 -52 -136.5t-138 -51.5q-85 0 -136.5 51.5zM97.5 767.5q-2.5 3.5 1.5 10.5l63 103q4 8 14 8h103q9 0 14 -8l66 -103q2 -6 2 -7q0 -7 -10 -7h-70q-10 0 -15 8l-34 63q-3 5 -6 0l-35 -63q-5 -8 -15 -8h-69q-7 0 -9.5 3.5z" />
    <glyph glyph-name="ccircumflex" unicode="&#x109;" horiz-adv-x="422" 
d="M85.5 36q-47.5 44 -47.5 119v202q0 73 47.5 117.5t129.5 44.5t130 -43.5t48 -110.5v-14q0 -5 -3.5 -8.5t-8.5 -3.5l-92 -4q-12 0 -12 12v10q0 25 -17.5 43.5t-44.5 18.5t-44 -20t-17 -51v-185q0 -31 17 -51t44 -20t44.5 18.5t17.5 44.5v10q0 5 3.5 8.5t8.5 3.5l92 -1
q5 0 8.5 -3.5t3.5 -8.5v-18q0 -69 -48 -111.5t-130 -42.5t-129.5 44zM82.5 578.5q-2.5 3.5 1.5 10.5l63 103q4 8 14 8h103q9 0 14 -8l66 -103q2 -6 2 -7q0 -7 -10 -7h-70q-10 0 -15 8l-34 63q-3 5 -6 0l-35 -63q-5 -8 -15 -8h-69q-7 0 -9.5 3.5z" />
    <glyph glyph-name="Cdotaccent" unicode="&#x10a;" horiz-adv-x="457" 
d="M93.5 43.5q-51.5 51.5 -51.5 136.5v341q0 86 51.5 136.5t136.5 50.5q86 0 138 -50.5t52 -136.5v-12q0 -5 -3.5 -9t-8.5 -4l-93 -4q-12 0 -12 12v25q0 35 -20 57t-53 22q-32 0 -52 -22t-20 -57v-358q0 -35 20 -57t52 -22q33 0 53 22t20 57v25q0 5 3.5 8.5t8.5 3.5l93 -4
q5 0 8.5 -3.5t3.5 -8.5v-12q0 -85 -52 -136.5t-138 -51.5q-85 0 -136.5 51.5zM180 790q-20 20 -20 51t20 51t51 20t50.5 -20t19.5 -51t-20 -51t-50 -20q-31 0 -51 20z" />
    <glyph glyph-name="cdotaccent" unicode="&#x10b;" horiz-adv-x="422" 
d="M85.5 36q-47.5 44 -47.5 119v202q0 73 47.5 117.5t129.5 44.5t130 -43.5t48 -110.5v-14q0 -5 -3.5 -8.5t-8.5 -3.5l-92 -4q-12 0 -12 12v10q0 25 -17.5 43.5t-44.5 18.5t-44 -20t-17 -51v-185q0 -31 17 -51t44 -20t44.5 18.5t17.5 44.5v10q0 5 3.5 8.5t8.5 3.5l92 -1
q5 0 8.5 -3.5t3.5 -8.5v-18q0 -69 -48 -111.5t-130 -42.5t-129.5 44zM165 601q-20 20 -20 51t20 51t51 20t50.5 -20t19.5 -51t-20 -51t-50 -20q-31 0 -51 20z" />
    <glyph glyph-name="Ccaron" unicode="&#x10c;" horiz-adv-x="457" 
d="M93.5 43.5q-51.5 51.5 -51.5 136.5v341q0 86 51.5 136.5t136.5 50.5q86 0 138 -50.5t52 -136.5v-12q0 -5 -3.5 -9t-8.5 -4l-93 -4q-12 0 -12 12v25q0 35 -20 57t-53 22q-32 0 -52 -22t-20 -57v-358q0 -35 20 -57t52 -22q33 0 53 22t20 57v25q0 5 3.5 8.5t8.5 3.5l93 -4
q5 0 8.5 -3.5t3.5 -8.5v-12q0 -85 -52 -136.5t-138 -51.5q-85 0 -136.5 51.5zM102 882q0 7 10 7h69q10 0 15 -8l35 -62q3 -4 6 0l34 62q5 8 15 8h70q7 0 9.5 -3.5t-1.5 -10.5l-66 -103q-5 -8 -14 -8h-103q-10 0 -14 8l-63 103q-2 6 -2 7z" />
    <glyph glyph-name="ccaron" unicode="&#x10d;" horiz-adv-x="422" 
d="M85.5 36q-47.5 44 -47.5 119v202q0 73 47.5 117.5t129.5 44.5t130 -43.5t48 -110.5v-14q0 -5 -3.5 -8.5t-8.5 -3.5l-92 -4q-12 0 -12 12v10q0 25 -17.5 43.5t-44.5 18.5t-44 -20t-17 -51v-185q0 -31 17 -51t44 -20t44.5 18.5t17.5 44.5v10q0 5 3.5 8.5t8.5 3.5l92 -1
q5 0 8.5 -3.5t3.5 -8.5v-18q0 -69 -48 -111.5t-130 -42.5t-129.5 44zM87 693q0 7 10 7h69q10 0 15 -8l35 -62q3 -4 6 0l34 62q5 8 15 8h70q7 0 9.5 -3.5t-1.5 -10.5l-66 -103q-5 -8 -14 -8h-103q-10 0 -14 8l-63 103q-2 6 -2 7z" />
    <glyph glyph-name="Dcaron" unicode="&#x10e;" horiz-adv-x="472" 
d="M57.5 3.5q-3.5 3.5 -3.5 8.5v676q0 5 3.5 8.5t8.5 3.5h171q86 0 137.5 -52t51.5 -139v-318q0 -87 -51.5 -139t-137.5 -52h-171q-5 0 -8.5 3.5zM175 100l60 1q33 0 53.5 26.5t21.5 70.5v304q0 45 -20.5 71.5t-55.5 26.5h-59q-5 0 -5 -5v-490q0 -5 5 -5zM101 880q0 7 10 7
h69q10 0 15 -8l35 -62q3 -4 6 0l34 62q5 8 15 8h70q7 0 9.5 -3.5t-1.5 -10.5l-66 -103q-5 -8 -14 -8h-103q-10 0 -14 8l-63 103q-2 6 -2 7z" />
    <glyph glyph-name="dcaron" unicode="&#x10f;" horiz-adv-x="437" 
d="M278.5 696.5q3.5 3.5 8.5 3.5h92q5 0 8.5 -3.5t3.5 -8.5v-676q0 -5 -3.5 -8.5t-8.5 -3.5h-92q-5 0 -8.5 3.5t-3.5 8.5v12q0 3 -2 4t-4 -1q-36 -35 -90 -35q-67 0 -104 44t-37 118v203q0 76 37.5 119t103.5 43q23 0 47 -8.5t43 -27.5q2 -2 4 -1t2 4v202q0 5 3.5 8.5z
M255 107.5q16 15.5 20 41.5v213q-4 26 -20 41.5t-40 15.5q-28 0 -45 -19.5t-17 -51.5v-185q0 -32 17 -51.5t45 -19.5q24 0 40 15.5zM440 579q-3 4 1 10l59 103q4 8 15 8h72q8 0 10 -4.5t-2 -10.5l-74 -103q-5 -7 -14 -7h-57q-7 0 -10 4z" />
    <glyph glyph-name="Dcroat" unicode="&#x110;" horiz-adv-x="507" 
d="M409.5 648q51.5 -52 51.5 -139v-318q0 -87 -51.5 -139t-137.5 -52h-171q-5 0 -8.5 3.5t-3.5 8.5v315q0 5 -5 5h-18q-5 0 -8.5 3.5t-3.5 8.5v44q0 5 3.5 8.5t8.5 3.5h18q5 0 5 5v283q0 5 3.5 8.5t8.5 3.5h171q86 0 137.5 -52zM345 502q0 45 -20.5 71.5t-55.5 26.5h-59
q-5 0 -5 -5v-190q0 -5 5 -5h50q5 0 8.5 -3.5t3.5 -8.5v-44q0 -5 -3.5 -8.5t-8.5 -3.5h-50q-5 0 -5 -5v-222q0 -5 5 -5l60 1q33 0 53.5 26.5t21.5 70.5v304z" />
    <glyph glyph-name="dcroat" unicode="&#x111;" horiz-adv-x="437" 
d="M430.5 627.5q3.5 -3.5 3.5 -8.5v-47q0 -5 -3.5 -8.5t-8.5 -3.5h-26q-5 0 -5 -5v-543q0 -5 -3.5 -8.5t-8.5 -3.5h-92q-5 0 -8.5 3.5t-3.5 8.5v12q0 3 -2 4t-4 -1q-36 -35 -90 -35q-67 0 -104 44t-37 118v203q0 76 37.5 119t103.5 43q23 0 47 -8.5t43 -27.5q2 -2 4 -1t2 4
v69q0 5 -5 5h-103q-5 0 -8.5 3.5t-3.5 8.5v47q0 5 3.5 8.5t8.5 3.5h103q5 0 5 5v52q0 5 3.5 8.5t8.5 3.5h92q5 0 8.5 -3.5t3.5 -8.5v-52q0 -5 5 -5h26q5 0 8.5 -3.5zM255 107.5q16 15.5 20 41.5v213q-4 26 -20 41.5t-40 15.5q-28 0 -45 -19.5t-17 -51.5v-185q0 -32 17 -51.5
t45 -19.5q24 0 40 15.5z" />
    <glyph glyph-name="Emacron" unicode="&#x112;" horiz-adv-x="435" 
d="M399.5 603.5q-3.5 -3.5 -8.5 -3.5h-216q-5 0 -5 -5v-189q0 -5 5 -5h128q5 0 8.5 -3.5t3.5 -8.5v-77q0 -5 -3.5 -8.5t-8.5 -3.5h-128q-5 0 -5 -5v-190q0 -5 5 -5h216q5 0 8.5 -3.5t3.5 -8.5v-76q0 -5 -3.5 -8.5t-8.5 -3.5h-325q-5 0 -8.5 3.5t-3.5 8.5v676q0 5 3.5 8.5
t8.5 3.5h325q5 0 8.5 -3.5t3.5 -8.5v-76q0 -5 -3.5 -8.5zM122.5 778.5q-3.5 3.5 -3.5 8.5v56q0 5 3.5 8.5t8.5 3.5h190q5 0 8.5 -3.5t3.5 -8.5v-56q0 -5 -3.5 -8.5t-8.5 -3.5h-190q-5 0 -8.5 3.5z" />
    <glyph glyph-name="emacron" unicode="&#x113;" horiz-adv-x="426" 
d="M388.5 216.5q-3.5 -3.5 -8.5 -3.5h-221q-5 0 -5 -5v-45q0 -31 17 -51t44 -20q23 0 39.5 14.5t21.5 37.5q3 10 13 10l89 -4q5 0 8.5 -3.5t2.5 -9.5q-7 -70 -51 -107.5t-123 -37.5q-82 0 -129.5 43.5t-47.5 118.5v203q0 73 47.5 117.5t129.5 44.5t129.5 -44.5t47.5 -117.5
v-132q0 -5 -3.5 -8.5zM171 399q-17 -20 -17 -51v-45q0 -5 5 -5h113q5 0 5 5v45q0 32 -17 51.5t-45 19.5q-27 0 -44 -20zM106.5 606.5q-3.5 3.5 -3.5 8.5v56q0 5 3.5 8.5t8.5 3.5h190q5 0 8.5 -3.5t3.5 -8.5v-56q0 -5 -3.5 -8.5t-8.5 -3.5h-190q-5 0 -8.5 3.5z" />
    <glyph glyph-name="Edotaccent" unicode="&#x116;" horiz-adv-x="435" 
d="M399.5 603.5q-3.5 -3.5 -8.5 -3.5h-216q-5 0 -5 -5v-189q0 -5 5 -5h128q5 0 8.5 -3.5t3.5 -8.5v-77q0 -5 -3.5 -8.5t-8.5 -3.5h-128q-5 0 -5 -5v-190q0 -5 5 -5h216q5 0 8.5 -3.5t3.5 -8.5v-76q0 -5 -3.5 -8.5t-8.5 -3.5h-325q-5 0 -8.5 3.5t-3.5 8.5v676q0 5 3.5 8.5
t8.5 3.5h325q5 0 8.5 -3.5t3.5 -8.5v-76q0 -5 -3.5 -8.5zM179 790q-20 20 -20 51t20 51t51 20t50.5 -20t19.5 -51t-20 -51t-50 -20q-31 0 -51 20z" />
    <glyph glyph-name="edotaccent" unicode="&#x117;" horiz-adv-x="426" 
d="M388.5 216.5q-3.5 -3.5 -8.5 -3.5h-221q-5 0 -5 -5v-45q0 -31 17 -51t44 -20q23 0 39.5 14.5t21.5 37.5q3 10 13 10l89 -4q5 0 8.5 -3.5t2.5 -9.5q-7 -70 -51 -107.5t-123 -37.5q-82 0 -129.5 43.5t-47.5 118.5v203q0 73 47.5 117.5t129.5 44.5t129.5 -44.5t47.5 -117.5
v-132q0 -5 -3.5 -8.5zM171 399q-17 -20 -17 -51v-45q0 -5 5 -5h113q5 0 5 5v45q0 32 -17 51.5t-45 19.5q-27 0 -44 -20zM163 601q-20 20 -20 51t20 51t51 20t50.5 -20t19.5 -51t-20 -51t-50 -20q-31 0 -51 20z" />
    <glyph glyph-name="Eogonek" unicode="&#x118;" horiz-adv-x="435" 
d="M399.5 603.5q-3.5 -3.5 -8.5 -3.5h-216q-5 0 -5 -5v-189q0 -5 5 -5h128q5 0 8.5 -3.5t3.5 -8.5v-77q0 -5 -3.5 -8.5t-8.5 -3.5h-128q-5 0 -5 -5v-190q0 -5 5 -5h216q5 0 8.5 -3.5t3.5 -8.5v-76q0 -5 -3.5 -8.5t-8.5 -3.5h-123q-3 0 -7 -2q-43 -43 -43 -77q0 -22 11.5 -31
t28.5 -6h3q10 0 11 -10l5 -35v-3q0 -8 -9 -11q-22 -6 -41 -6q-35 0 -60 19.5t-25 66.5t38 89q2 2 1.5 4t-3.5 2h-112q-5 0 -8.5 3.5t-3.5 8.5v676q0 5 3.5 8.5t8.5 3.5h325q5 0 8.5 -3.5t3.5 -8.5v-76q0 -5 -3.5 -8.5z" />
    <glyph glyph-name="eogonek" unicode="&#x119;" horiz-adv-x="426" 
d="M388.5 216.5q-3.5 -3.5 -8.5 -3.5h-221q-5 0 -5 -5v-45q0 -31 17 -51t44 -20q23 0 39.5 14.5t21.5 37.5q3 10 13 10l89 -4q5 0 8.5 -3.5t2.5 -9.5q-7 -62 -42 -98.5t-97 -44.5q-3 0 -5 -3q-37 -37 -37 -70l1 -9q4 -17 14.5 -23.5t24.5 -4.5h3q10 0 11 -10l5 -35v-4
q0 -7 -8 -10q-22 -6 -41 -6q-36 0 -61 20t-25 67q0 45 34 85q4 4 -2 6q-59 12 -92.5 53.5t-33.5 103.5v203q0 73 47.5 117.5t129.5 44.5t129.5 -44.5t47.5 -117.5v-132q0 -5 -3.5 -8.5zM171 399q-17 -20 -17 -51v-45q0 -5 5 -5h113q5 0 5 5v45q0 32 -17 51.5t-45 19.5
q-27 0 -44 -20z" />
    <glyph glyph-name="Ecaron" unicode="&#x11a;" horiz-adv-x="435" 
d="M399.5 603.5q-3.5 -3.5 -8.5 -3.5h-216q-5 0 -5 -5v-189q0 -5 5 -5h128q5 0 8.5 -3.5t3.5 -8.5v-77q0 -5 -3.5 -8.5t-8.5 -3.5h-128q-5 0 -5 -5v-190q0 -5 5 -5h216q5 0 8.5 -3.5t3.5 -8.5v-76q0 -5 -3.5 -8.5t-8.5 -3.5h-325q-5 0 -8.5 3.5t-3.5 8.5v676q0 5 3.5 8.5
t8.5 3.5h325q5 0 8.5 -3.5t3.5 -8.5v-76q0 -5 -3.5 -8.5zM101 882q0 7 10 7h69q10 0 15 -8l35 -62q3 -4 6 0l34 62q5 8 15 8h70q7 0 9.5 -3.5t-1.5 -10.5l-66 -103q-5 -8 -14 -8h-103q-10 0 -14 8l-63 103q-2 6 -2 7z" />
    <glyph glyph-name="ecaron" unicode="&#x11b;" horiz-adv-x="426" 
d="M388.5 216.5q-3.5 -3.5 -8.5 -3.5h-221q-5 0 -5 -5v-45q0 -31 17 -51t44 -20q23 0 39.5 14.5t21.5 37.5q3 10 13 10l89 -4q5 0 8.5 -3.5t2.5 -9.5q-7 -70 -51 -107.5t-123 -37.5q-82 0 -129.5 43.5t-47.5 118.5v203q0 73 47.5 117.5t129.5 44.5t129.5 -44.5t47.5 -117.5
v-132q0 -5 -3.5 -8.5zM171 399q-17 -20 -17 -51v-45q0 -5 5 -5h113q5 0 5 5v45q0 32 -17 51.5t-45 19.5q-27 0 -44 -20zM83 692q0 7 10 7h69q10 0 15 -8l35 -62q3 -4 6 0l34 62q5 8 15 8h70q7 0 9.5 -3.5t-1.5 -10.5l-66 -103q-5 -8 -14 -8h-103q-10 0 -14 8l-63 103
q-2 6 -2 7z" />
    <glyph glyph-name="Gcircumflex" unicode="&#x11c;" horiz-adv-x="461" 
d="M93.5 41.5q-51.5 49.5 -51.5 131.5v354q0 82 51.5 131.5t136.5 49.5t137.5 -49.5t52.5 -132.5v-39q0 -5 -3.5 -8.5t-8.5 -3.5h-92q-5 0 -8.5 3.5t-3.5 8.5v41q0 36 -20.5 58t-53.5 22t-53 -22t-20 -58v-356q0 -36 20 -58t53 -22t53.5 22t20.5 58v96q0 5 -5 5h-61
q-5 0 -8.5 3.5t-3.5 8.5v73q0 5 3.5 8.5t8.5 3.5h170q5 0 8.5 -3.5t3.5 -8.5v-185q0 -82 -52.5 -131.5t-137.5 -49.5t-136.5 49.5zM97.5 767.5q-2.5 3.5 1.5 10.5l63 103q4 8 14 8h103q9 0 14 -8l66 -103q2 -6 2 -7q0 -7 -10 -7h-70q-10 0 -15 8l-34 63q-3 5 -6 0l-35 -63
q-5 -8 -15 -8h-69q-7 0 -9.5 3.5z" />
    <glyph glyph-name="gcircumflex" unicode="&#x11d;" horiz-adv-x="431" 
d="M278.5 507.5q3.5 3.5 8.5 3.5h92q5 0 8.5 -3.5t3.5 -8.5v-480q0 -108 -49 -166.5t-175 -58.5q-22 0 -33 1q-12 1 -12 13v77q0 13 13 11q57 -1 87.5 14t41.5 44t11 76v11q0 3 -2 3.5t-4 -2.5q-33 -43 -94 -43q-67 0 -102 43.5t-35 118.5v196q0 77 35.5 119.5t101.5 42.5
q61 0 94 -43q2 -3 4 -2.5t2 3.5v22q0 5 3.5 8.5zM258.5 118.5q16.5 19.5 16.5 50.5v179q0 32 -16.5 51.5t-43.5 19.5t-44 -20t-17 -51v-179q0 -31 17 -50.5t44 -19.5t43.5 19.5zM83.5 578.5q-2.5 3.5 1.5 10.5l63 103q4 8 14 8h103q9 0 14 -8l66 -103q2 -6 2 -7q0 -7 -10 -7
h-70q-10 0 -15 8l-34 63q-3 5 -6 0l-35 -63q-5 -8 -15 -8h-69q-7 0 -9.5 3.5z" />
    <glyph glyph-name="Gbreve" unicode="&#x11e;" horiz-adv-x="461" 
d="M93.5 41.5q-51.5 49.5 -51.5 131.5v354q0 82 51.5 131.5t136.5 49.5t137.5 -49.5t52.5 -132.5v-39q0 -5 -3.5 -8.5t-8.5 -3.5h-92q-5 0 -8.5 3.5t-3.5 8.5v41q0 36 -20.5 58t-53.5 22t-53 -22t-20 -58v-356q0 -36 20 -58t53 -22t53.5 22t20.5 58v96q0 5 -5 5h-61
q-5 0 -8.5 3.5t-3.5 8.5v73q0 5 3.5 8.5t8.5 3.5h170q5 0 8.5 -3.5t3.5 -8.5v-185q0 -82 -52.5 -131.5t-137.5 -49.5t-136.5 49.5zM152 769q-31 28 -35 74v2q0 10 11 10h39q12 0 13 -12q3 -22 17 -35.5t34 -13.5t34 13.5t17 35.5q2 12 13 12h39q13 0 11 -12
q-4 -46 -35.5 -74t-78.5 -28q-48 0 -79 28z" />
    <glyph glyph-name="gbreve" unicode="&#x11f;" horiz-adv-x="431" 
d="M278.5 507.5q3.5 3.5 8.5 3.5h92q5 0 8.5 -3.5t3.5 -8.5v-480q0 -108 -49 -166.5t-175 -58.5q-22 0 -33 1q-12 1 -12 13v77q0 13 13 11q57 -1 87.5 14t41.5 44t11 76v11q0 3 -2 3.5t-4 -2.5q-33 -43 -94 -43q-67 0 -102 43.5t-35 118.5v196q0 77 35.5 119.5t101.5 42.5
q61 0 94 -43q2 -3 4 -2.5t2 3.5v22q0 5 3.5 8.5zM258.5 118.5q16.5 19.5 16.5 50.5v179q0 32 -16.5 51.5t-43.5 19.5t-44 -20t-17 -51v-179q0 -31 17 -50.5t44 -19.5t43.5 19.5zM138 580q-31 28 -35 74v2q0 10 11 10h39q12 0 13 -12q3 -22 17 -35.5t34 -13.5t34 13.5
t17 35.5q2 12 13 12h39q13 0 11 -12q-4 -46 -35.5 -74t-78.5 -28q-48 0 -79 28z" />
    <glyph glyph-name="Gdotaccent" unicode="&#x120;" horiz-adv-x="461" 
d="M93.5 41.5q-51.5 49.5 -51.5 131.5v354q0 82 51.5 131.5t136.5 49.5t137.5 -49.5t52.5 -132.5v-39q0 -5 -3.5 -8.5t-8.5 -3.5h-92q-5 0 -8.5 3.5t-3.5 8.5v41q0 36 -20.5 58t-53.5 22t-53 -22t-20 -58v-356q0 -36 20 -58t53 -22t53.5 22t20.5 58v96q0 5 -5 5h-61
q-5 0 -8.5 3.5t-3.5 8.5v73q0 5 3.5 8.5t8.5 3.5h170q5 0 8.5 -3.5t3.5 -8.5v-185q0 -82 -52.5 -131.5t-137.5 -49.5t-136.5 49.5zM180 790q-20 20 -20 51t20 51t51 20t50.5 -20t19.5 -51t-20 -51t-50 -20q-31 0 -51 20z" />
    <glyph glyph-name="gdotaccent" unicode="&#x121;" horiz-adv-x="431" 
d="M278.5 507.5q3.5 3.5 8.5 3.5h92q5 0 8.5 -3.5t3.5 -8.5v-480q0 -108 -49 -166.5t-175 -58.5q-22 0 -33 1q-12 1 -12 13v77q0 13 13 11q57 -1 87.5 14t41.5 44t11 76v11q0 3 -2 3.5t-4 -2.5q-33 -43 -94 -43q-67 0 -102 43.5t-35 118.5v196q0 77 35.5 119.5t101.5 42.5
q61 0 94 -43q2 -3 4 -2.5t2 3.5v22q0 5 3.5 8.5zM258.5 118.5q16.5 19.5 16.5 50.5v179q0 32 -16.5 51.5t-43.5 19.5t-44 -20t-17 -51v-179q0 -31 17 -50.5t44 -19.5t43.5 19.5zM166 601q-20 20 -20 51t20 51t51 20t50.5 -20t19.5 -51t-20 -51t-50 -20q-31 0 -51 20z" />
    <glyph glyph-name="uni0122" unicode="&#x122;" horiz-adv-x="461" 
d="M93.5 41.5q-51.5 49.5 -51.5 131.5v354q0 82 51.5 131.5t136.5 49.5t137.5 -49.5t52.5 -132.5v-39q0 -5 -3.5 -8.5t-8.5 -3.5h-92q-5 0 -8.5 3.5t-3.5 8.5v41q0 36 -20.5 58t-53.5 22t-53 -22t-20 -58v-356q0 -36 20 -58t53 -22t53.5 22t20.5 58v96q0 5 -5 5h-61
q-5 0 -8.5 3.5t-3.5 8.5v73q0 5 3.5 8.5t8.5 3.5h170q5 0 8.5 -3.5t3.5 -8.5v-185q0 -82 -52.5 -131.5t-137.5 -49.5t-136.5 49.5zM154 -183q-3 4 1 10l59 103q4 8 15 8h72q8 0 10 -4.5t-2 -10.5l-74 -103q-5 -7 -14 -7h-57q-7 0 -10 4z" />
    <glyph glyph-name="uni0123" unicode="&#x123;" horiz-adv-x="431" 
d="M291 687q3 -4 -1 -10l-59 -104q-5 -8 -15 -8h-72q-8 0 -10 4.5t2 10.5l74 104q5 7 14 7h57q7 0 10 -4zM278.5 507.5q3.5 3.5 8.5 3.5h92q5 0 8.5 -3.5t3.5 -8.5v-480q0 -108 -49 -166.5t-175 -58.5q-22 0 -33 1q-12 1 -12 13v77q0 13 13 11q57 -1 87.5 14t41.5 44t11 76
v11q0 3 -2 3.5t-4 -2.5q-33 -43 -94 -43q-67 0 -102 43.5t-35 118.5v196q0 77 35.5 119.5t101.5 42.5q61 0 94 -43q2 -3 4 -2.5t2 3.5v22q0 5 3.5 8.5zM258.5 118.5q16.5 19.5 16.5 50.5v179q0 32 -16.5 51.5t-43.5 19.5t-44 -20t-17 -51v-179q0 -31 17 -50.5t44 -19.5
t43.5 19.5z" />
    <glyph glyph-name="Hcircumflex" unicode="&#x124;" horiz-adv-x="477" 
d="M310.5 696.5q3.5 3.5 8.5 3.5h92q5 0 8.5 -3.5t3.5 -8.5v-676q0 -5 -3.5 -8.5t-8.5 -3.5h-92q-5 0 -8.5 3.5t-3.5 8.5v283q0 5 -5 5h-127q-5 0 -5 -5v-283q0 -5 -3.5 -8.5t-8.5 -3.5h-92q-5 0 -8.5 3.5t-3.5 8.5v676q0 5 3.5 8.5t8.5 3.5h92q5 0 8.5 -3.5t3.5 -8.5v-282
q0 -5 5 -5h127q5 0 5 5v282q0 5 3.5 8.5zM104.5 768.5q-2.5 3.5 1.5 10.5l63 103q4 8 14 8h103q9 0 14 -8l66 -103q2 -6 2 -7q0 -7 -10 -7h-70q-10 0 -15 8l-34 63q-3 5 -6 0l-35 -63q-5 -8 -15 -8h-69q-7 0 -9.5 3.5z" />
    <glyph glyph-name="hcircumflex" unicode="&#x125;" 
d="M363.5 475.5q33.5 -43.5 33.5 -123.5v-340q0 -5 -3.5 -8.5t-8.5 -3.5h-92q-5 0 -8.5 3.5t-3.5 8.5v331q0 36 -15 56t-43 20q-29 0 -45 -21t-16 -58v-328q0 -5 -3.5 -8.5t-8.5 -3.5h-92q-5 0 -8.5 3.5t-3.5 8.5v676q0 5 3.5 8.5t8.5 3.5h92q5 0 8.5 -3.5t3.5 -8.5v-209
q0 -3 2.5 -3.5t5.5 3.5q34 40 95 40q65 0 98.5 -43.5zM97.5 753.5q-2.5 3.5 1.5 10.5l63 103q4 8 14 8h103q9 0 14 -8l66 -103q2 -6 2 -7q0 -7 -10 -7h-70q-10 0 -15 8l-34 63q-3 5 -6 0l-35 -63q-5 -8 -15 -8h-69q-7 0 -9.5 3.5z" />
    <glyph glyph-name="Hbar" unicode="&#x126;" horiz-adv-x="477" 
d="M467.5 583.5q3.5 -3.5 3.5 -8.5v-56q0 -5 -3.5 -8.5t-8.5 -3.5h-31q-5 0 -5 -5v-490q0 -5 -3.5 -8.5t-8.5 -3.5h-92q-5 0 -8.5 3.5t-3.5 8.5v283q0 5 -5 5h-127q-5 0 -5 -5v-283q0 -5 -3.5 -8.5t-8.5 -3.5h-92q-5 0 -8.5 3.5t-3.5 8.5v490q0 5 -5 5h-30q-5 0 -8.5 3.5
t-3.5 8.5v56q0 5 3.5 8.5t8.5 3.5h30q5 0 5 5v96q0 5 3.5 8.5t8.5 3.5h92q5 0 8.5 -3.5t3.5 -8.5v-96q0 -5 5 -5h127q5 0 5 5v96q0 5 3.5 8.5t8.5 3.5h92q5 0 8.5 -3.5t3.5 -8.5v-96q0 -5 5 -5h31q5 0 8.5 -3.5zM307 406v96q0 5 -5 5h-127q-5 0 -5 -5v-96q0 -5 5 -5h127
q5 0 5 5z" />
    <glyph glyph-name="hbar" unicode="&#x127;" 
d="M363.5 475.5q33.5 -43.5 33.5 -123.5v-340q0 -5 -3.5 -8.5t-8.5 -3.5h-92q-5 0 -8.5 3.5t-3.5 8.5v331q0 36 -15 56t-43 20q-29 0 -45 -21t-16 -58v-328q0 -5 -3.5 -8.5t-8.5 -3.5h-92q-5 0 -8.5 3.5t-3.5 8.5v534q0 5 -5 5h-33q-5 0 -8.5 3.5t-3.5 8.5v47q0 5 3.5 8.5
t8.5 3.5h33q5 0 5 5v61q0 5 3.5 8.5t8.5 3.5h92q5 0 8.5 -3.5t3.5 -8.5v-61q0 -5 5 -5h96q5 0 8.5 -3.5t3.5 -8.5v-47q0 -5 -3.5 -8.5t-8.5 -3.5h-96q-5 0 -5 -5v-67q0 -3 2.5 -3.5t5.5 3.5q34 40 95 40q65 0 98.5 -43.5z" />
    <glyph glyph-name="Itilde" unicode="&#x128;" horiz-adv-x="224" 
d="M57.5 3.5q-3.5 3.5 -3.5 8.5v676q0 5 3.5 8.5t8.5 3.5h92q5 0 8.5 -3.5t3.5 -8.5v-676q0 -5 -3.5 -8.5t-8.5 -3.5h-92q-5 0 -8.5 3.5zM152 787.5q-12 4.5 -29 14.5q-7 4 -15 9t-14 7.5t-14 2.5q-23 0 -38 -23q-7 -10 -17 -4l-32 23q-9 6 -5 16q14 32 35.5 47.5t47.5 15.5
q16 0 30 -6t32 -17q4 -2 12 -7.5t15.5 -8.5t15.5 -3q24 0 38 22q6 12 16 5l32 -22q5 -3 5 -10q0 -6 -4 -13q-17 -28 -40.5 -40.5t-45.5 -12.5q-13 0 -25 4.5z" />
    <glyph glyph-name="itilde" unicode="&#x129;" horiz-adv-x="182" 
d="M36.5 3.5q-3.5 3.5 -3.5 8.5v487q0 5 3.5 8.5t8.5 3.5h92q5 0 8.5 -3.5t3.5 -8.5v-487q0 -5 -3.5 -8.5t-8.5 -3.5h-92q-5 0 -8.5 3.5zM131 598.5q-12 4.5 -29 14.5q-7 4 -15 9t-14 7.5t-14 2.5q-23 0 -38 -23q-7 -10 -17 -4l-32 23q-9 6 -5 16q14 32 35.5 47.5t47.5 15.5
q16 0 30 -6t32 -17q4 -2 12 -7.5t15.5 -8.5t15.5 -3q24 0 38 22q6 12 16 5l32 -22q5 -3 5 -10q0 -6 -4 -13q-17 -28 -40.5 -40.5t-45.5 -12.5q-13 0 -25 4.5z" />
    <glyph glyph-name="Imacron" unicode="&#x12a;" horiz-adv-x="224" 
d="M57.5 3.5q-3.5 3.5 -3.5 8.5v676q0 5 3.5 8.5t8.5 3.5h92q5 0 8.5 -3.5t3.5 -8.5v-676q0 -5 -3.5 -8.5t-8.5 -3.5h-92q-5 0 -8.5 3.5zM5.5 778.5q-3.5 3.5 -3.5 8.5v56q0 5 3.5 8.5t8.5 3.5h190q5 0 8.5 -3.5t3.5 -8.5v-56q0 -5 -3.5 -8.5t-8.5 -3.5h-190q-5 0 -8.5 3.5z
" />
    <glyph glyph-name="imacron" unicode="&#x12b;" horiz-adv-x="182" 
d="M36.5 3.5q-3.5 3.5 -3.5 8.5v487q0 5 3.5 8.5t8.5 3.5h92q5 0 8.5 -3.5t3.5 -8.5v-487q0 -5 -3.5 -8.5t-8.5 -3.5h-92q-5 0 -8.5 3.5zM-15.5 589.5q-3.5 3.5 -3.5 8.5v56q0 5 3.5 8.5t8.5 3.5h190q5 0 8.5 -3.5t3.5 -8.5v-56q0 -5 -3.5 -8.5t-8.5 -3.5h-190
q-5 0 -8.5 3.5z" />
    <glyph glyph-name="ibreve" unicode="&#x12d;" horiz-adv-x="182" 
d="M36.5 3.5q-3.5 3.5 -3.5 8.5v487q0 5 3.5 8.5t8.5 3.5h92q5 0 8.5 -3.5t3.5 -8.5v-487q0 -5 -3.5 -8.5t-8.5 -3.5h-92q-5 0 -8.5 3.5zM13 598q-31 28 -35 74v2q0 10 11 10h39q11 0 13 -12q3 -22 17 -35.5t34 -13.5q19 0 33 13.5t18 35.5q1 12 13 12h39q12 0 11 -12
q-4 -46 -35.5 -74t-78.5 -28q-48 0 -79 28z" />
    <glyph glyph-name="Iogonek" unicode="&#x12e;" horiz-adv-x="207" 
d="M49.5 3.5q-3.5 3.5 -3.5 8.5v676q0 5 3.5 8.5t8.5 3.5h92q5 0 8.5 -3.5t3.5 -8.5v-676q0 -5 -3.5 -8.5t-8.5 -3.5h-92q-5 0 -8.5 3.5zM167 -172q0 -8 -9 -11q-22 -6 -41 -6q-36 0 -60.5 20t-24.5 67q0 51 46 96q6 6 15 6h48q4 0 7 -2t3 -4q0 -4 -5 -9q-38 -36 -38 -71
q0 -7 1 -10q4 -17 14.5 -23.5t24.5 -4.5h3q10 0 11 -9l5 -36v-3z" />
    <glyph glyph-name="iogonek" unicode="&#x12f;" horiz-adv-x="225" 
d="M62.5 3.5q-3.5 3.5 -3.5 8.5v487q0 5 3.5 8.5t8.5 3.5h92q5 0 8.5 -3.5t3.5 -8.5v-487q0 -5 -3.5 -8.5t-8.5 -3.5h-92q-5 0 -8.5 3.5zM67 601q-20 20 -20 51t20 51t51 20t50.5 -20t19.5 -51t-20 -51t-50 -20q-31 0 -51 20zM181 -172q0 -8 -9 -11q-22 -6 -41 -6
q-36 0 -60.5 20t-24.5 67q0 51 46 96q6 6 15 6h48q4 0 7 -2t3 -4q0 -4 -5 -9q-38 -36 -38 -71q0 -7 1 -10q4 -17 14.5 -23.5t24.5 -4.5h3q10 0 11 -9l5 -36v-3z" />
    <glyph glyph-name="Idotaccent" unicode="&#x130;" horiz-adv-x="224" 
d="M57.5 3.5q-3.5 3.5 -3.5 8.5v676q0 5 3.5 8.5t8.5 3.5h92q5 0 8.5 -3.5t3.5 -8.5v-676q0 -5 -3.5 -8.5t-8.5 -3.5h-92q-5 0 -8.5 3.5zM62 790q-20 20 -20 51t20 51t51 20t50.5 -20t19.5 -51t-20 -51t-50 -20q-31 0 -51 20z" />
    <glyph glyph-name="dotlessi" unicode="&#x131;" horiz-adv-x="182" 
d="M36.5 3.5q-3.5 3.5 -3.5 8.5v487q0 5 3.5 8.5t8.5 3.5h92q5 0 8.5 -3.5t3.5 -8.5v-487q0 -5 -3.5 -8.5t-8.5 -3.5h-92q-5 0 -8.5 3.5z" />
    <glyph glyph-name="ij" unicode="&#x133;" horiz-adv-x="423" 
d="M56 601q-20 20 -20 51t20 51t51 20t50.5 -20t19.5 -51t-20 -51t-50 -20q-31 0 -51 20zM53.5 3.5q-3.5 3.5 -3.5 8.5v487q0 5 3.5 8.5t8.5 3.5h92q5 0 8.5 -3.5t3.5 -8.5v-487q0 -5 -3.5 -8.5t-8.5 -3.5h-92q-5 0 -8.5 3.5zM265 601q-20 20 -20 51t20 51t51 20t50.5 -20
t19.5 -51t-20 -51t-50 -20q-31 0 -51 20zM165 -193v75q0 12 12 12q44 1 62.5 24t18.5 66v515q0 5 3.5 8.5t8.5 3.5h92q5 0 8.5 -3.5t3.5 -8.5v-515q0 -67 -13 -106.5t-56 -61.5t-128 -21q-12 0 -12 12z" />
    <glyph glyph-name="Jcircumflex" unicode="&#x134;" horiz-adv-x="443" 
d="M68 41.5q-51 49.5 -51 131.5v74q0 5 3.5 8.5t8.5 3.5h92q5 0 8.5 -3.5t3.5 -8.5v-76q0 -35 19 -57t50 -22t50.5 22t19.5 57v517q0 5 3.5 8.5t8.5 3.5h92q5 0 8.5 -3.5t3.5 -8.5v-515q0 -82 -51.5 -131.5t-134.5 -49.5t-134 49.5zM195.5 768.5q-2.5 3.5 1.5 10.5l63 103
q4 8 14 8h103q9 0 14 -8l66 -103q2 -6 2 -7q0 -7 -10 -7h-70q-10 0 -15 8l-34 63q-3 5 -6 0l-35 -63q-5 -8 -15 -8h-69q-7 0 -9.5 3.5z" />
    <glyph glyph-name="jcircumflex" unicode="&#x135;" horiz-adv-x="212" 
d="M-47 -193v75q0 12 12 12q44 1 62.5 24t18.5 66v515q0 5 3.5 8.5t8.5 3.5h92q5 0 8.5 -3.5t3.5 -8.5v-515q0 -67 -13 -106.5t-56 -61.5t-128 -21q-12 0 -12 12zM-28.5 578.5q-2.5 3.5 1.5 10.5l63 103q4 8 14 8h103q9 0 14 -8l66 -103q2 -6 2 -7q0 -7 -10 -7h-70
q-10 0 -15 8l-34 63q-3 5 -6 0l-35 -63q-5 -8 -15 -8h-69q-7 0 -9.5 3.5z" />
    <glyph glyph-name="uni0136" unicode="&#x136;" horiz-adv-x="477" 
d="M57.5 3.5q-3.5 3.5 -3.5 8.5v676q0 5 3.5 8.5t8.5 3.5h92q5 0 8.5 -3.5t3.5 -8.5v-276q0 -4 2 -4.5t4 2.5l150 281q5 9 15 9h99q7 0 9 -4t-1 -10l-150 -281q-1 -4 -1 -6l162 -385q1 -2 1 -6q0 -8 -10 -8h-99q-11 0 -14 9l-118 289q-1 3 -3 2.5t-4 -2.5l-40 -67
q-2 -4 -2 -6v-213q0 -5 -3.5 -8.5t-8.5 -3.5h-92q-5 0 -8.5 3.5zM184 -175q-3 4 1 10l59 103q4 8 15 8h72q8 0 10 -4.5t-2 -10.5l-74 -103q-5 -7 -14 -7h-57q-7 0 -10 4z" />
    <glyph glyph-name="uni0137" unicode="&#x137;" horiz-adv-x="433" 
d="M49.5 3.5q-3.5 3.5 -3.5 8.5v676q0 5 3.5 8.5t8.5 3.5h92q5 0 8.5 -3.5t3.5 -8.5v-356q0 -4 2 -4t4 3l109 172q4 8 14 8h96q7 0 9 -4.5t-2 -10.5l-104 -157q-2 -4 -1 -7l120 -318q1 -2 1 -5q0 -9 -11 -9h-95q-10 0 -13 10l-74 226q-1 3 -3 3.5t-3 -2.5l-47 -70
q-2 -4 -2 -6v-149q0 -5 -3.5 -8.5t-8.5 -3.5h-92q-5 0 -8.5 3.5zM150 -175q-3 4 1 10l59 103q4 8 15 8h72q8 0 10 -4.5t-2 -10.5l-74 -103q-5 -7 -14 -7h-57q-7 0 -10 4z" />
    <glyph glyph-name="Lacute" unicode="&#x139;" horiz-adv-x="415" 
d="M57.5 3.5q-3.5 3.5 -3.5 8.5v676q0 5 3.5 8.5t8.5 3.5h92q5 0 8.5 -3.5t3.5 -8.5v-583q0 -5 5 -5h216q5 0 8.5 -3.5t3.5 -8.5v-76q0 -5 -3.5 -8.5t-8.5 -3.5h-325q-5 0 -8.5 3.5zM58 768q-3 4 1 10l59 103q4 8 15 8h72q8 0 10 -4.5t-2 -10.5l-74 -103q-5 -7 -14 -7h-57
q-7 0 -10 4z" />
    <glyph glyph-name="lacute" unicode="&#x13a;" horiz-adv-x="199" 
d="M45.5 3.5q-3.5 3.5 -3.5 8.5v676q0 5 3.5 8.5t8.5 3.5h92q5 0 8.5 -3.5t3.5 -8.5v-676q0 -5 -3.5 -8.5t-8.5 -3.5h-92q-5 0 -8.5 3.5zM45 768q-3 4 1 10l59 103q4 8 15 8h72q8 0 10 -4.5t-2 -10.5l-74 -103q-5 -7 -14 -7h-57q-7 0 -10 4z" />
    <glyph glyph-name="uni013B" unicode="&#x13b;" horiz-adv-x="415" 
d="M57.5 3.5q-3.5 3.5 -3.5 8.5v676q0 5 3.5 8.5t8.5 3.5h92q5 0 8.5 -3.5t3.5 -8.5v-583q0 -5 5 -5h216q5 0 8.5 -3.5t3.5 -8.5v-76q0 -5 -3.5 -8.5t-8.5 -3.5h-325q-5 0 -8.5 3.5zM127 -175q-3 4 1 10l59 103q4 8 15 8h72q8 0 10 -4.5t-2 -10.5l-74 -103q-5 -7 -14 -7h-57
q-7 0 -10 4z" />
    <glyph glyph-name="uni013C" unicode="&#x13c;" horiz-adv-x="199" 
d="M45.5 3.5q-3.5 3.5 -3.5 8.5v676q0 5 3.5 8.5t8.5 3.5h92q5 0 8.5 -3.5t3.5 -8.5v-676q0 -5 -3.5 -8.5t-8.5 -3.5h-92q-5 0 -8.5 3.5zM-24 -175q-3 4 1 10l59 103q4 8 15 8h72q8 0 10 -4.5t-2 -10.5l-74 -103q-5 -7 -14 -7h-57q-7 0 -10 4z" />
    <glyph glyph-name="Lcaron" unicode="&#x13d;" horiz-adv-x="417" 
d="M57.5 3.5q-3.5 3.5 -3.5 8.5v676q0 5 3.5 8.5t8.5 3.5h92q5 0 8.5 -3.5t3.5 -8.5v-583q0 -5 5 -5h216q5 0 8.5 -3.5t3.5 -8.5v-76q0 -5 -3.5 -8.5t-8.5 -3.5h-325q-5 0 -8.5 3.5zM209 579q-3 4 1 10l59 103q4 8 15 8h72q8 0 10 -4.5t-2 -10.5l-74 -103q-5 -7 -14 -7h-57
q-7 0 -10 4z" />
    <glyph glyph-name="lcaron" unicode="&#x13e;" horiz-adv-x="379" 
d="M45.5 3.5q-3.5 3.5 -3.5 8.5v676q0 5 3.5 8.5t8.5 3.5h92q5 0 8.5 -3.5t3.5 -8.5v-676q0 -5 -3.5 -8.5t-8.5 -3.5h-92q-5 0 -8.5 3.5zM188 580q-3 4 1 10l59 103q4 8 15 8h72q8 0 10 -4.5t-2 -10.5l-74 -103q-5 -7 -14 -7h-57q-7 0 -10 4z" />
    <glyph glyph-name="ldot" unicode="&#x140;" horiz-adv-x="226" 
d="M58.5 3.5q-3.5 3.5 -3.5 8.5v676q0 5 3.5 8.5t8.5 3.5h92q5 0 8.5 -3.5t3.5 -8.5v-676q0 -5 -3.5 -8.5t-8.5 -3.5h-92q-5 0 -8.5 3.5zM63 790q-20 20 -20 51t20 51t51 20t50.5 -20t19.5 -51t-20 -51t-50 -20q-31 0 -51 20z" />
    <glyph glyph-name="Lslash" unicode="&#x141;" horiz-adv-x="467" 
d="M227 100h216q5 0 8.5 -3.5t3.5 -8.5v-76q0 -5 -3.5 -8.5t-8.5 -3.5h-325q-5 0 -8.5 3.5t-3.5 8.5v192q0 3 -2 4t-4 -1l-51 -40q-5 -3 -8 -3q-4 0 -9 5l-42 49q-3 5 -3 8q0 4 5 9l111 89q3 2 3 6v358q0 5 3.5 8.5t8.5 3.5h92q5 0 8.5 -3.5t3.5 -8.5v-262q0 -3 2 -4t4 1
l130 103q4 3 8 3t9 -5l41 -51q4 -6 4 -8q0 -4 -5 -9l-190 -150q-3 -1 -3 -6v-195q0 -5 5 -5z" />
    <glyph glyph-name="lslash" unicode="&#x142;" horiz-adv-x="353" 
d="M336 390q0 -5 -6 -10l-99 -55q-3 -2 -3 -6v-307q0 -5 -3.5 -8.5t-8.5 -3.5h-92q-5 0 -8.5 3.5t-3.5 8.5v239q0 3 -2 4.5t-4 -0.5l-42 -24q-4 -2 -7 -2q-7 0 -10 7l-29 55q-1 2 -1 6q0 6 6 10l86 48q3 2 3 6v327q0 5 3.5 8.5t8.5 3.5h92q5 0 8.5 -3.5t3.5 -8.5v-259
q0 -3 2 -4t4 0l53 31q4 2 6 2q7 0 11 -7l30 -55q2 -4 2 -6z" />
    <glyph glyph-name="Nacute" unicode="&#x143;" horiz-adv-x="507" 
d="M341.5 696.5q3.5 3.5 8.5 3.5h91q5 0 8.5 -3.5t3.5 -8.5v-676q0 -5 -3.5 -8.5t-8.5 -3.5h-105q-10 0 -13 10l-149 424q-1 3 -3.5 2.5t-2.5 -3.5l1 -421q0 -5 -3.5 -8.5t-8.5 -3.5h-91q-5 0 -8.5 3.5t-3.5 8.5v676q0 5 3.5 8.5t8.5 3.5h103q10 0 13 -10l150 -421
q1 -3 3.5 -2.5t2.5 3.5v418q0 5 3.5 8.5zM196 772q-3 4 1 10l59 103q4 8 15 8h72q8 0 10 -4.5t-2 -10.5l-74 -103q-5 -7 -14 -7h-57q-7 0 -10 4z" />
    <glyph glyph-name="nacute" unicode="&#x144;" 
d="M363.5 475.5q33.5 -43.5 33.5 -123.5v-340q0 -5 -3.5 -8.5t-8.5 -3.5h-92q-5 0 -8.5 3.5t-3.5 8.5v331q0 36 -15 56t-43 20q-29 0 -45 -21t-16 -58v-328q0 -5 -3.5 -8.5t-8.5 -3.5h-92q-5 0 -8.5 3.5t-3.5 8.5v487q0 5 3.5 8.5t8.5 3.5h92q5 0 8.5 -3.5t3.5 -8.5v-20
q0 -3 2.5 -3.5t5.5 3.5q34 40 95 40q65 0 98.5 -43.5zM167 579q-3 4 1 10l59 103q4 8 15 8h72q8 0 10 -4.5t-2 -10.5l-74 -103q-5 -7 -14 -7h-57q-7 0 -10 4z" />
    <glyph glyph-name="uni0145" unicode="&#x145;" horiz-adv-x="507" 
d="M341.5 696.5q3.5 3.5 8.5 3.5h91q5 0 8.5 -3.5t3.5 -8.5v-676q0 -5 -3.5 -8.5t-8.5 -3.5h-105q-10 0 -13 10l-149 424q-1 3 -3.5 2.5t-2.5 -3.5l1 -421q0 -5 -3.5 -8.5t-8.5 -3.5h-91q-5 0 -8.5 3.5t-3.5 8.5v676q0 5 3.5 8.5t8.5 3.5h103q10 0 13 -10l150 -421
q1 -3 3.5 -2.5t2.5 3.5v418q0 5 3.5 8.5zM183 -175q-3 4 1 10l59 103q4 8 15 8h72q8 0 10 -4.5t-2 -10.5l-74 -103q-5 -7 -14 -7h-57q-7 0 -10 4z" />
    <glyph glyph-name="uni0146" unicode="&#x146;" 
d="M363.5 475.5q33.5 -43.5 33.5 -123.5v-340q0 -5 -3.5 -8.5t-8.5 -3.5h-92q-5 0 -8.5 3.5t-3.5 8.5v331q0 36 -15 56t-43 20q-29 0 -45 -21t-16 -58v-328q0 -5 -3.5 -8.5t-8.5 -3.5h-92q-5 0 -8.5 3.5t-3.5 8.5v487q0 5 3.5 8.5t8.5 3.5h92q5 0 8.5 -3.5t3.5 -8.5v-20
q0 -3 2.5 -3.5t5.5 3.5q34 40 95 40q65 0 98.5 -43.5zM150 -175q-3 4 1 10l59 103q4 8 15 8h72q8 0 10 -4.5t-2 -10.5l-74 -103q-5 -7 -14 -7h-57q-7 0 -10 4z" />
    <glyph glyph-name="Ncaron" unicode="&#x147;" horiz-adv-x="507" 
d="M341.5 696.5q3.5 3.5 8.5 3.5h91q5 0 8.5 -3.5t3.5 -8.5v-676q0 -5 -3.5 -8.5t-8.5 -3.5h-105q-10 0 -13 10l-149 424q-1 3 -3.5 2.5t-2.5 -3.5l1 -421q0 -5 -3.5 -8.5t-8.5 -3.5h-91q-5 0 -8.5 3.5t-3.5 8.5v676q0 5 3.5 8.5t8.5 3.5h103q10 0 13 -10l150 -421
q1 -3 3.5 -2.5t2.5 3.5v418q0 5 3.5 8.5zM124 886q0 7 10 7h69q10 0 15 -8l35 -62q3 -4 6 0l34 62q5 8 15 8h70q7 0 9.5 -3.5t-1.5 -10.5l-66 -103q-5 -8 -14 -8h-103q-10 0 -14 8l-63 103q-2 6 -2 7z" />
    <glyph glyph-name="ncaron" unicode="&#x148;" 
d="M363.5 475.5q33.5 -43.5 33.5 -123.5v-340q0 -5 -3.5 -8.5t-8.5 -3.5h-92q-5 0 -8.5 3.5t-3.5 8.5v331q0 36 -15 56t-43 20q-29 0 -45 -21t-16 -58v-328q0 -5 -3.5 -8.5t-8.5 -3.5h-92q-5 0 -8.5 3.5t-3.5 8.5v487q0 5 3.5 8.5t8.5 3.5h92q5 0 8.5 -3.5t3.5 -8.5v-20
q0 -3 2.5 -3.5t5.5 3.5q34 40 95 40q65 0 98.5 -43.5zM94 693q0 7 10 7h69q10 0 15 -8l35 -62q3 -4 6 0l34 62q5 8 15 8h70q7 0 9.5 -3.5t-1.5 -10.5l-66 -103q-5 -8 -14 -8h-103q-10 0 -14 8l-63 103q-2 6 -2 7z" />
    <glyph glyph-name="Eng" unicode="&#x14a;" horiz-adv-x="507" 
d="M341.5 696.5q3.5 3.5 8.5 3.5h91q5 0 8.5 -3.5t3.5 -8.5v-688q0 -66 -10.5 -102t-49 -56t-121.5 -19q-12 0 -12 12l-1 76q0 13 13 11q26 0 37.5 8.5t14 23t2.5 43.5l-1 6l-151 431q-1 3 -3.5 2.5t-2.5 -3.5l1 -421q0 -5 -3.5 -8.5t-8.5 -3.5h-91q-5 0 -8.5 3.5t-3.5 8.5
v676q0 5 3.5 8.5t8.5 3.5h103q10 0 13 -10l138 -387q1 -3 3.5 -2.5t2.5 3.5v54q0 12 6 12h1q5 0 5 5v313q0 5 3.5 8.5z" />
    <glyph glyph-name="eng" unicode="&#x14b;" 
d="M363.5 475.5q33.5 -43.5 33.5 -123.5v-352q0 -61 -10.5 -97.5t-49 -59t-118.5 -22.5q-15 0 -15 12v74q0 12 12 12q41 1 53 22t12 65v337q0 36 -15 56t-43 20q-29 0 -45 -21t-16 -58v-328q0 -5 -3.5 -8.5t-8.5 -3.5h-92q-5 0 -8.5 3.5t-3.5 8.5v487q0 5 3.5 8.5t8.5 3.5
h92q5 0 8.5 -3.5t3.5 -8.5v-20q0 -3 2.5 -3.5t5.5 3.5q34 40 95 40q65 0 98.5 -43.5z" />
    <glyph glyph-name="Omacron" unicode="&#x14c;" horiz-adv-x="467" 
d="M94.5 44q-52.5 52 -52.5 138v336q0 86 52.5 138t138.5 52t139 -52t53 -138v-336q0 -86 -53 -138t-139 -52t-138.5 52zM288 115.5q21 23.5 21 61.5v346q0 38 -21 61.5t-55 23.5t-54.5 -23.5t-20.5 -61.5v-346q0 -38 20.5 -61.5t54.5 -23.5t55 23.5zM126.5 777.5
q-3.5 3.5 -3.5 8.5v56q0 5 3.5 8.5t8.5 3.5h190q5 0 8.5 -3.5t3.5 -8.5v-56q0 -5 -3.5 -8.5t-8.5 -3.5h-190q-5 0 -8.5 3.5z" />
    <glyph glyph-name="omacron" unicode="&#x14d;" horiz-adv-x="432" 
d="M85.5 36q-47.5 44 -47.5 119v201q0 74 48 118.5t130 44.5q83 0 131 -44.5t48 -118.5v-201q0 -75 -47.5 -119t-131.5 -44q-83 0 -130.5 44zM261.5 112.5q17.5 19.5 17.5 51.5v184q0 31 -17.5 51t-45.5 20t-45 -19.5t-17 -51.5v-184q0 -32 17 -51.5t45 -19.5t45.5 19.5z
M109.5 589.5q-3.5 3.5 -3.5 8.5v56q0 5 3.5 8.5t8.5 3.5h190q5 0 8.5 -3.5t3.5 -8.5v-56q0 -5 -3.5 -8.5t-8.5 -3.5h-190q-5 0 -8.5 3.5z" />
    <glyph glyph-name="obreve" unicode="&#x14f;" horiz-adv-x="432" 
d="M85.5 36q-47.5 44 -47.5 119v201q0 74 48 118.5t130 44.5q83 0 131 -44.5t48 -118.5v-201q0 -75 -47.5 -119t-131.5 -44q-83 0 -130.5 44zM261.5 112.5q17.5 19.5 17.5 51.5v184q0 31 -17.5 51t-45.5 20t-45 -19.5t-17 -51.5v-184q0 -32 17 -51.5t45 -19.5t45.5 19.5z
M138 598q-31 28 -35 74v2q0 10 11 10h39q11 0 13 -12q3 -22 17 -35.5t34 -13.5q19 0 33 13.5t18 35.5q1 12 13 12h39q12 0 11 -12q-4 -46 -35.5 -74t-78.5 -28q-48 0 -79 28z" />
    <glyph glyph-name="Ohungarumlaut" unicode="&#x150;" horiz-adv-x="467" 
d="M94.5 44q-52.5 52 -52.5 138v336q0 86 52.5 138t138.5 52t139 -52t53 -138v-336q0 -86 -53 -138t-139 -52t-138.5 52zM288 115.5q21 23.5 21 61.5v346q0 38 -21 61.5t-55 23.5t-54.5 -23.5t-20.5 -61.5v-346q0 -38 20.5 -61.5t54.5 -23.5t55 23.5zM122.5 766.5
q-2.5 3.5 0.5 10.5l50 102q4 9 14 9h75q7 0 9 -4t-1 -10l-54 -102q-5 -9 -15 -9h-69q-7 0 -9.5 3.5zM269 767q-2 4 1 10l54 102q4 9 15 9h70q7 0 9 -4t-1 -10l-55 -103q-4 -8 -15 -8h-69q-7 0 -9 4z" />
    <glyph glyph-name="ohungarumlaut" unicode="&#x151;" horiz-adv-x="432" 
d="M85.5 36q-47.5 44 -47.5 119v201q0 74 48 118.5t130 44.5q83 0 131 -44.5t48 -118.5v-201q0 -75 -47.5 -119t-131.5 -44q-83 0 -130.5 44zM261.5 112.5q17.5 19.5 17.5 51.5v184q0 31 -17.5 51t-45.5 20t-45 -19.5t-17 -51.5v-184q0 -32 17 -51.5t45 -19.5t45.5 19.5z
M105.5 578.5q-2.5 3.5 0.5 10.5l50 102q4 9 14 9h75q7 0 9 -4t-1 -10l-54 -102q-5 -9 -15 -9h-69q-7 0 -9.5 3.5zM252 579q-2 4 1 10l54 102q4 9 15 9h70q7 0 9 -4t-1 -10l-55 -103q-4 -8 -15 -8h-69q-7 0 -9 4z" />
    <glyph glyph-name="OE" unicode="&#x152;" horiz-adv-x="690" 
d="M654.5 603.5q-3.5 -3.5 -8.5 -3.5h-216q-5 0 -5 -5v-189q0 -5 5 -5h128q5 0 8.5 -3.5t3.5 -8.5v-77q0 -5 -3.5 -8.5t-8.5 -3.5h-128q-5 0 -5 -5v-190q0 -5 5 -5h216q5 0 8.5 -3.5t3.5 -8.5v-76q0 -5 -3.5 -8.5t-8.5 -3.5h-325q-5 0 -8.5 3.5t-3.5 8.5v12q0 3 -2 3.5
t-4 -1.5q-39 -34 -98 -34q-44 0 -81 24t-59.5 67t-22.5 99v336q0 56 22.5 99t59.5 67t81 24q59 0 98 -34q2 -2 4 -1.5t2 3.5v12q0 5 3.5 8.5t8.5 3.5h325q5 0 8.5 -3.5t3.5 -8.5v-76q0 -5 -3.5 -8.5zM288 115.5q21 23.5 21 61.5v346q0 38 -21 61.5t-55 23.5t-54.5 -23.5
t-20.5 -61.5v-346q0 -38 20.5 -61.5t54.5 -23.5t55 23.5z" />
    <glyph glyph-name="oe" unicode="&#x153;" horiz-adv-x="679" 
d="M642.5 221.5q-3.5 -3.5 -8.5 -3.5h-222q-5 0 -5 -5v-50q0 -32 17 -51.5t45 -19.5q23 0 38.5 15t21.5 38q3 10 13 10l90 -4q5 0 8.5 -3.5t2.5 -9.5q-7 -70 -51 -108t-123 -38q-77 0 -123 57q-3 3 -6 0q-46 -57 -124 -57q-83 0 -130.5 44t-47.5 119v201q0 74 48 118.5
t130 44.5q78 0 124 -58q3 -4 6 0q46 58 123 58q82 0 129.5 -44.5t47.5 -118.5v-126q0 -5 -3.5 -8.5zM261.5 399.5q-17.5 19.5 -45.5 19.5t-45 -19.5t-17 -51.5v-185q0 -32 17 -51.5t45 -19.5t45.5 19.5t17.5 51.5v185q0 32 -17.5 51.5zM424 399.5q-17 -19.5 -17 -51.5v-47
q0 -5 5 -5h114q5 0 5 5v47q0 31 -17.5 51t-44.5 20q-28 0 -45 -19.5z" />
    <glyph glyph-name="Racute" unicode="&#x154;" horiz-adv-x="461" 
d="M318 10l-85 287q-2 4 -5 4h-53q-5 0 -5 -5v-284q0 -5 -3.5 -8.5t-8.5 -3.5h-92q-5 0 -8.5 3.5t-3.5 8.5v676q0 5 3.5 8.5t8.5 3.5h188q53 0 93.5 -25.5t63 -72t22.5 -106.5q0 -62 -24 -107t-67 -68q-4 -1 -3 -6l98 -301q1 -2 1 -5q0 -9 -11 -9h-96q-10 0 -13 10zM170 595
v-199q0 -5 5 -5h61q36 0 58.5 28t22.5 76t-22.5 76.5t-58.5 28.5h-61q-5 0 -5 -5zM171 768q-3 4 1 10l59 103q4 8 15 8h72q8 0 10 -4.5t-2 -10.5l-74 -103q-5 -7 -14 -7h-57q-7 0 -10 4z" />
    <glyph glyph-name="racute" unicode="&#x155;" horiz-adv-x="313" 
d="M297 507q8 -5 6 -15l-16 -93q-1 -12 -14 -7q-14 4 -26 4t-22 -3q-28 -4 -45.5 -31.5t-17.5 -65.5v-283q0 -5 -3.5 -8.5t-8.5 -3.5h-92q-5 0 -8.5 3.5t-3.5 8.5v486q0 5 3.5 8.5t8.5 3.5h92q5 0 8.5 -3.5t3.5 -8.5v-46q0 -4 2 -4.5t3 3.5q27 65 88 65q27 0 42 -10z
M122 579q-3 4 1 10l59 103q4 8 15 8h72q8 0 10 -4.5t-2 -10.5l-74 -103q-5 -7 -14 -7h-57q-7 0 -10 4z" />
    <glyph glyph-name="uni0156" unicode="&#x156;" horiz-adv-x="461" 
d="M318 10l-85 287q-2 4 -5 4h-53q-5 0 -5 -5v-284q0 -5 -3.5 -8.5t-8.5 -3.5h-92q-5 0 -8.5 3.5t-3.5 8.5v676q0 5 3.5 8.5t8.5 3.5h188q53 0 93.5 -25.5t63 -72t22.5 -106.5q0 -62 -24 -107t-67 -68q-4 -1 -3 -6l98 -301q1 -2 1 -5q0 -9 -11 -9h-96q-10 0 -13 10zM170 595
v-199q0 -5 5 -5h61q36 0 58.5 28t22.5 76t-22.5 76.5t-58.5 28.5h-61q-5 0 -5 -5zM164 -175q-3 4 1 10l59 103q4 8 15 8h72q8 0 10 -4.5t-2 -10.5l-74 -103q-5 -7 -14 -7h-57q-7 0 -10 4z" />
    <glyph glyph-name="uni0157" unicode="&#x157;" horiz-adv-x="313" 
d="M297 507q8 -5 6 -15l-16 -93q-1 -12 -14 -7q-14 4 -26 4t-22 -3q-28 -4 -45.5 -31.5t-17.5 -65.5v-283q0 -5 -3.5 -8.5t-8.5 -3.5h-92q-5 0 -8.5 3.5t-3.5 8.5v486q0 5 3.5 8.5t8.5 3.5h92q5 0 8.5 -3.5t3.5 -8.5v-46q0 -4 2 -4.5t3 3.5q27 65 88 65q27 0 42 -10z
M-21 -175q-3 4 1 10l59 103q4 8 15 8h72q8 0 10 -4.5t-2 -10.5l-74 -103q-5 -7 -14 -7h-57q-7 0 -10 4z" />
    <glyph glyph-name="Rcaron" unicode="&#x158;" horiz-adv-x="461" 
d="M318 10l-85 287q-2 4 -5 4h-53q-5 0 -5 -5v-284q0 -5 -3.5 -8.5t-8.5 -3.5h-92q-5 0 -8.5 3.5t-3.5 8.5v676q0 5 3.5 8.5t8.5 3.5h188q53 0 93.5 -25.5t63 -72t22.5 -106.5q0 -62 -24 -107t-67 -68q-4 -1 -3 -6l98 -301q1 -2 1 -5q0 -9 -11 -9h-96q-10 0 -13 10zM170 595
v-199q0 -5 5 -5h61q36 0 58.5 28t22.5 76t-22.5 76.5t-58.5 28.5h-61q-5 0 -5 -5zM99 882q0 7 10 7h69q10 0 15 -8l35 -62q3 -4 6 0l34 62q5 8 15 8h70q7 0 9.5 -3.5t-1.5 -10.5l-66 -103q-5 -8 -14 -8h-103q-10 0 -14 8l-63 103q-2 6 -2 7z" />
    <glyph glyph-name="rcaron" unicode="&#x159;" horiz-adv-x="313" 
d="M297 507q8 -5 6 -15l-16 -93q-1 -12 -14 -7q-14 4 -26 4t-22 -3q-28 -4 -45.5 -31.5t-17.5 -65.5v-283q0 -5 -3.5 -8.5t-8.5 -3.5h-92q-5 0 -8.5 3.5t-3.5 8.5v486q0 5 3.5 8.5t8.5 3.5h92q5 0 8.5 -3.5t3.5 -8.5v-46q0 -4 2 -4.5t3 3.5q27 65 88 65q27 0 42 -10zM49 693
q0 7 10 7h69q10 0 15 -8l35 -62q3 -4 6 0l34 62q5 8 15 8h70q7 0 9.5 -3.5t-1.5 -10.5l-66 -103q-5 -8 -14 -8h-103q-10 0 -14 8l-63 103q-2 6 -2 7z" />
    <glyph glyph-name="Sacute" unicode="&#x15a;" horiz-adv-x="434" 
d="M85 42q-51 50 -51 131v26q0 5 3.5 8.5t8.5 3.5h91q5 0 8.5 -3.5t3.5 -8.5v-20q0 -39 19.5 -63t50.5 -24t51 22.5t20 59.5q0 26 -11 45t-31 36t-64 49q-50 36 -80.5 64t-51 67.5t-20.5 91.5q0 83 50 132t132 49q83 0 134 -51.5t51 -136.5v-24q0 -5 -3.5 -8.5t-8.5 -3.5
h-90q-5 0 -8.5 3.5t-3.5 8.5v26q0 39 -19.5 62.5t-51.5 23.5q-30 0 -49 -21.5t-19 -59.5q0 -36 20.5 -61t80.5 -69q61 -45 92 -73.5t48 -62.5t17 -81q0 -85 -51 -136.5t-134 -51.5t-134 50zM158 768q-3 4 1 10l59 103q4 8 15 8h72q8 0 10 -4.5t-2 -10.5l-74 -103
q-5 -7 -14 -7h-57q-7 0 -10 4z" />
    <glyph glyph-name="sacute" unicode="&#x15b;" horiz-adv-x="399" 
d="M77 32q-47 38 -47 103v7q0 5 3.5 8.5t8.5 3.5h86q5 0 8.5 -3.5t3.5 -8.5v-5q0 -24 18.5 -40t45.5 -16q26 0 41 15t15 38q0 20 -13 33.5t-28 20.5t-54 23q-57 22 -93.5 56t-36.5 101q0 70 44.5 109.5t120.5 39.5q78 0 123.5 -41.5t45.5 -111.5q0 -5 -3.5 -8.5t-8.5 -3.5
h-84q-5 0 -8.5 3.5t-3.5 8.5v6q0 24 -16.5 40t-41.5 16q-26 0 -41.5 -16.5t-15.5 -39.5q0 -19 12 -32t27 -20.5t50 -22.5q42 -17 70.5 -33.5t50 -47t21.5 -75.5q0 -67 -47 -106t-127 -39q-79 0 -126 38zM144 579q-3 4 1 10l59 103q4 8 15 8h72q8 0 10 -4.5t-2 -10.5
l-74 -103q-5 -7 -14 -7h-57q-7 0 -10 4z" />
    <glyph glyph-name="Scircumflex" unicode="&#x15c;" horiz-adv-x="434" 
d="M85 42q-51 50 -51 131v26q0 5 3.5 8.5t8.5 3.5h91q5 0 8.5 -3.5t3.5 -8.5v-20q0 -39 19.5 -63t50.5 -24t51 22.5t20 59.5q0 26 -11 45t-31 36t-64 49q-50 36 -80.5 64t-51 67.5t-20.5 91.5q0 83 50 132t132 49q83 0 134 -51.5t51 -136.5v-24q0 -5 -3.5 -8.5t-8.5 -3.5
h-90q-5 0 -8.5 3.5t-3.5 8.5v26q0 39 -19.5 62.5t-51.5 23.5q-30 0 -49 -21.5t-19 -59.5q0 -36 20.5 -61t80.5 -69q61 -45 92 -73.5t48 -62.5t17 -81q0 -85 -51 -136.5t-134 -51.5t-134 50zM80.5 767.5q-2.5 3.5 1.5 10.5l63 103q4 8 14 8h103q9 0 14 -8l66 -103q2 -6 2 -7
q0 -7 -10 -7h-70q-10 0 -15 8l-34 63q-3 5 -6 0l-35 -63q-5 -8 -15 -8h-69q-7 0 -9.5 3.5z" />
    <glyph glyph-name="scircumflex" unicode="&#x15d;" horiz-adv-x="399" 
d="M77 32q-47 38 -47 103v7q0 5 3.5 8.5t8.5 3.5h86q5 0 8.5 -3.5t3.5 -8.5v-5q0 -24 18.5 -40t45.5 -16q26 0 41 15t15 38q0 20 -13 33.5t-28 20.5t-54 23q-57 22 -93.5 56t-36.5 101q0 70 44.5 109.5t120.5 39.5q78 0 123.5 -41.5t45.5 -111.5q0 -5 -3.5 -8.5t-8.5 -3.5
h-84q-5 0 -8.5 3.5t-3.5 8.5v6q0 24 -16.5 40t-41.5 16q-26 0 -41.5 -16.5t-15.5 -39.5q0 -19 12 -32t27 -20.5t50 -22.5q42 -17 70.5 -33.5t50 -47t21.5 -75.5q0 -67 -47 -106t-127 -39q-79 0 -126 38zM67.5 578.5q-2.5 3.5 1.5 10.5l63 103q4 8 14 8h103q9 0 14 -8
l66 -103q2 -6 2 -7q0 -7 -10 -7h-70q-10 0 -15 8l-34 63q-3 5 -6 0l-35 -63q-5 -8 -15 -8h-69q-7 0 -9.5 3.5z" />
    <glyph glyph-name="Scedilla" unicode="&#x15e;" horiz-adv-x="434" 
d="M366 58.5q-38 -48.5 -103 -62.5q-6 -2 -2 -6q38 -44 38 -89q0 -47 -24.5 -66.5t-60.5 -19.5q-19 0 -41 6q-10 3 -9 14l5 35q1 12 14 10q17 -3 28.5 6.5t11.5 31.5q0 35 -43 76l-5 3q-65 12 -103 59.5t-38 116.5v26q0 5 3.5 8.5t8.5 3.5h91q5 0 8.5 -3.5t3.5 -8.5v-20
q0 -39 19.5 -63t50.5 -24t51 22.5t20 59.5q0 26 -11 45t-31 36t-64 49q-50 36 -80.5 64t-51 67.5t-20.5 91.5q0 83 50 132t132 49q83 0 134 -51.5t51 -136.5v-24q0 -5 -3.5 -8.5t-8.5 -3.5h-90q-5 0 -8.5 3.5t-3.5 8.5v26q0 39 -19.5 62.5t-51.5 23.5q-30 0 -49 -21.5
t-19 -59.5q0 -36 20.5 -61t80.5 -69q61 -45 92 -73.5t48 -62.5t17 -81q0 -73 -38 -121.5z" />
    <glyph glyph-name="scedilla" unicode="&#x15f;" horiz-adv-x="399" 
d="M343.5 46q-33.5 -37 -92.5 -48q-6 -2 -2 -6q38 -44 38 -89q0 -47 -25 -66.5t-61 -19.5q-22 0 -40 5q-10 3 -9 14l5 36q2 12 14 9q14 -2 24.5 5t14.5 24q6 37 -41 84l-5 3q-63 9 -98.5 45.5t-35.5 92.5v7q0 5 3.5 8.5t8.5 3.5h86q5 0 8.5 -3.5t3.5 -8.5v-5q0 -24 18.5 -40
t45.5 -16q26 0 41 15t15 38q0 20 -13 33.5t-28 20.5t-54 23q-57 22 -93.5 56t-36.5 101q0 70 44.5 109.5t120.5 39.5q78 0 123.5 -41.5t45.5 -111.5q0 -5 -3.5 -8.5t-8.5 -3.5h-84q-5 0 -8.5 3.5t-3.5 8.5v6q0 24 -16.5 40t-41.5 16q-26 0 -41.5 -16.5t-15.5 -39.5
q0 -19 12 -32t27 -20.5t50 -22.5q42 -17 70.5 -33.5t50 -47t21.5 -75.5q0 -56 -33.5 -93z" />
    <glyph glyph-name="Scaron" unicode="&#x160;" horiz-adv-x="434" 
d="M85 42q-51 50 -51 131v26q0 5 3.5 8.5t8.5 3.5h91q5 0 8.5 -3.5t3.5 -8.5v-20q0 -39 19.5 -63t50.5 -24t51 22.5t20 59.5q0 26 -11 45t-31 36t-64 49q-50 36 -80.5 64t-51 67.5t-20.5 91.5q0 83 50 132t132 49q83 0 134 -51.5t51 -136.5v-24q0 -5 -3.5 -8.5t-8.5 -3.5
h-90q-5 0 -8.5 3.5t-3.5 8.5v26q0 39 -19.5 62.5t-51.5 23.5q-30 0 -49 -21.5t-19 -59.5q0 -36 20.5 -61t80.5 -69q61 -45 92 -73.5t48 -62.5t17 -81q0 -85 -51 -136.5t-134 -51.5t-134 50zM85 882q0 7 10 7h69q10 0 15 -8l35 -62q3 -4 6 0l34 62q5 8 15 8h70q7 0 9.5 -3.5
t-1.5 -10.5l-66 -103q-5 -8 -14 -8h-103q-10 0 -14 8l-63 103q-2 6 -2 7z" />
    <glyph glyph-name="scaron" unicode="&#x161;" horiz-adv-x="399" 
d="M77 32q-47 38 -47 103v7q0 5 3.5 8.5t8.5 3.5h86q5 0 8.5 -3.5t3.5 -8.5v-5q0 -24 18.5 -40t45.5 -16q26 0 41 15t15 38q0 20 -13 33.5t-28 20.5t-54 23q-57 22 -93.5 56t-36.5 101q0 70 44.5 109.5t120.5 39.5q78 0 123.5 -41.5t45.5 -111.5q0 -5 -3.5 -8.5t-8.5 -3.5
h-84q-5 0 -8.5 3.5t-3.5 8.5v6q0 24 -16.5 40t-41.5 16q-26 0 -41.5 -16.5t-15.5 -39.5q0 -19 12 -32t27 -20.5t50 -22.5q42 -17 70.5 -33.5t50 -47t21.5 -75.5q0 -67 -47 -106t-127 -39q-79 0 -126 38zM72 693q0 7 10 7h69q10 0 15 -8l35 -62q3 -4 6 0l34 62q5 8 15 8h70
q7 0 9.5 -3.5t-1.5 -10.5l-66 -103q-5 -8 -14 -8h-103q-10 0 -14 8l-63 103q-2 6 -2 7z" />
    <glyph glyph-name="uni0162" unicode="&#x162;" horiz-adv-x="452" 
d="M421.5 696.5q3.5 -3.5 3.5 -8.5v-76q0 -5 -3.5 -8.5t-8.5 -3.5h-127q-5 0 -5 -5v-583q0 -5 -3.5 -8.5t-8.5 -3.5h-92q-5 0 -8.5 3.5t-3.5 8.5v583q0 5 -5 5h-120q-5 0 -8.5 3.5t-3.5 8.5v76q0 5 3.5 8.5t8.5 3.5h373q5 0 8.5 -3.5zM199 -169l5 36q1 11 14 9
q17 -2 28.5 6.5t11.5 29.5q0 36 -39 73q-5 5 -5 9q0 2 3 4t7 2h49q9 0 15 -6q45 -44 45 -98q0 -16 -2 -24q-8 -33 -30.5 -47t-52.5 -14q-18 0 -40 6q-10 3 -9 14z" />
    <glyph glyph-name="uni0163" unicode="&#x163;" horiz-adv-x="282" 
d="M256.5 432.5q-3.5 -3.5 -8.5 -3.5h-62q-5 0 -5 -5v-262q0 -35 13 -48.5t39 -12.5h7q5 0 8.5 -3.5t3.5 -8.5v-77q0 -5 -3.5 -8.5t-8.5 -3.5h-16q-3 0 -4 -2t1 -4q29 -38 29 -79q0 -12 -3 -24q-7 -33 -30 -47t-53 -14q-19 0 -41 6q-10 3 -9 14l5 36q2 12 14 9
q17 -3 28.5 6.5t11.5 31.5q0 36 -43 76l-5 3q-27 13 -41.5 38.5t-14.5 68.5v305q0 5 -5 5h-35q-5 0 -8.5 3.5t-3.5 8.5v58q0 5 3.5 8.5t8.5 3.5h35q5 0 5 5v110q0 5 3.5 8.5t8.5 3.5h88q5 0 8.5 -3.5t3.5 -8.5v-110q0 -5 5 -5h62q5 0 8.5 -3.5t3.5 -8.5v-58q0 -5 -3.5 -8.5z
" />
    <glyph glyph-name="Tcaron" unicode="&#x164;" horiz-adv-x="452" 
d="M421.5 696.5q3.5 -3.5 3.5 -8.5v-76q0 -5 -3.5 -8.5t-8.5 -3.5h-127q-5 0 -5 -5v-583q0 -5 -3.5 -8.5t-8.5 -3.5h-92q-5 0 -8.5 3.5t-3.5 8.5v583q0 5 -5 5h-120q-5 0 -8.5 3.5t-3.5 8.5v76q0 5 3.5 8.5t8.5 3.5h373q5 0 8.5 -3.5zM95 880q0 7 10 7h69q10 0 15 -8l35 -62
q3 -4 6 0l34 62q5 8 15 8h70q7 0 9.5 -3.5t-1.5 -10.5l-66 -103q-5 -8 -14 -8h-103q-10 0 -14 8l-63 103q-2 6 -2 7z" />
    <glyph glyph-name="tcaron" unicode="&#x165;" horiz-adv-x="282" 
d="M256.5 432.5q-3.5 -3.5 -8.5 -3.5h-62q-5 0 -5 -5v-262q0 -35 13 -48.5t39 -12.5h7q5 0 8.5 -3.5t3.5 -8.5v-77q0 -5 -3.5 -8.5t-8.5 -3.5h-34q-68 0 -102.5 25t-34.5 94v305q0 5 -5 5h-35q-5 0 -8.5 3.5t-3.5 8.5v58q0 5 3.5 8.5t8.5 3.5h35q5 0 5 5v110q0 5 3.5 8.5
t8.5 3.5h88q5 0 8.5 -3.5t3.5 -8.5v-110q0 -5 5 -5h62q5 0 8.5 -3.5t3.5 -8.5v-58q0 -5 -3.5 -8.5zM203 580q-3 4 1 10l59 103q4 8 15 8h72q8 0 10 -4.5t-2 -10.5l-74 -103q-5 -7 -14 -7h-57q-7 0 -10 4z" />
    <glyph glyph-name="Tbar" unicode="&#x166;" horiz-adv-x="452" 
d="M421.5 603.5q-3.5 -3.5 -8.5 -3.5h-127q-5 0 -5 -5v-178q0 -5 5 -5h58q5 0 8.5 -3.5t3.5 -8.5v-47q0 -5 -3.5 -8.5t-8.5 -3.5h-58q-5 0 -5 -5v-324q0 -5 -3.5 -8.5t-8.5 -3.5h-92q-5 0 -8.5 3.5t-3.5 8.5v324q0 5 -5 5h-70q-5 0 -8.5 3.5t-3.5 8.5v47q0 5 3.5 8.5
t8.5 3.5h70q5 0 5 5v178q0 5 -5 5h-120q-5 0 -8.5 3.5t-3.5 8.5v76q0 5 3.5 8.5t8.5 3.5h373q5 0 8.5 -3.5t3.5 -8.5v-76q0 -5 -3.5 -8.5z" />
    <glyph glyph-name="tbar" unicode="&#x167;" horiz-adv-x="282" 
d="M257.5 283.5q-3.5 -3.5 -8.5 -3.5h-63q-5 0 -5 -5v-113q0 -35 13 -48.5t39 -12.5h7q5 0 8.5 -3.5t3.5 -8.5v-77q0 -5 -3.5 -8.5t-8.5 -3.5h-34q-68 0 -102.5 25t-34.5 94v156q0 5 -5 5h-33q-5 0 -8.5 3.5t-3.5 8.5v48q0 5 3.5 8.5t8.5 3.5h33q5 0 5 5v67q0 5 -5 5h-35
q-5 0 -8.5 3.5t-3.5 8.5v58q0 5 3.5 8.5t8.5 3.5h35q5 0 5 5v110q0 5 3.5 8.5t8.5 3.5h88q5 0 8.5 -3.5t3.5 -8.5v-110q0 -5 5 -5h62q5 0 8.5 -3.5t3.5 -8.5v-58q0 -5 -3.5 -8.5t-8.5 -3.5h-62q-5 0 -5 -5v-67q0 -5 5 -5h63q5 0 8.5 -3.5t3.5 -8.5v-48q0 -5 -3.5 -8.5z" />
    <glyph glyph-name="Utilde" unicode="&#x168;" horiz-adv-x="478" 
d="M101.5 47.5q-51.5 55.5 -51.5 146.5v494q0 5 3.5 8.5t8.5 3.5h92q5 0 8.5 -3.5t3.5 -8.5v-506q0 -40 20 -65t53 -25t53 25t20 65v506q0 5 3.5 8.5t8.5 3.5h92q5 0 8.5 -3.5t3.5 -8.5v-494q0 -91 -52 -146.5t-137 -55.5q-86 0 -137.5 55.5zM279 787.5q-12 4.5 -29 14.5
q-7 4 -15 9t-14 7.5t-14 2.5q-23 0 -38 -23q-7 -10 -17 -4l-32 23q-9 6 -5 16q14 32 35.5 47.5t47.5 15.5q16 0 30 -6t32 -17q4 -2 12 -7.5t15.5 -8.5t15.5 -3q24 0 38 22q6 12 16 5l32 -22q5 -3 5 -10q0 -6 -4 -13q-17 -28 -40.5 -40.5t-45.5 -12.5q-13 0 -25 4.5z" />
    <glyph glyph-name="utilde" unicode="&#x169;" 
d="M280.5 507.5q3.5 3.5 8.5 3.5h92q5 0 8.5 -3.5t3.5 -8.5v-487q0 -5 -3.5 -8.5t-8.5 -3.5h-92q-5 0 -8.5 3.5t-3.5 8.5v22q0 3 -2 4t-4 -2q-29 -43 -93 -43q-61 0 -98.5 36.5t-37.5 112.5v357q0 5 3.5 8.5t8.5 3.5h92q5 0 8.5 -3.5t3.5 -8.5v-332q0 -75 58 -75
q29 0 45 21.5t16 58.5v327q0 5 3.5 8.5zM256 598.5q-12 4.5 -29 14.5q-7 4 -15 9t-14 7.5t-14 2.5q-23 0 -38 -23q-7 -10 -17 -4l-32 23q-9 6 -5 16q14 32 35.5 47.5t47.5 15.5q16 0 30 -6t32 -17q4 -2 12 -7.5t15.5 -8.5t15.5 -3q24 0 38 22q6 12 16 5l32 -22q5 -3 5 -10
q0 -6 -4 -13q-17 -28 -40.5 -40.5t-45.5 -12.5q-13 0 -25 4.5z" />
    <glyph glyph-name="Umacron" unicode="&#x16a;" horiz-adv-x="478" 
d="M101.5 47.5q-51.5 55.5 -51.5 146.5v494q0 5 3.5 8.5t8.5 3.5h92q5 0 8.5 -3.5t3.5 -8.5v-506q0 -40 20 -65t53 -25t53 25t20 65v506q0 5 3.5 8.5t8.5 3.5h92q5 0 8.5 -3.5t3.5 -8.5v-494q0 -91 -52 -146.5t-137 -55.5q-86 0 -137.5 55.5zM132.5 778.5q-3.5 3.5 -3.5 8.5
v56q0 5 3.5 8.5t8.5 3.5h190q5 0 8.5 -3.5t3.5 -8.5v-56q0 -5 -3.5 -8.5t-8.5 -3.5h-190q-5 0 -8.5 3.5z" />
    <glyph glyph-name="umacron" unicode="&#x16b;" 
d="M280.5 507.5q3.5 3.5 8.5 3.5h92q5 0 8.5 -3.5t3.5 -8.5v-487q0 -5 -3.5 -8.5t-8.5 -3.5h-92q-5 0 -8.5 3.5t-3.5 8.5v22q0 3 -2 4t-4 -2q-29 -43 -93 -43q-61 0 -98.5 36.5t-37.5 112.5v357q0 5 3.5 8.5t8.5 3.5h92q5 0 8.5 -3.5t3.5 -8.5v-332q0 -75 58 -75
q29 0 45 21.5t16 58.5v327q0 5 3.5 8.5zM110.5 589.5q-3.5 3.5 -3.5 8.5v56q0 5 3.5 8.5t8.5 3.5h190q5 0 8.5 -3.5t3.5 -8.5v-56q0 -5 -3.5 -8.5t-8.5 -3.5h-190q-5 0 -8.5 3.5z" />
    <glyph glyph-name="Ubreve" unicode="&#x16c;" horiz-adv-x="478" 
d="M101.5 47.5q-51.5 55.5 -51.5 146.5v494q0 5 3.5 8.5t8.5 3.5h92q5 0 8.5 -3.5t3.5 -8.5v-506q0 -40 20 -65t53 -25t53 25t20 65v506q0 5 3.5 8.5t8.5 3.5h92q5 0 8.5 -3.5t3.5 -8.5v-494q0 -91 -52 -146.5t-137 -55.5q-86 0 -137.5 55.5zM160 787q-31 28 -35 74v2
q0 10 11 10h39q11 0 13 -12q3 -22 17 -35.5t34 -13.5q19 0 33 13.5t18 35.5q1 12 13 12h39q12 0 11 -12q-4 -46 -35.5 -74t-78.5 -28q-48 0 -79 28z" />
    <glyph glyph-name="ubreve" unicode="&#x16d;" 
d="M280.5 507.5q3.5 3.5 8.5 3.5h92q5 0 8.5 -3.5t3.5 -8.5v-487q0 -5 -3.5 -8.5t-8.5 -3.5h-92q-5 0 -8.5 3.5t-3.5 8.5v22q0 3 -2 4t-4 -2q-29 -43 -93 -43q-61 0 -98.5 36.5t-37.5 112.5v357q0 5 3.5 8.5t8.5 3.5h92q5 0 8.5 -3.5t3.5 -8.5v-332q0 -75 58 -75
q29 0 45 21.5t16 58.5v327q0 5 3.5 8.5zM138 598q-31 28 -35 74v2q0 10 11 10h39q11 0 13 -12q3 -22 17 -35.5t34 -13.5q19 0 33 13.5t18 35.5q1 12 13 12h39q12 0 11 -12q-4 -46 -35.5 -74t-78.5 -28q-48 0 -79 28z" />
    <glyph glyph-name="Uring" unicode="&#x16e;" horiz-adv-x="478" 
d="M101.5 47.5q-51.5 55.5 -51.5 146.5v494q0 5 3.5 8.5t8.5 3.5h92q5 0 8.5 -3.5t3.5 -8.5v-506q0 -40 20 -65t53 -25t53 25t20 65v506q0 5 3.5 8.5t8.5 3.5h92q5 0 8.5 -3.5t3.5 -8.5v-494q0 -91 -52 -146.5t-137 -55.5q-86 0 -137.5 55.5zM155 791.5q-34 34.5 -34 84.5
t34 84t84 34q49 0 83 -34t34 -84t-34 -84.5t-83 -34.5q-50 0 -84 34.5zM277 836.5q16 16.5 16 39.5q0 24 -16 40t-38 16q-23 0 -39 -16t-16 -40q0 -23 16 -39.5t39 -16.5q22 0 38 16.5z" />
    <glyph glyph-name="uring" unicode="&#x16f;" 
d="M280.5 507.5q3.5 3.5 8.5 3.5h92q5 0 8.5 -3.5t3.5 -8.5v-487q0 -5 -3.5 -8.5t-8.5 -3.5h-92q-5 0 -8.5 3.5t-3.5 8.5v22q0 3 -2 4t-4 -2q-29 -43 -93 -43q-61 0 -98.5 36.5t-37.5 112.5v357q0 5 3.5 8.5t8.5 3.5h92q5 0 8.5 -3.5t3.5 -8.5v-332q0 -75 58 -75
q29 0 45 21.5t16 58.5v327q0 5 3.5 8.5zM133 602.5q-34 34.5 -34 84.5t34 84t84 34q49 0 83 -34t34 -84t-34 -84.5t-83 -34.5q-50 0 -84 34.5zM255 647.5q16 16.5 16 39.5q0 24 -16 40t-38 16q-23 0 -39 -16t-16 -40q0 -23 16 -39.5t39 -16.5q22 0 38 16.5z" />
    <glyph glyph-name="Uhungarumlaut" unicode="&#x170;" horiz-adv-x="478" 
d="M101.5 47.5q-51.5 55.5 -51.5 146.5v494q0 5 3.5 8.5t8.5 3.5h92q5 0 8.5 -3.5t3.5 -8.5v-506q0 -40 20 -65t53 -25t53 25t20 65v506q0 5 3.5 8.5t8.5 3.5h92q5 0 8.5 -3.5t3.5 -8.5v-494q0 -91 -52 -146.5t-137 -55.5q-86 0 -137.5 55.5zM128.5 767.5q-2.5 3.5 0.5 10.5
l50 102q4 9 14 9h75q7 0 9 -4t-1 -10l-54 -102q-5 -9 -15 -9h-69q-7 0 -9.5 3.5zM275 768q-2 4 1 10l54 102q4 9 15 9h70q7 0 9 -4t-1 -10l-55 -103q-4 -8 -15 -8h-69q-7 0 -9 4z" />
    <glyph glyph-name="uhungarumlaut" unicode="&#x171;" 
d="M280.5 507.5q3.5 3.5 8.5 3.5h92q5 0 8.5 -3.5t3.5 -8.5v-487q0 -5 -3.5 -8.5t-8.5 -3.5h-92q-5 0 -8.5 3.5t-3.5 8.5v22q0 3 -2 4t-4 -2q-29 -43 -93 -43q-61 0 -98.5 36.5t-37.5 112.5v357q0 5 3.5 8.5t8.5 3.5h92q5 0 8.5 -3.5t3.5 -8.5v-332q0 -75 58 -75
q29 0 45 21.5t16 58.5v327q0 5 3.5 8.5zM105.5 578.5q-2.5 3.5 0.5 10.5l50 102q4 9 14 9h75q7 0 9 -4t-1 -10l-54 -102q-5 -9 -15 -9h-69q-7 0 -9.5 3.5zM252 579q-2 4 1 10l54 102q4 9 15 9h70q7 0 9 -4t-1 -10l-55 -103q-4 -8 -15 -8h-69q-7 0 -9 4z" />
    <glyph glyph-name="Uogonek" unicode="&#x172;" horiz-adv-x="478" 
d="M315.5 696.5q3.5 3.5 8.5 3.5h92q5 0 8.5 -3.5t3.5 -8.5v-494q0 -80 -40.5 -133t-109.5 -65l-5 -3q-38 -38 -38 -71q0 -22 11.5 -31.5t28.5 -6.5h3q10 0 11 -10l5 -35v-3q0 -8 -9 -11q-22 -6 -41 -6q-36 0 -61 19.5t-25 66.5q0 44 35 86q2 2 1.5 4t-3.5 2
q-66 15 -103.5 67t-37.5 130v494q0 5 3.5 8.5t8.5 3.5h92q5 0 8.5 -3.5t3.5 -8.5v-506q0 -40 20 -65t53 -25t53 25t20 65v506q0 5 3.5 8.5z" />
    <glyph glyph-name="uogonek" unicode="&#x173;" 
d="M382 -124q10 0 11 -10l5 -35v-3q0 -8 -9 -11q-22 -6 -41 -6q-35 0 -60 19.5t-25 65.5q0 53 44 98q3 2 2 4t-4 2h-16q-5 0 -8.5 3.5t-3.5 8.5v22q0 3 -2 4t-4 -2q-29 -43 -93 -43q-61 0 -98.5 36.5t-37.5 112.5v357q0 5 3.5 8.5t8.5 3.5h92q5 0 8.5 -3.5t3.5 -8.5v-332
q0 -75 58 -75q29 0 45 21.5t16 58.5v327q0 5 3.5 8.5t8.5 3.5h92q5 0 8.5 -3.5t3.5 -8.5v-490q0 -9 -7 -15q-47 -44 -47 -80q0 -7 1 -10q3 -17 13.5 -23.5t25.5 -4.5h3z" />
    <glyph glyph-name="Wcircumflex" unicode="&#x174;" horiz-adv-x="658" 
d="M157 11l-133 676l-1 4q0 9 11 9h96q12 0 13 -11l70 -417q1 -3 3 -3t3 3l63 417q1 11 13 11h80q12 0 13 -11l68 -417q1 -3 3 -3t3 3l63 417q1 11 13 11h93q13 0 11 -13l-127 -676q-1 -11 -13 -11h-85q-12 0 -13 11l-67 425q-1 4 -3 4t-3 -4l-62 -425q-1 -11 -13 -11h-86
q-12 0 -13 11zM194.5 767.5q-2.5 3.5 1.5 10.5l63 103q4 8 14 8h103q9 0 14 -8l66 -103q2 -6 2 -7q0 -7 -10 -7h-70q-10 0 -15 8l-34 63q-3 5 -6 0l-35 -63q-5 -8 -15 -8h-69q-7 0 -9.5 3.5z" />
    <glyph glyph-name="wcircumflex" unicode="&#x175;" horiz-adv-x="592" 
d="M126 11l-107 488v4q0 9 11 9h88q12 0 13 -11l52 -311q1 -3 3 -3t3 3l55 311q1 11 13 11h78q12 0 13 -11l56 -312q1 -3 3 -3t3 3l53 312q1 11 13 11l87 -2q13 0 10 -13l-107 -486q-2 -11 -13 -11h-90q-12 0 -13 11l-53 292q-1 3 -3 3t-3 -3l-52 -292q-1 -11 -13 -11h-87
q-11 0 -13 11zM162.5 578.5q-2.5 3.5 1.5 10.5l63 103q4 8 14 8h103q9 0 14 -8l66 -103q2 -6 2 -7q0 -7 -10 -7h-70q-10 0 -15 8l-34 63q-3 5 -6 0l-35 -63q-5 -8 -15 -8h-69q-7 0 -9.5 3.5z" />
    <glyph glyph-name="Ycircumflex" unicode="&#x176;" horiz-adv-x="456" 
d="M173.5 4.5q-3.5 3.5 -3.5 8.5v273l-1 6l-139 394q-1 2 -1 5q0 9 11 9h96q11 0 14 -10l75 -257q1 -3 3 -3t3 3l75 257q3 10 14 10h96q6 0 9 -3.5t1 -10.5l-139 -394l-1 -6v-273q0 -5 -3.5 -8.5t-8.5 -3.5h-92q-5 0 -8.5 3.5zM95.5 767.5q-2.5 3.5 1.5 10.5l63 103
q4 8 14 8h103q9 0 14 -8l66 -103q2 -6 2 -7q0 -7 -10 -7h-70q-10 0 -15 8l-34 63q-3 5 -6 0l-35 -63q-5 -8 -15 -8h-69q-7 0 -9.5 3.5z" />
    <glyph glyph-name="ycircumflex" unicode="&#x177;" horiz-adv-x="403" 
d="M36 -195.5q-2 3.5 -2 8.5v72q0 5 3 8.5t7 3.5q33 1 52 8.5t30.5 29t16.5 62.5l-1 6l-126 496v4q0 9 11 9h98q12 0 13 -11l61 -331q1 -3 3 -3t3 3l59 331q1 11 13 11l99 -2q14 0 11 -13l-134 -525q-19 -71 -40 -106t-59 -50t-109 -15h-5q-2 0 -4 3.5zM68.5 578.5
q-2.5 3.5 1.5 10.5l63 103q4 8 14 8h103q9 0 14 -8l66 -103q2 -6 2 -7q0 -7 -10 -7h-70q-10 0 -15 8l-34 63q-3 5 -6 0l-35 -63q-5 -8 -15 -8h-69q-7 0 -9.5 3.5z" />
    <glyph glyph-name="Ydieresis" unicode="&#x178;" horiz-adv-x="456" 
d="M173.5 4.5q-3.5 3.5 -3.5 8.5v273l-1 6l-139 394q-1 2 -1 5q0 9 11 9h96q11 0 14 -10l75 -257q1 -3 3 -3t3 3l75 257q3 10 14 10h96q6 0 9 -3.5t1 -10.5l-139 -394l-1 -6v-273q0 -5 -3.5 -8.5t-8.5 -3.5h-92q-5 0 -8.5 3.5zM264 790q-20 20 -20 51t20 51t51 20t50.5 -20
t19.5 -51t-20 -51t-50 -20q-31 0 -51 20zM92 790q-20 20 -20 51t20 51t51 20t50.5 -20t19.5 -51t-20 -51t-50 -20q-31 0 -51 20z" />
    <glyph glyph-name="Zacute" unicode="&#x179;" horiz-adv-x="406" 
d="M28.5 3.5q-3.5 3.5 -3.5 8.5v80q0 8 3 15l224 487q1 2 0 4t-3 2h-212q-5 0 -8.5 3.5t-3.5 8.5v76q0 5 3.5 8.5t8.5 3.5h328q5 0 8.5 -3.5t3.5 -8.5v-80q0 -7 -3 -15l-224 -487q-1 -2 0 -4t3 -2h212q5 0 8.5 -3.5t3.5 -8.5v-76q0 -5 -3.5 -8.5t-8.5 -3.5h-328
q-5 0 -8.5 3.5zM146 768q-3 4 1 10l59 103q4 8 15 8h72q8 0 10 -4.5t-2 -10.5l-74 -103q-5 -7 -14 -7h-57q-7 0 -10 4z" />
    <glyph glyph-name="zacute" unicode="&#x17a;" horiz-adv-x="368" 
d="M27.5 3.5q-3.5 3.5 -3.5 8.5v85q0 8 4 15l172 288q3 6 -3 6h-157q-5 0 -8.5 3.5t-3.5 8.5v81q0 5 3.5 8.5t8.5 3.5h289q5 0 8.5 -3.5t3.5 -8.5v-85q0 -8 -4 -15l-177 -288q-3 -6 3 -6h171q5 0 8.5 -3.5t3.5 -8.5v-81q0 -5 -3.5 -8.5t-8.5 -3.5h-298q-5 0 -8.5 3.5z
M129 579q-3 4 1 10l59 103q4 8 15 8h72q8 0 10 -4.5t-2 -10.5l-74 -103q-5 -7 -14 -7h-57q-7 0 -10 4z" />
    <glyph glyph-name="Zdotaccent" unicode="&#x17b;" horiz-adv-x="406" 
d="M28.5 3.5q-3.5 3.5 -3.5 8.5v80q0 8 3 15l224 487q1 2 0 4t-3 2h-212q-5 0 -8.5 3.5t-3.5 8.5v76q0 5 3.5 8.5t8.5 3.5h328q5 0 8.5 -3.5t3.5 -8.5v-80q0 -7 -3 -15l-224 -487q-1 -2 0 -4t3 -2h212q5 0 8.5 -3.5t3.5 -8.5v-76q0 -5 -3.5 -8.5t-8.5 -3.5h-328
q-5 0 -8.5 3.5zM151 790q-20 20 -20 51t20 51t51 20t50.5 -20t19.5 -51t-20 -51t-50 -20q-31 0 -51 20z" />
    <glyph glyph-name="zdotaccent" unicode="&#x17c;" horiz-adv-x="368" 
d="M27.5 3.5q-3.5 3.5 -3.5 8.5v85q0 8 4 15l172 288q3 6 -3 6h-157q-5 0 -8.5 3.5t-3.5 8.5v81q0 5 3.5 8.5t8.5 3.5h289q5 0 8.5 -3.5t3.5 -8.5v-85q0 -8 -4 -15l-177 -288q-3 -6 3 -6h171q5 0 8.5 -3.5t3.5 -8.5v-81q0 -5 -3.5 -8.5t-8.5 -3.5h-298q-5 0 -8.5 3.5z
M135 601q-20 20 -20 51t20 51t51 20t50.5 -20t19.5 -51t-20 -51t-50 -20q-31 0 -51 20z" />
    <glyph glyph-name="Zcaron" unicode="&#x17d;" horiz-adv-x="406" 
d="M28.5 3.5q-3.5 3.5 -3.5 8.5v80q0 8 3 15l224 487q1 2 0 4t-3 2h-212q-5 0 -8.5 3.5t-3.5 8.5v76q0 5 3.5 8.5t8.5 3.5h328q5 0 8.5 -3.5t3.5 -8.5v-80q0 -7 -3 -15l-224 -487q-1 -2 0 -4t3 -2h212q5 0 8.5 -3.5t3.5 -8.5v-76q0 -5 -3.5 -8.5t-8.5 -3.5h-328
q-5 0 -8.5 3.5zM73 882q0 7 10 7h69q10 0 15 -8l35 -62q3 -4 6 0l34 62q5 8 15 8h70q7 0 9.5 -3.5t-1.5 -10.5l-66 -103q-5 -8 -14 -8h-103q-10 0 -14 8l-63 103q-2 6 -2 7z" />
    <glyph glyph-name="zcaron" unicode="&#x17e;" horiz-adv-x="368" 
d="M27.5 3.5q-3.5 3.5 -3.5 8.5v85q0 8 4 15l172 288q3 6 -3 6h-157q-5 0 -8.5 3.5t-3.5 8.5v81q0 5 3.5 8.5t8.5 3.5h289q5 0 8.5 -3.5t3.5 -8.5v-85q0 -8 -4 -15l-177 -288q-3 -6 3 -6h171q5 0 8.5 -3.5t3.5 -8.5v-81q0 -5 -3.5 -8.5t-8.5 -3.5h-298q-5 0 -8.5 3.5z
M57 693q0 7 10 7h69q10 0 15 -8l35 -62q3 -4 6 0l34 62q5 8 15 8h70q7 0 9.5 -3.5t-1.5 -10.5l-66 -103q-5 -8 -14 -8h-103q-10 0 -14 8l-63 103q-2 6 -2 7z" />
    <glyph glyph-name="uni018F" unicode="&#x18f;" horiz-adv-x="534" 
d="M385 681q51 -27 79 -76t28 -114v-285q0 -63 -28 -112.5t-79.5 -77t-119.5 -27.5q-69 0 -120.5 27.5t-79 77t-27.5 112.5v170q0 5 3.5 8.5t8.5 3.5h321q5 0 5 5v90q0 55 -31 89.5t-80 34.5q-41 0 -68 -25.5t-36 -68.5q-3 -10 -13 -10l-95 4q-13 0 -11 13q10 89 67.5 138.5
t155.5 49.5q69 0 120 -27zM345 125q31 35 31 90v67q0 5 -5 5h-213q-5 0 -5 -5v-67q0 -55 31.5 -90t80.5 -35t80 35z" />
    <glyph glyph-name="florin" unicode="&#x192;" horiz-adv-x="475" 
d="M277 671q39 36 121 36q12 0 40 -2q12 -1 12 -13l-2 -71q0 -5 -3.5 -8.5t-8.5 -3.5h-26q-32 -1 -47.5 -21.5t-22.5 -59.5l-19 -119q0 -5 4 -5h62q5 0 8.5 -3.5t3.5 -8.5v-62q0 -5 -3.5 -8.5t-8.5 -3.5h-76q-6 0 -6 -5l-60 -367q-12 -80 -51 -116.5t-120 -36.5q-12 0 -40 2
q-12 1 -12 12l1 72q0 5 3.5 8.5t8.5 3.5h26q31 1 47.5 22t22.5 59l55 341q0 5 -4 5h-46q-5 0 -8.5 3.5t-3.5 8.5v62q0 5 3.5 8.5t8.5 3.5h61q6 0 6 5l23 145q12 81 51 117z" />
    <glyph glyph-name="Ohorn" unicode="&#x1a0;" horiz-adv-x="467" 
d="M366 662q59 -53 59 -144v-336q0 -86 -53 -138t-139 -52t-138.5 52t-52.5 138v336q0 86 52.5 138t138.5 52q26 0 58 -7q2 -1 6 -1q22 2 38 19t19 52q0 12 12 12h39q6 0 9 -4.5t2 -13.5q-6 -64 -49 -96q-4 -3 -1 -7zM309 523q0 38 -21 61.5t-55 23.5t-54.5 -23.5
t-20.5 -61.5v-346q0 -38 20.5 -61.5t54.5 -23.5t55 23.5t21 61.5v346z" />
    <glyph glyph-name="ohorn" unicode="&#x1a1;" horiz-adv-x="432" 
d="M349 472q46 -43 46 -116v-201q0 -75 -47.5 -119t-131.5 -44q-83 0 -130.5 44t-47.5 119v201q0 74 48 118.5t130 44.5q29 0 60 -7q2 -1 6 -1q22 3 37.5 20t18.5 51q0 12 12 12h39q5 0 8.5 -4.5t2.5 -12.5q-6 -67 -50 -98q-4 -3 -1 -7zM261.5 399q-17.5 20 -45.5 20
t-45 -19.5t-17 -51.5v-184q0 -32 17 -51.5t45 -19.5t45.5 19.5t17.5 51.5v184q0 31 -17.5 51z" />
    <glyph glyph-name="Uhorn" unicode="&#x1af;" horiz-adv-x="478" 
d="M507 771q-3 -45 -23 -73.5t-52 -41.5q-4 -1 -4 -5v-457q0 -91 -52 -146.5t-137 -55.5q-86 0 -137.5 55.5t-51.5 146.5v494q0 5 3.5 8.5t8.5 3.5h92q5 0 8.5 -3.5t3.5 -8.5v-506q0 -40 20 -65t53 -25t53 25t20 65v506q0 5 3.5 8.5t8.5 3.5h56q24 0 42.5 17t21.5 54
q0 12 12 12h39q12 0 12 -12z" />
    <glyph glyph-name="uhorn" unicode="&#x1b0;" 
d="M469 582q-3 -44 -22 -72.5t-50 -40.5q-4 -3 -4 -6v-451q0 -5 -3.5 -8.5t-8.5 -3.5h-92q-5 0 -8.5 3.5t-3.5 8.5v22q0 3 -2 4t-4 -2q-29 -43 -93 -43q-61 0 -98.5 36.5t-37.5 112.5v357q0 5 3.5 8.5t8.5 3.5h92q5 0 8.5 -3.5t3.5 -8.5v-332q0 -75 58 -75q29 0 45 21.5
t16 58.5v327q0 5 3.5 8.5t8.5 3.5h54q23 0 41.5 17t21.5 54q0 12 12 12h39q12 0 12 -12z" />
    <glyph glyph-name="uni01CD" unicode="&#x1cd;" horiz-adv-x="456" 
d="M325 11l-19 105q0 5 -6 5h-146q-6 0 -6 -5l-19 -105q-1 -11 -13 -11h-91q-14 0 -11 13l148 676q2 11 13 11h106q11 0 13 -11l148 -676v-4q0 -9 -11 -9h-93q-12 0 -13 11zM171 212h111q6 0 5 5l-58 316q-1 3 -3 3t-3 -3l-57 -316q-1 -5 5 -5zM98 880q0 7 10 7h69
q10 0 15 -8l35 -62q3 -4 6 0l34 62q5 8 15 8h70q7 0 9.5 -3.5t-1.5 -10.5l-66 -103q-5 -8 -14 -8h-103q-10 0 -14 8l-63 103q-2 6 -2 7z" />
    <glyph glyph-name="uni01CE" unicode="&#x1ce;" horiz-adv-x="433" 
d="M348 473q49 -46 49 -121v-340q0 -5 -3.5 -8.5t-8.5 -3.5h-92q-5 0 -8.5 3.5t-3.5 8.5v19q0 3 -2 4t-4 -2q-35 -41 -102 -41q-57 0 -100.5 32.5t-43.5 118.5q0 90 52.5 128t142.5 38h52q5 0 5 5v26q0 36 -18 57.5t-45 21.5q-21 0 -35 -13.5t-17 -36.5q-1 -12 -13 -12h-97
q-12 0 -11 12q5 68 53.5 109t121.5 41q79 0 128 -46zM258 107q23 19 23 53v57q0 5 -5 5h-52q-34 0 -55 -18.5t-21 -53.5q0 -31 16 -46.5t41 -15.5q30 0 53 19zM86 692q0 7 10 7h69q10 0 15 -8l35 -62q3 -4 6 0l34 62q5 8 15 8h70q7 0 9.5 -3.5t-1.5 -10.5l-66 -103
q-5 -8 -14 -8h-103q-10 0 -14 8l-63 103q-2 6 -2 7z" />
    <glyph glyph-name="uni01D4" unicode="&#x1d4;" 
d="M280.5 507.5q3.5 3.5 8.5 3.5h92q5 0 8.5 -3.5t3.5 -8.5v-487q0 -5 -3.5 -8.5t-8.5 -3.5h-92q-5 0 -8.5 3.5t-3.5 8.5v22q0 3 -2 4t-4 -2q-29 -43 -93 -43q-61 0 -98.5 36.5t-37.5 112.5v357q0 5 3.5 8.5t8.5 3.5h92q5 0 8.5 -3.5t3.5 -8.5v-332q0 -75 58 -75
q29 0 45 21.5t16 58.5v327q0 5 3.5 8.5zM86 692q0 7 10 7h69q10 0 15 -8l35 -62q3 -4 6 0l34 62q5 8 15 8h70q7 0 9.5 -3.5t-1.5 -10.5l-66 -103q-5 -8 -14 -8h-103q-10 0 -14 8l-63 103q-2 6 -2 7z" />
    <glyph glyph-name="uni01E5" unicode="&#x1e5;" horiz-adv-x="442" 
d="M432.5 287.5q3.5 -3.5 3.5 -8.5v-47q0 -5 -3.5 -8.5t-8.5 -3.5h-28q-5 0 -5 -5v-196q0 -108 -49 -166.5t-175 -58.5q-22 0 -33 1q-12 1 -12 13v77q0 13 13 11q57 -1 87.5 14t41.5 44t11 76v11q0 3 -2 3.5t-4 -2.5q-33 -43 -94 -43q-67 0 -102 43.5t-35 118.5v196
q0 77 35.5 119.5t101.5 42.5q61 0 94 -43q2 -3 4 -2.5t2 3.5v22q0 5 3.5 8.5t8.5 3.5h92q5 0 8.5 -3.5t3.5 -8.5v-203q0 -5 5 -5h28q5 0 8.5 -3.5zM258.5 118.5q16.5 19.5 16.5 50.5v46q0 5 -5 5h-51q-5 0 -8.5 3.5t-3.5 8.5v47q0 5 3.5 8.5t8.5 3.5h51q5 0 5 5v52
q0 32 -16.5 51.5t-43.5 19.5t-44 -20t-17 -51v-179q0 -31 17 -50.5t44 -19.5t43.5 19.5z" />
    <glyph glyph-name="gcaron" unicode="&#x1e7;" horiz-adv-x="431" 
d="M278.5 507.5q3.5 3.5 8.5 3.5h92q5 0 8.5 -3.5t3.5 -8.5v-480q0 -108 -49 -166.5t-175 -58.5q-22 0 -33 1q-12 1 -12 13v77q0 13 13 11q57 -1 87.5 14t41.5 44t11 76v11q0 3 -2 3.5t-4 -2.5q-33 -43 -94 -43q-67 0 -102 43.5t-35 118.5v196q0 77 35.5 119.5t101.5 42.5
q61 0 94 -43q2 -3 4 -2.5t2 3.5v22q0 5 3.5 8.5zM258.5 118.5q16.5 19.5 16.5 50.5v179q0 32 -16.5 51.5t-43.5 19.5t-44 -20t-17 -51v-179q0 -31 17 -50.5t44 -19.5t43.5 19.5zM86 692q0 7 10 7h69q10 0 15 -8l35 -62q3 -4 6 0l34 62q5 8 15 8h70q7 0 9.5 -3.5t-1.5 -10.5
l-66 -103q-5 -8 -14 -8h-103q-10 0 -14 8l-63 103q-2 6 -2 7z" />
    <glyph glyph-name="uni01E9" unicode="&#x1e9;" horiz-adv-x="433" 
d="M49.5 3.5q-3.5 3.5 -3.5 8.5v676q0 5 3.5 8.5t8.5 3.5h92q5 0 8.5 -3.5t3.5 -8.5v-356q0 -4 2 -4t4 3l109 172q4 8 14 8h96q7 0 9 -4.5t-2 -10.5l-104 -157q-2 -4 -1 -7l120 -318q1 -2 1 -5q0 -9 -11 -9h-95q-10 0 -13 10l-74 226q-1 3 -3 3.5t-3 -2.5l-47 -70
q-2 -4 -2 -6v-149q0 -5 -3.5 -8.5t-8.5 -3.5h-92q-5 0 -8.5 3.5zM88 880q0 7 10 7h69q10 0 15 -8l35 -62q3 -4 6 0l34 62q5 8 15 8h70q7 0 9.5 -3.5t-1.5 -10.5l-66 -103q-5 -8 -14 -8h-103q-10 0 -14 8l-63 103q-2 6 -2 7z" />
    <glyph glyph-name="uni01EF" unicode="&#x1ef;" horiz-adv-x="424" 
d="M215.5 256q0.5 -2 3.5 -2q84 -19 129.5 -79.5t45.5 -142.5q0 -70 -33.5 -123.5t-90.5 -82t-124 -28.5q-45 0 -93 14q-10 3 -10 14l3 77q0 6 3.5 9t9.5 1q36 -12 72 -12q61 0 104 33t43 106q0 55 -31 93t-93 38q-27 0 -56 -7l-4 -1q-8 0 -11 8l-25 58q-2 6 -2 7q0 4 5 9
l155 155q2 2 1 4t-4 2h-163q-5 0 -8.5 3.5t-3.5 8.5v81q0 5 3.5 8.5t8.5 3.5h300q5 0 8.5 -3.5t3.5 -8.5v-84q0 -9 -6 -15l-139 -140q-2 -2 -1.5 -4zM75 692q0 7 10 7h69q10 0 15 -8l35 -62q3 -4 6 0l34 62q5 8 15 8h70q7 0 9.5 -3.5t-1.5 -10.5l-66 -103q-5 -8 -14 -8h-103
q-10 0 -14 8l-63 103q-2 6 -2 7z" />
    <glyph glyph-name="oslashacute" unicode="&#x1ff;" horiz-adv-x="432" 
d="M404 507l-29 -56q-1 -4 0 -7q23 -38 23 -88v-201q0 -75 -47.5 -119t-131.5 -44q-38 0 -68 9q-4 2 -6 -3l-21 -42q-2 -5 -7 -6.5t-10 1.5l-58 36q-9 6 -5 16l25 49q2 4 0 7q-28 38 -28 96v201q0 74 48 118.5t130 44.5q42 0 75 -12q5 0 6 3l23 45q2 5 7 6t10 -2l59 -36
q9 -6 5 -16zM159.5 234.5q2.5 -0.5 3.5 3.5l85 169q2 5 -2 6q-12 6 -27 6q-28 0 -45 -19.5t-17 -51.5v-109q0 -4 2.5 -4.5zM279.5 258.5q-2.5 0.5 -3.5 -3.5l-79 -153q-2 -5 3 -7q12 -2 19 -2q28 0 45.5 19.5t17.5 51.5v90q0 4 -2.5 4.5zM160 579q-3 4 1 10l59 103q4 8 15 8
h72q8 0 10 -4.5t-2 -10.5l-74 -103q-5 -7 -14 -7h-57q-7 0 -10 4z" />
    <glyph glyph-name="uni0218" unicode="&#x218;" horiz-adv-x="434" 
d="M85 42q-51 50 -51 131v26q0 5 3.5 8.5t8.5 3.5h91q5 0 8.5 -3.5t3.5 -8.5v-20q0 -39 19.5 -63t50.5 -24t51 22.5t20 59.5q0 26 -11 45t-31 36t-64 49q-50 36 -80.5 64t-51 67.5t-20.5 91.5q0 83 50 132t132 49q83 0 134 -51.5t51 -136.5v-24q0 -5 -3.5 -8.5t-8.5 -3.5
h-90q-5 0 -8.5 3.5t-3.5 8.5v26q0 39 -19.5 62.5t-51.5 23.5q-30 0 -49 -21.5t-19 -59.5q0 -36 20.5 -61t80.5 -69q61 -45 92 -73.5t48 -62.5t17 -81q0 -85 -51 -136.5t-134 -51.5t-134 50zM144 -183q-3 4 1 10l59 103q4 8 15 8h72q8 0 10 -4.5t-2 -10.5l-74 -103
q-5 -7 -14 -7h-57q-7 0 -10 4z" />
    <glyph glyph-name="uni0219" unicode="&#x219;" horiz-adv-x="399" 
d="M77 32q-47 38 -47 103v7q0 5 3.5 8.5t8.5 3.5h86q5 0 8.5 -3.5t3.5 -8.5v-5q0 -24 18.5 -40t45.5 -16q26 0 41 15t15 38q0 20 -13 33.5t-28 20.5t-54 23q-57 22 -93.5 56t-36.5 101q0 70 44.5 109.5t120.5 39.5q78 0 123.5 -41.5t45.5 -111.5q0 -5 -3.5 -8.5t-8.5 -3.5
h-84q-5 0 -8.5 3.5t-3.5 8.5v6q0 24 -16.5 40t-41.5 16q-26 0 -41.5 -16.5t-15.5 -39.5q0 -19 12 -32t27 -20.5t50 -22.5q42 -17 70.5 -33.5t50 -47t21.5 -75.5q0 -67 -47 -106t-127 -39q-79 0 -126 38zM132 -181q-3 4 1 10l59 103q4 8 15 8h72q8 0 10 -4.5t-2 -10.5
l-74 -103q-5 -7 -14 -7h-57q-7 0 -10 4z" />
    <glyph glyph-name="uni021A" unicode="&#x21a;" horiz-adv-x="452" 
d="M421.5 696.5q3.5 -3.5 3.5 -8.5v-76q0 -5 -3.5 -8.5t-8.5 -3.5h-127q-5 0 -5 -5v-583q0 -5 -3.5 -8.5t-8.5 -3.5h-92q-5 0 -8.5 3.5t-3.5 8.5v583q0 5 -5 5h-120q-5 0 -8.5 3.5t-3.5 8.5v76q0 5 3.5 8.5t8.5 3.5h373q5 0 8.5 -3.5zM94 -177q-3 4 1 10l59 103q4 8 15 8h72
q8 0 10 -4.5t-2 -10.5l-74 -103q-5 -7 -14 -7h-57q-7 0 -10 4z" />
    <glyph glyph-name="uni021B" unicode="&#x21b;" horiz-adv-x="282" 
d="M256.5 432.5q-3.5 -3.5 -8.5 -3.5h-62q-5 0 -5 -5v-262q0 -35 13 -48.5t39 -12.5h7q5 0 8.5 -3.5t3.5 -8.5v-77q0 -5 -3.5 -8.5t-8.5 -3.5h-34q-68 0 -102.5 25t-34.5 94v305q0 5 -5 5h-35q-5 0 -8.5 3.5t-3.5 8.5v58q0 5 3.5 8.5t8.5 3.5h35q5 0 5 5v110q0 5 3.5 8.5
t8.5 3.5h88q5 0 8.5 -3.5t3.5 -8.5v-110q0 -5 5 -5h62q5 0 8.5 -3.5t3.5 -8.5v-58q0 -5 -3.5 -8.5zM94 -168q-3 4 1 10l59 103q4 8 15 8h72q8 0 10 -4.5t-2 -10.5l-74 -103q-5 -7 -14 -7h-57q-7 0 -10 4z" />
    <glyph glyph-name="uni021F" unicode="&#x21f;" 
d="M363.5 475.5q33.5 -43.5 33.5 -123.5v-340q0 -5 -3.5 -8.5t-8.5 -3.5h-92q-5 0 -8.5 3.5t-3.5 8.5v331q0 36 -15 56t-43 20q-29 0 -45 -21t-16 -58v-328q0 -5 -3.5 -8.5t-8.5 -3.5h-92q-5 0 -8.5 3.5t-3.5 8.5v676q0 5 3.5 8.5t8.5 3.5h92q5 0 8.5 -3.5t3.5 -8.5v-209
q0 -3 2.5 -3.5t5.5 3.5q34 40 95 40q65 0 98.5 -43.5zM94 880q0 7 10 7h69q10 0 15 -8l35 -62q3 -4 6 0l34 62q5 8 15 8h70q7 0 9.5 -3.5t-1.5 -10.5l-66 -103q-5 -8 -14 -8h-103q-10 0 -14 8l-63 103q-2 6 -2 7z" />
    <glyph glyph-name="uni0228" unicode="&#x228;" horiz-adv-x="435" 
d="M399.5 603.5q-3.5 -3.5 -8.5 -3.5h-216q-5 0 -5 -5v-189q0 -5 5 -5h128q5 0 8.5 -3.5t3.5 -8.5v-77q0 -5 -3.5 -8.5t-8.5 -3.5h-128q-5 0 -5 -5v-190q0 -5 5 -5h216q5 0 8.5 -3.5t3.5 -8.5v-76q0 -5 -3.5 -8.5t-8.5 -3.5h-119q-3 0 -4 -2t1 -4q35 -41 35 -85
q0 -47 -24.5 -66.5t-60.5 -19.5q-20 0 -42 6q-9 3 -8 14l5 35q1 12 14 10q14 -2 24.5 4.5t14.5 23.5q6 36 -38 81q-3 3 -7 3h-116q-5 0 -8.5 3.5t-3.5 8.5v676q0 5 3.5 8.5t8.5 3.5h325q5 0 8.5 -3.5t3.5 -8.5v-76q0 -5 -3.5 -8.5z" />
    <glyph glyph-name="uni0229" unicode="&#x229;" horiz-adv-x="426" 
d="M388.5 216.5q-3.5 -3.5 -8.5 -3.5h-221q-5 0 -5 -5v-45q0 -31 17 -51t44 -20q23 0 39.5 14.5t21.5 37.5q3 10 13 10l89 -4q5 0 8.5 -3.5t2.5 -9.5q-5 -57 -36.5 -93.5t-87.5 -47.5q-6 -2 -3 -6q32 -39 32 -81q0 -47 -24.5 -66.5t-60.5 -19.5q-20 0 -42 6q-9 3 -8 14l5 35
q1 12 14 10q14 -2 24.5 4.5t14.5 23.5l1 9q0 30 -34 66q-1 3 -5 3q-66 11 -103.5 52.5t-37.5 107.5v203q0 73 47.5 117.5t129.5 44.5t129.5 -44.5t47.5 -117.5v-132q0 -5 -3.5 -8.5zM171 399q-17 -20 -17 -51v-45q0 -5 5 -5h113q5 0 5 5v45q0 32 -17 51.5t-45 19.5
q-27 0 -44 -20z" />
    <glyph glyph-name="uni0237" unicode="&#x237;" horiz-adv-x="212" 
d="M-47 -193v75q0 12 12 12q44 1 62.5 24t18.5 66v515q0 5 3.5 8.5t8.5 3.5h92q5 0 8.5 -3.5t3.5 -8.5v-515q0 -67 -13 -106.5t-56 -61.5t-128 -21q-12 0 -12 12z" />
    <glyph glyph-name="uni0259" unicode="&#x259;" horiz-adv-x="426" 
d="M340.5 475.5q47.5 -43.5 47.5 -118.5v-202q0 -73 -48 -118t-129 -45q-82 0 -129.5 45t-47.5 118v131q0 5 3.5 8.5t8.5 3.5h221q5 0 5 5v45q0 32 -17 52t-44 20q-23 0 -39 -15t-22 -38q-3 -10 -13 -10l-89 4q-5 0 -8.5 3.5t-2.5 8.5q7 71 51 108.5t123 37.5
q82 0 129.5 -43.5zM255 112q17 20 17 51v46q0 5 -5 5h-113q-5 0 -5 -5v-46q0 -32 17 -51.5t45 -19.5q27 0 44 20z" />
    <glyph glyph-name="uni0292" unicode="&#x292;" horiz-adv-x="424" 
d="M215.5 256q0.5 -2 3.5 -2q84 -19 129.5 -79.5t45.5 -142.5q0 -70 -33.5 -123.5t-90.5 -82t-124 -28.5q-45 0 -93 14q-10 3 -10 14l3 77q0 6 3.5 9t9.5 1q36 -12 72 -12q61 0 104 33t43 106q0 55 -31 93t-93 38q-27 0 -56 -7l-4 -1q-8 0 -11 8l-25 58q-2 6 -2 7q0 4 5 9
l155 155q2 2 1 4t-4 2h-163q-5 0 -8.5 3.5t-3.5 8.5v81q0 5 3.5 8.5t8.5 3.5h300q5 0 8.5 -3.5t3.5 -8.5v-84q0 -9 -6 -15l-139 -140q-2 -2 -1.5 -4z" />
    <glyph glyph-name="uni02BB" unicode="&#x2bb;" horiz-adv-x="165" 
d="M4 691q0 9 10 9h92q11 0 13 -11l43 -194v-4q0 -9 -11 -9h-68q-10 0 -13 10l-65 194q-1 2 -1 5z" />
    <glyph glyph-name="uni02BC" unicode="&#x2bc;" horiz-adv-x="165" 
d="M159.5 696.5q2.5 -3.5 0.5 -10.5l-65 -194q-3 -10 -13 -10h-69q-13 0 -10 13l42 194q2 11 13 11h93q6 0 8.5 -3.5z" />
    <glyph glyph-name="circumflex" unicode="&#x2c6;" horiz-adv-x="277" 
d="M22.5 578.5q-2.5 3.5 1.5 10.5l63 103q4 8 14 8h103q9 0 14 -8l66 -103q2 -6 2 -7q0 -7 -10 -7h-70q-10 0 -15 8l-34 63q-3 5 -6 0l-35 -63q-5 -8 -15 -8h-69q-7 0 -9.5 3.5z" />
    <glyph glyph-name="caron" unicode="&#x2c7;" horiz-adv-x="312" 
d="M24 693q0 7 10 7h69q10 0 15 -8l35 -62q3 -4 6 0l34 62q5 8 15 8h70q7 0 9.5 -3.5t-1.5 -10.5l-66 -103q-5 -8 -14 -8h-103q-10 0 -14 8l-63 103q-2 6 -2 7z" />
    <glyph glyph-name="uni02C9" unicode="&#x2c9;" horiz-adv-x="214" 
d="M3.5 623.5q-3.5 3.5 -3.5 8.5v56q0 5 3.5 8.5t8.5 3.5h190q5 0 8.5 -3.5t3.5 -8.5v-56q0 -5 -3.5 -8.5t-8.5 -3.5h-190q-5 0 -8.5 3.5z" />
    <glyph glyph-name="breve" unicode="&#x2d8;" horiz-adv-x="263" 
d="M53 580q-31 28 -35 74v2q0 10 11 10h39q12 0 13 -12q3 -22 17 -35.5t34 -13.5t34 13.5t17 35.5q2 12 13 12h39q13 0 11 -12q-4 -46 -35.5 -74t-78.5 -28q-48 0 -79 28z" />
    <glyph glyph-name="dotaccent" unicode="&#x2d9;" horiz-adv-x="175" 
d="M37 601q-20 20 -20 51t20 51t51 20t50.5 -20t19.5 -51t-20 -51t-50 -20q-31 0 -51 20z" />
    <glyph glyph-name="ring" unicode="&#x2da;" horiz-adv-x="268" 
d="M51 602.5q-34 34.5 -34 84.5t34 84t84 34q49 0 83 -34t34 -84t-34 -84.5t-83 -34.5q-50 0 -84 34.5zM173 647.5q16 16.5 16 39.5q0 24 -16 40t-38 16q-23 0 -39 -16t-16 -40q0 -23 16 -39.5t39 -16.5q22 0 38 16.5z" />
    <glyph glyph-name="ogonek" unicode="&#x2db;" horiz-adv-x="140" 
d="M134 -173q0 -7 -8 -10q-22 -6 -41 -6q-37 0 -61.5 19.5t-24.5 66.5q0 52 46 97q6 6 15 6h49q4 0 7 -2t3 -4q0 -4 -5 -9q-39 -39 -39 -73l1 -8q4 -16 14.5 -23t24.5 -5h3q10 0 11 -9l5 -36v-4z" />
    <glyph glyph-name="tilde" unicode="&#x2dc;" horiz-adv-x="320" 
d="M185 598.5q-12 4.5 -29 14.5q-7 4 -15 9t-14 7.5t-14 2.5q-23 0 -38 -23q-7 -10 -17 -4l-32 23q-9 6 -5 16q14 32 35.5 47.5t47.5 15.5q16 0 30 -6t32 -17q4 -2 12 -7.5t15.5 -8.5t15.5 -3q24 0 38 22q6 12 16 5l32 -22q5 -3 5 -10q0 -6 -4 -13q-17 -28 -40.5 -40.5
t-45.5 -12.5q-13 0 -25 4.5z" />
    <glyph glyph-name="hungarumlaut" unicode="&#x2dd;" horiz-adv-x="350" 
d="M24 587q-3 4 1 10l58 103q5 8 15 8h71q8 0 10 -4.5t-2 -10.5l-73 -102q-5 -8 -14 -8h-56q-7 0 -10 4zM170 587q-3 4 1 10l59 103q4 8 15 8h71q8 0 10 -4.5t-2 -10.5l-73 -102q-5 -8 -14 -8h-57q-7 0 -10 4z" />
    <glyph glyph-name="gravecomb" unicode="&#x300;" horiz-adv-x="0" 
d="M-12 583q0 -8 -11 -8h-58q-9 0 -14 8l-73 102q-3 5 -3 7q0 8 11 8h72q11 0 15 -8l59 -103z" />
    <glyph glyph-name="acutecomb" unicode="&#x301;" horiz-adv-x="0" 
d="M-171 579q-3 4 1 10l59 103q4 8 15 8h72q8 0 10 -4.5t-2 -10.5l-74 -103q-5 -7 -14 -7h-57q-7 0 -10 4z" />
    <glyph glyph-name="uni0302" unicode="&#x302;" horiz-adv-x="0" 
d="M-287.5 578.5q-2.5 3.5 1.5 10.5l63 103q4 8 14 8h103q9 0 14 -8l66 -103q2 -6 2 -7q0 -7 -10 -7h-70q-10 0 -15 8l-34 63q-3 5 -6 0l-35 -63q-5 -8 -15 -8h-69q-7 0 -9.5 3.5z" />
    <glyph glyph-name="tildecomb" unicode="&#x303;" horiz-adv-x="0" 
d="M-119 598.5q-12 4.5 -29 14.5q-7 4 -15 9t-14 7.5t-14 2.5q-23 0 -38 -23q-7 -10 -17 -4l-32 23q-9 6 -5 16q14 32 35.5 47.5t47.5 15.5q16 0 30 -6t32 -17q4 -2 12 -7.5t15.5 -8.5t15.5 -3q24 0 38 22q6 12 16 5l32 -22q5 -3 5 -10q0 -6 -4 -13q-17 -28 -40.5 -40.5
t-45.5 -12.5q-13 0 -25 4.5z" />
    <glyph glyph-name="uni0304" unicode="&#x304;" horiz-adv-x="0" 
d="M-210.5 606.5q-3.5 3.5 -3.5 8.5v56q0 5 3.5 8.5t8.5 3.5h190q5 0 8.5 -3.5t3.5 -8.5v-56q0 -5 -3.5 -8.5t-8.5 -3.5h-190q-5 0 -8.5 3.5z" />
    <glyph glyph-name="uni0306" unicode="&#x306;" horiz-adv-x="0" 
d="M-210 598q-31 28 -35 74v2q0 10 11 10h39q11 0 13 -12q3 -22 17 -35.5t34 -13.5q19 0 33 13.5t18 35.5q1 12 13 12h39q12 0 11 -12q-4 -46 -35.5 -74t-78.5 -28q-48 0 -79 28z" />
    <glyph glyph-name="uni0307" unicode="&#x307;" horiz-adv-x="0" 
d="M-128 601q-20 20 -20 51t20 51t51 20t50.5 -20t19.5 -51t-20 -51t-50 -20q-31 0 -51 20z" />
    <glyph glyph-name="uni0308" unicode="&#x308;" horiz-adv-x="0" 
d="M-121 601q-20 20 -20 51t20 51t51 20t50.5 -20t19.5 -51t-20 -51t-50 -20q-31 0 -51 20zM-293 601q-20 20 -20 51t20 51t51 20t50.5 -20t19.5 -51t-20 -51t-50 -20q-31 0 -51 20z" />
    <glyph glyph-name="hookabovecomb" unicode="&#x309;" horiz-adv-x="0" 
d="M-331 569q10 24 32 48q11 11 16 20t5 23q0 11 -9.5 19.5t-22.5 8.5q-15 0 -25 -6.5t-24 -24.5q-4 -6 -10 -6q-4 0 -7 3l-26 19q-9 8 -3 17q21 30 42.5 43t54.5 13q43 0 68.5 -23.5t25.5 -62.5q0 -22 -9.5 -37.5t-28.5 -35.5q-20 -20 -26 -31q-5 -10 -16 -8l-29 6
q-14 3 -8 15z" />
    <glyph glyph-name="uni030A" unicode="&#x30a;" horiz-adv-x="0" 
d="M-187 602.5q-34 34.5 -34 84.5t34 84t84 34q49 0 83 -34t34 -84t-34 -84.5t-83 -34.5q-50 0 -84 34.5zM-65 647.5q16 16.5 16 39.5q0 24 -16 40t-38 16q-23 0 -39 -16t-16 -40q0 -23 16 -39.5t39 -16.5q22 0 38 16.5z" />
    <glyph glyph-name="uni030B" unicode="&#x30b;" horiz-adv-x="0" 
d="M-318.5 578.5q-2.5 3.5 0.5 10.5l50 102q4 9 14 9h75q7 0 9 -4t-1 -10l-54 -102q-5 -9 -15 -9h-69q-7 0 -9.5 3.5zM-172 579q-2 4 1 10l54 102q4 9 15 9h70q7 0 9 -4t-1 -10l-55 -103q-4 -8 -15 -8h-69q-7 0 -9 4z" />
    <glyph glyph-name="uni030C" unicode="&#x30c;" horiz-adv-x="0" 
d="M-288 693q0 7 10 7h69q10 0 15 -8l35 -62q3 -4 6 0l34 62q5 8 15 8h70q7 0 9.5 -3.5t-1.5 -10.5l-66 -103q-5 -8 -14 -8h-103q-10 0 -14 8l-63 103q-2 6 -2 7z" />
    <glyph glyph-name="uni0312" unicode="&#x312;" horiz-adv-x="0" 
d="M-24 696q3 -4 -1 -10l-59 -103q-4 -8 -15 -8h-72q-8 0 -10 4.5t2 10.5l73 102q5 8 14 8h58q7 0 10 -4z" />
    <glyph glyph-name="uni0313" unicode="&#x313;" horiz-adv-x="0" 
d="M-171 579q-3 4 1 10l59 103q4 8 15 8h72q8 0 10 -4.5t-2 -10.5l-74 -103q-5 -7 -14 -7h-57q-7 0 -10 4z" />
    <glyph glyph-name="uni031B" unicode="&#x31b;" horiz-adv-x="0" 
d="M-131 470v30q0 10 11 12q20 4 34.5 21t17.5 49q0 12 12 12h39q5 0 8.5 -4.5t2.5 -12.5q-4 -55 -35.5 -85t-77.5 -34q-12 0 -12 12z" />
    <glyph glyph-name="dotbelowcomb" unicode="&#x323;" horiz-adv-x="0" 
d="M-126 -203.5q-19 19.5 -19 48.5t19 48t49 19q29 0 48 -19t19 -48t-19 -48.5t-48 -19.5q-30 0 -49 19.5z" />
    <glyph glyph-name="uni0326" unicode="&#x326;" horiz-adv-x="0" 
d="M-193 -175q-3 4 1 10l59 103q4 8 15 8h72q8 0 10 -4.5t-2 -10.5l-74 -103q-5 -7 -14 -7h-57q-7 0 -10 4z" />
    <glyph glyph-name="uni0327" unicode="&#x327;" horiz-adv-x="0" 
d="M-134 -169l5 36q1 11 14 9q17 -2 28.5 6.5t11.5 29.5q0 36 -39 73q-5 5 -5 9q0 2 3 4t7 2h49q9 0 15 -6q45 -44 45 -98q0 -16 -2 -24q-8 -33 -30.5 -47t-52.5 -14q-18 0 -40 6q-10 3 -9 14z" />
    <glyph glyph-name="uni0328" unicode="&#x328;" horiz-adv-x="0" 
d="M-6 -172q0 -8 -9 -11q-22 -6 -41 -6q-36 0 -60.5 20t-24.5 67q0 51 46 96q6 6 15 6h48q4 0 7 -2t3 -4q0 -4 -5 -9q-38 -36 -38 -71q0 -7 1 -10q4 -17 14.5 -23.5t24.5 -4.5h3q10 0 11 -9l5 -36v-3z" />
    <glyph glyph-name="uni0335" unicode="&#x335;" horiz-adv-x="0" 
d="M-282.5 627.5q3.5 3.5 8.5 3.5h254q5 0 8.5 -3.5t3.5 -8.5v-47q0 -5 -3.5 -8.5t-8.5 -3.5h-254q-5 0 -8.5 3.5t-3.5 8.5v47q0 5 3.5 8.5z" />
    <glyph glyph-name="uni0336" unicode="&#x336;" horiz-adv-x="0" 
d="M-460.5 515.5q-3.5 3.5 -3.5 8.5v55q0 5 3.5 8.5t8.5 3.5h440q5 0 8.5 -3.5t3.5 -8.5v-55q0 -5 -3.5 -8.5t-8.5 -3.5h-440q-5 0 -8.5 3.5z" />
    <glyph glyph-name="uni0337" unicode="&#x337;" horiz-adv-x="0" 
d="M-320 129q-4 0 -9 5l-41 50q-3 5 -3 8q0 4 5 9l365 290q5 3 8 3q4 0 9 -5l42 -50q3 -4 3 -8t-5 -9l-366 -290q-5 -3 -8 -3z" />
    <glyph glyph-name="uni0338" unicode="&#x338;" horiz-adv-x="0" 
d="M-405 -37q-2 4 0 10l330 763q4 9 14 9h46q7 0 9 -4t0 -10l-331 -763q-4 -9 -14 -9h-45q-7 0 -9 4z" />
    <glyph glyph-name="uni0394" unicode="&#x394;" horiz-adv-x="525" 
d="M14.5 3.5q-3.5 3.5 -3.5 8.5v80q0 9 2 15l205 583q3 10 13 10h63q10 0 13 -10l205 -584q2 -6 2 -15v-79q0 -5 -3.5 -8.5t-8.5 -3.5h-479q-5 0 -8.5 3.5zM130 100h265q6 0 4 6l-133 436q-1 4 -3 4t-3 -4l-134 -436q-1 -6 4 -6z" />
    <glyph glyph-name="uni03A9" unicode="&#x3a9;" horiz-adv-x="491" 
d="M45.5 3.5q-3.5 3.5 -3.5 8.5v76q0 5 3.5 8.5t8.5 3.5h41q3 0 3.5 2t-1.5 4q-42 47 -42 119v293q0 86 52.5 138t138.5 52t139 -52t53 -138v-293q0 -73 -43 -119q-2 -2 -1 -4t4 -2h39q5 0 8.5 -3.5t3.5 -8.5v-76q0 -5 -3.5 -8.5t-8.5 -3.5h-161q-5 0 -8.5 3.5t-3.5 8.5v77
q0 9 10 14q21 8 34.5 29.5t13.5 51.5v339q0 38 -21 61.5t-55 23.5t-54.5 -23.5t-20.5 -61.5v-339q0 -30 13 -51.5t33 -28.5q10 -5 10 -14v-78q0 -5 -3.5 -8.5t-8.5 -3.5h-161q-5 0 -8.5 3.5z" />
    <glyph glyph-name="uni03BC" unicode="&#x3bc;" horiz-adv-x="443" 
d="M284.5 507.5q3.5 3.5 8.5 3.5h92q5 0 8.5 -3.5t3.5 -8.5v-487q0 -5 -3.5 -8.5t-8.5 -3.5h-92q-5 0 -8.5 3.5t-3.5 8.5v22q0 3 -2 4t-4 -2q-29 -43 -93 -43h-15q-5 2 -5 -4v-177q0 -5 -3.5 -8.5t-8.5 -3.5h-92q-5 0 -8.5 3.5t-3.5 8.5v687q0 5 3.5 8.5t8.5 3.5h92
q5 0 8.5 -3.5t3.5 -8.5v-332q0 -75 58 -75q29 0 45 21.5t16 58.5v327q0 5 3.5 8.5z" />
    <glyph glyph-name="pi" unicode="&#x3c0;" horiz-adv-x="527" 
d="M497.5 415.5q-3.5 -3.5 -8.5 -3.5h-43q-5 0 -5 -5v-256q0 -33 10 -42.5t30 -9.5h2q10 0 10 -11v-76q0 -12 -12 -12l-38 -1q-54 0 -86.5 18.5t-31.5 73.5v316q0 5 -5 5h-111q-5 0 -5 -5v-395q0 -5 -3.5 -8.5t-8.5 -3.5h-92q-5 0 -8.5 3.5t-3.5 8.5v395q0 5 -5 5h-44
q-5 0 -8.5 3.5t-3.5 8.5v75q0 5 3.5 8.5t8.5 3.5h450q5 0 8.5 -3.5t3.5 -8.5v-75q0 -5 -3.5 -8.5z" />
    <glyph glyph-name="Wgrave" unicode="&#x1e80;" horiz-adv-x="658" 
d="M157 11l-133 676l-1 4q0 9 11 9h96q12 0 13 -11l70 -417q1 -3 3 -3t3 3l63 417q1 11 13 11h80q12 0 13 -11l68 -417q1 -3 3 -3t3 3l63 417q1 11 13 11h93q13 0 11 -13l-127 -676q-1 -11 -13 -11h-85q-12 0 -13 11l-67 425q-1 4 -3 4t-3 -4l-62 -425q-1 -11 -13 -11h-86
q-12 0 -13 11zM364 772q0 -8 -11 -8h-58q-9 0 -14 8l-73 102q-3 5 -3 7q0 8 11 8h72q11 0 15 -8l59 -103z" />
    <glyph glyph-name="wgrave" unicode="&#x1e81;" horiz-adv-x="592" 
d="M126 11l-107 488v4q0 9 11 9h88q12 0 13 -11l52 -311q1 -3 3 -3t3 3l55 311q1 11 13 11h78q12 0 13 -11l56 -312q1 -3 3 -3t3 3l53 312q1 11 13 11l87 -2q13 0 10 -13l-107 -486q-2 -11 -13 -11h-90q-12 0 -13 11l-53 292q-1 3 -3 3t-3 -3l-52 -292q-1 -11 -13 -11h-87
q-11 0 -13 11zM332 583q0 -8 -11 -8h-58q-9 0 -14 8l-73 102q-3 5 -3 7q0 8 11 8h72q11 0 15 -8l59 -103z" />
    <glyph glyph-name="Wacute" unicode="&#x1e82;" horiz-adv-x="658" 
d="M157 11l-133 676l-1 4q0 9 11 9h96q12 0 13 -11l70 -417q1 -3 3 -3t3 3l63 417q1 11 13 11h80q12 0 13 -11l68 -417q1 -3 3 -3t3 3l63 417q1 11 13 11h93q13 0 11 -13l-127 -676q-1 -11 -13 -11h-85q-12 0 -13 11l-67 425q-1 4 -3 4t-3 -4l-62 -425q-1 -11 -13 -11h-86
q-12 0 -13 11zM272 768q-3 4 1 10l59 103q4 8 15 8h72q8 0 10 -4.5t-2 -10.5l-74 -103q-5 -7 -14 -7h-57q-7 0 -10 4z" />
    <glyph glyph-name="wacute" unicode="&#x1e83;" horiz-adv-x="592" 
d="M126 11l-107 488v4q0 9 11 9h88q12 0 13 -11l52 -311q1 -3 3 -3t3 3l55 311q1 11 13 11h78q12 0 13 -11l56 -312q1 -3 3 -3t3 3l53 312q1 11 13 11l87 -2q13 0 10 -13l-107 -486q-2 -11 -13 -11h-90q-12 0 -13 11l-53 292q-1 3 -3 3t-3 -3l-52 -292q-1 -11 -13 -11h-87
q-11 0 -13 11zM239 579q-3 4 1 10l59 103q4 8 15 8h72q8 0 10 -4.5t-2 -10.5l-74 -103q-5 -7 -14 -7h-57q-7 0 -10 4z" />
    <glyph glyph-name="Wdieresis" unicode="&#x1e84;" horiz-adv-x="658" 
d="M157 11l-133 676l-1 4q0 9 11 9h96q12 0 13 -11l70 -417q1 -3 3 -3t3 3l63 417q1 11 13 11h80q12 0 13 -11l68 -417q1 -3 3 -3t3 3l63 417q1 11 13 11h93q13 0 11 -13l-127 -676q-1 -11 -13 -11h-85q-12 0 -13 11l-67 425q-1 4 -3 4t-3 -4l-62 -425q-1 -11 -13 -11h-86
q-12 0 -13 11zM363 790q-20 20 -20 51t20 51t51 20t50.5 -20t19.5 -51t-20 -51t-50 -20q-31 0 -51 20zM191 790q-20 20 -20 51t20 51t51 20t50.5 -20t19.5 -51t-20 -51t-50 -20q-31 0 -51 20z" />
    <glyph glyph-name="wdieresis" unicode="&#x1e85;" horiz-adv-x="592" 
d="M126 11l-107 488v4q0 9 11 9h88q12 0 13 -11l52 -311q1 -3 3 -3t3 3l55 311q1 11 13 11h78q12 0 13 -11l56 -312q1 -3 3 -3t3 3l53 312q1 11 13 11l87 -2q13 0 10 -13l-107 -486q-2 -11 -13 -11h-90q-12 0 -13 11l-53 292q-1 3 -3 3t-3 -3l-52 -292q-1 -11 -13 -11h-87
q-11 0 -13 11zM330 601q-20 20 -20 51t20 51t51 20t50.5 -20t19.5 -51t-20 -51t-50 -20q-31 0 -51 20zM158 601q-20 20 -20 51t20 51t51 20t50.5 -20t19.5 -51t-20 -51t-50 -20q-31 0 -51 20z" />
    <glyph glyph-name="uni1EA0" unicode="&#x1ea0;" horiz-adv-x="456" 
d="M325 11l-19 105q0 5 -6 5h-146q-6 0 -6 -5l-19 -105q-1 -11 -13 -11h-91q-14 0 -11 13l148 676q2 11 13 11h106q11 0 13 -11l148 -676v-4q0 -9 -11 -9h-93q-12 0 -13 11zM171 212h111q6 0 5 5l-58 316q-1 3 -3 3t-3 -3l-57 -316q-1 -5 5 -5zM180 -203.5
q-19 19.5 -19 48.5t19 48t49 19q29 0 48 -19t19 -48t-19 -48.5t-48 -19.5q-30 0 -49 19.5z" />
    <glyph glyph-name="uni1EA1" unicode="&#x1ea1;" horiz-adv-x="433" 
d="M348 473q49 -46 49 -121v-340q0 -5 -3.5 -8.5t-8.5 -3.5h-92q-5 0 -8.5 3.5t-3.5 8.5v19q0 3 -2 4t-4 -2q-35 -41 -102 -41q-57 0 -100.5 32.5t-43.5 118.5q0 90 52.5 128t142.5 38h52q5 0 5 5v26q0 36 -18 57.5t-45 21.5q-21 0 -35 -13.5t-17 -36.5q-1 -12 -13 -12h-97
q-12 0 -11 12q5 68 53.5 109t121.5 41q79 0 128 -46zM258 107q23 19 23 53v57q0 5 -5 5h-52q-34 0 -55 -18.5t-21 -53.5q0 -31 16 -46.5t41 -15.5q30 0 53 19zM168 -203.5q-19 19.5 -19 48.5t19 48t49 19q29 0 48 -19t19 -48t-19 -48.5t-48 -19.5q-30 0 -49 19.5z" />
    <glyph glyph-name="uni1EA2" unicode="&#x1ea2;" horiz-adv-x="456" 
d="M325 11l-19 105q0 5 -6 5h-146q-6 0 -6 -5l-19 -105q-1 -11 -13 -11h-91q-14 0 -11 13l148 676q2 11 13 11h106q11 0 13 -11l148 -676v-4q0 -9 -11 -9h-93q-12 0 -13 11zM171 212h111q6 0 5 5l-58 316q-1 3 -3 3t-3 -3l-57 -316q-1 -5 5 -5zM210 758q10 24 32 48
q11 11 16 20t5 23q0 11 -9.5 19.5t-22.5 8.5q-15 0 -25 -6.5t-24 -24.5q-4 -6 -10 -6q-4 0 -7 3l-26 19q-9 8 -3 17q21 30 42.5 43t54.5 13q43 0 68.5 -23.5t25.5 -62.5q0 -22 -9.5 -37.5t-28.5 -35.5q-20 -20 -26 -31q-5 -10 -16 -8l-29 6q-14 3 -8 15z" />
    <glyph glyph-name="uni1EA3" unicode="&#x1ea3;" horiz-adv-x="433" 
d="M348 473q49 -46 49 -121v-340q0 -5 -3.5 -8.5t-8.5 -3.5h-92q-5 0 -8.5 3.5t-3.5 8.5v19q0 3 -2 4t-4 -2q-35 -41 -102 -41q-57 0 -100.5 32.5t-43.5 118.5q0 90 52.5 128t142.5 38h52q5 0 5 5v26q0 36 -18 57.5t-45 21.5q-21 0 -35 -13.5t-17 -36.5q-1 -12 -13 -12h-97
q-12 0 -11 12q5 68 53.5 109t121.5 41q79 0 128 -46zM258 107q23 19 23 53v57q0 5 -5 5h-52q-34 0 -55 -18.5t-21 -53.5q0 -31 16 -46.5t41 -15.5q30 0 53 19zM198 569q10 24 32 48q11 11 16 20t5 23q0 11 -9.5 19.5t-22.5 8.5q-15 0 -25 -6.5t-24 -24.5q-4 -6 -10 -6
q-4 0 -7 3l-26 19q-9 8 -3 17q21 30 42.5 43t54.5 13q43 0 68.5 -23.5t25.5 -62.5q0 -22 -9.5 -37.5t-28.5 -35.5q-20 -20 -26 -31q-5 -10 -16 -8l-29 6q-14 3 -8 15z" />
    <glyph glyph-name="uni1EA4" unicode="&#x1ea4;" horiz-adv-x="456" 
d="M325 11l-19 105q0 5 -6 5h-146q-6 0 -6 -5l-19 -105q-1 -11 -13 -11h-91q-14 0 -11 13l148 676q2 11 13 11h106q11 0 13 -11l148 -676v-4q0 -9 -11 -9h-93q-12 0 -13 11zM171 212h111q6 0 5 5l-58 316q-1 3 -3 3t-3 -3l-57 -316q-1 -5 5 -5zM95.5 767.5
q-2.5 3.5 1.5 10.5l63 103q4 8 14 8h103q9 0 14 -8l66 -103q2 -6 2 -7q0 -7 -10 -7h-70q-10 0 -15 8l-34 63q-3 5 -6 0l-35 -63q-5 -8 -15 -8h-69q-7 0 -9.5 3.5zM355 848q-3 4 1 10l59 103q4 8 15 8h72q8 0 10 -4.5t-2 -10.5l-74 -103q-5 -7 -14 -7h-57q-7 0 -10 4z" />
    <glyph glyph-name="uni1EA5" unicode="&#x1ea5;" horiz-adv-x="433" 
d="M348 473q49 -46 49 -121v-340q0 -5 -3.5 -8.5t-8.5 -3.5h-92q-5 0 -8.5 3.5t-3.5 8.5v19q0 3 -2 4t-4 -2q-35 -41 -102 -41q-57 0 -100.5 32.5t-43.5 118.5q0 90 52.5 128t142.5 38h52q5 0 5 5v26q0 36 -18 57.5t-45 21.5q-21 0 -35 -13.5t-17 -36.5q-1 -12 -13 -12h-97
q-12 0 -11 12q5 68 53.5 109t121.5 41q79 0 128 -46zM258 107q23 19 23 53v57q0 5 -5 5h-52q-34 0 -55 -18.5t-21 -53.5q0 -31 16 -46.5t41 -15.5q30 0 53 19zM83.5 578.5q-2.5 3.5 1.5 10.5l63 103q4 8 14 8h103q9 0 14 -8l66 -103q2 -6 2 -7q0 -7 -10 -7h-70q-10 0 -15 8
l-34 63q-3 5 -6 0l-35 -63q-5 -8 -15 -8h-69q-7 0 -9.5 3.5zM343 659q-3 4 1 10l59 103q4 8 15 8h72q8 0 10 -4.5t-2 -10.5l-74 -103q-5 -7 -14 -7h-57q-7 0 -10 4z" />
    <glyph glyph-name="uni1EA6" unicode="&#x1ea6;" horiz-adv-x="456" 
d="M325 11l-19 105q0 5 -6 5h-146q-6 0 -6 -5l-19 -105q-1 -11 -13 -11h-91q-14 0 -11 13l148 676q2 11 13 11h106q11 0 13 -11l148 -676v-4q0 -9 -11 -9h-93q-12 0 -13 11zM171 212h111q6 0 5 5l-58 316q-1 3 -3 3t-3 -3l-57 -316q-1 -5 5 -5zM95.5 767.5
q-2.5 3.5 1.5 10.5l63 103q4 8 14 8h103q9 0 14 -8l66 -103q2 -6 2 -7q0 -7 -10 -7h-70q-10 0 -15 8l-34 63q-3 5 -6 0l-35 -63q-5 -8 -15 -8h-69q-7 0 -9.5 3.5zM422 892q0 -8 -11 -8h-58q-9 0 -14 8l-73 102q-3 5 -3 7q0 8 11 8h72q11 0 15 -8l59 -103z" />
    <glyph glyph-name="uni1EA7" unicode="&#x1ea7;" horiz-adv-x="433" 
d="M348 473q49 -46 49 -121v-340q0 -5 -3.5 -8.5t-8.5 -3.5h-92q-5 0 -8.5 3.5t-3.5 8.5v19q0 3 -2 4t-4 -2q-35 -41 -102 -41q-57 0 -100.5 32.5t-43.5 118.5q0 90 52.5 128t142.5 38h52q5 0 5 5v26q0 36 -18 57.5t-45 21.5q-21 0 -35 -13.5t-17 -36.5q-1 -12 -13 -12h-97
q-12 0 -11 12q5 68 53.5 109t121.5 41q79 0 128 -46zM258 107q23 19 23 53v57q0 5 -5 5h-52q-34 0 -55 -18.5t-21 -53.5q0 -31 16 -46.5t41 -15.5q30 0 53 19zM84.5 578.5q-2.5 3.5 1.5 10.5l63 103q4 8 14 8h103q9 0 14 -8l66 -103q2 -6 2 -7q0 -7 -10 -7h-70q-10 0 -15 8
l-34 63q-3 5 -6 0l-35 -63q-5 -8 -15 -8h-69q-7 0 -9.5 3.5zM411 703q0 -8 -11 -8h-58q-9 0 -14 8l-73 102q-3 5 -3 7q0 8 11 8h72q11 0 15 -8l59 -103z" />
    <glyph glyph-name="uni1EA8" unicode="&#x1ea8;" horiz-adv-x="456" 
d="M325 11l-19 105q0 5 -6 5h-146q-6 0 -6 -5l-19 -105q-1 -11 -13 -11h-91q-14 0 -11 13l148 676q2 11 13 11h106q11 0 13 -11l148 -676v-4q0 -9 -11 -9h-93q-12 0 -13 11zM171 212h111q6 0 5 5l-58 316q-1 3 -3 3t-3 -3l-57 -316q-1 -5 5 -5zM350.5 870q-2.5 4 0.5 10
q8 19 18 30.5t12 14.5q10 10 15 18.5t5 21.5q0 11 -9 19t-22 8q-12 0 -21.5 -6t-22.5 -21l-4 -4q-6 -8 -15 -1l-23 17q-9 8 -3 17q20 28 40 40.5t52 12.5q40 0 64.5 -22.5t24.5 -59.5q0 -21 -9 -36t-27 -33q-19 -19 -25 -30q-6 -8 -15 -7l-27 5q-6 2 -8.5 6zM95.5 767.5
q-2.5 3.5 1.5 10.5l63 103q4 8 14 8h103q9 0 14 -8l66 -103q2 -6 2 -7q0 -7 -10 -7h-70q-10 0 -15 8l-34 63q-3 5 -6 0l-35 -63q-5 -8 -15 -8h-69q-7 0 -9.5 3.5z" />
    <glyph glyph-name="uni1EA9" unicode="&#x1ea9;" horiz-adv-x="433" 
d="M348 473q49 -46 49 -121v-340q0 -5 -3.5 -8.5t-8.5 -3.5h-92q-5 0 -8.5 3.5t-3.5 8.5v19q0 3 -2 4t-4 -2q-35 -41 -102 -41q-57 0 -100.5 32.5t-43.5 118.5q0 90 52.5 128t142.5 38h52q5 0 5 5v26q0 36 -18 57.5t-45 21.5q-21 0 -35 -13.5t-17 -36.5q-1 -12 -13 -12h-97
q-12 0 -11 12q5 68 53.5 109t121.5 41q79 0 128 -46zM258 107q23 19 23 53v57q0 5 -5 5h-52q-34 0 -55 -18.5t-21 -53.5q0 -31 16 -46.5t41 -15.5q30 0 53 19zM339.5 681q-2.5 4 0.5 10q8 19 18 30.5t12 14.5q10 10 15 18.5t5 21.5q0 11 -9 19t-22 8q-12 0 -21.5 -6
t-22.5 -21l-4 -4q-6 -8 -15 -1l-23 17q-9 8 -3 17q20 28 40 40.5t52 12.5q40 0 64.5 -22.5t24.5 -59.5q0 -21 -9 -36t-27 -33q-19 -19 -25 -30q-6 -8 -15 -7l-27 5q-6 2 -8.5 6zM84.5 578.5q-2.5 3.5 1.5 10.5l63 103q4 8 14 8h103q9 0 14 -8l66 -103q2 -6 2 -7q0 -7 -10 -7
h-70q-10 0 -15 8l-34 63q-3 5 -6 0l-35 -63q-5 -8 -15 -8h-69q-7 0 -9.5 3.5z" />
    <glyph glyph-name="uni1EAA" unicode="&#x1eaa;" horiz-adv-x="456" 
d="M325 11l-19 105q0 5 -6 5h-146q-6 0 -6 -5l-19 -105q-1 -11 -13 -11h-91q-14 0 -11 13l148 676q2 11 13 11h106q11 0 13 -11l148 -676v-4q0 -9 -11 -9h-93q-12 0 -13 11zM171 212h111q6 0 5 5l-58 316q-1 3 -3 3t-3 -3l-57 -316q-1 -5 5 -5zM95.5 767.5
q-2.5 3.5 1.5 10.5l63 103q4 8 14 8h103q9 0 14 -8l66 -103q2 -6 2 -7q0 -7 -10 -7h-70q-10 0 -15 8l-34 63q-3 5 -6 0l-35 -63q-5 -8 -15 -8h-69q-7 0 -9.5 3.5zM253 927.5q-12 4.5 -29 14.5q-7 4 -15 9t-14 7.5t-14 2.5q-23 0 -38 -23q-7 -10 -17 -4l-32 23q-9 6 -5 16
q14 32 35.5 47.5t47.5 15.5q16 0 30 -6t32 -17q4 -2 12 -7.5t15.5 -8.5t15.5 -3q24 0 38 22q6 12 16 5l32 -22q5 -3 5 -10q0 -6 -4 -13q-17 -28 -40.5 -40.5t-45.5 -12.5q-13 0 -25 4.5z" />
    <glyph glyph-name="uni1EAB" unicode="&#x1eab;" horiz-adv-x="433" 
d="M348 473q49 -46 49 -121v-340q0 -5 -3.5 -8.5t-8.5 -3.5h-92q-5 0 -8.5 3.5t-3.5 8.5v19q0 3 -2 4t-4 -2q-35 -41 -102 -41q-57 0 -100.5 32.5t-43.5 118.5q0 90 52.5 128t142.5 38h52q5 0 5 5v26q0 36 -18 57.5t-45 21.5q-21 0 -35 -13.5t-17 -36.5q-1 -12 -13 -12h-97
q-12 0 -11 12q5 68 53.5 109t121.5 41q79 0 128 -46zM258 107q23 19 23 53v57q0 5 -5 5h-52q-34 0 -55 -18.5t-21 -53.5q0 -31 16 -46.5t41 -15.5q30 0 53 19zM84.5 578.5q-2.5 3.5 1.5 10.5l63 103q4 8 14 8h103q9 0 14 -8l66 -103q2 -6 2 -7q0 -7 -10 -7h-70q-10 0 -15 8
l-34 63q-3 5 -6 0l-35 -63q-5 -8 -15 -8h-69q-7 0 -9.5 3.5zM242 738.5q-12 4.5 -29 14.5q-7 4 -15 9t-14 7.5t-14 2.5q-23 0 -38 -23q-7 -10 -17 -4l-32 23q-9 6 -5 16q14 32 35.5 47.5t47.5 15.5q16 0 30 -6t32 -17q4 -2 12 -7.5t15.5 -8.5t15.5 -3q24 0 38 22q6 12 16 5
l32 -22q5 -3 5 -10q0 -6 -4 -13q-17 -28 -40.5 -40.5t-45.5 -12.5q-13 0 -25 4.5z" />
    <glyph glyph-name="uni1EAC" unicode="&#x1eac;" horiz-adv-x="456" 
d="M325 11l-19 105q0 5 -6 5h-146q-6 0 -6 -5l-19 -105q-1 -11 -13 -11h-91q-14 0 -11 13l148 676q2 11 13 11h106q11 0 13 -11l148 -676v-4q0 -9 -11 -9h-93q-12 0 -13 11zM171 212h111q6 0 5 5l-58 316q-1 3 -3 3t-3 -3l-57 -316q-1 -5 5 -5zM180 -203.5
q-19 19.5 -19 48.5t19 48t49 19q29 0 48 -19t19 -48t-19 -48.5t-48 -19.5q-30 0 -49 19.5zM95.5 767.5q-2.5 3.5 1.5 10.5l63 103q4 8 14 8h103q9 0 14 -8l66 -103q2 -6 2 -7q0 -7 -10 -7h-70q-10 0 -15 8l-34 63q-3 5 -6 0l-35 -63q-5 -8 -15 -8h-69q-7 0 -9.5 3.5z" />
    <glyph glyph-name="uni1EAD" unicode="&#x1ead;" horiz-adv-x="433" 
d="M348 473q49 -46 49 -121v-340q0 -5 -3.5 -8.5t-8.5 -3.5h-92q-5 0 -8.5 3.5t-3.5 8.5v19q0 3 -2 4t-4 -2q-35 -41 -102 -41q-57 0 -100.5 32.5t-43.5 118.5q0 90 52.5 128t142.5 38h52q5 0 5 5v26q0 36 -18 57.5t-45 21.5q-21 0 -35 -13.5t-17 -36.5q-1 -12 -13 -12h-97
q-12 0 -11 12q5 68 53.5 109t121.5 41q79 0 128 -46zM258 107q23 19 23 53v57q0 5 -5 5h-52q-34 0 -55 -18.5t-21 -53.5q0 -31 16 -46.5t41 -15.5q30 0 53 19zM168 -203.5q-19 19.5 -19 48.5t19 48t49 19q29 0 48 -19t19 -48t-19 -48.5t-48 -19.5q-30 0 -49 19.5z
M83.5 578.5q-2.5 3.5 1.5 10.5l63 103q4 8 14 8h103q9 0 14 -8l66 -103q2 -6 2 -7q0 -7 -10 -7h-70q-10 0 -15 8l-34 63q-3 5 -6 0l-35 -63q-5 -8 -15 -8h-69q-7 0 -9.5 3.5z" />
    <glyph glyph-name="uni1EAE" unicode="&#x1eae;" horiz-adv-x="456" 
d="M325 11l-19 105q0 5 -6 5h-146q-6 0 -6 -5l-19 -105q-1 -11 -13 -11h-91q-14 0 -11 13l148 676q2 11 13 11h106q11 0 13 -11l148 -676v-4q0 -9 -11 -9h-93q-12 0 -13 11zM171 212h111q6 0 5 5l-58 316q-1 3 -3 3t-3 -3l-57 -316q-1 -5 5 -5zM150 787q-31 28 -35 74v2
q0 10 11 10h39q11 0 13 -12q3 -22 17 -35.5t34 -13.5q19 0 33 13.5t18 35.5q1 12 13 12h39q12 0 11 -12q-4 -46 -35.5 -74t-78.5 -28q-48 0 -79 28zM173 928q-3 4 1 10l59 103q4 8 15 8h72q8 0 10 -4.5t-2 -10.5l-74 -103q-5 -7 -14 -7h-57q-7 0 -10 4z" />
    <glyph glyph-name="uni1EAF" unicode="&#x1eaf;" horiz-adv-x="433" 
d="M348 473q49 -46 49 -121v-340q0 -5 -3.5 -8.5t-8.5 -3.5h-92q-5 0 -8.5 3.5t-3.5 8.5v19q0 3 -2 4t-4 -2q-35 -41 -102 -41q-57 0 -100.5 32.5t-43.5 118.5q0 90 52.5 128t142.5 38h52q5 0 5 5v26q0 36 -18 57.5t-45 21.5q-21 0 -35 -13.5t-17 -36.5q-1 -12 -13 -12h-97
q-12 0 -11 12q5 68 53.5 109t121.5 41q79 0 128 -46zM258 107q23 19 23 53v57q0 5 -5 5h-52q-34 0 -55 -18.5t-21 -53.5q0 -31 16 -46.5t41 -15.5q30 0 53 19zM138 598q-31 28 -35 74v2q0 10 11 10h39q11 0 13 -12q3 -22 17 -35.5t34 -13.5q19 0 33 13.5t18 35.5q1 12 13 12
h39q12 0 11 -12q-4 -46 -35.5 -74t-78.5 -28q-48 0 -79 28zM161 739q-3 4 1 10l59 103q4 8 15 8h72q8 0 10 -4.5t-2 -10.5l-74 -103q-5 -7 -14 -7h-57q-7 0 -10 4z" />
    <glyph glyph-name="uni1EB0" unicode="&#x1eb0;" horiz-adv-x="456" 
d="M325 11l-19 105q0 5 -6 5h-146q-6 0 -6 -5l-19 -105q-1 -11 -13 -11h-91q-14 0 -11 13l148 676q2 11 13 11h106q11 0 13 -11l148 -676v-4q0 -9 -11 -9h-93q-12 0 -13 11zM171 212h111q6 0 5 5l-58 316q-1 3 -3 3t-3 -3l-57 -316q-1 -5 5 -5zM150 787q-31 28 -35 74v2
q0 10 11 10h39q11 0 13 -12q3 -22 17 -35.5t34 -13.5q19 0 33 13.5t18 35.5q1 12 13 12h39q12 0 11 -12q-4 -46 -35.5 -74t-78.5 -28q-48 0 -79 28zM266 932q0 -8 -11 -8h-58q-9 0 -14 8l-73 102q-3 5 -3 7q0 8 11 8h72q11 0 15 -8l59 -103z" />
    <glyph glyph-name="uni1EB1" unicode="&#x1eb1;" horiz-adv-x="433" 
d="M348 473q49 -46 49 -121v-340q0 -5 -3.5 -8.5t-8.5 -3.5h-92q-5 0 -8.5 3.5t-3.5 8.5v19q0 3 -2 4t-4 -2q-35 -41 -102 -41q-57 0 -100.5 32.5t-43.5 118.5q0 90 52.5 128t142.5 38h52q5 0 5 5v26q0 36 -18 57.5t-45 21.5q-21 0 -35 -13.5t-17 -36.5q-1 -12 -13 -12h-97
q-12 0 -11 12q5 68 53.5 109t121.5 41q79 0 128 -46zM258 107q23 19 23 53v57q0 5 -5 5h-52q-34 0 -55 -18.5t-21 -53.5q0 -31 16 -46.5t41 -15.5q30 0 53 19zM138 598q-31 28 -35 74v2q0 10 11 10h39q11 0 13 -12q3 -22 17 -35.5t34 -13.5q19 0 33 13.5t18 35.5q1 12 13 12
h39q12 0 11 -12q-4 -46 -35.5 -74t-78.5 -28q-48 0 -79 28zM254 743q0 -8 -11 -8h-58q-9 0 -14 8l-73 102q-3 5 -3 7q0 8 11 8h72q11 0 15 -8l59 -103z" />
    <glyph glyph-name="uni1EB2" unicode="&#x1eb2;" horiz-adv-x="456" 
d="M325 11l-19 105q0 5 -6 5h-146q-6 0 -6 -5l-19 -105q-1 -11 -13 -11h-91q-14 0 -11 13l148 676q2 11 13 11h106q11 0 13 -11l148 -676v-4q0 -9 -11 -9h-93q-12 0 -13 11zM171 212h111q6 0 5 5l-58 316q-1 3 -3 3t-3 -3l-57 -316q-1 -5 5 -5zM213 914q10 23 29 42
q10 11 14.5 18.5t4.5 20.5q0 10 -9 17.5t-21 7.5t-21 -5.5t-20 -19.5l-2 -2l-2 -2q-6 -8 -15 -1l-22 16q-5 3 -5 9q0 4 3 8q19 27 38 38t49 11q38 0 61 -21t23 -56q0 -21 -8.5 -35t-25.5 -31q-16 -16 -23 -28q-6 -8 -15 -7l-25 5q-14 3 -8 15zM150 787q-31 28 -35 74v2
q0 10 11 10h39q11 0 13 -12q3 -22 17 -35.5t34 -13.5t34 13.5t17 35.5q1 12 13 12h39q12 0 11 -12q-4 -46 -35.5 -74t-78.5 -28q-48 0 -79 28z" />
    <glyph glyph-name="uni1EB3" unicode="&#x1eb3;" horiz-adv-x="433" 
d="M348 473q49 -46 49 -121v-340q0 -5 -3.5 -8.5t-8.5 -3.5h-92q-5 0 -8.5 3.5t-3.5 8.5v19q0 3 -2 4t-4 -2q-35 -41 -102 -41q-57 0 -100.5 32.5t-43.5 118.5q0 90 52.5 128t142.5 38h52q5 0 5 5v26q0 36 -18 57.5t-45 21.5q-21 0 -35 -13.5t-17 -36.5q-1 -12 -13 -12h-97
q-12 0 -11 12q5 68 53.5 109t121.5 41q79 0 128 -46zM258 107q23 19 23 53v57q0 5 -5 5h-52q-34 0 -55 -18.5t-21 -53.5q0 -31 16 -46.5t41 -15.5q30 0 53 19zM201 725q10 23 29 42q10 11 14.5 18.5t4.5 20.5q0 10 -9 17.5t-21 7.5t-21 -5.5t-20 -19.5l-2 -2l-2 -2
q-6 -8 -15 -1l-22 16q-5 3 -5 9q0 4 3 8q19 27 38 38t49 11q38 0 61 -21t23 -56q0 -21 -8.5 -35t-25.5 -31q-16 -16 -23 -28q-6 -8 -15 -7l-25 5q-14 3 -8 15zM138 598q-31 28 -35 74v2q0 10 11 10h39q11 0 13 -12q3 -22 17 -35.5t34 -13.5t34 13.5t17 35.5q1 12 13 12h39
q12 0 11 -12q-4 -46 -35.5 -74t-78.5 -28q-48 0 -79 28z" />
    <glyph glyph-name="uni1EB4" unicode="&#x1eb4;" horiz-adv-x="456" 
d="M325 11l-19 105q0 5 -6 5h-146q-6 0 -6 -5l-19 -105q-1 -11 -13 -11h-91q-14 0 -11 13l148 676q2 11 13 11h106q11 0 13 -11l148 -676v-4q0 -9 -11 -9h-93q-12 0 -13 11zM171 212h111q6 0 5 5l-58 316q-1 3 -3 3t-3 -3l-57 -316q-1 -5 5 -5zM150 787q-31 28 -35 74v2
q0 10 11 10h39q11 0 13 -12q3 -22 17 -35.5t34 -13.5q19 0 33 13.5t18 35.5q1 12 13 12h39q12 0 11 -12q-4 -46 -35.5 -74t-78.5 -28q-48 0 -79 28zM262 923.5q-12 4.5 -29 14.5q-7 4 -15 9t-14 7.5t-14 2.5q-23 0 -38 -23q-7 -10 -17 -4l-32 23q-9 6 -5 16q14 32 35.5 47.5
t47.5 15.5q16 0 30 -6t32 -17q4 -2 12 -7.5t15.5 -8.5t15.5 -3q24 0 38 22q6 12 16 5l32 -22q5 -3 5 -10q0 -6 -4 -13q-17 -28 -40.5 -40.5t-45.5 -12.5q-13 0 -25 4.5z" />
    <glyph glyph-name="uni1EB5" unicode="&#x1eb5;" horiz-adv-x="433" 
d="M348 473q49 -46 49 -121v-340q0 -5 -3.5 -8.5t-8.5 -3.5h-92q-5 0 -8.5 3.5t-3.5 8.5v19q0 3 -2 4t-4 -2q-35 -41 -102 -41q-57 0 -100.5 32.5t-43.5 118.5q0 90 52.5 128t142.5 38h52q5 0 5 5v26q0 36 -18 57.5t-45 21.5q-21 0 -35 -13.5t-17 -36.5q-1 -12 -13 -12h-97
q-12 0 -11 12q5 68 53.5 109t121.5 41q79 0 128 -46zM258 107q23 19 23 53v57q0 5 -5 5h-52q-34 0 -55 -18.5t-21 -53.5q0 -31 16 -46.5t41 -15.5q30 0 53 19zM138 598q-31 28 -35 74v2q0 10 11 10h39q11 0 13 -12q3 -22 17 -35.5t34 -13.5q19 0 33 13.5t18 35.5q1 12 13 12
h39q12 0 11 -12q-4 -46 -35.5 -74t-78.5 -28q-48 0 -79 28zM250 734.5q-12 4.5 -29 14.5q-7 4 -15 9t-14 7.5t-14 2.5q-23 0 -38 -23q-7 -10 -17 -4l-32 23q-9 6 -5 16q14 32 35.5 47.5t47.5 15.5q16 0 30 -6t32 -17q4 -2 12 -7.5t15.5 -8.5t15.5 -3q24 0 38 22q6 12 16 5
l32 -22q5 -3 5 -10q0 -6 -4 -13q-17 -28 -40.5 -40.5t-45.5 -12.5q-13 0 -25 4.5z" />
    <glyph glyph-name="uni1EB6" unicode="&#x1eb6;" horiz-adv-x="456" 
d="M325 11l-19 105q0 5 -6 5h-146q-6 0 -6 -5l-19 -105q-1 -11 -13 -11h-91q-14 0 -11 13l148 676q2 11 13 11h106q11 0 13 -11l148 -676v-4q0 -9 -11 -9h-93q-12 0 -13 11zM171 212h111q6 0 5 5l-58 316q-1 3 -3 3t-3 -3l-57 -316q-1 -5 5 -5zM180 -203.5
q-19 19.5 -19 48.5t19 48t49 19q29 0 48 -19t19 -48t-19 -48.5t-48 -19.5q-30 0 -49 19.5zM150 787q-31 28 -35 74v2q0 10 11 10h39q11 0 13 -12q3 -22 17 -35.5t34 -13.5q19 0 33 13.5t18 35.5q1 12 13 12h39q12 0 11 -12q-4 -46 -35.5 -74t-78.5 -28q-48 0 -79 28z" />
    <glyph glyph-name="uni1EB7" unicode="&#x1eb7;" horiz-adv-x="433" 
d="M348 473q49 -46 49 -121v-340q0 -5 -3.5 -8.5t-8.5 -3.5h-92q-5 0 -8.5 3.5t-3.5 8.5v19q0 3 -2 4t-4 -2q-35 -41 -102 -41q-57 0 -100.5 32.5t-43.5 118.5q0 90 52.5 128t142.5 38h52q5 0 5 5v26q0 36 -18 57.5t-45 21.5q-21 0 -35 -13.5t-17 -36.5q-1 -12 -13 -12h-97
q-12 0 -11 12q5 68 53.5 109t121.5 41q79 0 128 -46zM258 107q23 19 23 53v57q0 5 -5 5h-52q-34 0 -55 -18.5t-21 -53.5q0 -31 16 -46.5t41 -15.5q30 0 53 19zM168 -203.5q-19 19.5 -19 48.5t19 48t49 19q29 0 48 -19t19 -48t-19 -48.5t-48 -19.5q-30 0 -49 19.5zM138 598
q-31 28 -35 74v2q0 10 11 10h39q11 0 13 -12q3 -22 17 -35.5t34 -13.5q19 0 33 13.5t18 35.5q1 12 13 12h39q12 0 11 -12q-4 -46 -35.5 -74t-78.5 -28q-48 0 -79 28z" />
    <glyph glyph-name="uni1EB8" unicode="&#x1eb8;" horiz-adv-x="435" 
d="M399.5 603.5q-3.5 -3.5 -8.5 -3.5h-216q-5 0 -5 -5v-189q0 -5 5 -5h128q5 0 8.5 -3.5t3.5 -8.5v-77q0 -5 -3.5 -8.5t-8.5 -3.5h-128q-5 0 -5 -5v-190q0 -5 5 -5h216q5 0 8.5 -3.5t3.5 -8.5v-76q0 -5 -3.5 -8.5t-8.5 -3.5h-325q-5 0 -8.5 3.5t-3.5 8.5v676q0 5 3.5 8.5
t8.5 3.5h325q5 0 8.5 -3.5t3.5 -8.5v-76q0 -5 -3.5 -8.5zM175 -203.5q-19 19.5 -19 48.5t19 48t49 19q29 0 48 -19t19 -48t-19 -48.5t-48 -19.5q-30 0 -49 19.5z" />
    <glyph glyph-name="uni1EB9" unicode="&#x1eb9;" horiz-adv-x="426" 
d="M388.5 216.5q-3.5 -3.5 -8.5 -3.5h-221q-5 0 -5 -5v-45q0 -31 17 -51t44 -20q23 0 39.5 14.5t21.5 37.5q3 10 13 10l89 -4q5 0 8.5 -3.5t2.5 -9.5q-7 -70 -51 -107.5t-123 -37.5q-82 0 -129.5 43.5t-47.5 118.5v203q0 73 47.5 117.5t129.5 44.5t129.5 -44.5t47.5 -117.5
v-132q0 -5 -3.5 -8.5zM171 399q-17 -20 -17 -51v-45q0 -5 5 -5h113q5 0 5 5v45q0 32 -17 51.5t-45 19.5q-27 0 -44 -20zM165 -203.5q-19 19.5 -19 48.5t19 48t49 19q29 0 48 -19t19 -48t-19 -48.5t-48 -19.5q-30 0 -49 19.5z" />
    <glyph glyph-name="uni1EBA" unicode="&#x1eba;" horiz-adv-x="435" 
d="M399.5 603.5q-3.5 -3.5 -8.5 -3.5h-216q-5 0 -5 -5v-189q0 -5 5 -5h128q5 0 8.5 -3.5t3.5 -8.5v-77q0 -5 -3.5 -8.5t-8.5 -3.5h-128q-5 0 -5 -5v-190q0 -5 5 -5h216q5 0 8.5 -3.5t3.5 -8.5v-76q0 -5 -3.5 -8.5t-8.5 -3.5h-325q-5 0 -8.5 3.5t-3.5 8.5v676q0 5 3.5 8.5
t8.5 3.5h325q5 0 8.5 -3.5t3.5 -8.5v-76q0 -5 -3.5 -8.5zM211 758q10 24 32 48q11 11 16 20t5 23q0 11 -9.5 19.5t-22.5 8.5q-15 0 -25 -6.5t-24 -24.5q-4 -6 -10 -6q-4 0 -7 3l-26 19q-9 8 -3 17q21 30 42.5 43t54.5 13q43 0 68.5 -23.5t25.5 -62.5q0 -22 -9.5 -37.5
t-28.5 -35.5q-20 -20 -26 -31q-5 -10 -16 -8l-29 6q-14 3 -8 15z" />
    <glyph glyph-name="uni1EBB" unicode="&#x1ebb;" horiz-adv-x="426" 
d="M388.5 216.5q-3.5 -3.5 -8.5 -3.5h-221q-5 0 -5 -5v-45q0 -31 17 -51t44 -20q23 0 39.5 14.5t21.5 37.5q3 10 13 10l89 -4q5 0 8.5 -3.5t2.5 -9.5q-7 -70 -51 -107.5t-123 -37.5q-82 0 -129.5 43.5t-47.5 118.5v203q0 73 47.5 117.5t129.5 44.5t129.5 -44.5t47.5 -117.5
v-132q0 -5 -3.5 -8.5zM171 399q-17 -20 -17 -51v-45q0 -5 5 -5h113q5 0 5 5v45q0 32 -17 51.5t-45 19.5q-27 0 -44 -20zM195 569q10 24 32 48q11 11 16 20t5 23q0 11 -9.5 19.5t-22.5 8.5q-15 0 -25 -6.5t-24 -24.5q-4 -6 -10 -6q-4 0 -7 3l-26 19q-9 8 -3 17q21 30 42.5 43
t54.5 13q43 0 68.5 -23.5t25.5 -62.5q0 -22 -9.5 -37.5t-28.5 -35.5q-20 -20 -26 -31q-5 -10 -16 -8l-29 6q-14 3 -8 15z" />
    <glyph glyph-name="uni1EBC" unicode="&#x1ebc;" horiz-adv-x="435" 
d="M399.5 603.5q-3.5 -3.5 -8.5 -3.5h-216q-5 0 -5 -5v-189q0 -5 5 -5h128q5 0 8.5 -3.5t3.5 -8.5v-77q0 -5 -3.5 -8.5t-8.5 -3.5h-128q-5 0 -5 -5v-190q0 -5 5 -5h216q5 0 8.5 -3.5t3.5 -8.5v-76q0 -5 -3.5 -8.5t-8.5 -3.5h-325q-5 0 -8.5 3.5t-3.5 8.5v676q0 5 3.5 8.5
t8.5 3.5h325q5 0 8.5 -3.5t3.5 -8.5v-76q0 -5 -3.5 -8.5zM269 787.5q-12 4.5 -29 14.5q-7 4 -15 9t-14 7.5t-14 2.5q-23 0 -38 -23q-7 -10 -17 -4l-32 23q-9 6 -5 16q14 32 35.5 47.5t47.5 15.5q16 0 30 -6t32 -17q4 -2 12 -7.5t15.5 -8.5t15.5 -3q24 0 38 22q6 12 16 5
l32 -22q5 -3 5 -10q0 -6 -4 -13q-17 -28 -40.5 -40.5t-45.5 -12.5q-13 0 -25 4.5z" />
    <glyph glyph-name="uni1EBD" unicode="&#x1ebd;" horiz-adv-x="426" 
d="M388.5 216.5q-3.5 -3.5 -8.5 -3.5h-221q-5 0 -5 -5v-45q0 -31 17 -51t44 -20q23 0 39.5 14.5t21.5 37.5q3 10 13 10l89 -4q5 0 8.5 -3.5t2.5 -9.5q-7 -70 -51 -107.5t-123 -37.5q-82 0 -129.5 43.5t-47.5 118.5v203q0 73 47.5 117.5t129.5 44.5t129.5 -44.5t47.5 -117.5
v-132q0 -5 -3.5 -8.5zM171 399q-17 -20 -17 -51v-45q0 -5 5 -5h113q5 0 5 5v45q0 32 -17 51.5t-45 19.5q-27 0 -44 -20zM253 598.5q-12 4.5 -29 14.5q-7 4 -15 9t-14 7.5t-14 2.5q-23 0 -38 -23q-7 -10 -17 -4l-32 23q-9 6 -5 16q14 32 35.5 47.5t47.5 15.5q16 0 30 -6
t32 -17q4 -2 12 -7.5t15.5 -8.5t15.5 -3q24 0 38 22q6 12 16 5l32 -22q5 -3 5 -10q0 -6 -4 -13q-17 -28 -40.5 -40.5t-45.5 -12.5q-13 0 -25 4.5z" />
    <glyph glyph-name="uni1EBE" unicode="&#x1ebe;" horiz-adv-x="435" 
d="M399.5 603.5q-3.5 -3.5 -8.5 -3.5h-216q-5 0 -5 -5v-189q0 -5 5 -5h128q5 0 8.5 -3.5t3.5 -8.5v-77q0 -5 -3.5 -8.5t-8.5 -3.5h-128q-5 0 -5 -5v-190q0 -5 5 -5h216q5 0 8.5 -3.5t3.5 -8.5v-76q0 -5 -3.5 -8.5t-8.5 -3.5h-325q-5 0 -8.5 3.5t-3.5 8.5v676q0 5 3.5 8.5
t8.5 3.5h325q5 0 8.5 -3.5t3.5 -8.5v-76q0 -5 -3.5 -8.5zM96.5 767.5q-2.5 3.5 1.5 10.5l63 103q4 8 14 8h103q9 0 14 -8l66 -103q2 -6 2 -7q0 -7 -10 -7h-70q-10 0 -15 8l-34 63q-3 5 -6 0l-35 -63q-5 -8 -15 -8h-69q-7 0 -9.5 3.5zM356 848q-3 4 1 10l59 103q4 8 15 8h72
q8 0 10 -4.5t-2 -10.5l-74 -103q-5 -7 -14 -7h-57q-7 0 -10 4z" />
    <glyph glyph-name="uni1EBF" unicode="&#x1ebf;" horiz-adv-x="426" 
d="M388.5 216.5q-3.5 -3.5 -8.5 -3.5h-221q-5 0 -5 -5v-45q0 -31 17 -51t44 -20q23 0 39.5 14.5t21.5 37.5q3 10 13 10l89 -4q5 0 8.5 -3.5t2.5 -9.5q-7 -70 -51 -107.5t-123 -37.5q-82 0 -129.5 43.5t-47.5 118.5v203q0 73 47.5 117.5t129.5 44.5t129.5 -44.5t47.5 -117.5
v-132q0 -5 -3.5 -8.5zM171 399q-17 -20 -17 -51v-45q0 -5 5 -5h113q5 0 5 5v45q0 32 -17 51.5t-45 19.5q-27 0 -44 -20zM80.5 578.5q-2.5 3.5 1.5 10.5l63 103q4 8 14 8h103q9 0 14 -8l66 -103q2 -6 2 -7q0 -7 -10 -7h-70q-10 0 -15 8l-34 63q-3 5 -6 0l-35 -63
q-5 -8 -15 -8h-69q-7 0 -9.5 3.5zM340 659q-3 4 1 10l59 103q4 8 15 8h72q8 0 10 -4.5t-2 -10.5l-74 -103q-5 -7 -14 -7h-57q-7 0 -10 4z" />
    <glyph glyph-name="uni1EC0" unicode="&#x1ec0;" horiz-adv-x="435" 
d="M399.5 603.5q-3.5 -3.5 -8.5 -3.5h-216q-5 0 -5 -5v-189q0 -5 5 -5h128q5 0 8.5 -3.5t3.5 -8.5v-77q0 -5 -3.5 -8.5t-8.5 -3.5h-128q-5 0 -5 -5v-190q0 -5 5 -5h216q5 0 8.5 -3.5t3.5 -8.5v-76q0 -5 -3.5 -8.5t-8.5 -3.5h-325q-5 0 -8.5 3.5t-3.5 8.5v676q0 5 3.5 8.5
t8.5 3.5h325q5 0 8.5 -3.5t3.5 -8.5v-76q0 -5 -3.5 -8.5zM96.5 767.5q-2.5 3.5 1.5 10.5l63 103q4 8 14 8h103q9 0 14 -8l66 -103q2 -6 2 -7q0 -7 -10 -7h-70q-10 0 -15 8l-34 63q-3 5 -6 0l-35 -63q-5 -8 -15 -8h-69q-7 0 -9.5 3.5zM423 892q0 -8 -11 -8h-58q-9 0 -14 8
l-73 102q-3 5 -3 7q0 8 11 8h72q11 0 15 -8l59 -103z" />
    <glyph glyph-name="uni1EC1" unicode="&#x1ec1;" horiz-adv-x="426" 
d="M388.5 216.5q-3.5 -3.5 -8.5 -3.5h-221q-5 0 -5 -5v-45q0 -31 17 -51t44 -20q23 0 39.5 14.5t21.5 37.5q3 10 13 10l89 -4q5 0 8.5 -3.5t2.5 -9.5q-7 -70 -51 -107.5t-123 -37.5q-82 0 -129.5 43.5t-47.5 118.5v203q0 73 47.5 117.5t129.5 44.5t129.5 -44.5t47.5 -117.5
v-132q0 -5 -3.5 -8.5zM171 399q-17 -20 -17 -51v-45q0 -5 5 -5h113q5 0 5 5v45q0 32 -17 51.5t-45 19.5q-27 0 -44 -20zM80.5 578.5q-2.5 3.5 1.5 10.5l63 103q4 8 14 8h103q9 0 14 -8l66 -103q2 -6 2 -7q0 -7 -10 -7h-70q-10 0 -15 8l-34 63q-3 5 -6 0l-35 -63
q-5 -8 -15 -8h-69q-7 0 -9.5 3.5zM407 703q0 -8 -11 -8h-58q-9 0 -14 8l-73 102q-3 5 -3 7q0 8 11 8h72q11 0 15 -8l59 -103z" />
    <glyph glyph-name="uni1EC2" unicode="&#x1ec2;" horiz-adv-x="435" 
d="M399.5 603.5q-3.5 -3.5 -8.5 -3.5h-216q-5 0 -5 -5v-189q0 -5 5 -5h128q5 0 8.5 -3.5t3.5 -8.5v-77q0 -5 -3.5 -8.5t-8.5 -3.5h-128q-5 0 -5 -5v-190q0 -5 5 -5h216q5 0 8.5 -3.5t3.5 -8.5v-76q0 -5 -3.5 -8.5t-8.5 -3.5h-325q-5 0 -8.5 3.5t-3.5 8.5v676q0 5 3.5 8.5
t8.5 3.5h325q5 0 8.5 -3.5t3.5 -8.5v-76q0 -5 -3.5 -8.5zM351.5 870q-2.5 4 0.5 10q8 19 18 30.5t12 14.5q10 10 15 18.5t5 21.5q0 11 -9 19t-22 8q-12 0 -21.5 -6t-22.5 -21l-4 -4q-6 -8 -15 -1l-23 17q-9 8 -3 17q20 28 40 40.5t52 12.5q40 0 64.5 -22.5t24.5 -59.5
q0 -21 -9 -36t-27 -33q-19 -19 -25 -30q-6 -8 -15 -7l-27 5q-6 2 -8.5 6zM96.5 767.5q-2.5 3.5 1.5 10.5l63 103q4 8 14 8h103q9 0 14 -8l66 -103q2 -6 2 -7q0 -7 -10 -7h-70q-10 0 -15 8l-34 63q-3 5 -6 0l-35 -63q-5 -8 -15 -8h-69q-7 0 -9.5 3.5z" />
    <glyph glyph-name="uni1EC3" unicode="&#x1ec3;" horiz-adv-x="426" 
d="M388.5 216.5q-3.5 -3.5 -8.5 -3.5h-221q-5 0 -5 -5v-45q0 -31 17 -51t44 -20q23 0 39.5 14.5t21.5 37.5q3 10 13 10l89 -4q5 0 8.5 -3.5t2.5 -9.5q-7 -70 -51 -107.5t-123 -37.5q-82 0 -129.5 43.5t-47.5 118.5v203q0 73 47.5 117.5t129.5 44.5t129.5 -44.5t47.5 -117.5
v-132q0 -5 -3.5 -8.5zM171 399q-17 -20 -17 -51v-45q0 -5 5 -5h113q5 0 5 5v45q0 32 -17 51.5t-45 19.5q-27 0 -44 -20zM335.5 681q-2.5 4 0.5 10q8 19 18 30.5t12 14.5q10 10 15 18.5t5 21.5q0 11 -9 19t-22 8q-12 0 -21.5 -6t-22.5 -21l-4 -4q-6 -8 -15 -1l-23 17
q-9 8 -3 17q20 28 40 40.5t52 12.5q40 0 64.5 -22.5t24.5 -59.5q0 -21 -9 -36t-27 -33q-19 -19 -25 -30q-6 -8 -15 -7l-27 5q-6 2 -8.5 6zM80.5 578.5q-2.5 3.5 1.5 10.5l63 103q4 8 14 8h103q9 0 14 -8l66 -103q2 -6 2 -7q0 -7 -10 -7h-70q-10 0 -15 8l-34 63q-3 5 -6 0
l-35 -63q-5 -8 -15 -8h-69q-7 0 -9.5 3.5z" />
    <glyph glyph-name="uni1EC4" unicode="&#x1ec4;" horiz-adv-x="435" 
d="M399.5 603.5q-3.5 -3.5 -8.5 -3.5h-216q-5 0 -5 -5v-189q0 -5 5 -5h128q5 0 8.5 -3.5t3.5 -8.5v-77q0 -5 -3.5 -8.5t-8.5 -3.5h-128q-5 0 -5 -5v-190q0 -5 5 -5h216q5 0 8.5 -3.5t3.5 -8.5v-76q0 -5 -3.5 -8.5t-8.5 -3.5h-325q-5 0 -8.5 3.5t-3.5 8.5v676q0 5 3.5 8.5
t8.5 3.5h325q5 0 8.5 -3.5t3.5 -8.5v-76q0 -5 -3.5 -8.5zM96.5 767.5q-2.5 3.5 1.5 10.5l63 103q4 8 14 8h103q9 0 14 -8l66 -103q2 -6 2 -7q0 -7 -10 -7h-70q-10 0 -15 8l-34 63q-3 5 -6 0l-35 -63q-5 -8 -15 -8h-69q-7 0 -9.5 3.5zM254 927.5q-12 4.5 -29 14.5q-7 4 -15 9
t-14 7.5t-14 2.5q-23 0 -38 -23q-7 -10 -17 -4l-32 23q-9 6 -5 16q14 32 35.5 47.5t47.5 15.5q16 0 30 -6t32 -17q4 -2 12 -7.5t15.5 -8.5t15.5 -3q24 0 38 22q6 12 16 5l32 -22q5 -3 5 -10q0 -6 -4 -13q-17 -28 -40.5 -40.5t-45.5 -12.5q-13 0 -25 4.5z" />
    <glyph glyph-name="uni1EC5" unicode="&#x1ec5;" horiz-adv-x="426" 
d="M388.5 216.5q-3.5 -3.5 -8.5 -3.5h-221q-5 0 -5 -5v-45q0 -31 17 -51t44 -20q23 0 39.5 14.5t21.5 37.5q3 10 13 10l89 -4q5 0 8.5 -3.5t2.5 -9.5q-7 -70 -51 -107.5t-123 -37.5q-82 0 -129.5 43.5t-47.5 118.5v203q0 73 47.5 117.5t129.5 44.5t129.5 -44.5t47.5 -117.5
v-132q0 -5 -3.5 -8.5zM171 399q-17 -20 -17 -51v-45q0 -5 5 -5h113q5 0 5 5v45q0 32 -17 51.5t-45 19.5q-27 0 -44 -20zM80.5 578.5q-2.5 3.5 1.5 10.5l63 103q4 8 14 8h103q9 0 14 -8l66 -103q2 -6 2 -7q0 -7 -10 -7h-70q-10 0 -15 8l-34 63q-3 5 -6 0l-35 -63
q-5 -8 -15 -8h-69q-7 0 -9.5 3.5zM238 738.5q-12 4.5 -29 14.5q-7 4 -15 9t-14 7.5t-14 2.5q-23 0 -38 -23q-7 -10 -17 -4l-32 23q-9 6 -5 16q14 32 35.5 47.5t47.5 15.5q16 0 30 -6t32 -17q4 -2 12 -7.5t15.5 -8.5t15.5 -3q24 0 38 22q6 12 16 5l32 -22q5 -3 5 -10
q0 -6 -4 -13q-17 -28 -40.5 -40.5t-45.5 -12.5q-13 0 -25 4.5z" />
    <glyph glyph-name="uni1EC6" unicode="&#x1ec6;" horiz-adv-x="435" 
d="M399.5 603.5q-3.5 -3.5 -8.5 -3.5h-216q-5 0 -5 -5v-189q0 -5 5 -5h128q5 0 8.5 -3.5t3.5 -8.5v-77q0 -5 -3.5 -8.5t-8.5 -3.5h-128q-5 0 -5 -5v-190q0 -5 5 -5h216q5 0 8.5 -3.5t3.5 -8.5v-76q0 -5 -3.5 -8.5t-8.5 -3.5h-325q-5 0 -8.5 3.5t-3.5 8.5v676q0 5 3.5 8.5
t8.5 3.5h325q5 0 8.5 -3.5t3.5 -8.5v-76q0 -5 -3.5 -8.5zM175 -203.5q-19 19.5 -19 48.5t19 48t49 19q29 0 48 -19t19 -48t-19 -48.5t-48 -19.5q-30 0 -49 19.5zM96.5 767.5q-2.5 3.5 1.5 10.5l63 103q4 8 14 8h103q9 0 14 -8l66 -103q2 -6 2 -7q0 -7 -10 -7h-70
q-10 0 -15 8l-34 63q-3 5 -6 0l-35 -63q-5 -8 -15 -8h-69q-7 0 -9.5 3.5z" />
    <glyph glyph-name="uni1EC7" unicode="&#x1ec7;" horiz-adv-x="426" 
d="M388.5 216.5q-3.5 -3.5 -8.5 -3.5h-221q-5 0 -5 -5v-45q0 -31 17 -51t44 -20q23 0 39.5 14.5t21.5 37.5q3 10 13 10l89 -4q5 0 8.5 -3.5t2.5 -9.5q-7 -70 -51 -107.5t-123 -37.5q-82 0 -129.5 43.5t-47.5 118.5v203q0 73 47.5 117.5t129.5 44.5t129.5 -44.5t47.5 -117.5
v-132q0 -5 -3.5 -8.5zM171 399q-17 -20 -17 -51v-45q0 -5 5 -5h113q5 0 5 5v45q0 32 -17 51.5t-45 19.5q-27 0 -44 -20zM165 -203.5q-19 19.5 -19 48.5t19 48t49 19q29 0 48 -19t19 -48t-19 -48.5t-48 -19.5q-30 0 -49 19.5zM80.5 578.5q-2.5 3.5 1.5 10.5l63 103q4 8 14 8
h103q9 0 14 -8l66 -103q2 -6 2 -7q0 -7 -10 -7h-70q-10 0 -15 8l-34 63q-3 5 -6 0l-35 -63q-5 -8 -15 -8h-69q-7 0 -9.5 3.5z" />
    <glyph glyph-name="uni1EC8" unicode="&#x1ec8;" horiz-adv-x="224" 
d="M57.5 3.5q-3.5 3.5 -3.5 8.5v676q0 5 3.5 8.5t8.5 3.5h92q5 0 8.5 -3.5t3.5 -8.5v-676q0 -5 -3.5 -8.5t-8.5 -3.5h-92q-5 0 -8.5 3.5zM94 758q10 24 32 48q11 11 16 20t5 23q0 11 -9.5 19.5t-22.5 8.5q-15 0 -25 -6.5t-24 -24.5q-4 -6 -10 -6q-4 0 -7 3l-26 19
q-9 8 -3 17q21 30 42.5 43t54.5 13q43 0 68.5 -23.5t25.5 -62.5q0 -22 -9.5 -37.5t-28.5 -35.5q-20 -20 -26 -31q-5 -10 -16 -8l-29 6q-14 3 -8 15z" />
    <glyph glyph-name="uni1EC9" unicode="&#x1ec9;" horiz-adv-x="182" 
d="M36.5 3.5q-3.5 3.5 -3.5 8.5v487q0 5 3.5 8.5t8.5 3.5h92q5 0 8.5 -3.5t3.5 -8.5v-487q0 -5 -3.5 -8.5t-8.5 -3.5h-92q-5 0 -8.5 3.5zM73 569q10 24 32 48q11 11 16 20t5 23q0 11 -9.5 19.5t-22.5 8.5q-15 0 -25 -6.5t-24 -24.5q-4 -6 -10 -6q-4 0 -7 3l-26 19
q-9 8 -3 17q21 30 42.5 43t54.5 13q43 0 68.5 -23.5t25.5 -62.5q0 -22 -9.5 -37.5t-28.5 -35.5q-20 -20 -26 -31q-5 -10 -16 -8l-29 6q-14 3 -8 15z" />
    <glyph glyph-name="uni1ECA" unicode="&#x1eca;" horiz-adv-x="224" 
d="M57.5 3.5q-3.5 3.5 -3.5 8.5v676q0 5 3.5 8.5t8.5 3.5h92q5 0 8.5 -3.5t3.5 -8.5v-676q0 -5 -3.5 -8.5t-8.5 -3.5h-92q-5 0 -8.5 3.5zM64 -203.5q-19 19.5 -19 48.5t19 48t49 19q29 0 48 -19t19 -48t-19 -48.5t-48 -19.5q-30 0 -49 19.5z" />
    <glyph glyph-name="uni1ECB" unicode="&#x1ecb;" horiz-adv-x="215" 
d="M56 601q-20 20 -20 51t20 51t51 20t50.5 -20t19.5 -51t-20 -51t-50 -20q-31 0 -51 20zM53.5 3.5q-3.5 3.5 -3.5 8.5v487q0 5 3.5 8.5t8.5 3.5h92q5 0 8.5 -3.5t3.5 -8.5v-487q0 -5 -3.5 -8.5t-8.5 -3.5h-92q-5 0 -8.5 3.5zM59 -203.5q-19 19.5 -19 48.5t19 48t49 19
q29 0 48 -19t19 -48t-19 -48.5t-48 -19.5q-30 0 -49 19.5z" />
    <glyph glyph-name="uni1ECC" unicode="&#x1ecc;" horiz-adv-x="467" 
d="M94.5 44q-52.5 52 -52.5 138v336q0 86 52.5 138t138.5 52t139 -52t53 -138v-336q0 -86 -53 -138t-139 -52t-138.5 52zM288 115.5q21 23.5 21 61.5v346q0 38 -21 61.5t-55 23.5t-54.5 -23.5t-20.5 -61.5v-346q0 -38 20.5 -61.5t54.5 -23.5t55 23.5zM185 -203.5
q-19 19.5 -19 48.5t19 48t49 19q29 0 48 -19t19 -48t-19 -48.5t-48 -19.5q-30 0 -49 19.5z" />
    <glyph glyph-name="uni1ECD" unicode="&#x1ecd;" horiz-adv-x="432" 
d="M85.5 36q-47.5 44 -47.5 119v201q0 74 48 118.5t130 44.5q83 0 131 -44.5t48 -118.5v-201q0 -75 -47.5 -119t-131.5 -44q-83 0 -130.5 44zM261.5 112.5q17.5 19.5 17.5 51.5v184q0 31 -17.5 51t-45.5 20t-45 -19.5t-17 -51.5v-184q0 -32 17 -51.5t45 -19.5t45.5 19.5z
M168 -203.5q-19 19.5 -19 48.5t19 48t49 19q29 0 48 -19t19 -48t-19 -48.5t-48 -19.5q-30 0 -49 19.5z" />
    <glyph glyph-name="uni1ECE" unicode="&#x1ece;" horiz-adv-x="467" 
d="M94.5 44q-52.5 52 -52.5 138v336q0 86 52.5 138t138.5 52t139 -52t53 -138v-336q0 -86 -53 -138t-139 -52t-138.5 52zM288 115.5q21 23.5 21 61.5v346q0 38 -21 61.5t-55 23.5t-54.5 -23.5t-20.5 -61.5v-346q0 -38 20.5 -61.5t54.5 -23.5t55 23.5zM215 757q10 24 32 48
q11 11 16 20t5 23q0 11 -9.5 19.5t-22.5 8.5q-15 0 -25 -6.5t-24 -24.5q-4 -6 -10 -6q-4 0 -7 3l-26 19q-9 8 -3 17q21 30 42.5 43t54.5 13q43 0 68.5 -23.5t25.5 -62.5q0 -22 -9.5 -37.5t-28.5 -35.5q-20 -20 -26 -31q-5 -10 -16 -8l-29 6q-14 3 -8 15z" />
    <glyph glyph-name="uni1ECF" unicode="&#x1ecf;" horiz-adv-x="432" 
d="M85.5 36q-47.5 44 -47.5 119v201q0 74 48 118.5t130 44.5q83 0 131 -44.5t48 -118.5v-201q0 -75 -47.5 -119t-131.5 -44q-83 0 -130.5 44zM261.5 112.5q17.5 19.5 17.5 51.5v184q0 31 -17.5 51t-45.5 20t-45 -19.5t-17 -51.5v-184q0 -32 17 -51.5t45 -19.5t45.5 19.5z
M198 569q10 24 32 48q11 11 16 20t5 23q0 11 -9.5 19.5t-22.5 8.5q-15 0 -25 -6.5t-24 -24.5q-4 -6 -10 -6q-4 0 -7 3l-26 19q-9 8 -3 17q21 30 42.5 43t54.5 13q43 0 68.5 -23.5t25.5 -62.5q0 -22 -9.5 -37.5t-28.5 -35.5q-20 -20 -26 -31q-5 -10 -16 -8l-29 6q-14 3 -8 15
z" />
    <glyph glyph-name="uni1ED0" unicode="&#x1ed0;" horiz-adv-x="467" 
d="M94.5 44q-52.5 52 -52.5 138v336q0 86 52.5 138t138.5 52t139 -52t53 -138v-336q0 -86 -53 -138t-139 -52t-138.5 52zM288 115.5q21 23.5 21 61.5v346q0 38 -21 61.5t-55 23.5t-54.5 -23.5t-20.5 -61.5v-346q0 -38 20.5 -61.5t54.5 -23.5t55 23.5zM100.5 766.5
q-2.5 3.5 1.5 10.5l63 103q4 8 14 8h103q9 0 14 -8l66 -103q2 -6 2 -7q0 -7 -10 -7h-70q-10 0 -15 8l-34 63q-3 5 -6 0l-35 -63q-5 -8 -15 -8h-69q-7 0 -9.5 3.5zM360 847q-3 4 1 10l59 103q4 8 15 8h72q8 0 10 -4.5t-2 -10.5l-74 -103q-5 -7 -14 -7h-57q-7 0 -10 4z" />
    <glyph glyph-name="uni1ED1" unicode="&#x1ed1;" horiz-adv-x="432" 
d="M85.5 36q-47.5 44 -47.5 119v201q0 74 48 118.5t130 44.5q83 0 131 -44.5t48 -118.5v-201q0 -75 -47.5 -119t-131.5 -44q-83 0 -130.5 44zM261.5 112.5q17.5 19.5 17.5 51.5v184q0 31 -17.5 51t-45.5 20t-45 -19.5t-17 -51.5v-184q0 -32 17 -51.5t45 -19.5t45.5 19.5z
M83.5 578.5q-2.5 3.5 1.5 10.5l63 103q4 8 14 8h103q9 0 14 -8l66 -103q2 -6 2 -7q0 -7 -10 -7h-70q-10 0 -15 8l-34 63q-3 5 -6 0l-35 -63q-5 -8 -15 -8h-69q-7 0 -9.5 3.5zM343 659q-3 4 1 10l59 103q4 8 15 8h72q8 0 10 -4.5t-2 -10.5l-74 -103q-5 -7 -14 -7h-57
q-7 0 -10 4z" />
    </font>
</defs>
</svg>
