<?xml version="1.0" standalone="no"?>
<!DOCTYPE svg PUBLIC "-//W3C//DTD SVG 1.1//EN" "http://www.w3.org/Graphics/SVG/1.1/DTD/svg11.dtd" >
<svg xmlns="http://www.w3.org/2000/svg" xmlns:xlink="http://www.w3.org/1999/xlink" version="1.1">
<metadata>
Created by FontForge 20201107 at Wed Nov  7 06:09:00 2018
 By 
Copyright 2017 The Barlow Project Authors (https://github.com/jpt/barlow)
</metadata>
<defs>
<font id="BarlowCondensed-MediumItalic" horiz-adv-x="419" >
  <font-face 
    font-family="Barlow Condensed Medium"
    font-weight="500"
    font-style="italic"
    font-stretch="condensed"
    units-per-em="1000"
    panose-1="0 0 6 6 0 0 0 0 0 0"
    ascent="800"
    descent="-200"
    x-height="509"
    cap-height="700"
    bbox="-507.6 -209 978 1073"
    underline-thickness="50"
    underline-position="-100"
    slope="-7"
    unicode-range="U+000D-FB02"
  />
<missing-glyph horiz-adv-x="353" 
d="M-18 1q1 -1 2 -1h345q4 0 4 4l85 692q0 4 -3 4h-345q-4 0 -4 -4l-85 -692q0 -2 1 -3zM149 248l4 33q4 32 19 52.5t42 44.5q28 25 42 46t14 56q0 25 -11.5 39t-31.5 14q-25 0 -41.5 -19t-20.5 -51l-2 -16q-1 -4 -4 -7t-7 -3l-47 2q-4 0 -6.5 3t-1.5 8l2 13q7 59 45 96
t92 37q48 0 75.5 -29.5t27.5 -79.5q0 -14 -1 -21q-6 -45 -24.5 -71.5t-48.5 -51.5q-22 -20 -32.5 -33.5t-13.5 -32.5l-3 -29q-2 -10 -11 -10h-48q-10 0 -8 10zM134.5 101q-10.5 11 -10.5 29q0 22 14.5 36.5t36.5 14.5q17 0 27.5 -10.5t10.5 -28.5q0 -22 -14.5 -37t-35.5 -15
q-18 0 -28.5 11z" />
    <glyph glyph-name="fi" unicode="fi" horiz-adv-x="481" 
d="M209 513q0 -4 4 -4h68q10 0 8 -10l-6 -50q-2 -10 -11 -10h-68q-4 0 -4 -4l-52 -425q-2 -10 -11 -10h-73q-10 0 -8 10l52 425q0 4 -4 4h-36q-4 0 -6.5 3t-1.5 7l6 50q2 10 11 10h36q4 0 4 4l4 26q10 89 50.5 127.5t121.5 38.5h13q10 0 8 -10l-9 -61q-1 -10 -11 -10h-10
q-31 0 -48.5 -21.5t-23.5 -66.5zM390 604q-15 15 -15 39q0 32 20.5 53t49.5 21q25 0 40 -15t15 -40q0 -31 -20.5 -52t-49.5 -21q-25 0 -40 15zM314.5 3q-2.5 3 -1.5 7l60 489q2 10 11 10h74q10 0 8 -10l-60 -489q-2 -10 -11 -10h-73q-5 0 -7.5 3z" />
    <glyph glyph-name="fl" unicode="fl" horiz-adv-x="461" 
d="M209 513q0 -4 4 -4h68q10 0 8 -10l-6 -50q-2 -10 -11 -10h-68q-4 0 -4 -4l-52 -425q-2 -10 -11 -10h-73q-10 0 -8 10l52 425q0 4 -4 4h-36q-4 0 -6.5 3t-1.5 7l6 50q2 10 11 10h36q4 0 4 4l4 26q10 89 50.5 127.5t121.5 38.5h13q10 0 8 -10l-9 -61q-1 -10 -11 -10h-10
q-31 0 -48.5 -21.5t-23.5 -66.5zM303 10l84 680q2 10 11 10h74q4 0 6.5 -3t1.5 -7l-83 -680q-1 -4 -4 -7t-7 -3h-74q-9 0 -9 10z" />
    <glyph glyph-name="I_J.liga" unicode="IJ" horiz-adv-x="635" 
d="M43.5 3q-2.5 3 -1.5 7l83 680q1 4 4 7t7 3h74q9 0 9 -10l-84 -680q-2 -10 -11 -10h-74q-4 0 -6.5 3zM272 32q-41 40 -41 108q0 8 2 28l9 79q2 10 11 10h74q10 0 8 -10l-9 -81q-1 -6 -1 -16q0 -34 18.5 -54.5t49.5 -20.5q35 0 60 25.5t30 65.5l64 524q2 10 11 10h74
q4 0 6.5 -3t1.5 -7l-64 -522q-10 -79 -63 -127.5t-130 -48.5q-70 0 -111 40z" />
    <glyph glyph-name="f_f_i.liga" unicode="ffi" horiz-adv-x="736" 
d="M646.5 604.5q-14.5 15.5 -14.5 39.5q0 32 20 52.5t50 20.5q25 0 40 -14.5t15 -39.5q0 -31 -21 -52.5t-50 -21.5q-25 0 -39.5 15.5zM467 513q-1 -1 0 -2.5t3 -1.5h67q10 0 8 -10l-6 -50q-2 -10 -11 -10h-67q-4 0 -4 -4l-52 -425q-2 -10 -11 -10h-74q-10 0 -8 10l52 425
q0 4 -4 4h-155q-4 0 -4 -4l-52 -425q-2 -10 -11 -10h-74q-10 0 -8 10l52 425q0 4 -4 4h-37q-4 0 -6.5 3t-1.5 7l6 50q2 10 11 10h37q4 0 4 4l5 40q10 83 51.5 119t120.5 34h7q9 0 9 -10l-6 -48q-2 -10 -11 -10h-7q-34 -1 -50 -24.5t-22 -68.5l-4 -32q0 -4 4 -4h155q4 0 4 4
l5 40q10 83 51 119t120 34h8q9 0 9 -10l-6 -48q-2 -10 -11 -10h-7q-34 -1 -50 -24.5t-22 -68.5zM570 10l60 489q0 4 3 7t8 3h73q5 0 7.5 -3t1.5 -7l-60 -489q-2 -10 -11 -10h-74q-10 0 -8 10z" />
    <glyph glyph-name="f_f_l.liga" unicode="ffl" horiz-adv-x="720" 
d="M469 513q0 -4 4 -4h67q10 0 8 -10l-6 -50q-2 -10 -11 -10h-67q-4 0 -4 -4l-52 -425q-2 -10 -11 -10h-74q-10 0 -8 10l52 425q0 4 -4 4h-158q-4 0 -4 -4l-52 -425q-2 -10 -11 -10h-74q-10 0 -8 10l52 425q0 4 -4 4h-37q-4 0 -6.5 3t-1.5 7l6 50q2 10 11 10h37q4 0 4 4
l5 40q10 83 51.5 119t120.5 34h7q9 0 9 -10l-6 -48q-2 -10 -11 -10h-7q-34 -1 -50 -24.5t-22 -68.5l-4 -32q0 -4 4 -4h158q4 0 4 4l5 40q10 83 51.5 119t120.5 34h7q9 0 9 -10l-6 -48q-2 -10 -11 -10h-7q-34 -1 -50 -24.5t-22 -68.5zM656 700h74q9 0 9 -10l-84 -680
q-2 -10 -11 -10h-74q-4 0 -6.5 3t-1.5 7l83 680q2 10 11 10z" />
    <glyph glyph-name="g_j.liga" unicode="gj" horiz-adv-x="610" 
d="M520 604q-15 15 -15 39q0 32 20.5 53t50.5 21q25 0 40 -14.5t15 -39.5q0 -31 -21 -52.5t-50 -21.5q-25 0 -40 15zM310.5 470q1.5 1 1.5 3l3 26q1 4 4 7t7 3h74q9 0 9 -10l-60 -484q-13 -105 -66.5 -162.5t-167.5 -57.5l-26 1q-10 2 -8 11l8 64q2 10 11 10q80 -3 114 32.5
t43 110.5l3 21q0 2 -1.5 2.5t-3.5 -1.5q-20 -24 -46 -35t-54 -11q-56 0 -85.5 33.5t-29.5 92.5q0 10 2 32l24 200q9 74 49.5 116.5t103.5 42.5q62 0 88 -46q2 -2 3.5 -1zM504 499q0 4 3 7t8 3h72q9 0 9 -10l-65 -527q-11 -91 -51 -135t-130 -43q-10 0 -8 10l9 62q1 10 9 10
q32 1 53 26.5t26 69.5zM247.5 105.5q21.5 22.5 26.5 58.5l23 188q1 5 1 15q0 30 -16 48.5t-43 18.5q-31 0 -53 -23t-27 -59l-23 -188q-1 -5 -1 -14q0 -30 16.5 -48.5t43.5 -18.5q31 0 52.5 22.5z" />
    <glyph glyph-name="i_j.liga" unicode="ij" horiz-adv-x="400" 
d="M115 604q-15 15 -15 39q0 32 20.5 53t49.5 21q25 0 40 -15t15 -40q0 -31 -20.5 -52t-49.5 -21q-25 0 -40 15zM311 604.5q-15 15.5 -15 40.5q0 31 20.5 51.5t49.5 20.5q25 0 40 -15t15 -40q0 -31 -20.5 -52t-49.5 -21q-25 0 -40 15.5zM39.5 3q-2.5 3 -1.5 7l60 489
q2 10 11 10h74q10 0 8 -10l-60 -489q-2 -10 -11 -10h-73q-5 0 -7.5 3zM118 -197l8 63q2 10 11 10q80 1 91 96l65 527q2 10 11 10h74q10 0 8 -10l-64 -527q-8 -62 -25 -99.5t-56.5 -58.5t-110.5 -21q-12 0 -12 10z" />
    <glyph glyph-name="hyphen_hyphen.liga" unicode="&#x2d;&#x2d;" horiz-adv-x="575" 
d="M42 269l7 63q1 4 4 7t7 3h499q10 0 8 -10l-7 -63q-2 -10 -11 -10h-499q-10 0 -8 10z" />
    <glyph glyph-name=".notdef" horiz-adv-x="353" 
d="M-18 1q1 -1 2 -1h345q4 0 4 4l85 692q0 4 -3 4h-345q-4 0 -4 -4l-85 -692q0 -2 1 -3zM149 248l4 33q4 32 19 52.5t42 44.5q28 25 42 46t14 56q0 25 -11.5 39t-31.5 14q-25 0 -41.5 -19t-20.5 -51l-2 -16q-1 -4 -4 -7t-7 -3l-47 2q-4 0 -6.5 3t-1.5 8l2 13q7 59 45 96
t92 37q48 0 75.5 -29.5t27.5 -79.5q0 -14 -1 -21q-6 -45 -24.5 -71.5t-48.5 -51.5q-22 -20 -32.5 -33.5t-13.5 -32.5l-3 -29q-2 -10 -11 -10h-48q-10 0 -8 10zM134.5 101q-10.5 11 -10.5 29q0 22 14.5 36.5t36.5 14.5q17 0 27.5 -10.5t10.5 -28.5q0 -22 -14.5 -37t-35.5 -15
q-18 0 -28.5 11z" />
    <glyph glyph-name=".null" horiz-adv-x="0" 
 />
    <glyph glyph-name="nonmarkingreturn" unicode="&#xd;" horiz-adv-x="194" 
 />
    <glyph glyph-name="NULL" horiz-adv-x="0" 
 />
    <glyph glyph-name="NULL" horiz-adv-x="0" 
 />
    <glyph glyph-name="space" unicode=" " horiz-adv-x="194" 
 />
    <glyph glyph-name="exclam" unicode="!" horiz-adv-x="254" 
d="M100 242l46 448q2 10 11 10h73q5 0 7.5 -3t1.5 -7l-65 -448q-1 -10 -11 -10h-55q-9 0 -8 10zM68 18q-15 15 -15 39q0 32 20.5 53t50.5 21q25 0 40 -14.5t15 -39.5q0 -31 -21 -52.5t-50 -21.5q-25 0 -40 15z" />
    <glyph glyph-name="quotedbl" unicode="&#x22;" horiz-adv-x="266" 
d="M69 492l15 194q2 10 10 10h71q10 0 8 -10l-33 -194q-1 -10 -11 -10h-50q-11 0 -10 10zM207 492l15 194q2 10 10 10h71q9 0 7 -10l-33 -194q-1 -10 -11 -10h-51q-9 0 -8 10z" />
    <glyph glyph-name="numbersign" unicode="#" horiz-adv-x="581" 
d="M557 420h-62q-5 0 -5 -4l-36 -138q0 -4 3 -4h50q10 0 8 -10l-7 -63q-2 -10 -11 -10h-63q-5 0 -6 -4l-41 -158q-3 -9 -11 -9l-74 1q-4 0 -6.5 3t-0.5 8l40 155q1 1 0 2.5t-2 1.5h-120q-5 0 -6 -4l-41 -158q-3 -9 -11 -9l-74 1q-4 0 -6.5 3t-0.5 8l40 155q0 4 -2 4h-52
q-10 0 -8 10l8 63q0 4 3 7t8 3h64q4 0 5 4l35 138q0 4 -2 4h-53q-4 0 -6.5 3t-1.5 7l8 64q2 10 11 10h65q5 0 5 4l42 158q3 9 11 9l73 -1q4 0 6.5 -3t1.5 -8l-41 -155q0 -4 3 -4h120q5 0 5 4l42 158q3 9 11 9l73 -1q4 0 6.5 -3t1.5 -8l-41 -155q0 -4 3 -4h49q9 0 9 -10
l-8 -64q-2 -10 -11 -10zM361 278l35 138q1 1 0 2.5t-2 1.5h-120q-5 0 -6 -4l-35 -138q0 -4 2 -4h121q5 0 5 4z" />
    <glyph glyph-name="dollar" unicode="$" horiz-adv-x="414" 
d="M331.5 57q-41.5 -48 -103.5 -61q-4 -1 -4 -5l-7 -66q-2 -10 -11 -10h-52q-4 0 -6.5 3t-1.5 7l9 66q0 4 -3 5q-55 10 -85.5 49t-30.5 98q0 8 2 28l4 26q0 4 3 7t8 3h71q5 0 7.5 -3t1.5 -7l-3 -21q-1 -6 -1 -18q0 -39 18.5 -61t49.5 -22q39 0 66.5 31.5t27.5 79.5
q0 24 -10.5 43.5t-27.5 36t-55 47.5q-41 35 -64 59t-39 56.5t-16 74.5q0 9 2 29q9 72 51 117.5t105 55.5q4 1 4 5l8 71q2 10 11 10h51q4 0 6.5 -3t1.5 -7l-10 -73q0 -3 3 -5q51 -11 80 -50.5t29 -98.5q0 -9 -2 -31l-3 -25q-2 -10 -11 -10h-72q-4 0 -6.5 3t-1.5 7l3 27
q1 7 1 20q0 37 -18.5 58.5t-50.5 21.5q-38 0 -63.5 -29.5t-25.5 -80.5q0 -32 18.5 -57t68.5 -67q48 -40 73 -65.5t39 -55t14 -66.5q0 -7 -2 -27q-9 -72 -50.5 -120z" />
    <glyph glyph-name="percent" unicode="%" horiz-adv-x="753" 
d="M144 450q-35 37 -35 93q0 44 22.5 82.5t59.5 61t78 22.5q53 0 88 -37t35 -91q0 -45 -22 -83.5t-59 -61.5t-78 -23q-54 0 -89 37zM144.5 3.5q-2.5 3.5 1.5 8.5l440 681q3 7 12 7h48q5 0 7.5 -3.5t-1.5 -8.5l-440 -681q-3 -7 -12 -7h-48q-5 0 -7.5 3.5zM309 498.5
q30 31.5 30 75.5q0 35 -22 58.5t-54 23.5q-41 0 -71 -31.5t-30 -74.5q0 -36 22 -59.5t56 -23.5q39 0 69 31.5zM443 28q-35 37 -35 92q0 44 22.5 82.5t59.5 61.5t78 23q53 0 88 -37t35 -92q0 -44 -22 -82.5t-59 -61.5t-79 -23q-53 0 -88 37zM608 76q30 32 30 75
q0 35 -22 58.5t-55 23.5q-39 0 -69.5 -32t-30.5 -74q0 -36 21.5 -59.5t55.5 -23.5q40 0 70 32z" />
    <glyph glyph-name="ampersand" unicode="&#x26;" horiz-adv-x="547" 
d="M488 7q0 -7 -9 -7h-79q-8 0 -12 6l-16 29l-4.5 9t-6.5 11q-3 3 -6 0q-77 -64 -169 -64q-72 0 -112.5 36t-40.5 104q0 9 2 29q8 68 44 115.5t94 90.5q3 1 1 5q-33 59 -45 90t-12 57q0 56 23 99t63.5 67t90.5 24q63 0 101.5 -37.5t38.5 -99.5q0 -72 -37 -121.5t-104 -99.5
q-3 -1 -1 -5q15 -28 20 -35l18 -33l46 -79q2 -4 6 0l56 80q2 4 6 5t8 -1l50 -32q8 -5 3 -14q-43 -64 -81 -111q-2 -4 -1 -6l63 -107q2 -2 2 -5zM232 594q-21 -27 -21 -70q0 -18 7 -38.5t28 -60.5q3 -4 6 -1q43 33 65.5 64t22.5 71q0 28 -14.5 45t-39.5 17q-33 0 -54 -27z
M314 125q3 3 2 6l-96 161q-2 3 -5 0q-42 -34 -64.5 -67t-22.5 -75q0 -35 19.5 -55.5t57.5 -20.5q50 0 109 51z" />
    <glyph glyph-name="quotesingle" unicode="'" horiz-adv-x="133" 
d="M70 496l14 192q2 10 10 10h76q8 0 8 -10l-34 -192q-1 -10 -11 -10h-55q-9 0 -8 10z" />
    <glyph glyph-name="parenleft" unicode="(" horiz-adv-x="246" 
d="M61 -93q-23 55 -36.5 128.5t-13.5 157.5q0 65 9 135q16 128 55.5 239.5t91.5 187.5q6 7 13 7h71q5 0 7 -3.5t-1 -8.5q-45 -81 -81 -190t-51 -231q-9 -73 -9 -141q0 -153 38 -276l1 -3q0 -9 -10 -9h-73q-7 0 -11 7z" />
    <glyph glyph-name="parenright" unicode=")" horiz-adv-x="246" 
d="M227 755q23 -55 36.5 -129t13.5 -160q0 -71 -8 -132q-16 -128 -56 -239.5t-92 -187.5q-4 -7 -12 -7h-72q-5 0 -7 3.5t1 8.5q45 81 81.5 190t51.5 231q8 65 8 140q0 160 -38 277l-1 3q0 9 10 9h74q7 0 10 -7z" />
    <glyph glyph-name="asterisk" unicode="*" horiz-adv-x="350" 
d="M178 405l13 107q0 2 -1.5 3t-3.5 0l-94 -55l-5 -2q-4 0 -8 6l-14 33q-1 2 -1 5q0 5 6 9l98 56q2 1 2 3t-2 3l-84 56q-7 6 -1 14l22 34q7 9 15 4l80 -56q2 -1 3.5 0t1.5 3l13 108q1 4 4 7t7 3h37q9 0 9 -10l-15 -108q0 -3 1.5 -4t3.5 1l94 56l5 2q6 0 8 -6l14 -34l2 -5
q0 -4 -6 -9l-98 -56q-2 -1 -2 -3t1 -3l84 -56q7 -5 2 -14l-23 -34q-7 -9 -14 -4l-81 56q-1 2 -2.5 1t-2.5 -4l-12 -107q-2 -10 -11 -10h-37q-10 0 -8 10z" />
    <glyph glyph-name="plus" unicode="+" horiz-adv-x="427" 
d="M421 343l-6 -54q-2 -10 -11 -10h-136q-4 0 -4 -4l-18 -140q0 -4 -3 -7t-7 -3h-53q-10 0 -8 10l17 140q0 4 -4 4h-135q-5 0 -7.5 3t-1.5 7l7 54q2 10 11 10h136q4 0 4 4l17 140q2 10 11 10h52q5 0 7.5 -3t1.5 -7l-17 -140q-1 -1 0 -2.5t3 -1.5h136q10 0 8 -10z" />
    <glyph glyph-name="comma" unicode="," horiz-adv-x="184" 
d="M7 -83q-3 3 -2 8l56 222q3 9 11 9h64q10 0 7 -11l-74 -222q-3 -9 -12 -9h-43q-4 0 -7 3z" />
    <glyph glyph-name="hyphen" unicode="-" horiz-adv-x="310" 
d="M42 274l8 63q2 10 11 10h235q10 0 8 -10l-7 -63q-1 -4 -4 -7t-7 -3h-235q-9 0 -9 10z" />
    <glyph glyph-name="period" unicode="." horiz-adv-x="196" 
d="M38 15q-15 15 -15 39q0 32 20.5 53t50.5 21q24 0 39 -15.5t15 -40.5q0 -31 -20.5 -51.5t-49.5 -20.5q-25 0 -40 15z" />
    <glyph glyph-name="slash" unicode="/" horiz-adv-x="352" 
d="M3.5 3q-2.5 3 -0.5 8l273 681q5 8 12 8h72q5 0 7.5 -3t0.5 -8l-273 -681q-3 -8 -12 -8h-72q-5 0 -7.5 3z" />
    <glyph glyph-name="zero" unicode="0" horiz-adv-x="434" 
d="M84 32q-41 42 -41 113q0 10 2 32l42 346q10 85 64 136t133 51q71 0 112.5 -42.5t41.5 -113.5q0 -9 -2 -31l-43 -346q-10 -85 -64.5 -136t-132.5 -51q-71 0 -112 42zM268.5 100q25.5 27 30.5 71l44 358q1 7 1 19q0 36 -19 57.5t-51 21.5q-36 0 -61.5 -27t-31.5 -71
l-44 -358q-1 -6 -1 -17q0 -37 19 -59t51 -22q37 0 62.5 27z" />
    <glyph glyph-name="one" unicode="1" horiz-adv-x="258" 
d="M188 700h77q5 0 7.5 -3t1.5 -7l-84 -680q0 -4 -3 -7t-8 -3h-73q-9 0 -9 10l72 585q0 6 -3 4l-89 -23l-4 -1q-7 0 -7 9l3 56q0 8 8 12l99 45q6 3 12 3z" />
    <glyph glyph-name="two" unicode="2" horiz-adv-x="402" 
d="M138 83h222q5 0 7.5 -3t1.5 -7l-8 -63q-2 -10 -11 -10h-326q-10 0 -8 10l8 66q0 6 5 13l59 75q15 20 63.5 81.5t83.5 111.5q80 113 80 190q0 37 -16 57.5t-45 20.5q-32 0 -54.5 -26t-26.5 -69l-5 -40q-2 -10 -11 -10h-76q-10 0 -8 10l5 43q13 79 65 127t125 48
q66 0 104 -41.5t38 -110.5q0 -10 -2 -30q-6 -49 -29 -99.5t-65 -108.5q-33 -45 -113 -146l-65 -84q-3 -5 2 -5z" />
    <glyph glyph-name="three" unicode="3" horiz-adv-x="406" 
d="M373 278q0 -19 -4 -63q-6 -49 -20 -91q-22 -65 -63.5 -98.5t-108.5 -33.5t-105.5 37.5t-38.5 102.5q0 38 4 73q2 10 11 10h73q10 0 9 -10q-2 -30 -2 -44q0 -85 60 -85q54 0 77 65q10 35 16 84q4 33 4 66q0 19 -1 28q-11 59 -59 59q-13 0 -27 -9q-10 -6 -14 1l-32 39
q-2 4 -2 7t3 7l149 189q2 2 1 3.5t-3 1.5h-196q-9 0 -9 10l8 63q2 10 11 10h303q10 0 8 -10l-8 -66q-2 -9 -5 -13l-135 -172q-3 -3 1 -5q38 -6 62 -37.5t31 -80.5q2 -24 2 -38z" />
    <glyph glyph-name="four" unicode="4" horiz-adv-x="426" 
d="M421 263l-8 -67q-2 -10 -11 -10h-31q-4 0 -4 -4l-21 -172q-1 -4 -4 -7t-7 -3h-74q-9 0 -9 10l22 172q0 4 -4 4h-238q-5 0 -7.5 3t-1.5 7l7 56q0 4 1 7t2 5l193 428q3 8 12 8h80q11 0 6 -11l-182 -411q-1 -2 0 -3.5t3 -1.5h136q4 0 4 4l17 137q2 10 11 10h74q10 0 8 -10
l-17 -137q0 -4 4 -4h31q10 0 8 -10z" />
    <glyph glyph-name="five" unicode="5" horiz-adv-x="407" 
d="M387 274q0 -31 -4 -59q-4 -38 -14 -76q-16 -71 -63 -109t-117 -38q-68 0 -105 37t-39 110l1 30q2 10 11 10h74q9 0 9 -10l-1 -22q4 -72 60 -72q28 0 47.5 18t29.5 52q10 32 14 70q3 26 3 47q0 19 -1 27q-3 30 -18 46t-41 16q-56 0 -78 -57q-3 -9 -11 -9h-75q-9 0 -9 10
l49 395q2 10 11 10h300q4 0 6.5 -3t1.5 -7l-8 -63q0 -4 -3 -7t-8 -3h-212q-4 0 -4 -4l-27 -220q-1 -2 0.5 -2.5t3.5 1.5q18 20 44 31.5t56 11.5q55 0 85 -35.5t31 -100.5q1 -8 1 -25z" />
    <glyph glyph-name="six" unicode="6" horiz-adv-x="408" 
d="M384 215q-2 -16 -12 -69q-15 -74 -63 -114t-119 -40q-66 0 -103.5 37t-38.5 109q-2 31 3 70l39 326q10 79 61 126.5t126 47.5q62 0 100 -39.5t38 -105.5q0 -9 -2 -29l-3 -22q-2 -10 -11 -10h-74q-4 0 -6.5 3t-1.5 7l2 18q1 6 1 19q0 33 -15 53t-39 20q-32 0 -55 -25.5
t-28 -66.5l-13 -110q0 -5 4 -2q32 29 75 29q66 0 102.5 -42t35.5 -112q2 -42 -3 -78zM291 221q3 25 3 78q-6 65 -59 65q-54 0 -75 -68q-9 -29 -15 -75q-4 -46 -4 -72q3 -74 58 -74q29 0 49.5 20t30.5 59q6 25 12 67z" />
    <glyph glyph-name="seven" unicode="7" horiz-adv-x="369" 
d="M74 3q-2 3 0 8l238 602q1 1 -0.5 2.5t-2.5 1.5h-154q-4 0 -4 -4l-5 -40q-2 -10 -11 -10h-57q-9 0 -9 10l16 117q1 10 11 10h316q10 0 8 -10l-8 -67q0 -3 -1 -6l-2 -6l-238 -603q-3 -8 -12 -8h-78q-5 0 -7 3z" />
    <glyph glyph-name="eight" unicode="8" horiz-adv-x="416" 
d="M327 366q32 -19 44 -57q9 -30 9 -68q0 -20 -3 -43q-6 -52 -25 -94q-25 -53 -68 -82.5t-97 -29.5t-89.5 29t-47.5 82q-5 27 -5 51q0 22 3 44q8 61 30 104q21 43 62 63q4 3 1 6q-32 21 -45 57q-10 26 -10 64q0 22 2 34q8 60 32 99q24 41 65 63.5t90 22.5t83.5 -21.5
t50.5 -62.5q11 -26 11 -65q0 -23 -2 -36q-7 -57 -32 -97q-21 -34 -58 -57q-4 -3 -1 -6zM179 518q-2 -18 -2 -26q0 -22 6 -39q5 -23 19 -35t36 -12t40 13.5t29 36.5q15 28 19 62q1 8 1 22q0 26 -7 43q-5 21 -19.5 33t-35.5 12q-43 0 -67 -48q-14 -24 -19 -62zM286 203
q2 26 2 36q0 23 -4 38q-4 26 -18 40t-37 14t-41.5 -14.5t-29.5 -42.5q-12 -29 -18 -70q-2 -30 -2 -41q0 -42 15 -65t44 -23q26 0 46 18t30 50q8 22 13 60z" />
    <glyph glyph-name="nine" unicode="9" horiz-adv-x="402" 
d="M359 166q-10 -79 -61 -126.5t-126 -47.5q-63 0 -100.5 39.5t-37.5 105.5q0 9 2 29l3 22q0 4 3 7t8 3h73q9 0 9 -10l-2 -18q-1 -6 -1 -19q0 -33 15 -53t38 -20q32 0 55.5 25.5t27.5 66.5l14 110q0 5 -5 2q-31 -29 -74 -29q-65 0 -102 42.5t-36 111.5q-1 6 -1 20q0 16 4 58
q5 38 12 69q15 74 63 114t119 40q67 0 104 -37t38 -109q2 -31 -3 -70zM303 479q5 38 5 72q-5 74 -59 74q-28 0 -48.5 -20t-30.5 -59q-9 -42 -11 -67q-5 -44 -4 -78q2 -32 17.5 -48.5t41.5 -16.5q54 0 75 68q8 30 14 75z" />
    <glyph glyph-name="colon" unicode=":" horiz-adv-x="227" 
d="M96 352q-15 15 -15 39q0 32 20.5 53t50.5 21q24 0 39 -15.5t15 -40.5q0 -31 -20.5 -51.5t-49.5 -20.5q-25 0 -40 15zM55 19q-15 15 -15 39q0 32 20.5 53t50.5 21q24 0 39 -15.5t15 -40.5q0 -31 -20.5 -51.5t-49.5 -20.5q-25 0 -40 15z" />
    <glyph glyph-name="semicolon" unicode=";" horiz-adv-x="201" 
d="M81.5 352q-15.5 17 -15.5 42q0 31 23 55t51 24q22 0 38.5 -17.5t16.5 -42.5q0 -32 -21.5 -55t-50.5 -23q-26 0 -41.5 17zM13.5 -80q-2.5 3 -1.5 7l46 216q3 10 12 10h64q10 0 8 -11l-65 -216q-1 -9 -12 -9h-44q-5 0 -7.5 3z" />
    <glyph glyph-name="less" unicode="&#x3c;" horiz-adv-x="427" 
d="M383 59.5q-4 -2.5 -8 0.5l-331 174q-6 5 -5 12l8 69q2 8 9 12l373 174l5 2q3 0 5 -2.5t1 -6.5l-9 -73q-2 -8 -8 -11l-285 -127q-7 -3 -1 -6l254 -127q6 -4 5 -11l-9 -72q0 -5 -4 -7.5z" />
    <glyph glyph-name="equal" unicode="=" horiz-adv-x="427" 
d="M58.5 389q-2.5 3 -1.5 7l7 54q0 4 3 7t8 3h351q4 0 6.5 -3t1.5 -7l-6 -54q-1 -4 -4 -7t-7 -3h-352q-4 0 -6.5 3zM34.5 192q-2.5 3 -1.5 7l7 54q0 4 3 7t8 3h351q4 0 6.5 -3t1.5 -7l-6 -54q-1 -4 -4 -7t-7 -3h-352q-4 0 -6.5 3z" />
    <glyph glyph-name="greater" unicode="&#x3e;" horiz-adv-x="427" 
d="M22 58q-3 0 -4.5 2.5t-0.5 6.5l9 72q0 7 8 11l285 127q7 3 1 6l-254 127q-4 2 -5 5t-1 6l9 73q1 5 5 7.5t8 -0.5l331 -174q6 -5 5 -12l-9 -69q0 -7 -8 -12l-373 -174q-4 -2 -6 -2z" />
    <glyph glyph-name="question" unicode="?" horiz-adv-x="382" 
d="M138 218l6 50q6 45 27 74t59 62q35 30 54 55.5t24 64.5q1 7 1 20q0 37 -16 57.5t-44 20.5q-35 0 -59 -27.5t-29 -72.5l-3 -26q-2 -10 -11 -10l-73 4q-9 0 -9 10l3 22q10 84 63.5 135.5t130.5 51.5q66 0 104 -40t38 -109q0 -11 -2 -33q-5 -45 -20.5 -76.5t-34 -51.5
t-47.5 -45q-30 -26 -45 -45t-18 -46l-6 -45q0 -4 -3 -7t-7 -3h-74q-9 0 -9 10zM119 16q-15 15 -15 39q0 31 20.5 52.5t50.5 21.5q25 0 40 -15t15 -39q0 -31 -21 -52.5t-50 -21.5q-25 0 -40 15z" />
    <glyph glyph-name="at" unicode="@" horiz-adv-x="737" 
d="M600.5 600.5q57.5 -29.5 88.5 -84.5t31 -128q0 -45 -12 -96q-24 -96 -78 -149.5t-125 -53.5q-61 0 -88 41q-3 3 -6 0q-16 -22 -38.5 -32t-45.5 -10q-42 0 -67.5 23t-25.5 63q0 15 2 24q2 12 10 46l8 32q4 20 17 67q15 53 46.5 82.5t78.5 29.5q13 0 28.5 -6t26.5 -18
q1 -2 2.5 -1.5t2.5 2.5l2 8q1 9 10 9h46q5 0 7 -3.5t1 -7.5l-48 -195q-4 -16 -4 -33q0 -27 14 -42t39 -15q39 0 69.5 38t46.5 102q11 47 11 83q0 89 -53.5 140.5t-145.5 51.5q-72 0 -139 -38t-117 -106t-71 -155q-11 -44 -11 -88q0 -63 24.5 -108t67 -68t95.5 -23
q43 0 80.5 12t64.5 31q4 2 4 3q1 1 4 1q6 0 8 -5l18 -36q1 -1 1 -4q0 -6 -6 -10q-37 -25 -86.5 -40.5t-105.5 -15.5q-70 0 -123.5 30t-83 85.5t-29.5 131.5q0 47 14 108q25 103 87 184.5t146 127t173 45.5q77 0 134.5 -29.5zM375.5 161.5q16.5 15.5 24.5 41.5q2 3 2.5 6
t1.5 6v4q2 12 3 13l28 115q1 1 1 4q1 21 -9 33.5t-28 12.5q-22 0 -39.5 -16t-23.5 -42l-7 -26q-7 -24 -11 -42l-16 -68q-2 -12 -2 -16q0 -20 9.5 -30.5t27.5 -10.5q22 0 38.5 15.5z" />
    <glyph glyph-name="A" unicode="A" horiz-adv-x="423" 
d="M297 9l-7 115q0 2 -1.5 3t-3.5 1h-158q-2 0 -3.5 -1t-1.5 -3l-35 -115q-1 -9 -11 -9h-74q-5 0 -7 3t0 8l228 680q2 9 11 9h87q9 0 9 -9l62 -680q0 -11 -10 -11h-75q-10 0 -10 9zM149 205.5q1 -1.5 2 -1.5h129q2 0 4 4l-23 355q0 2 -1.5 2t-2.5 -2l-108 -355q-1 -1 0 -2.5
z" />
    <glyph glyph-name="B" unicode="B" horiz-adv-x="443" 
d="M351 50.5q-56 -50.5 -139 -50.5h-162q-4 0 -6.5 3t-1.5 7l83 680q1 4 4 7t7 3h149q79 0 123 -39t44 -113q0 -10 -2 -34q-14 -109 -93 -149q-4 -3 -2 -5q65 -44 65 -136q0 -9 -2 -31q-11 -92 -67 -142.5zM210.5 616q-1.5 -1 -1.5 -3l-26 -212q0 -2 1 -3t2 -1h63
q51 0 81 35.5t30 96.5q0 42 -22 65t-62 23h-63q-1 0 -2.5 -1zM289.5 115q29.5 31 36.5 88q2 18 2 26q0 46 -21.5 71.5t-60.5 25.5h-68q-3 0 -5 -4l-28 -234q-1 -1 0 -2.5t3 -1.5h67q45 0 74.5 31z" />
    <glyph glyph-name="C" unicode="C" horiz-adv-x="439" 
d="M87.5 33q-41.5 41 -41.5 111q0 9 2 29l44 355q10 82 64 131t133 49q71 0 113 -40t42 -110q0 -10 -2 -30l-2 -16q-2 -10 -11 -10l-74 -4q-10 0 -8 10l3 26q1 5 1 16q0 34 -19.5 54.5t-52.5 20.5q-37 0 -62.5 -25t-30.5 -66l-45 -368q-1 -6 -1 -16q0 -34 19 -54.5t52 -20.5
q37 0 63 25t31 66l3 26q2 10 11 10l73 -4q10 0 8 -10l-1 -15q-10 -82 -64 -131.5t-134 -49.5q-72 0 -113.5 41z" />
    <glyph glyph-name="D" unicode="D" horiz-adv-x="455" 
d="M43.5 3q-2.5 3 -1.5 7l83 680q1 4 4 7t7 3h159q73 0 114 -42t41 -115q0 -10 -2 -32l-40 -322q-10 -87 -64 -138t-134 -51h-160q-4 0 -6.5 3zM145 84.5q1 -1.5 3 -1.5l71 1q37 0 63 29.5t33 80.5l38 312q1 8 1 23q0 42 -18 65t-52 23h-71q-1 0 -2.5 -1t-1.5 -3l-64 -526
q-1 -1 0 -2.5z" />
    <glyph glyph-name="E" unicode="E" 
d="M432 617h-219q-1 0 -2.5 -1t-1.5 -3l-27 -217q0 -4 4 -4h134q10 0 8 -10l-8 -63q0 -4 -3 -7t-7 -3h-134q-3 0 -5 -4l-26 -218q-1 -1 0 -2.5t3 -1.5h218q9 0 9 -10l-8 -63q-2 -10 -11 -10h-306q-4 0 -6.5 3t-1.5 7l83 680q1 4 4 7t7 3h306q10 0 8 -10l-7 -63
q-2 -10 -11 -10z" />
    <glyph glyph-name="F" unicode="F" horiz-adv-x="398" 
d="M431 617h-218q-1 0 -2.5 -1t-1.5 -3l-27 -217q0 -4 4 -4h133q10 0 8 -10l-8 -63q0 -4 -3 -7t-7 -3h-133q-3 0 -5 -4l-36 -295q-2 -10 -11 -10h-74q-4 0 -6.5 3t-1.5 7l83 680q1 4 4 7t7 3h305q10 0 8 -10l-7 -63q-2 -10 -11 -10z" />
    <glyph glyph-name="G" unicode="G" horiz-adv-x="443" 
d="M87.5 31.5q-41.5 39.5 -41.5 107.5q0 10 2 28l45 366q10 79 63.5 127t132.5 48q71 0 113.5 -40t42.5 -109q0 -9 -2 -27l-6 -42q0 -4 -3 -7t-7 -3h-74q-9 0 -9 10l6 44q1 5 1 16q0 34 -19.5 54.5t-52.5 20.5q-37 0 -63 -25t-31 -66l-45 -368q-1 -6 -1 -16q0 -35 19 -55
t53 -20q37 0 63 25t31 66l13 110q0 4 -3 4h-74q-10 0 -8 10l7 62q2 10 11 10h161q9 0 9 -10l-23 -185q-10 -79 -64 -127t-133 -48q-72 0 -113.5 39.5z" />
    <glyph glyph-name="H" unicode="H" horiz-adv-x="461" 
d="M384 700h73q5 0 7.5 -3t1.5 -7l-84 -680q0 -4 -3 -7t-7 -3h-74q-9 0 -9 10l37 295q0 4 -4 4h-146q-3 0 -5 -4l-36 -295q-2 -10 -11 -10h-74q-4 0 -6.5 3t-1.5 7l83 680q1 4 4 7t7 3h74q9 0 9 -10l-37 -294q0 -4 4 -4h146q3 0 5 4l36 294q2 10 11 10z" />
    <glyph glyph-name="I" unicode="I" horiz-adv-x="213" 
d="M43.5 3q-2.5 3 -1.5 7l83 680q1 4 4 7t7 3h74q9 0 9 -10l-84 -680q-2 -10 -11 -10h-74q-4 0 -6.5 3z" />
    <glyph glyph-name="J" unicode="J" horiz-adv-x="422" 
d="M59 32q-41 40 -41 108q0 8 2 28l9 79q2 10 11 10h74q10 0 8 -10l-9 -81q-1 -6 -1 -16q0 -34 18.5 -54.5t49.5 -20.5q35 0 60 25.5t30 65.5l64 524q2 10 11 10h74q4 0 6.5 -3t1.5 -7l-64 -522q-10 -79 -63 -127.5t-130 -48.5q-70 0 -111 40z" />
    <glyph glyph-name="K" unicode="K" horiz-adv-x="452" 
d="M43.5 3q-2.5 3 -1.5 7l83 680q1 4 4 7t7 3h74q9 0 9 -10l-37 -300q-1 -3 1 -3.5t3 2.5l203 304q5 7 12 7h80q5 0 7 -3.5t-2 -8.5l-183 -278q-3 -3 -1 -6l114 -392v-3q0 -4 -3 -6.5t-7 -2.5h-80q-9 0 -10 8l-88 312q0 2 -1.5 2t-2.5 -1l-60 -81q-1 -1 -1 -5l-28 -225
q-2 -10 -11 -10h-74q-4 0 -6.5 3z" />
    <glyph glyph-name="L" unicode="L" horiz-adv-x="394" 
d="M43.5 3q-2.5 3 -1.5 7l83 680q1 4 4 7t7 3h74q9 0 9 -10l-74 -603q-1 -1 0 -2.5t3 -1.5h217q9 0 9 -10l-8 -63q-2 -10 -11 -10h-305q-4 0 -6.5 3z" />
    <glyph glyph-name="M" unicode="M" horiz-adv-x="515" 
d="M440 700h74q10 0 8 -10l-83 -680q-2 -10 -11 -10h-74q-10 0 -8 10l60 496q1 3 -0.5 3t-3.5 -2l-115 -179q-4 -7 -10 -7q-5 0 -8 7l-70 178q-2 2 -3.5 2t-1.5 -3l-61 -495q-2 -10 -11 -10h-74q-4 0 -6.5 3t-1.5 7l84 680q0 4 3 7t7 3h74q8 0 11 -7l79 -188q0 -1 2 -1t4 1
l123 188q5 7 13 7z" />
    <glyph glyph-name="N" unicode="N" horiz-adv-x="486" 
d="M410 700h73q4 0 6.5 -3t1.5 -7l-83 -680q-2 -10 -11 -10h-84q-8 0 -9 8l-109 457q-1 2 -3 1.5t-2 -2.5l-55 -454q-2 -10 -11 -10h-74q-4 0 -6.5 3t-1.5 7l83 680q1 4 4 7t7 3h83q7 0 10 -8l109 -457q1 -3 3 -2.5t2 3.5l56 454q2 10 11 10z" />
    <glyph glyph-name="O" unicode="O" horiz-adv-x="448" 
d="M89 33q-42 41 -42 112q0 10 2 30l42 349q10 83 65 133.5t135 50.5q73 0 115.5 -42.5t42.5 -113.5q0 -8 -2 -28l-43 -349q-10 -83 -65.5 -133t-135.5 -50q-72 0 -114 41zM278 101.5q27 26.5 32 69.5l44 358q1 6 1 16q0 36 -20 58t-55 22q-37 0 -63.5 -26.5t-31.5 -69.5
l-44 -358q-1 -6 -1 -17q0 -36 19.5 -57.5t53.5 -21.5q38 0 65 26.5z" />
    <glyph glyph-name="P" unicode="P" horiz-adv-x="437" 
d="M414 656.5q39 -44.5 39 -119.5q0 -24 -2 -37q-10 -88 -61.5 -142t-124.5 -54h-91q-4 0 -4 -4l-36 -290q-2 -10 -11 -10h-74q-4 0 -6.5 3t-1.5 7l84 681q0 4 3 7t8 3h173q66 0 105 -44.5zM323 412.5q28 31.5 35 85.5q2 18 2 25q0 44 -20.5 69.5t-55.5 25.5h-71q-3 0 -5 -4
l-28 -229q0 -4 4 -4h71q40 0 68 31.5z" />
    <glyph glyph-name="Q" unicode="Q" horiz-adv-x="436" 
d="M395.5 665.5q40.5 -42.5 40.5 -113.5q0 -10 -2 -32l-41 -340q-9 -70 -47.5 -118t-97.5 -63q-3 -2 -3 -5l-12 -93q0 -4 -3 -7t-8 -3h-74q-5 0 -7.5 3t-1.5 7l12 93q0 3 -3 5q-48 14 -74.5 54t-26.5 97q0 10 2 30l42 340q11 84 64.5 136t130.5 52q69 0 109.5 -42.5z
M342 530q1 6 1 17q0 35 -18 56.5t-49 21.5q-35 0 -60.5 -26.5t-30.5 -68.5l-44 -360q-1 -6 -1 -17q0 -35 18.5 -56.5t49.5 -21.5q35 0 60 26.5t30 68.5z" />
    <glyph glyph-name="R" unicode="R" horiz-adv-x="440" 
d="M304 2q-3 2 -4 6l-53 298q-1 3 -3 3h-68q-3 0 -5 -4l-36 -295q-2 -10 -11 -10h-74q-4 0 -6.5 3t-1.5 7l83 680q1 4 4 7t7 3h174q66 0 105 -44.5t39 -118.5q0 -23 -2 -36q-7 -63 -38 -110t-77 -67q-4 -3 -3 -6l61 -307v-2q0 -9 -9 -9h-76q-3 0 -6 2zM210.5 616
q-1.5 -1 -1.5 -3l-27 -224q-1 -1 0 -2.5t3 -1.5h72q44 0 74 39t30 100q0 43 -20.5 68t-55.5 25h-72q-1 0 -2.5 -1z" />
    <glyph glyph-name="S" unicode="S" horiz-adv-x="414" 
d="M77 33q-41 41 -41 110q0 8 2 28l4 26q0 4 3 7t8 3h71q5 0 7.5 -3t1.5 -7l-3 -21q-1 -6 -1 -18q0 -39 18.5 -61t49.5 -22q39 0 66.5 31.5t27.5 79.5q0 24 -10.5 43.5t-27.5 36t-55 47.5q-41 35 -64 59t-39 56.5t-16 74.5q0 62 25 108.5t68.5 71.5t97.5 25
q70 0 110.5 -41.5t40.5 -112.5q0 -9 -2 -31l-3 -25q-2 -10 -11 -10h-72q-4 0 -6.5 3t-1.5 7l3 27q1 7 1 20q0 37 -18.5 58.5t-50.5 21.5q-38 0 -63.5 -29.5t-25.5 -80.5q0 -32 18.5 -57t68.5 -67q48 -40 73 -65.5t39 -55t14 -66.5q0 -7 -2 -27q-10 -84 -64.5 -134.5
t-130.5 -50.5q-69 0 -110 41z" />
    <glyph glyph-name="T" unicode="T" horiz-adv-x="426" 
d="M460.5 697q2.5 -3 1.5 -7l-8 -63q0 -4 -3 -7t-8 -3h-127q-4 0 -4 -4l-74 -603q-2 -10 -11 -10h-74q-10 0 -8 10l74 603q0 4 -4 4h-120q-10 0 -8 10l7 63q1 4 4 7t7 3h349q4 0 6.5 -3z" />
    <glyph glyph-name="U" unicode="U" horiz-adv-x="463" 
d="M98 37q-41 45 -41 120q0 11 2 33l62 500q0 4 3 7t8 3h73q9 0 9 -10l-63 -510q-1 -7 -1 -20q0 -39 19 -62t52 -23q37 0 63.5 29t32.5 76l63 510q0 4 3 7t8 3h73q9 0 9 -10l-62 -500q-10 -89 -65.5 -143.5t-135.5 -54.5q-71 0 -112 45z" />
    <glyph glyph-name="V" unicode="V" horiz-adv-x="443" 
d="M151 9l-56 680q0 11 10 11h81q9 0 9 -9l29 -519q0 -2 1.5 -2t2.5 2l154 519q2 9 11 9h78q10 0 7 -11l-223 -680q-1 -9 -12 -9h-82q-8 0 -10 9z" />
    <glyph glyph-name="W" unicode="W" horiz-adv-x="627" 
d="M136 9l-46 680q0 5 3 8t7 3h77q9 0 10 -9l21 -469q0 -2 1.5 -2t2.5 2l127 469q3 9 11 9h65q8 0 8 -9l17 -469q1 -2 2 -2t2 2l130 469q2 9 11 9h75q10 0 8 -11l-206 -680q-3 -9 -12 -9h-69q-8 0 -8 9l-16 473q-1 2 -2.5 2t-1.5 -2l-128 -473q-3 -9 -11 -9h-68q-10 0 -10 9
z" />
    <glyph glyph-name="X" unicode="X" horiz-adv-x="435" 
d="M14 3.5q-2 3.5 1 8.5l176 335q1 2 1 6l-94 335l-1 3q0 9 10 9h76q7 0 10 -8l58 -241q1 -3 3 -3t3 3l117 241q4 8 12 8h75q5 0 7 -3.5t0 -8.5l-176 -336q-3 -3 -1 -6l94 -334v-3q0 -4 -3 -6.5t-7 -2.5h-74q-9 0 -10 8l-59 240q0 3 -2 3t-4 -3l-117 -240q-4 -8 -12 -8h-76
q-5 0 -7 3.5z" />
    <glyph glyph-name="Y" unicode="Y" horiz-adv-x="429" 
d="M150 11l35 286q0 1 -0.5 2.5t0.5 2.5l-88 387v2q0 9 9 9h78q8 0 11 -8l48 -276q1 -2 3 -2t3 2l116 276q5 8 13 8h78q5 0 6.5 -3t-0.5 -8l-182 -387q-2 -2 -2 -5l-35 -286q-2 -10 -11 -10h-74q-10 0 -8 10z" />
    <glyph glyph-name="Z" unicode="Z" horiz-adv-x="389" 
d="M11.5 3q-2.5 3 -1.5 7l8 67q2 6 5 12l289 523q1 2 0 3.5t-2 1.5h-216q-10 0 -8 10l7 63q1 4 4 7t7 3h310q10 0 8 -10l-8 -67q0 -2 -4 -12l-291 -523q-1 -2 0 -3.5t3 -1.5h216q9 0 9 -10l-8 -63q-2 -10 -11 -10h-310q-4 0 -6.5 3z" />
    <glyph glyph-name="bracketleft" unicode="[" horiz-adv-x="308" 
d="M-6.5 -127q-2.5 3 -1.5 7l110 894q2 10 11 10h169q4 0 6.5 -3t1.5 -7l-8 -64q-2 -10 -11 -10h-81q-3 0 -5 -4l-90 -739q-1 -1 0 -2.5t3 -1.5h82q5 0 7.5 -3t1.5 -7l-8 -63q-2 -10 -11 -10h-169q-5 0 -7.5 3z" />
    <glyph glyph-name="backslash" unicode="\" horiz-adv-x="352" 
d="M313 9q0 -4 -3 -6.5t-7 -2.5h-73q-7 0 -10 8l-105 681v2q0 9 10 9h72q8 0 10 -8l106 -681v-2z" />
    <glyph glyph-name="bracketright" unicode="]" horiz-adv-x="308" 
d="M237 -130h-170q-4 0 -6.5 3t-1.5 7l8 63q0 4 3 7t8 3h82q4 0 4 4l91 739q0 4 -3 4h-82q-4 0 -6.5 3t-1.5 7l8 64q0 4 3 7t8 3h168q5 0 7.5 -3t1.5 -7l-110 -894q-2 -10 -11 -10z" />
    <glyph glyph-name="asciicircum" unicode="^" horiz-adv-x="393" 
d="M51 315l168 377q1 4 5 6t7 2h63q3 0 6 -2t4 -6l77 -377v-2q0 -9 -9 -9h-60q-8 0 -11 8l-48 278q-1 2 -3 2t-3 -2l-118 -278q-3 -8 -12 -8h-59q-12 0 -7 11z" />
    <glyph glyph-name="underscore" unicode="_" horiz-adv-x="380" 
d="M0 10l7 55q2 10 11 10h324q10 0 8 -10l-6 -55q-2 -10 -11 -10h-324q-9 0 -9 10z" />
    <glyph glyph-name="grave" unicode="`" horiz-adv-x="189" 
d="M217 581q0 -8 -9 -8h-48q-9 0 -11 6l-58 109l-1 4q0 8 9 8h59q7 0 11 -7l47 -108z" />
    <glyph glyph-name="a" unicode="a" horiz-adv-x="418" 
d="M319 506q3 3 7 3h74q9 0 9 -10l-61 -489q0 -4 -3 -7t-7 -3h-74q-9 0 -9 10l5 35q0 3 -1.5 3.5t-3.5 -1.5q-19 -28 -46 -41.5t-57 -13.5q-55 0 -84 33.5t-29 92.5q0 9 2 33l25 207q9 74 48.5 116.5t102.5 42.5q29 0 52.5 -13.5t36.5 -41.5q2 -2 3.5 -1.5t1.5 3.5l4 35
q1 4 4 7zM247 98q22 23 26 59l24 195q1 5 1 14q0 31 -16 49.5t-43 18.5q-31 0 -53 -23t-27 -59l-24 -195q-1 -5 -1 -14q0 -30 16.5 -49t43.5 -19q31 0 53 23z" />
    <glyph glyph-name="b" unicode="b" horiz-adv-x="418" 
d="M370 483q32 -34 32 -95q0 -10 -2 -30l-26 -208q-8 -71 -50.5 -114.5t-106.5 -43.5q-23 0 -45.5 9t-39.5 27q-3 4 -5 -2l-2 -16q0 -4 -3 -7t-8 -3h-73q-9 0 -9 10l84 680q0 4 3 7t8 3h73q5 0 7.5 -3t1.5 -7l-26 -208q0 -2 2 -2.5t4 2.5q40 35 93 35q56 0 88 -34zM308 366
q0 30 -17 49t-45 19q-30 0 -52.5 -23t-26.5 -59l-24 -195l-1 -13q0 -31 16 -50t44 -19q31 0 53.5 23t27.5 59l24 195q1 5 1 14z" />
    <glyph glyph-name="c" unicode="c" horiz-adv-x="401" 
d="M77.5 27.5q-38.5 35.5 -38.5 97.5q0 8 2 26l25 207q9 71 59 115t124 44q68 0 107.5 -36t39.5 -93q0 -13 -1 -19l-2 -13q-2 -10 -11 -10l-74 -3q-9 0 -9 10l2 10q3 29 -14.5 50t-47.5 21q-31 0 -53 -23t-27 -59l-24 -195q-1 -5 -1 -14q0 -31 16 -49.5t44 -18.5
q31 0 53.5 21t26.5 50l1 10q2 10 11 10l74 -1q10 0 8 -10l-2 -15q-8 -65 -57.5 -106.5t-124.5 -41.5q-68 0 -106.5 35.5z" />
    <glyph glyph-name="d" unicode="d" horiz-adv-x="418" 
d="M350 700h74q4 0 6.5 -3t1.5 -7l-84 -680q0 -4 -3 -7t-7 -3h-74q-9 0 -9 10l2 16q1 2 -0.5 3t-3.5 -1q-21 -18 -45.5 -27t-47.5 -9q-57 0 -89 35t-32 94q0 9 2 29l25 208q9 74 52 116.5t106 42.5q23 0 45.5 -9t38.5 -27q2 -2 3.5 -1t1.5 3l26 207q2 10 11 10zM243 93.5
q21 18.5 29 48.5l27 225q0 30 -16.5 48.5t-43.5 18.5q-31 0 -53.5 -23t-27.5 -59l-24 -195q-1 -5 -1 -14q0 -30 16.5 -49t44.5 -19t49 18.5z" />
    <glyph glyph-name="e" unicode="e" horiz-adv-x="405" 
d="M365 215h-219q-3 0 -5 -4l-6 -54q-1 -5 -1 -14q0 -30 16.5 -49t43.5 -19t47.5 17t29.5 44q4 8 11 8l72 -4q5 0 6.5 -3t0.5 -7q-14 -65 -60 -101.5t-117 -36.5q-68 0 -106.5 35.5t-38.5 97.5q0 7 2 25l25 208q9 71 59 115t124 44q68 0 106.5 -36t38.5 -97q0 -8 -2 -26
l-16 -133q-2 -10 -11 -10zM186 411q-22 -23 -27 -59l-7 -53q0 -4 4 -4h132q2 0 3.5 1t1.5 3l6 53q1 5 1 14q0 31 -16.5 49.5t-44.5 18.5q-31 0 -53 -23z" />
    <glyph glyph-name="f" unicode="f" horiz-adv-x="276" 
d="M209 513q0 -4 4 -4h68q10 0 8 -10l-6 -50q-2 -10 -11 -10h-68q-4 0 -4 -4l-52 -425q-2 -10 -11 -10h-73q-10 0 -8 10l52 425q0 4 -4 4h-36q-4 0 -6.5 3t-1.5 7l6 50q2 10 11 10h36q4 0 4 4l4 26q10 89 50.5 127.5t121.5 38.5h13q10 0 8 -10l-9 -61q-1 -10 -11 -10h-10
q-31 0 -48.5 -21.5t-23.5 -66.5z" />
    <glyph glyph-name="g" unicode="g" horiz-adv-x="411" 
d="M319 506q3 3 7 3h74q9 0 9 -10l-60 -484q-13 -105 -66.5 -162.5t-167.5 -57.5l-26 1q-10 2 -8 11l8 64q2 10 11 10q80 -3 114 32.5t43 110.5l3 21q0 2 -1.5 2.5t-3.5 -1.5q-20 -24 -46 -35t-54 -11q-56 0 -85.5 33.5t-29.5 92.5q0 10 2 32l24 200q9 74 49.5 116.5
t103.5 42.5q62 0 88 -46q2 -2 3.5 -1t1.5 3l3 26q1 4 4 7zM247.5 105.5q21.5 22.5 26.5 58.5l23 188q1 5 1 15q0 30 -16 48.5t-43 18.5q-31 0 -53 -23t-27 -59l-23 -188q-1 -5 -1 -14q0 -30 16.5 -48.5t43.5 -18.5q31 0 52.5 22.5z" />
    <glyph glyph-name="h" unicode="h" 
d="M372 483.5q28 -32.5 28 -92.5q0 -18 -3 -38l-42 -343q0 -4 -3 -7t-8 -3h-73q-5 0 -7.5 3t-1.5 7l41 335q1 7 1 21q0 32 -14.5 49.5t-41.5 17.5q-32 0 -53 -22.5t-27 -63.5q-1 -6 -2 -6l-41 -331q0 -4 -3 -7t-8 -3h-73q-9 0 -9 10l84 680q0 4 3 7t8 3h73q5 0 7.5 -3
t1.5 -7l-27 -218q0 -2 2 -2.5t4 2.5q40 44 103 44q53 0 81 -32.5z" />
    <glyph glyph-name="i" unicode="i" horiz-adv-x="205" 
d="M115 604q-15 15 -15 39q0 32 20.5 53t49.5 21q25 0 40 -15t15 -40q0 -31 -20.5 -52t-49.5 -21q-25 0 -40 15zM39.5 3q-2.5 3 -1.5 7l60 489q2 10 11 10h74q10 0 8 -10l-60 -489q-2 -10 -11 -10h-73q-5 0 -7.5 3z" />
    <glyph glyph-name="j" unicode="j" horiz-adv-x="200" 
d="M110 604q-15 15 -15 39q0 32 20.5 53t50.5 21q25 0 40 -15.5t15 -40.5q0 -30 -20.5 -51t-50.5 -21q-25 0 -40 15zM-81 -197l7 63q2 10 11 10q80 1 91 96l64 527q2 10 11 10h74q10 0 8 -10l-64 -527q-8 -62 -25 -99.5t-56 -58.5t-110 -21q-12 0 -11 10z" />
    <glyph glyph-name="k" unicode="k" horiz-adv-x="408" 
d="M32 10l84 680q0 4 3 7t8 3h73q5 0 7.5 -3t1.5 -7l-47 -379q0 -3 2 -4t3 2l149 194q5 6 12 6h76q6 0 7.5 -3.5t-2.5 -8.5l-118 -152q-3 -3 -2 -6l76 -328v-2q0 -9 -9 -9h-77q-3 0 -6 2t-4 6l-47 251q-1 6 -6 1l-69 -87q-2 -2 -2 -5l-20 -158q0 -4 -3 -7t-8 -3h-73
q-9 0 -9 10z" />
    <glyph glyph-name="l" unicode="l" horiz-adv-x="186" 
d="M28 10l84 680q2 10 11 10h74q4 0 6.5 -3t1.5 -7l-83 -680q-1 -4 -4 -7t-7 -3h-74q-9 0 -9 10z" />
    <glyph glyph-name="m" unicode="m" horiz-adv-x="638" 
d="M589.5 482q27.5 -34 27.5 -95q0 -19 -3 -40l-41 -337q-1 -4 -4 -7t-7 -3h-73q-9 0 -9 10l41 330q1 7 1 21q0 34 -14.5 53t-39.5 19q-31 0 -52.5 -24.5t-26.5 -67.5l-41 -331q0 -4 -3 -7t-7 -3h-73q-9 0 -9 10l41 330q1 7 1 21q0 34 -14.5 53t-39.5 19q-31 0 -52.5 -24.5
t-26.5 -67.5l-41 -331q0 -4 -3 -7t-8 -3h-72q-9 0 -9 10l60 489q2 10 11 10h73q10 0 8 -10l-3 -25q0 -2 1.5 -3t3.5 1q23 23 49 33.5t51 10.5q75 0 98 -67q1 -2 3 -1.5t3 4.5q23 34 55.5 49t64.5 15q52 0 79.5 -34z" />
    <glyph glyph-name="n" unicode="n" 
d="M372 483.5q28 -32.5 28 -92.5q0 -18 -3 -38l-42 -343q0 -4 -3 -7t-8 -3h-73q-5 0 -7.5 3t-1.5 7l41 335q1 7 1 21q0 32 -14.5 49.5t-41.5 17.5q-32 0 -53 -22.5t-27 -63.5q-1 -6 -2 -6l-41 -331q0 -4 -3 -7t-8 -3h-73q-9 0 -9 10l60 489q2 10 11 10h74q10 0 8 -10l-3 -27
q0 -2 2 -2.5t4 2.5q40 44 103 44q53 0 81 -32.5z" />
    <glyph glyph-name="o" unicode="o" horiz-adv-x="412" 
d="M77.5 28q-38.5 36 -38.5 98q0 7 2 25l25 207q9 71 59 115t125 44q69 0 108 -36.5t39 -97.5q0 -7 -2 -25l-25 -207q-9 -72 -59 -115.5t-126 -43.5q-69 0 -107.5 36zM250 99q23 23 27 59l24 194q1 5 1 13q0 31 -17 50t-45 19q-31 0 -53.5 -23t-27.5 -59l-24 -194
q-1 -5 -1 -14q0 -31 17 -49.5t45 -18.5q31 0 54 23z" />
    <glyph glyph-name="p" unicode="p" horiz-adv-x="422" 
d="M375 481.5q32 -35.5 32 -94.5q0 -8 -2 -28l-26 -208q-9 -74 -51.5 -116.5t-105.5 -42.5q-23 0 -45.5 9t-39.5 28q-3 3 -5 -2l-25 -208q-2 -10 -11 -10h-74q-10 0 -8 10l83 680q2 10 11 10h74q10 0 8 -10l-2 -16q0 -2 2 -2.5t4 1.5q40 35 93 35q56 0 88 -35.5zM313 366
q0 30 -17 49t-45 19q-31 0 -52.5 -23t-26.5 -59l-24 -195q-1 -5 -1 -14q0 -31 16 -49.5t44 -18.5q31 0 53.5 23t27.5 59l24 195q1 5 1 14z" />
    <glyph glyph-name="q" unicode="q" horiz-adv-x="422" 
d="M319 506q3 3 7 3h74q9 0 9 -10l-84 -680q-2 -10 -11 -10h-74q-4 0 -6.5 3t-1.5 7l25 207q1 2 -0.5 3t-3.5 -1q-21 -18 -45.5 -27t-47.5 -9q-56 0 -88.5 34t-32.5 95q0 10 2 30l25 208q9 71 51.5 114.5t106.5 43.5q23 0 45.5 -9t38.5 -27q2 -2 3.5 -1t1.5 3l2 16q1 4 4 7z
M243 93.5q21 18.5 29 48.5l27 225q0 30 -16.5 48.5t-43.5 18.5q-31 0 -53.5 -23t-27.5 -59l-24 -195q-1 -5 -1 -14q0 -30 16.5 -49t44.5 -19t49 18.5z" />
    <glyph glyph-name="r" unicode="r" horiz-adv-x="295" 
d="M322 503q6 -5 3 -13l-24 -76q-3 -9 -12 -6q-12 5 -27 5q-6 0 -18 -2q-31 -3 -54.5 -34t-28.5 -75l-36 -292q0 -4 -3 -7t-8 -3h-73q-9 0 -9 10l60 489q2 10 11 10h74q10 0 8 -10l-7 -58q0 -3 1.5 -3.5t2.5 2.5q38 74 99 74q24 0 41 -11z" />
    <glyph glyph-name="s" unicode="s" horiz-adv-x="375" 
d="M67 25q-38 31 -38 85q0 13 1 19l1 9q1 4 4 7t7 3h69q5 0 7.5 -3t1.5 -7l-1 -7q-4 -27 14 -45.5t49 -18.5q32 0 52.5 20.5t20.5 50.5q0 28 -20 42.5t-64 34.5q-32 15 -53.5 29t-38 40t-16.5 64q0 14 1 22q8 68 54 106t116 38q65 0 101 -32.5t36 -89.5q0 -15 -1 -23v-3
q-2 -10 -11 -10h-67q-10 0 -8 10v7l1 9q0 24 -16 40t-43 16q-29 0 -49 -19t-24 -46q-2 -21 8 -35t25.5 -22.5t49.5 -24.5q34 -17 56.5 -31.5t39.5 -40.5t17 -63q0 -73 -49 -117.5t-129 -44.5q-66 0 -104 31z" />
    <glyph glyph-name="t" unicode="t" horiz-adv-x="267" 
d="M268 439h-68q-4 0 -4 -4l-35 -281q-1 -7 -1 -20q0 -29 12 -40t37 -10h9q10 0 8 -10l-7 -64q-1 -4 -4 -7t-7 -3h-30q-56 0 -84.5 19.5t-28.5 72.5q0 8 2 28l39 315q0 4 -4 4h-37q-5 0 -7.5 3t-1.5 7l6 50q2 10 11 10h38q4 0 4 4l14 113q2 10 11 10h71q10 0 8 -10l-13 -113
q-1 -1 0 -2.5t3 -1.5h68q10 0 8 -10l-6 -50q-2 -10 -11 -10z" />
    <glyph glyph-name="u" unicode="u" 
d="M327 509h74q10 0 8 -10l-60 -489q0 -4 -3 -7t-7 -3h-74q-9 0 -9 10l4 29q0 3 -1.5 3t-2.5 -2q-35 -47 -100 -47q-52 0 -83 29.5t-31 89.5q0 9 2 29l44 358q1 4 4 7t7 3h74q9 0 9 -10l-42 -337q-1 -8 -1 -21q0 -65 57 -65q32 0 53.5 24.5t26.5 67.5l40 331q2 10 11 10z
" />
    <glyph glyph-name="v" unicode="v" horiz-adv-x="387" 
d="M122 9l-59 489v2q0 9 9 9h83q9 0 9 -9l28 -343q0 -3 1.5 -3t2.5 3l111 343q3 9 12 9l82 -1q5 0 6.5 -3t-0.5 -8l-178 -488q-3 -9 -12 -9h-85q-8 0 -10 9z" />
    <glyph glyph-name="w" unicode="w" horiz-adv-x="558" 
d="M106 9l-44 489q0 11 10 11h71q9 0 10 -9l17 -345q1 -2 2 -2t2 2l104 345q2 9 11 9h64q10 0 10 -9l21 -345q0 -2 1.5 -2t2.5 2l103 345q3 9 12 9l70 -1q4 0 6.5 -3t0.5 -8l-165 -488q-1 -9 -11 -9h-73q-10 0 -10 9l-21 328q0 2 -1.5 2t-2.5 -2l-99 -328q-3 -9 -12 -9h-70
q-9 0 -9 9z" />
    <glyph glyph-name="x" unicode="x" horiz-adv-x="386" 
d="M0.5 3.5q-1.5 3.5 0.5 8.5l147 239q2 4 1 6l-88 240l-1 4q0 8 9 8h82q8 0 11 -7l51 -156q1 -2 3 -2t3 2l91 156q4 7 12 7h81q5 0 6.5 -3.5t-1.5 -8.5l-146 -240q-1 -3 0 -6l87 -239l1 -3q0 -9 -10 -9h-80q-8 0 -11 7l-52 158q-1 2 -3 2t-3 -2l-91 -158q-4 -7 -12 -7h-81
q-5 0 -6.5 3.5z" />
    <glyph glyph-name="y" unicode="y" horiz-adv-x="376" 
d="M-8 -189l8 59q0 4 3 7t7 3q31 1 50 10t33.5 34t28.5 73l-1 5l-63 496v2q0 4 3 6.5t7 2.5h80q9 0 9 -9l27 -361q0 -3 1.5 -3t2.5 3l114 361q3 9 12 9l80 -1q5 0 7 -3t0 -8l-199 -532q-26 -69 -49 -102.5t-57 -47.5t-94 -14h-5q-5 0 -5 10z" />
    <glyph glyph-name="z" unicode="z" horiz-adv-x="354" 
d="M10.5 3q-2.5 3 -1.5 7l9 70q0 5 4 13l221 323q1 2 0.5 3.5t-2.5 1.5h-168q-10 0 -8 10l8 68q2 10 11 10h274q5 0 7.5 -3t1.5 -7l-9 -71q0 -5 -4 -13l-226 -323q-2 -2 -1 -3.5t3 -1.5h179q5 0 7.5 -3t1.5 -7l-8 -67q-2 -10 -11 -10h-282q-4 0 -6.5 3z" />
    <glyph glyph-name="braceleft" unicode="{" horiz-adv-x="289" 
d="M64 -38q0 7 2 25l26 213q2 20 2 27q0 56 -43 63q-9 1 -7 11l7 57q0 9 10 11q27 5 42.5 26.5t20.5 62.5l26 208q14 118 119 118h62q10 0 8 -10l-7 -64q-2 -10 -11 -10h-24q-24 0 -39.5 -18t-19.5 -52l-22 -182q-6 -46 -21.5 -74t-42.5 -42q-5 -2 0 -5q37 -23 37 -85
q0 -9 -2 -31l-23 -187q-1 -6 -1 -18q0 -26 11 -39.5t32 -13.5h23q10 0 8 -10l-7 -63q-2 -10 -11 -10h-62q-93 0 -93 92z" />
    <glyph glyph-name="bar" unicode="|" horiz-adv-x="154" 
d="M3.5 -77q-2.5 3 -1.5 7l101 820q0 4 3 7t8 3h73q5 0 7.5 -3t1.5 -7l-101 -820q-2 -10 -11 -10h-73q-5 0 -7.5 3z" />
    <glyph glyph-name="braceright" unicode="}" horiz-adv-x="289" 
d="M1 -130q-5 0 -7.5 3t-1.5 7l8 63q2 10 11 10h22q25 0 40.5 18.5t19.5 52.5l23 187q6 46 21.5 74.5t42.5 41.5q5 3 0 5q-37 22 -37 83q0 9 2 33l23 182q1 6 1 16q0 54 -44 54h-23q-4 0 -6.5 3t-1.5 7l8 64q2 10 11 10h61q46 0 69.5 -23t23.5 -68q0 -7 -2 -27l-25 -208
q-2 -20 -2 -26q0 -57 43 -63q9 -1 7 -11l-7 -57q0 -9 -10 -11q-27 -4 -42.5 -26t-20.5 -64l-26 -213q-15 -117 -120 -117h-61z" />
    <glyph glyph-name="asciitilde" unicode="~" horiz-adv-x="457" 
d="M277.5 229q-17.5 8 -40.5 24q-5 3 -18 11t-24.5 12t-23.5 4q-42 0 -72 -39q-5 -10 -14 -4l-36 25q-8 5 -3 14q20 39 54 63.5t74 24.5q23 0 39.5 -6.5t34.5 -19.5q24 -17 40.5 -25t37.5 -8q18 0 32 10t30 29q6 8 14 3l39 -27q7 -5 2 -11l-2 -4q-57 -84 -121 -84
q-25 0 -42.5 8z" />
    <glyph glyph-name="uni00A0" unicode="&#xa0;" horiz-adv-x="194" 
 />
    <glyph glyph-name="exclamdown" unicode="&#xa1;" horiz-adv-x="254" 
d="M234 692.5q15 -15.5 15 -40.5q0 -31 -20 -51.5t-50 -20.5q-25 0 -40 14.5t-15 39.5q0 31 20.5 52.5t50.5 21.5q24 0 39 -15.5zM138 478h56q9 0 8 -10l-45 -447q-2 -10 -11 -10h-74q-10 0 -8 10l63 447q1 10 11 10z" />
    <glyph glyph-name="cent" unicode="&#xa2;" horiz-adv-x="401" 
d="M393 436l-74 -3q-9 0 -9 10l2 10q3 29 -14.5 50t-47.5 21q-31 0 -53 -23t-27 -59l-24 -195q-1 -5 -1 -14q0 -31 16.5 -49.5t44.5 -18.5q30 0 53 21.5t26 49.5l1 10q2 10 11 10l74 -1q10 0 8 -10l-2 -15q-7 -56 -44 -94.5t-95 -49.5q-5 -2 -5 -5l-7 -70q0 -4 -3 -7t-8 -3
h-60q-4 0 -6.5 3t-1.5 7l10 70q1 4 -3 5q-49 10 -76.5 44t-27.5 86q0 7 2 25l25 207q7 61 44.5 102t96.5 53q4 1 4 5l7 70q0 4 3 7t8 3h60q10 0 8 -10l-10 -70q-1 -4 3 -5q50 -10 78 -44t28 -82q0 -12 -1 -18l-2 -13q-2 -10 -11 -10z" />
    <glyph glyph-name="sterling" unicode="&#xa3;" horiz-adv-x="492" 
d="M185 83h261q10 0 8 -10l-8 -63q0 -4 -3 -7t-7 -3h-357q-5 0 -7.5 3t-1.5 7l8 65q2 8 7 13q40 32 49 111l12 98q0 4 -3 4h-56q-4 0 -6.5 3t-1.5 7l7 58q2 10 11 10h55q3 0 5 4l14 121q13 96 65 150t131 54q61 0 96 -37.5t42 -109.5v-2q0 -7 -9 -9l-71 -10h-2q-8 0 -8 9
q-5 39 -19.5 57.5t-41.5 18.5q-37 0 -60.5 -30t-30.5 -87l-15 -125q0 -4 3 -4h137q10 0 8 -10l-7 -58q0 -4 -3 -7t-8 -3h-136q-3 0 -5 -4l-12 -96q-9 -75 -42 -113q-3 -5 2 -5z" />
    <glyph glyph-name="currency" unicode="&#xa4;" horiz-adv-x="515" 
d="M427 192q-2 -4 0 -6l56 -66q2 -2 2 -5q0 -5 -4 -9l-51 -41q-3 -3 -6 -3q-4 0 -8 4l-53 62q-3 3 -6 1q-50 -32 -110 -32q-57 0 -100 29q-1 1 -6 -1l-65 -59q-7 -7 -14 -1l-40 41q-6 8 0 14l68 61q3 3 2 6q-22 42 -22 90q0 74 46 135q2 3 -1 6l-55 65q-2 4 -2 5q0 4 5 9
l52 42q3 3 7 2.5t6 -3.5l52 -61q2 -2 6 -1q53 32 111 32q61 0 106 -35q3 -2 6 1l71 64q9 8 14 1l41 -42q7 -7 0 -14l-77 -69q-2 -2 -2 -6q18 -38 18 -83q0 -71 -47 -133zM181 209.5q30 -30.5 76 -30.5q50 0 89 35.5t46 87.5l1 13q0 47 -30 78.5t-76 31.5q-35 0 -66.5 -19
t-50.5 -51t-19 -69q0 -46 30 -76.5z" />
    <glyph glyph-name="yen" unicode="&#xa5;" horiz-adv-x="510" 
d="M501 689l-164 -345q-1 -2 0 -3.5t2 -1.5h112q10 0 8 -10l-4 -36q-2 -10 -11 -10h-126q-4 0 -4 -4l-8 -58q0 -4 4 -4h126q10 0 8 -10l-4 -36q-2 -10 -11 -10h-126q-4 0 -4 -4l-18 -146q-2 -10 -11 -10h-74q-10 0 -8 10l18 146q0 4 -4 4h-123q-9 0 -9 10l5 36q2 10 11 10
h123q4 0 4 4l7 58q1 1 0 2.5t-3 1.5h-123q-9 0 -9 10l5 36q2 10 11 10h108q2 0 3.5 1.5t0.5 3.5l-78 345v2q0 9 9 9h78q8 0 10 -8l50 -276q1 -2 3 -2t3 2l116 276q5 8 13 8h77q12 0 7 -11z" />
    <glyph glyph-name="brokenbar" unicode="&#xa6;" horiz-adv-x="154" 
d="M60.5 388q-2.5 3 -1.5 7l44 355q0 4 3 7t8 3h73q5 0 7.5 -3t1.5 -7l-44 -355q0 -4 -3 -7t-8 -3h-73q-5 0 -7.5 3zM3.5 -77q-2.5 3 -1.5 7l43 349q2 10 11 10h74q4 0 6.5 -3t1.5 -7l-43 -349q-2 -10 -11 -10h-73q-5 0 -7.5 3z" />
    <glyph glyph-name="section" unicode="&#xa7;" horiz-adv-x="393" 
d="M51.5 -168q-37.5 37 -37.5 97q0 8 2 26l2 16q2 10 11 10h73q5 0 7.5 -3t1.5 -7l-1 -10l-1 -14q0 -31 14.5 -50t39.5 -19q30 0 52 27.5t22 65.5q0 25 -13.5 44t-30 30t-48.5 28q-38 20 -60.5 40.5t-31.5 53.5q-7 22 -7 49q0 38 9 66.5t29 56.5q28 39 63 54q5 2 1 5
q-64 47 -64 125q0 52 23.5 94t64 66.5t91.5 24.5q64 0 101 -38.5t37 -102.5q0 -15 -1 -23l-2 -13q-2 -10 -11 -10h-75q-10 0 -8 10l1 9q1 6 1 16q0 31 -14.5 50t-39.5 19q-31 0 -52.5 -29t-21.5 -70q0 -33 19.5 -55t61.5 -42q41 -22 62 -37t35 -41q17 -31 17 -68
q0 -64 -32 -116q-27 -45 -71 -63q-6 -1 -2 -5q63 -44 63 -118q0 -53 -23.5 -95.5t-64.5 -66.5t-91 -24q-63 0 -100.5 37zM260 195q8 15 13.5 34.5t5.5 36.5q0 25 -11 47q-17 29 -49 29q-37 0 -60 -39q-14 -24 -17 -54q-1 -6 -1 -19q0 -22 5 -36q12 -37 52 -37t62 38z" />
    <glyph glyph-name="dieresis" unicode="&#xa8;" horiz-adv-x="319" 
d="M251 604q-15 15 -15 39q0 32 20.5 53t50.5 21q24 0 39 -15.5t15 -40.5q0 -31 -20.5 -51.5t-49.5 -20.5q-25 0 -40 15zM94 604q-15 15 -15 39q0 32 20.5 53t50.5 21q24 0 39 -15.5t15 -40.5q0 -31 -20.5 -51.5t-49.5 -20.5q-25 0 -40 15z" />
    <glyph glyph-name="copyright" unicode="&#xa9;" horiz-adv-x="795" 
d="M215.5 32q-70.5 40 -109.5 111t-39 159q0 24 3 49q12 100 68 181.5t142 128.5t184 47q91 0 162 -40t110 -110.5t39 -159.5q0 -23 -3 -47q-12 -100 -68.5 -182t-142.5 -129.5t-185 -47.5q-90 0 -160.5 40zM538.5 88q72.5 40 119.5 109.5t57 153.5q3 21 3 41
q0 74 -33 133.5t-92.5 93t-135.5 33.5q-83 0 -155 -39.5t-119 -108.5t-57 -153q-3 -21 -3 -42q0 -74 33 -133.5t92 -93.5t135 -34q83 0 155.5 40zM343 200q-21 19 -21 53q0 9 1 14l20 162q4 39 31 62t67 23q37 0 58.5 -19t21.5 -52q0 -9 -1 -14v-4q-2 -10 -11 -10l-33 -2
q-5 0 -7.5 3t-1.5 7l1 10q2 15 -7 25t-25 10t-27 -10t-13 -25l-21 -170q-2 -16 6.5 -25.5t24.5 -9.5q17 0 28 9.5t13 25.5l2 10q0 4 3 7t8 3l32 -2q5 0 7.5 -3t1.5 -7l-1 -4q-4 -39 -31.5 -62.5t-67.5 -23.5q-37 0 -58 19z" />
    <glyph glyph-name="ordfeminine" unicode="&#xaa;" horiz-adv-x="273" 
d="M223 564q2 0 3.5 1t1.5 3l3 24l1 13q0 22 -10 34.5t-28 12.5q-16 0 -29.5 -9.5t-18.5 -24.5q-3 -9 -12 -9l-43 2q-5 0 -7 3t-1 8q8 38 41 62t75 24q46 0 72 -25t26 -67q0 -11 -1 -17l-28 -222q0 -4 -3 -7t-8 -3h-44q-9 0 -9 10l1 8q1 2 -0.5 3t-3.5 -1q-24 -25 -63 -25
q-34 0 -59 17.5t-25 61.5q0 13 1 20q7 57 41.5 80t90.5 23h36zM195 428.5q17 13.5 21 39.5l4 40q1 1 0 2.5t-3 1.5h-37q-28 0 -45 -15.5t-17 -45.5q0 -36 38 -36q22 0 39 13.5zM47 318h214q9 0 9 -10l-5 -37q-2 -10 -11 -10h-214q-9 0 -9 10l5 37q2 10 11 10z" />
    <glyph glyph-name="guillemotleft" unicode="&#xab;" horiz-adv-x="453" 
d="M234 115q0 -8 -9 -8h-68q-7 0 -11 7l-74 160q-1 1 -1 5q0 5 3 9l113 160q5 7 12 7h68q6 0 7.5 -3.5t-1.5 -8.5l-113 -159q-1 -2 -1 -6l74 -159zM383 114q0 -7 -9 -7h-69q-6 0 -11 7l-72 160q-2 4 -2 5q0 5 4 9l111 160q7 7 13 7h69q5 0 7 -3.5t-2 -8.5l-114 -159
q-1 -3 0 -6l74 -159q1 -2 1 -5z" />
    <glyph glyph-name="logicalnot" unicode="&#xac;" horiz-adv-x="427" 
d="M419.5 348q2.5 -3 1.5 -7l-7 -58l-1 -6l-1 -2l-11 -93q-2 -10 -11 -10h-53q-4 0 -6.5 3t-1.5 7l11 91q0 4 -3 4h-285q-4 0 -6.5 3t-1.5 7l7 54q0 4 3 7t8 3h351q4 0 6.5 -3z" />
    <glyph glyph-name="uni00AD" unicode="&#xad;" horiz-adv-x="310" 
d="M42 274l8 63q2 10 11 10h235q10 0 8 -10l-7 -63q-1 -4 -4 -7t-7 -3h-235q-9 0 -9 10z" />
    <glyph glyph-name="registered" unicode="&#xae;" horiz-adv-x="423" 
d="M368 690q39 -22 60.5 -60.5t21.5 -86.5q0 -62 -30 -113.5t-80.5 -81.5t-108.5 -30q-49 0 -88 22t-60.5 61.5t-21.5 88.5q0 60 30 111t80 81t108 30q50 0 89 -22zM315 382.5q37 20.5 61 56t29 79.5q1 6 1 19q0 57 -37 94t-95 37q-44 0 -83 -23t-62 -62.5t-23 -86.5
q0 -59 36.5 -96.5t94.5 -37.5q41 0 78 20.5zM316.5 526q-8.5 -14 -23.5 -21q-3 -3 -3 -6l17 -62l1 -4q0 -8 -9 -8h-19q-8 0 -11 8l-14 63q-1 3 -4 3h-11q-3 0 -5 -4l-7 -60q-2 -10 -11 -10h-15q-5 0 -7.5 3t-1.5 7l20 161q2 10 11 10h54q22 0 34.5 -12.5t12.5 -33.5
q0 -20 -8.5 -34zM245 571l-5 -41q-1 -1 0 -2.5t3 -1.5h19q10 0 17.5 6.5t9.5 17.5v4q0 21 -21 21h-19q-4 0 -4 -4z" />
    <glyph glyph-name="macron" unicode="&#xaf;" horiz-adv-x="422" 
d="M165.5 593q-2.5 3 -1.5 7l6 48q2 10 11 10h182q9 0 9 -10l-6 -48q-2 -10 -11 -10h-183q-4 0 -6.5 3z" />
    <glyph glyph-name="degree" unicode="&#xb0;" horiz-adv-x="348" 
d="M115.5 523.5q-38.5 40.5 -38.5 101.5q0 49 24.5 91.5t65 67t86.5 24.5q60 0 98.5 -40t38.5 -101q0 -49 -24.5 -91.5t-65 -67.5t-86.5 -25q-60 0 -98.5 40.5zM295.5 580.5q31.5 32.5 31.5 77.5q0 37 -23 62t-58 25q-42 0 -74 -33t-32 -78q0 -37 23 -61.5t59 -24.5
q42 0 73.5 32.5z" />
    <glyph glyph-name="plusminus" unicode="&#xb1;" horiz-adv-x="427" 
d="M427 391l-6 -54q-2 -10 -11 -10h-136q-4 0 -4 -4l-18 -140q0 -4 -3 -7t-7 -3h-53q-10 0 -8 10l17 140q0 4 -4 4h-135q-5 0 -7.5 3t-1.5 7l7 54q2 10 11 10h136q4 0 4 4l17 140q2 10 11 10h52q5 0 7.5 -3t1.5 -7l-17 -140q-1 -1 0 -2.5t3 -1.5h136q10 0 8 -10zM14.5 25
q-2.5 3 -1.5 7l7 54q0 4 3 7t8 3h351q4 0 6.5 -3t1.5 -7l-6 -54q-1 -4 -4 -7t-7 -3h-352q-4 0 -6.5 3z" />
    <glyph glyph-name="uni00B2" unicode="&#xb2;" horiz-adv-x="245" 
d="M53 443l5 39q2 9 5 13q77 92 123 155q46 66 46 110q0 20 -9 30.5t-25 10.5q-17 0 -29 -14t-15 -37l-3 -21q0 -4 -3 -7t-8 -3h-44q-9 0 -9 10l3 23q7 49 39 77.5t78 28.5q41 0 65 -23t24 -69q0 -35 -12 -68t-36 -70q-36 -51 -83 -112l-17 -22q-2 -2 -1 -3.5t3 -1.5h113
q4 0 6.5 -3t1.5 -7l-4 -36q-2 -10 -11 -10h-194q-9 0 -9 10z" />
    <glyph glyph-name="uni00B3" unicode="&#xb3;" horiz-adv-x="262" 
d="M284 593q0 -8 -2 -30q-3 -31 -12 -54l-2 -4q-11 -36 -38.5 -57t-66.5 -21q-42 0 -66.5 25t-24.5 65q0 24 1 36q1 10 11 10h43q9 0 9 -10q-1 -7 -1 -20q-1 -23 8 -36t27 -13q28 0 42 35q8 20 12 50q2 26 2 35q0 51 -35 51q-4 0 -12 -2l-4 -2q-7 -3 -11 2l-18 22q-3 3 -3 6
q0 4 3 8l86 103q2 2 1 3.5t-3 1.5h-112q-9 0 -9 10l5 35q2 10 11 10h180q9 0 9 -10l-5 -38q-2 -9 -6 -13l-73 -89q-2 -3 1 -5q25 -5 38.5 -28.5t13.5 -56.5z" />
    <glyph glyph-name="acute" unicode="&#xb4;" horiz-adv-x="189" 
d="M75 576.5q-2 3.5 2 8.5l73 108q7 7 13 7h59q6 0 7.5 -3.5t-2.5 -8.5l-85 -109q-4 -6 -12 -6h-48q-5 0 -7 3.5z" />
    <glyph glyph-name="uni00B5" unicode="&#xb5;" horiz-adv-x="424" 
d="M332 509h74q10 0 8 -10l-60 -489q0 -4 -3 -7t-8 -3h-73q-5 0 -7.5 3t-1.5 7l4 29q0 3 -1.5 3t-3.5 -2q-35 -47 -99 -47q-18 0 -33 3q-1 1 -3 -0.5t-2 -3.5l-22 -182q-2 -10 -11 -10h-74q-10 0 -8 10l84 689q2 10 11 10h75q10 0 8 -10l-41 -337q-1 -8 -1 -21q0 -65 56 -65
q32 0 54 24.5t27 67.5l40 331q2 10 11 10z" />
    <glyph glyph-name="paragraph" unicode="&#xb6;" horiz-adv-x="471" 
d="M468 700q9 0 9 -10l-108 -880q-1 -4 -4 -7t-7 -3h-60q-4 0 -6.5 3t-1.5 7l99 807q0 4 -3 4h-66q-3 0 -5 -4l-99 -807q0 -4 -3 -7t-8 -3h-59q-10 0 -8 10l53 437q2 3 -3 5q-58 8 -91 57t-33 123q0 21 3 43q8 64 36 115t71 80.5t95 29.5h199z" />
    <glyph glyph-name="periodcentered" unicode="&#xb7;" horiz-adv-x="200" 
d="M67 234q-15 15 -15 39q0 32 20.5 53t50.5 21q24 0 39 -15.5t15 -40.5q0 -31 -20.5 -51.5t-49.5 -20.5q-25 0 -40 15z" />
    <glyph glyph-name="cedilla" unicode="&#xb8;" horiz-adv-x="128" 
d="M-36 -171l8 31q3 10 13 8q3 -1 10 -1q28 0 38 32q2 6 2 18q0 35 -31 71q-2 2 -2 6q0 6 9 6h40q7 0 10 -3q2 -1 2 -2t1 -2q33 -36 33 -81q0 -21 -6 -39q-11 -32 -34 -46t-51 -14q-18 0 -35 5q-8 1 -7 11z" />
    <glyph glyph-name="uni00B9" unicode="&#xb9;" horiz-adv-x="145" 
d="M148 853h47q10 0 8 -10l-49 -400q-2 -10 -11 -10h-43q-5 0 -7.5 3t-1.5 7l43 346q0 2 -1.5 3.5t-2.5 0.5l-25 -6h-2q-8 0 -7 9l3 29q2 10 8 12l28 13q6 3 13 3z" />
    <glyph glyph-name="ordmasculine" unicode="&#xba;" horiz-adv-x="277" 
d="M90.5 384.5q-25.5 23.5 -25.5 65.5q0 11 1 17l17 136q5 47 38 76t84 29q46 0 72 -24.5t26 -64.5q0 -10 -1 -16l-17 -136q-6 -49 -38.5 -77.5t-83.5 -28.5q-47 0 -72.5 23.5zM205 432.5q15 15.5 18 38.5l15 127q3 23 -8.5 38.5t-31.5 15.5t-35.5 -15.5t-18.5 -38.5
l-15 -127q-3 -23 8.5 -38.5t32.5 -15.5q20 0 35 15.5zM36.5 264q-2.5 3 -1.5 7l5 37q0 4 3 7t8 3h214q9 0 9 -10l-5 -37q-2 -10 -11 -10h-214q-5 0 -7.5 3z" />
    <glyph glyph-name="guillemotright" unicode="&#xbb;" horiz-adv-x="453" 
d="M60 110.5q-2 3.5 2 8.5l113 159q1 2 1 6l-74 159q-1 2 -1 5q0 7 9 7h68q6 0 11 -7l73 -160q2 -4 2 -6q0 -5 -3 -8l-113 -160q-7 -7 -13 -7h-68q-5 0 -7 3.5zM209 110.5q-2 3.5 2 8.5l113 159q1 2 1 6l-74 159q-1 2 -1 5q0 7 9 7h68q6 0 11 -7l73 -160q2 -4 2 -6
q0 -5 -3 -8l-113 -160q-7 -7 -13 -7h-68q-5 0 -7 3.5z" />
    <glyph glyph-name="onequarter" unicode="&#xbc;" horiz-adv-x="661" 
d="M129 700h47q10 0 8 -10l-49 -400q-2 -10 -11 -10h-43q-5 0 -7.5 3t-1.5 7l43 346q0 2 -1.5 3.5t-2.5 0.5l-25 -6h-2q-8 0 -7 9l3 29q2 10 8 12l28 13q6 3 13 3zM44 3.5q-2 3.5 2 8.5l495 681q5 7 12 7h48q6 0 7.5 -3.5t-2.5 -8.5l-495 -681q-5 -7 -12 -7h-48q-5 0 -7 3.5
zM651 159l-4 -39q-2 -10 -11 -10h-14q-4 0 -4 -4l-12 -96q-2 -10 -11 -10h-44q-4 0 -6.5 3t-1.5 7l12 96q0 4 -4 4h-133q-4 0 -6.5 3t-1.5 7l4 33l3 12l110 247q5 8 13 8h47q5 0 6.5 -3t-0.5 -8l-103 -235q-1 -2 0.5 -3.5t3.5 -1.5h65q4 0 4 4l9 71q0 4 3 7t8 3h43
q9 0 9 -10l-9 -71q0 -4 3 -4h14q10 0 8 -10z" />
    <glyph glyph-name="onehalf" unicode="&#xbd;" horiz-adv-x="654" 
d="M129 700h47q10 0 8 -10l-49 -400q-2 -10 -11 -10h-43q-5 0 -7.5 3t-1.5 7l43 346q0 2 -1.5 3.5t-2.5 0.5l-25 -6h-2q-8 0 -7 9l3 29q2 10 8 12l28 13q6 3 13 3zM44 3.5q-2 3.5 2 8.5l495 681q5 7 12 7h48q6 0 7.5 -3.5t-2.5 -8.5l-495 -681q-5 -7 -12 -7h-48q-5 0 -7 3.5
zM409 10l5 39q2 9 5 13q77 92 123 155q46 66 46 110q0 20 -9 30.5t-25 10.5q-17 0 -29 -14t-15 -37l-3 -21q0 -4 -3 -7t-8 -3h-44q-9 0 -9 10l3 23q7 49 39 77.5t78 28.5q41 0 65 -23t24 -69q0 -35 -12 -68t-36 -70q-36 -51 -83 -112l-17 -22q-2 -2 -1 -3.5t3 -1.5h113
q4 0 6.5 -3t1.5 -7l-4 -36q-2 -10 -11 -10h-194q-9 0 -9 10z" />
    <glyph glyph-name="threequarters" unicode="&#xbe;" horiz-adv-x="731" 
d="M265 439q0 -8 -2 -30q-3 -31 -12 -54l-2 -4q-11 -36 -38.5 -57t-66.5 -21q-42 0 -66.5 25t-24.5 65q0 24 1 36q1 10 11 10h43q9 0 9 -10q-1 -7 -1 -20q-1 -23 8 -36t27 -13q28 0 42 35q8 20 12 50q2 26 2 35q0 51 -35 51q-4 0 -12 -2l-4 -2q-7 -3 -11 2l-18 22q-3 3 -3 6
q0 4 3 8l86 103q2 2 1 3.5t-3 1.5h-112q-9 0 -9 10l5 35q2 10 11 10h180q9 0 9 -10l-5 -38q-2 -9 -6 -13l-73 -89q-2 -3 1 -5q25 -5 38.5 -28.5t13.5 -56.5zM114 3.5q-2 3.5 2 8.5l495 681q5 7 12 7h48q6 0 7.5 -3.5t-2.5 -8.5l-495 -681q-5 -7 -12 -7h-48q-5 0 -7 3.5z
M721 159l-4 -39q-2 -10 -11 -10h-14q-4 0 -4 -4l-12 -96q-2 -10 -11 -10h-44q-4 0 -6.5 3t-1.5 7l12 96q0 4 -4 4h-133q-4 0 -6.5 3t-1.5 7l4 33l3 12l110 247q5 8 13 8h47q5 0 6.5 -3t-0.5 -8l-103 -235q-1 -2 0.5 -3.5t3.5 -1.5h65q4 0 4 4l9 71q0 4 3 7t8 3h43q9 0 9 -10
l-9 -71q0 -4 3 -4h14q10 0 8 -10z" />
    <glyph glyph-name="questiondown" unicode="&#xbf;" horiz-adv-x="382" 
d="M285 483.5q15 -15.5 15 -40.5q0 -31 -20.5 -51.5t-49.5 -20.5q-25 0 -40 15t-15 39q0 31 21 52.5t50 21.5q24 0 39 -15.5zM266 282l-6 -50q-5 -45 -26 -73t-60 -63q-40 -35 -59.5 -64t-19.5 -76q0 -36 16.5 -57t44.5 -21q34 0 58 27.5t30 72.5l3 26q2 10 11 10l73 -4
q9 0 9 -10l-3 -22q-10 -84 -64 -135.5t-130 -51.5q-67 0 -104.5 40t-37.5 109q0 9 2 33q5 45 20.5 76.5t34 51.5t47.5 45q30 26 45 45t18 46l5 45q2 10 11 10h74q10 0 8 -10z" />
    <glyph glyph-name="Agrave" unicode="&#xc0;" horiz-adv-x="423" 
d="M297 9l-7 115q0 2 -1.5 3t-3.5 1h-158q-2 0 -3.5 -1t-1.5 -3l-35 -115q-1 -9 -11 -9h-74q-5 0 -7 3t0 8l228 680q2 9 11 9h87q9 0 9 -9l62 -680q0 -11 -10 -11h-75q-10 0 -10 9zM149 205.5q1 -1.5 2 -1.5h129q2 0 4 4l-23 355q0 2 -1.5 2t-2.5 -2l-108 -355q-1 -1 0 -2.5
zM317 772q0 -8 -9 -8h-48q-9 0 -11 6l-58 109l-1 4q0 8 9 8h59q7 0 11 -7l47 -108z" />
    <glyph glyph-name="Aacute" unicode="&#xc1;" horiz-adv-x="423" 
d="M297 9l-7 115q0 2 -1.5 3t-3.5 1h-158q-2 0 -3.5 -1t-1.5 -3l-35 -115q-1 -9 -11 -9h-74q-5 0 -7 3t0 8l228 680q2 9 11 9h87q9 0 9 -9l62 -680q0 -11 -10 -11h-75q-10 0 -10 9zM149 205.5q1 -1.5 2 -1.5h129q2 0 4 4l-23 355q0 2 -1.5 2t-2.5 -2l-108 -355q-1 -1 0 -2.5
zM236 767.5q-2 3.5 2 8.5l73 108q7 7 13 7h59q6 0 7.5 -3.5t-2.5 -8.5l-85 -109q-4 -6 -12 -6h-48q-5 0 -7 3.5z" />
    <glyph glyph-name="Acircumflex" unicode="&#xc2;" horiz-adv-x="423" 
d="M297 9l-7 115q0 2 -1.5 3t-3.5 1h-158q-2 0 -3.5 -1t-1.5 -3l-35 -115q-1 -9 -11 -9h-74q-5 0 -7 3t0 8l228 680q2 9 11 9h87q9 0 9 -9l62 -680q0 -11 -10 -11h-75q-10 0 -10 9zM149 205.5q1 -1.5 2 -1.5h129q2 0 4 4l-23 355q0 2 -1.5 2t-2.5 -2l-108 -355q-1 -1 0 -2.5
zM166.5 771.5q-1.5 3.5 2.5 8.5l76 104q5 7 12 7h83q6 0 11 -7l53 -104q1 -2 1 -5q0 -7 -8 -7h-60q-7 0 -10 7l-30 68q-1 2 -3 1.5t-3 -1.5l-46 -68q-5 -7 -12 -7h-60q-5 0 -6.5 3.5z" />
    <glyph glyph-name="Atilde" unicode="&#xc3;" horiz-adv-x="423" 
d="M297 9l-7 115q0 2 -1.5 3t-3.5 1h-158q-2 0 -3.5 -1t-1.5 -3l-35 -115q-1 -9 -11 -9h-74q-5 0 -7 3t0 8l228 680q2 9 11 9h87q9 0 9 -9l62 -680q0 -11 -10 -11h-75q-10 0 -10 9zM149 205.5q1 -1.5 2 -1.5h129q2 0 4 4l-23 355q0 2 -1.5 2t-2.5 -2l-108 -355q-1 -1 0 -2.5
zM326.5 796q-10.5 5 -26.5 15q-4 3 -11.5 9t-14 8.5t-14.5 2.5q-12 0 -22 -5.5t-21 -20.5q-3 -4 -7 -5t-7 2l-25 20q-6 6 -2 13q17 30 39.5 45t46.5 15q15 0 27.5 -6t27.5 -17q3 -2 10.5 -8t14.5 -9t15 -3q12 0 22 5.5t21 20.5q3 4 7 4.5t7 -1.5l24 -18q3 -3 3 -8
q0 -4 -4 -11q-19 -28 -42.5 -40.5t-44.5 -12.5q-13 0 -23.5 5z" />
    <glyph glyph-name="Adieresis" unicode="&#xc4;" horiz-adv-x="423" 
d="M297 9l-7 115q0 2 -1.5 3t-3.5 1h-158q-2 0 -3.5 -1t-1.5 -3l-35 -115q-1 -9 -11 -9h-74q-5 0 -7 3t0 8l228 680q2 9 11 9h87q9 0 9 -9l62 -680q0 -11 -10 -11h-75q-10 0 -10 9zM149 205.5q1 -1.5 2 -1.5h129q2 0 4 4l-23 355q0 2 -1.5 2t-2.5 -2l-108 -355q-1 -1 0 -2.5
zM326 795q-15 15 -15 39q0 32 20.5 53t50.5 21q24 0 39 -15.5t15 -40.5q0 -31 -20.5 -51.5t-49.5 -20.5q-25 0 -40 15zM169 795q-15 15 -15 39q0 32 20.5 53t50.5 21q24 0 39 -15.5t15 -40.5q0 -31 -20.5 -51.5t-49.5 -20.5q-25 0 -40 15z" />
    <glyph glyph-name="Aring" unicode="&#xc5;" horiz-adv-x="423" 
d="M297 9l-7 115q0 2 -1.5 3t-3.5 1h-158q-2 0 -3.5 -1t-1.5 -3l-35 -115q-1 -9 -11 -9h-74q-5 0 -7 3t0 8l228 680q2 9 11 9h87q9 0 9 -9l62 -680q0 -11 -10 -11h-75q-10 0 -10 9zM149 205.5q1 -1.5 2 -1.5h129q2 0 4 4l-23 355q0 2 -1.5 2t-2.5 -2l-108 -355q-1 -1 0 -2.5
zM216 792q-27 28 -27 71q0 35 17 64.5t46 46.5t62 17q42 0 69 -28t27 -71q0 -34 -17.5 -63.5t-46 -47t-60.5 -17.5q-43 0 -70 28zM337 838q19 20 19 48q0 23 -13.5 37.5t-35.5 14.5q-26 0 -45.5 -20.5t-19.5 -48.5q0 -22 14.5 -36.5t36.5 -14.5q25 0 44 20z" />
    <glyph glyph-name="AE" unicode="&#xc6;" horiz-adv-x="698" 
d="M710 617h-218q-4 0 -4 -4l-27 -217q0 -4 3 -4h134q9 0 9 -10l-8 -63q-2 -10 -11 -10h-134q-4 0 -4 -4l-27 -218q0 -4 3 -4h219q4 0 6.5 -3t1.5 -7l-8 -63q0 -4 -3 -7t-8 -3h-306q-9 0 -9 10l14 114q1 1 0 2.5t-3 1.5h-172q-2 0 -4 -3l-62 -117q-4 -8 -11 -8h-77
q-5 0 -7 3.5t1 8.5l366 680q4 8 12 8h344q5 0 7.5 -3t1.5 -7l-8 -63q-2 -10 -11 -10zM198 205.5q1 -1.5 3 -1.5h138q3 0 5 4l44 354q1 3 -1 3t-4 -2l-185 -354q-1 -2 0 -3.5z" />
    <glyph glyph-name="Ccedilla" unicode="&#xc7;" horiz-adv-x="439" 
d="M429 502l-74 -4q-10 0 -8 10l3 26q1 5 1 16q0 34 -19.5 54.5t-52.5 20.5q-37 0 -62.5 -25t-30.5 -66l-45 -368q-1 -6 -1 -16q0 -34 19 -54.5t52 -20.5q37 0 63 25t31 66l3 26q2 10 11 10l73 -4q10 0 8 -10l-1 -15q-9 -72 -52 -119.5t-109 -58.5q-5 -2 -2 -5
q28 -34 28 -76q0 -20 -6 -39q-11 -32 -34.5 -46t-51.5 -14q-20 0 -35 5q-9 3 -6 12l8 32q3 9 13 7q3 -1 10 -1q28 0 38 32q3 9 3 18q0 36 -34 73q-1 2 -4 2q-56 10 -87.5 49t-31.5 99q0 10 2 30l44 355q10 82 64 131t133 49q71 0 113 -40t42 -110q0 -10 -2 -30l-2 -16
q-2 -10 -11 -10z" />
    <glyph glyph-name="Egrave" unicode="&#xc8;" 
d="M432 617h-219q-1 0 -2.5 -1t-1.5 -3l-27 -217q0 -4 4 -4h134q10 0 8 -10l-8 -63q0 -4 -3 -7t-7 -3h-134q-3 0 -5 -4l-26 -218q-1 -1 0 -2.5t3 -1.5h218q9 0 9 -10l-8 -63q-2 -10 -11 -10h-306q-4 0 -6.5 3t-1.5 7l83 680q1 4 4 7t7 3h306q10 0 8 -10l-7 -63
q-2 -10 -11 -10zM329 772q0 -8 -9 -8h-48q-9 0 -11 6l-58 109l-1 4q0 8 9 8h59q7 0 11 -7l47 -108z" />
    <glyph glyph-name="Eacute" unicode="&#xc9;" 
d="M432 617h-219q-1 0 -2.5 -1t-1.5 -3l-27 -217q0 -4 4 -4h134q10 0 8 -10l-8 -63q0 -4 -3 -7t-7 -3h-134q-3 0 -5 -4l-26 -218q-1 -1 0 -2.5t3 -1.5h218q9 0 9 -10l-8 -63q-2 -10 -11 -10h-306q-4 0 -6.5 3t-1.5 7l83 680q1 4 4 7t7 3h306q10 0 8 -10l-7 -63
q-2 -10 -11 -10zM248 767.5q-2 3.5 2 8.5l73 108q7 7 13 7h59q6 0 7.5 -3.5t-2.5 -8.5l-85 -109q-4 -6 -12 -6h-48q-5 0 -7 3.5z" />
    <glyph glyph-name="Ecircumflex" unicode="&#xca;" 
d="M432 617h-219q-1 0 -2.5 -1t-1.5 -3l-27 -217q0 -4 4 -4h134q10 0 8 -10l-8 -63q0 -4 -3 -7t-7 -3h-134q-3 0 -5 -4l-26 -218q-1 -1 0 -2.5t3 -1.5h218q9 0 9 -10l-8 -63q-2 -10 -11 -10h-306q-4 0 -6.5 3t-1.5 7l83 680q1 4 4 7t7 3h306q10 0 8 -10l-7 -63
q-2 -10 -11 -10zM178.5 771.5q-1.5 3.5 2.5 8.5l76 104q5 7 12 7h83q6 0 11 -7l53 -104q1 -2 1 -5q0 -7 -8 -7h-60q-7 0 -10 7l-30 68q-1 2 -3 1.5t-3 -1.5l-46 -68q-5 -7 -12 -7h-60q-5 0 -6.5 3.5z" />
    <glyph glyph-name="Edieresis" unicode="&#xcb;" 
d="M432 617h-219q-1 0 -2.5 -1t-1.5 -3l-27 -217q0 -4 4 -4h134q10 0 8 -10l-8 -63q0 -4 -3 -7t-7 -3h-134q-3 0 -5 -4l-26 -218q-1 -1 0 -2.5t3 -1.5h218q9 0 9 -10l-8 -63q-2 -10 -11 -10h-306q-4 0 -6.5 3t-1.5 7l83 680q1 4 4 7t7 3h306q10 0 8 -10l-7 -63
q-2 -10 -11 -10zM337 795q-15 15 -15 39q0 32 20.5 53t50.5 21q24 0 39 -15.5t15 -40.5q0 -31 -20.5 -51.5t-49.5 -20.5q-25 0 -40 15zM180 795q-15 15 -15 39q0 32 20.5 53t50.5 21q24 0 39 -15.5t15 -40.5q0 -31 -20.5 -51.5t-49.5 -20.5q-25 0 -40 15z" />
    <glyph glyph-name="Igrave" unicode="&#xcc;" horiz-adv-x="213" 
d="M43.5 3q-2.5 3 -1.5 7l83 680q1 4 4 7t7 3h74q9 0 9 -10l-84 -680q-2 -10 -11 -10h-74q-4 0 -6.5 3zM213 772q0 -8 -9 -8h-48q-9 0 -11 6l-58 109l-1 4q0 8 9 8h59q7 0 11 -7l47 -108z" />
    <glyph glyph-name="Iacute" unicode="&#xcd;" horiz-adv-x="213" 
d="M43.5 3q-2.5 3 -1.5 7l83 680q1 4 4 7t7 3h74q9 0 9 -10l-84 -680q-2 -10 -11 -10h-74q-4 0 -6.5 3zM132 767.5q-2 3.5 2 8.5l73 108q7 7 13 7h59q6 0 7.5 -3.5t-2.5 -8.5l-85 -109q-4 -6 -12 -6h-48q-5 0 -7 3.5z" />
    <glyph glyph-name="Icircumflex" unicode="&#xce;" horiz-adv-x="213" 
d="M43.5 3q-2.5 3 -1.5 7l83 680q1 4 4 7t7 3h74q9 0 9 -10l-84 -680q-2 -10 -11 -10h-74q-4 0 -6.5 3zM62.5 771.5q-1.5 3.5 2.5 8.5l76 104q5 7 12 7h83q6 0 11 -7l53 -104q1 -2 1 -5q0 -7 -8 -7h-60q-7 0 -10 7l-30 68q-1 2 -3 1.5t-3 -1.5l-46 -68q-5 -7 -12 -7h-60
q-5 0 -6.5 3.5z" />
    <glyph glyph-name="Idieresis" unicode="&#xcf;" horiz-adv-x="213" 
d="M43.5 3q-2.5 3 -1.5 7l83 680q1 4 4 7t7 3h74q9 0 9 -10l-84 -680q-2 -10 -11 -10h-74q-4 0 -6.5 3zM221 795q-15 15 -15 39q0 32 20.5 53t50.5 21q24 0 39 -15.5t15 -40.5q0 -31 -20.5 -51.5t-49.5 -20.5q-25 0 -40 15zM64 795q-15 15 -15 39q0 32 20.5 53t50.5 21
q24 0 39 -15.5t15 -40.5q0 -31 -20.5 -51.5t-49.5 -20.5q-25 0 -40 15z" />
    <glyph glyph-name="Eth" unicode="&#xd0;" horiz-adv-x="493" 
d="M446.5 658.5q40.5 -41.5 40.5 -114.5q0 -11 -2 -33l-40 -322q-10 -87 -64 -138t-134 -51h-159q-10 0 -8 10l39 323q1 1 0 2.5t-3 1.5h-24q-9 0 -9 10l5 38q2 10 11 10h24q3 0 5 4l35 291q2 10 11 10h159q73 0 113.5 -41.5zM391 506q1 8 1 23q0 42 -18.5 65t-52.5 23h-70
q-4 0 -4 -4l-26 -214q-1 -1 0 -2.5t3 -1.5h61q9 0 9 -10l-5 -38q-2 -10 -11 -10h-61q-4 0 -4 -4l-31 -246q0 -4 4 -4l71 1q37 0 63 29.5t33 80.5z" />
    <glyph glyph-name="Ntilde" unicode="&#xd1;" horiz-adv-x="486" 
d="M410 700h73q4 0 6.5 -3t1.5 -7l-83 -680q-2 -10 -11 -10h-84q-8 0 -9 8l-109 457q-1 2 -3 1.5t-2 -2.5l-55 -454q-2 -10 -11 -10h-74q-4 0 -6.5 3t-1.5 7l83 680q1 4 4 7t7 3h83q7 0 10 -8l109 -457q1 -3 3 -2.5t2 3.5l56 454q2 10 11 10zM358.5 802q-10.5 5 -26.5 15
q-4 3 -11.5 9t-14 8.5t-14.5 2.5q-12 0 -22 -5.5t-21 -20.5q-3 -4 -7 -5t-7 2l-25 20q-6 6 -2 13q17 30 39.5 45t46.5 15q15 0 27.5 -6t27.5 -17q3 -2 10.5 -8t14.5 -9t15 -3q12 0 22 5.5t21 20.5q3 4 7 4.5t7 -1.5l24 -18q3 -3 3 -8q0 -4 -4 -11q-19 -28 -42.5 -40.5
t-44.5 -12.5q-13 0 -23.5 5z" />
    <glyph glyph-name="Ograve" unicode="&#xd2;" horiz-adv-x="448" 
d="M89 33q-42 41 -42 112q0 10 2 30l42 349q10 83 65 133.5t135 50.5q73 0 115.5 -42.5t42.5 -113.5q0 -8 -2 -28l-43 -349q-10 -83 -65.5 -133t-135.5 -50q-72 0 -114 41zM278 101.5q27 26.5 32 69.5l44 358q1 6 1 16q0 36 -20 58t-55 22q-37 0 -63.5 -26.5t-31.5 -69.5
l-44 -358q-1 -6 -1 -17q0 -36 19.5 -57.5t53.5 -21.5q38 0 65 26.5zM329 772q0 -8 -9 -8h-48q-9 0 -11 6l-58 109l-1 4q0 8 9 8h59q7 0 11 -7l47 -108z" />
    <glyph glyph-name="Oacute" unicode="&#xd3;" horiz-adv-x="448" 
d="M89 33q-42 41 -42 112q0 10 2 30l42 349q10 83 65 133.5t135 50.5q73 0 115.5 -42.5t42.5 -113.5q0 -8 -2 -28l-43 -349q-10 -83 -65.5 -133t-135.5 -50q-72 0 -114 41zM278 101.5q27 26.5 32 69.5l44 358q1 6 1 16q0 36 -20 58t-55 22q-37 0 -63.5 -26.5t-31.5 -69.5
l-44 -358q-1 -6 -1 -17q0 -36 19.5 -57.5t53.5 -21.5q38 0 65 26.5zM249 767.5q-2 3.5 2 8.5l73 108q7 7 13 7h59q6 0 7.5 -3.5t-2.5 -8.5l-85 -109q-4 -6 -12 -6h-48q-5 0 -7 3.5z" />
    <glyph glyph-name="Ocircumflex" unicode="&#xd4;" horiz-adv-x="448" 
d="M89 33q-42 41 -42 112q0 10 2 30l42 349q10 83 65 133.5t135 50.5q73 0 115.5 -42.5t42.5 -113.5q0 -8 -2 -28l-43 -349q-10 -83 -65.5 -133t-135.5 -50q-72 0 -114 41zM278 101.5q27 26.5 32 69.5l44 358q1 6 1 16q0 36 -20 58t-55 22q-37 0 -63.5 -26.5t-31.5 -69.5
l-44 -358q-1 -6 -1 -17q0 -36 19.5 -57.5t53.5 -21.5q38 0 65 26.5zM178.5 771.5q-1.5 3.5 2.5 8.5l76 104q5 7 12 7h83q6 0 11 -7l53 -104q1 -2 1 -5q0 -7 -8 -7h-60q-7 0 -10 7l-30 68q-1 2 -3 1.5t-3 -1.5l-46 -68q-5 -7 -12 -7h-60q-5 0 -6.5 3.5z" />
    <glyph glyph-name="Otilde" unicode="&#xd5;" horiz-adv-x="448" 
d="M89 33q-42 41 -42 112q0 10 2 30l42 349q10 83 65 133.5t135 50.5q73 0 115.5 -42.5t42.5 -113.5q0 -8 -2 -28l-43 -349q-10 -83 -65.5 -133t-135.5 -50q-72 0 -114 41zM278 101.5q27 26.5 32 69.5l44 358q1 6 1 16q0 36 -20 58t-55 22q-37 0 -63.5 -26.5t-31.5 -69.5
l-44 -358q-1 -6 -1 -17q0 -36 19.5 -57.5t53.5 -21.5q38 0 65 26.5zM339.5 796q-10.5 5 -26.5 15q-4 3 -11.5 9t-14 8.5t-14.5 2.5q-12 0 -22 -5.5t-21 -20.5q-3 -4 -7 -5t-7 2l-25 20q-6 6 -2 13q17 30 39.5 45t46.5 15q15 0 27.5 -6t27.5 -17q3 -2 10.5 -8t14.5 -9t15 -3
q12 0 22 5.5t21 20.5q3 4 7 4.5t7 -1.5l24 -18q3 -3 3 -8q0 -4 -4 -11q-19 -28 -42.5 -40.5t-44.5 -12.5q-13 0 -23.5 5z" />
    <glyph glyph-name="Odieresis" unicode="&#xd6;" horiz-adv-x="448" 
d="M89 33q-42 41 -42 112q0 10 2 30l42 349q10 83 65 133.5t135 50.5q73 0 115.5 -42.5t42.5 -113.5q0 -8 -2 -28l-43 -349q-10 -83 -65.5 -133t-135.5 -50q-72 0 -114 41zM278 101.5q27 26.5 32 69.5l44 358q1 6 1 16q0 36 -20 58t-55 22q-37 0 -63.5 -26.5t-31.5 -69.5
l-44 -358q-1 -6 -1 -17q0 -36 19.5 -57.5t53.5 -21.5q38 0 65 26.5zM338 795q-15 15 -15 39q0 32 20.5 53t50.5 21q24 0 39 -15.5t15 -40.5q0 -31 -20.5 -51.5t-49.5 -20.5q-25 0 -40 15zM181 795q-15 15 -15 39q0 32 20.5 53t50.5 21q24 0 39 -15.5t15 -40.5
q0 -31 -20.5 -51.5t-49.5 -20.5q-25 0 -40 15z" />
    <glyph glyph-name="multiply" unicode="&#xd7;" horiz-adv-x="369" 
d="M369 422q0 -5 -4 -9l-108 -99q-3 -3 -1 -6l84 -99q2 -4 2 -6q0 -5 -4 -8l-41 -38q-8 -6 -14 0l-84 99q-1 3 -6 0l-108 -99q-3 -3 -7 -3t-6 3l-33 38q-2 4 -2 5q0 5 4 9l108 99q4 3 1 6l-84 99q-2 4 -2 5q0 5 4 9l41 38q4 3 8 3t6 -3l84 -99q3 -3 6 0l108 99q3 3 7 3t7 -3
l32 -38q2 -4 2 -5z" />
    <glyph glyph-name="Oslash" unicode="&#xd8;" horiz-adv-x="547" 
d="M477 698l-39 -70q-2 -4 0 -6q12 -28 12 -67q0 -9 -2 -31l-42 -349q-10 -83 -65.5 -133t-135.5 -50q-58 0 -96 27q-4 1 -6 -2l-29 -52q-4 -8 -13 -4l-39 23q-7 6 -3 13l41 76q3 3 1 6q-12 29 -12 65q0 9 2 31l42 349q10 83 65 133.5t135 50.5q57 0 97 -28q4 -1 6 2l28 51
q4 9 13 4l37 -25q6 -4 3 -14zM153 250q-1 -3 1 -3t4 2l186 340q1 2 0.5 3.5t-0.5 2.5q-21 30 -62 30q-37 0 -63.5 -26.5t-31.5 -69.5zM346 451q1 3 -1 3t-3 -2l-188 -340q-1 -2 1 -6q19 -31 60 -31q38 0 65 26.5t32 69.5z" />
    <glyph glyph-name="Ugrave" unicode="&#xd9;" horiz-adv-x="463" 
d="M98 37q-41 45 -41 120q0 11 2 33l62 500q0 4 3 7t8 3h73q9 0 9 -10l-63 -510q-1 -7 -1 -20q0 -39 19 -62t52 -23q37 0 63.5 29t32.5 76l63 510q0 4 3 7t8 3h73q9 0 9 -10l-62 -500q-10 -89 -65.5 -143.5t-135.5 -54.5q-71 0 -112 45zM337 772q0 -8 -9 -8h-48q-9 0 -11 6
l-58 109l-1 4q0 8 9 8h59q7 0 11 -7l47 -108z" />
    <glyph glyph-name="Uacute" unicode="&#xda;" horiz-adv-x="463" 
d="M98 37q-41 45 -41 120q0 11 2 33l62 500q0 4 3 7t8 3h73q9 0 9 -10l-63 -510q-1 -7 -1 -20q0 -39 19 -62t52 -23q37 0 63.5 29t32.5 76l63 510q0 4 3 7t8 3h73q9 0 9 -10l-62 -500q-10 -89 -65.5 -143.5t-135.5 -54.5q-71 0 -112 45zM256 767.5q-2 3.5 2 8.5l73 108
q7 7 13 7h59q6 0 7.5 -3.5t-2.5 -8.5l-85 -109q-4 -6 -12 -6h-48q-5 0 -7 3.5z" />
    <glyph glyph-name="Ucircumflex" unicode="&#xdb;" horiz-adv-x="463" 
d="M98 37q-41 45 -41 120q0 11 2 33l62 500q0 4 3 7t8 3h73q9 0 9 -10l-63 -510q-1 -7 -1 -20q0 -39 19 -62t52 -23q37 0 63.5 29t32.5 76l63 510q0 4 3 7t8 3h73q9 0 9 -10l-62 -500q-10 -89 -65.5 -143.5t-135.5 -54.5q-71 0 -112 45zM186.5 771.5q-1.5 3.5 2.5 8.5
l76 104q5 7 12 7h83q6 0 11 -7l53 -104q1 -2 1 -5q0 -7 -8 -7h-60q-7 0 -10 7l-30 68q-1 2 -3 1.5t-3 -1.5l-46 -68q-5 -7 -12 -7h-60q-5 0 -6.5 3.5z" />
    <glyph glyph-name="Udieresis" unicode="&#xdc;" horiz-adv-x="463" 
d="M98 37q-41 45 -41 120q0 11 2 33l62 500q0 4 3 7t8 3h73q9 0 9 -10l-63 -510q-1 -7 -1 -20q0 -39 19 -62t52 -23q37 0 63.5 29t32.5 76l63 510q0 4 3 7t8 3h73q9 0 9 -10l-62 -500q-10 -89 -65.5 -143.5t-135.5 -54.5q-71 0 -112 45zM346 795q-15 15 -15 39q0 32 20.5 53
t50.5 21q24 0 39 -15.5t15 -40.5q0 -31 -20.5 -51.5t-49.5 -20.5q-25 0 -40 15zM189 795q-15 15 -15 39q0 32 20.5 53t50.5 21q24 0 39 -15.5t15 -40.5q0 -31 -20.5 -51.5t-49.5 -20.5q-25 0 -40 15z" />
    <glyph glyph-name="Yacute" unicode="&#xdd;" horiz-adv-x="429" 
d="M150 11l35 286q0 1 -0.5 2.5t0.5 2.5l-88 387v2q0 9 9 9h78q8 0 11 -8l48 -276q1 -2 3 -2t3 2l116 276q5 8 13 8h78q5 0 6.5 -3t-0.5 -8l-182 -387q-2 -2 -2 -5l-35 -286q-2 -10 -11 -10h-74q-10 0 -8 10zM240 767.5q-2 3.5 2 8.5l73 108q7 7 13 7h59q6 0 7.5 -3.5
t-2.5 -8.5l-85 -109q-4 -6 -12 -6h-48q-5 0 -7 3.5z" />
    <glyph glyph-name="Thorn" unicode="&#xde;" horiz-adv-x="437" 
d="M395.5 505q38.5 -45 38.5 -121q0 -11 -2 -35q-11 -89 -62 -143t-124 -54h-91q-4 0 -4 -4l-17 -138q-2 -10 -11 -10h-74q-4 0 -6.5 3t-1.5 7l83 680q1 4 4 7t7 3h74q9 0 9 -10l-17 -136q0 -4 3 -4h87q66 0 104.5 -45zM310.5 269q29.5 40 29.5 105q0 43 -20 68t-54 25h-72
q-4 0 -4 -4l-29 -230q0 -4 4 -4h72q44 0 73.5 40z" />
    <glyph glyph-name="germandbls" unicode="&#xdf;" horiz-adv-x="428" 
d="M32 10l61 491q12 98 60.5 153t124.5 55q70 0 108.5 -41.5t38.5 -114.5q0 -9 -2 -31q-6 -54 -27.5 -91t-55.5 -55q-4 -3 -1 -6q26 -17 40.5 -50.5t14.5 -79.5q0 -19 -3 -42q-11 -93 -64 -145.5t-139 -52.5h-19q-9 0 -9 10l8 62q2 10 11 10l20 1q42 1 68.5 33t33.5 92
q2 12 2 34q0 43 -16 66.5t-46 25.5h-22q-4 0 -6.5 3t-1.5 7l7 56q2 10 11 10h20q38 0 60.5 35t22.5 97q0 40 -16.5 62t-46.5 22q-32 0 -53.5 -29t-28.5 -82l-62 -505q0 -4 -3 -7t-8 -3h-73q-9 0 -9 10z" />
    <glyph glyph-name="agrave" unicode="&#xe0;" horiz-adv-x="411" 
d="M319 506q3 3 7 3h74q9 0 9 -10l-61 -489q0 -4 -3 -7t-7 -3h-74q-9 0 -9 10l5 35q0 3 -1.5 3.5t-3.5 -1.5q-19 -28 -46 -41.5t-57 -13.5q-55 0 -84 33.5t-29 92.5q0 9 2 33l25 207q9 74 48.5 116.5t102.5 42.5q29 0 52.5 -13.5t36.5 -41.5q2 -2 3.5 -1.5t1.5 3.5l4 35
q1 4 4 7zM247 98q22 23 26 59l24 195q1 5 1 14q0 31 -16 49.5t-43 18.5q-31 0 -53 -23t-27 -59l-24 -195q-1 -5 -1 -14q0 -30 16.5 -49t43.5 -19q31 0 53 23zM288 581q0 -8 -9 -8h-48q-9 0 -11 6l-58 109l-1 4q0 8 9 8h59q7 0 11 -7l47 -108z" />
    <glyph glyph-name="aacute" unicode="&#xe1;" horiz-adv-x="411" 
d="M319 506q3 3 7 3h74q9 0 9 -10l-61 -489q0 -4 -3 -7t-7 -3h-74q-9 0 -9 10l5 35q0 3 -1.5 3.5t-3.5 -1.5q-19 -28 -46 -41.5t-57 -13.5q-55 0 -84 33.5t-29 92.5q0 9 2 33l25 207q9 74 48.5 116.5t102.5 42.5q29 0 52.5 -13.5t36.5 -41.5q2 -2 3.5 -1.5t1.5 3.5l4 35
q1 4 4 7zM247 98q22 23 26 59l24 195q1 5 1 14q0 31 -16 49.5t-43 18.5q-31 0 -53 -23t-27 -59l-24 -195q-1 -5 -1 -14q0 -30 16.5 -49t43.5 -19q31 0 53 23zM207 576.5q-2 3.5 2 8.5l73 108q7 7 13 7h59q6 0 7.5 -3.5t-2.5 -8.5l-85 -109q-4 -6 -12 -6h-48q-5 0 -7 3.5z
" />
    <glyph glyph-name="acircumflex" unicode="&#xe2;" horiz-adv-x="411" 
d="M319 506q3 3 7 3h74q9 0 9 -10l-61 -489q0 -4 -3 -7t-7 -3h-74q-9 0 -9 10l5 35q0 3 -1.5 3.5t-3.5 -1.5q-19 -28 -46 -41.5t-57 -13.5q-55 0 -84 33.5t-29 92.5q0 9 2 33l25 207q9 74 48.5 116.5t102.5 42.5q29 0 52.5 -13.5t36.5 -41.5q2 -2 3.5 -1.5t1.5 3.5l4 35
q1 4 4 7zM247 98q22 23 26 59l24 195q1 5 1 14q0 31 -16 49.5t-43 18.5q-31 0 -53 -23t-27 -59l-24 -195q-1 -5 -1 -14q0 -30 16.5 -49t43.5 -19q31 0 53 23zM137.5 580.5q-1.5 3.5 2.5 8.5l76 104q5 7 12 7h83q6 0 11 -7l53 -104q1 -2 1 -5q0 -7 -8 -7h-60q-7 0 -10 7
l-30 68q-1 2 -3 1.5t-3 -1.5l-46 -68q-5 -7 -12 -7h-60q-5 0 -6.5 3.5z" />
    <glyph glyph-name="atilde" unicode="&#xe3;" horiz-adv-x="411" 
d="M319 506q3 3 7 3h74q9 0 9 -10l-61 -489q0 -4 -3 -7t-7 -3h-74q-9 0 -9 10l5 35q0 3 -1.5 3.5t-3.5 -1.5q-19 -28 -46 -41.5t-57 -13.5q-55 0 -84 33.5t-29 92.5q0 9 2 33l25 207q9 74 48.5 116.5t102.5 42.5q29 0 52.5 -13.5t36.5 -41.5q2 -2 3.5 -1.5t1.5 3.5l4 35
q1 4 4 7zM247 98q22 23 26 59l24 195q1 5 1 14q0 31 -16 49.5t-43 18.5q-31 0 -53 -23t-27 -59l-24 -195q-1 -5 -1 -14q0 -30 16.5 -49t43.5 -19q31 0 53 23zM297.5 605q-10.5 5 -26.5 15q-4 3 -11.5 9t-14 8.5t-14.5 2.5q-12 0 -22 -5.5t-21 -20.5q-3 -4 -7 -5t-7 2l-25 20
q-6 6 -2 13q17 30 39.5 45t46.5 15q15 0 27.5 -6t27.5 -17q3 -2 10.5 -8t14.5 -9t15 -3q12 0 22 5.5t21 20.5q3 4 7 4.5t7 -1.5l24 -18q3 -3 3 -8q0 -4 -4 -11q-19 -28 -42.5 -40.5t-44.5 -12.5q-13 0 -23.5 5z" />
    <glyph glyph-name="adieresis" unicode="&#xe4;" horiz-adv-x="411" 
d="M319 506q3 3 7 3h74q9 0 9 -10l-61 -489q0 -4 -3 -7t-7 -3h-74q-9 0 -9 10l5 35q0 3 -1.5 3.5t-3.5 -1.5q-19 -28 -46 -41.5t-57 -13.5q-55 0 -84 33.5t-29 92.5q0 9 2 33l25 207q9 74 48.5 116.5t102.5 42.5q29 0 52.5 -13.5t36.5 -41.5q2 -2 3.5 -1.5t1.5 3.5l4 35
q1 4 4 7zM247 98q22 23 26 59l24 195q1 5 1 14q0 31 -16 49.5t-43 18.5q-31 0 -53 -23t-27 -59l-24 -195q-1 -5 -1 -14q0 -30 16.5 -49t43.5 -19q31 0 53 23zM296 604q-15 15 -15 39q0 32 20.5 53t50.5 21q24 0 39 -15.5t15 -40.5q0 -31 -20.5 -51.5t-49.5 -20.5
q-25 0 -40 15zM139 604q-15 15 -15 39q0 32 20.5 53t50.5 21q24 0 39 -15.5t15 -40.5q0 -31 -20.5 -51.5t-49.5 -20.5q-25 0 -40 15z" />
    <glyph glyph-name="aring" unicode="&#xe5;" horiz-adv-x="411" 
d="M319 506q3 3 7 3h74q9 0 9 -10l-61 -489q0 -4 -3 -7t-7 -3h-74q-9 0 -9 10l5 35q0 3 -1.5 3.5t-3.5 -1.5q-19 -28 -46 -41.5t-57 -13.5q-55 0 -84 33.5t-29 92.5q0 9 2 33l25 207q9 74 48.5 116.5t102.5 42.5q29 0 52.5 -13.5t36.5 -41.5q2 -2 3.5 -1.5t1.5 3.5l4 35
q1 4 4 7zM247 98q22 23 26 59l24 195q1 5 1 14q0 31 -16 49.5t-43 18.5q-31 0 -53 -23t-27 -59l-24 -195q-1 -5 -1 -14q0 -30 16.5 -49t43.5 -19q31 0 53 23zM187 601q-27 28 -27 71q0 35 17 64.5t46 46.5t62 17q42 0 69 -28t27 -71q0 -34 -17.5 -63.5t-46 -47t-60.5 -17.5
q-43 0 -70 28zM308 647q19 20 19 48q0 23 -13.5 37.5t-35.5 14.5q-26 0 -45.5 -20.5t-19.5 -48.5q0 -22 14.5 -36.5t36.5 -14.5q25 0 44 20z" />
    <glyph glyph-name="ae" unicode="&#xe6;" horiz-adv-x="644" 
d="M29 106q0 8 2 32q11 86 60.5 122.5t132.5 36.5h65q4 0 4 4l5 40q1 7 1 20q0 34 -15.5 53.5t-44.5 19.5q-27 0 -49 -16.5t-29 -43.5q-1 -10 -12 -10l-73 3q-10 0 -8 10q12 64 62.5 102t116.5 38q75 0 108 -62q2 -3 5 0q23 29 57 45.5t74 16.5q65 0 103.5 -37.5t38.5 -98.5
q0 -15 -1 -23l-16 -132q-1 -4 -4 -7t-7 -3h-221q-1 0 -2.5 -1t-1.5 -3l-7 -55q-4 -32 13.5 -54t48.5 -22q25 0 45.5 16.5t30.5 41.5q3 10 11 8l71 -9q9 -2 8 -11q-16 -63 -60.5 -99t-109.5 -36q-48 0 -81 20.5t-40 47.5l-0.5 2t-2.5 0q-15 -30 -59.5 -50t-98.5 -20
q-120 0 -120 114zM394 297h133q3 0 5 4l6 51q1 5 1 14q0 30 -16.5 49t-44.5 19q-31 0 -53.5 -23t-27.5 -59l-6 -51q0 -4 3 -4zM242.5 90q27.5 21 31.5 57l8 64q0 4 -3 4h-60q-42 0 -68.5 -22.5t-26.5 -65.5q0 -29 16 -43.5t42 -14.5q33 0 60.5 21z" />
    <glyph glyph-name="ccedilla" unicode="&#xe7;" horiz-adv-x="401" 
d="M382 346l-74 -3q-9 0 -9 10l2 10q3 29 -14.5 50t-47.5 21q-31 0 -53 -23t-27 -59l-24 -195q-1 -5 -1 -14q0 -31 16 -49.5t44 -18.5q31 0 53.5 21t26.5 50l1 10q2 10 11 10l74 -1q10 0 8 -10l-2 -15q-7 -56 -45.5 -95.5t-98.5 -49.5q-5 -2 -2 -5q28 -37 28 -77
q0 -20 -6 -38q-11 -32 -34.5 -46t-51.5 -14q-20 0 -35 5q-9 4 -6 12l8 31q3 10 13 8q3 -1 10 -1q12 0 22.5 8t15.5 24q2 6 2 18q0 37 -32 72q-1 2 -4 2q-53 9 -82 43.5t-29 87.5q0 8 2 26l25 207q9 71 59 115t124 44q68 0 107.5 -36t39.5 -93q0 -13 -1 -19l-2 -13
q-2 -10 -11 -10z" />
    <glyph glyph-name="egrave" unicode="&#xe8;" horiz-adv-x="405" 
d="M365 215h-219q-3 0 -5 -4l-6 -54q-1 -5 -1 -14q0 -30 16.5 -49t43.5 -19t47.5 17t29.5 44q4 8 11 8l72 -4q5 0 6.5 -3t0.5 -7q-14 -65 -60 -101.5t-117 -36.5q-68 0 -106.5 35.5t-38.5 97.5q0 7 2 25l25 208q9 71 59 115t124 44q68 0 106.5 -36t38.5 -97q0 -8 -2 -26
l-16 -133q-2 -10 -11 -10zM186 411q-22 -23 -27 -59l-7 -53q0 -4 4 -4h132q2 0 3.5 1t1.5 3l6 53q1 5 1 14q0 31 -16.5 49.5t-44.5 18.5q-31 0 -53 -23zM285 581q0 -8 -9 -8h-48q-9 0 -11 6l-58 109l-1 4q0 8 9 8h59q7 0 11 -7l47 -108z" />
    <glyph glyph-name="eacute" unicode="&#xe9;" horiz-adv-x="405" 
d="M365 215h-219q-3 0 -5 -4l-6 -54q-1 -5 -1 -14q0 -30 16.5 -49t43.5 -19t47.5 17t29.5 44q4 8 11 8l72 -4q5 0 6.5 -3t0.5 -7q-14 -65 -60 -101.5t-117 -36.5q-68 0 -106.5 35.5t-38.5 97.5q0 7 2 25l25 208q9 71 59 115t124 44q68 0 106.5 -36t38.5 -97q0 -8 -2 -26
l-16 -133q-2 -10 -11 -10zM186 411q-22 -23 -27 -59l-7 -53q0 -4 4 -4h132q2 0 3.5 1t1.5 3l6 53q1 5 1 14q0 31 -16.5 49.5t-44.5 18.5q-31 0 -53 -23zM205 576.5q-2 3.5 2 8.5l73 108q7 7 13 7h59q6 0 7.5 -3.5t-2.5 -8.5l-85 -109q-4 -6 -12 -6h-48q-5 0 -7 3.5z" />
    <glyph glyph-name="ecircumflex" unicode="&#xea;" horiz-adv-x="405" 
d="M365 215h-219q-3 0 -5 -4l-6 -54q-1 -5 -1 -14q0 -30 16.5 -49t43.5 -19t47.5 17t29.5 44q4 8 11 8l72 -4q5 0 6.5 -3t0.5 -7q-14 -65 -60 -101.5t-117 -36.5q-68 0 -106.5 35.5t-38.5 97.5q0 7 2 25l25 208q9 71 59 115t124 44q68 0 106.5 -36t38.5 -97q0 -8 -2 -26
l-16 -133q-2 -10 -11 -10zM186 411q-22 -23 -27 -59l-7 -53q0 -4 4 -4h132q2 0 3.5 1t1.5 3l6 53q1 5 1 14q0 31 -16.5 49.5t-44.5 18.5q-31 0 -53 -23zM134.5 580.5q-1.5 3.5 2.5 8.5l76 104q5 7 12 7h83q6 0 11 -7l53 -104q1 -2 1 -5q0 -7 -8 -7h-60q-7 0 -10 7l-30 68
q-1 2 -3 1.5t-3 -1.5l-46 -68q-5 -7 -12 -7h-60q-5 0 -6.5 3.5z" />
    <glyph glyph-name="edieresis" unicode="&#xeb;" horiz-adv-x="405" 
d="M365 215h-219q-3 0 -5 -4l-6 -54q-1 -5 -1 -14q0 -30 16.5 -49t43.5 -19t47.5 17t29.5 44q4 8 11 8l72 -4q5 0 6.5 -3t0.5 -7q-14 -65 -60 -101.5t-117 -36.5q-68 0 -106.5 35.5t-38.5 97.5q0 7 2 25l25 208q9 71 59 115t124 44q68 0 106.5 -36t38.5 -97q0 -8 -2 -26
l-16 -133q-2 -10 -11 -10zM186 411q-22 -23 -27 -59l-7 -53q0 -4 4 -4h132q2 0 3.5 1t1.5 3l6 53q1 5 1 14q0 31 -16.5 49.5t-44.5 18.5q-31 0 -53 -23zM294 604q-15 15 -15 39q0 32 20.5 53t50.5 21q24 0 39 -15.5t15 -40.5q0 -31 -20.5 -51.5t-49.5 -20.5q-25 0 -40 15z
M137 604q-15 15 -15 39q0 32 20.5 53t50.5 21q24 0 39 -15.5t15 -40.5q0 -31 -20.5 -51.5t-49.5 -20.5q-25 0 -40 15z" />
    <glyph glyph-name="igrave" unicode="&#xec;" horiz-adv-x="171" 
d="M21 10l60 489q0 4 3 7t8 3h73q5 0 7.5 -3t1.5 -7l-60 -489q-2 -10 -11 -10h-74q-10 0 -8 10zM168 581q0 -8 -9 -8h-48q-9 0 -11 6l-58 109l-1 4q0 8 9 8h59q7 0 11 -7l47 -108z" />
    <glyph glyph-name="iacute" unicode="&#xed;" horiz-adv-x="171" 
d="M21 10l60 489q0 4 3 7t8 3h73q5 0 7.5 -3t1.5 -7l-60 -489q-2 -10 -11 -10h-74q-10 0 -8 10zM87 576.5q-2 3.5 2 8.5l73 108q7 7 13 7h59q6 0 7.5 -3.5t-2.5 -8.5l-85 -109q-4 -6 -12 -6h-48q-5 0 -7 3.5z" />
    <glyph glyph-name="icircumflex" unicode="&#xee;" horiz-adv-x="171" 
d="M21 10l60 489q0 4 3 7t8 3h73q5 0 7.5 -3t1.5 -7l-60 -489q-2 -10 -11 -10h-74q-10 0 -8 10zM17.5 580.5q-1.5 3.5 2.5 8.5l76 104q5 7 12 7h83q6 0 11 -7l53 -104q1 -2 1 -5q0 -7 -8 -7h-60q-7 0 -10 7l-30 68q-1 2 -3 1.5t-3 -1.5l-46 -68q-5 -7 -12 -7h-60
q-5 0 -6.5 3.5z" />
    <glyph glyph-name="idieresis" unicode="&#xef;" horiz-adv-x="171" 
d="M21 10l60 489q0 4 3 7t8 3h73q5 0 7.5 -3t1.5 -7l-60 -489q-2 -10 -11 -10h-74q-10 0 -8 10zM177 604q-15 15 -15 39q0 32 20.5 53t50.5 21q24 0 39 -15.5t15 -40.5q0 -31 -20.5 -51.5t-49.5 -20.5q-25 0 -40 15zM20 604q-15 15 -15 39q0 32 20.5 53t50.5 21
q24 0 39 -15.5t15 -40.5q0 -31 -20.5 -51.5t-49.5 -20.5q-25 0 -40 15z" />
    <glyph glyph-name="eth" unicode="&#xf0;" horiz-adv-x="425" 
d="M360 587q36 -86 36 -182q0 -19 -4 -65q-2 -25 -12 -94l-11 -95q-9 -73 -58.5 -116t-125.5 -43q-69 0 -107.5 35.5t-38.5 97.5q0 8 2 26l23 189q9 70 57 114.5t112 44.5q47 0 69 -29q4 -3 4 2q-3 40 -23 95q-2 4 -5 2l-76 -21l-4 -1q-6 0 -8 8l-3 24v2q0 7 9 11l60 17
q4 2 3 5q-18 36 -45 74q-2 4 -2 5q0 7 10 7h69q6 0 11 -6q30 -47 36 -59q2 -3 5 -2l81 23l3 1q6 0 8 -8l2 -26q0 -10 -8 -13l-66 -18q-3 -1 -3 -5zM299 348q0 31 -16.5 49.5t-45.5 18.5q-31 0 -54 -23t-27 -59l-21 -177q-1 -5 -1 -14q0 -30 16.5 -49t44.5 -19q32 0 54 23
t27 59l22 177q1 5 1 14z" />
    <glyph glyph-name="ntilde" unicode="&#xf1;" 
d="M221.5 634.5q-9.5 -5.5 -19.5 -19.5q-7 -10 -14 -3l-20 19q-6 5 -3 13q31 60 79 60q14 0 25 -6t24 -17q3 -2 9.5 -8t13 -9t13.5 -3q23 0 38 25q8 10 15 4l21 -18q6 -5 1 -13q-16 -31 -39 -45t-43 -14q-11 0 -21 5t-24 15q-3 2 -10 8.5t-12.5 9t-12.5 2.5
q-11 0 -20.5 -5.5zM372 483.5q28 -32.5 28 -92.5q0 -18 -3 -38l-42 -343q0 -4 -3 -7t-8 -3h-73q-5 0 -7.5 3t-1.5 7l41 335q1 7 1 21q0 32 -14.5 49.5t-41.5 17.5q-32 0 -53 -22.5t-27 -63.5q-1 -6 -2 -6l-41 -331q0 -4 -3 -7t-8 -3h-73q-9 0 -9 10l60 489q2 10 11 10h74
q10 0 8 -10l-3 -27q0 -2 2 -2.5t4 2.5q40 44 103 44q53 0 81 -32.5z" />
    <glyph glyph-name="ograve" unicode="&#xf2;" horiz-adv-x="412" 
d="M77.5 28q-38.5 36 -38.5 98q0 7 2 25l25 207q9 71 59 115t125 44q69 0 108 -36.5t39 -97.5q0 -7 -2 -25l-25 -207q-9 -72 -59 -115.5t-126 -43.5q-69 0 -107.5 36zM250 99q23 23 27 59l24 194q1 5 1 13q0 31 -17 50t-45 19q-31 0 -53.5 -23t-27.5 -59l-24 -194
q-1 -5 -1 -14q0 -31 17 -49.5t45 -18.5q31 0 54 23zM288 581q0 -8 -9 -8h-48q-9 0 -11 6l-58 109l-1 4q0 8 9 8h59q7 0 11 -7l47 -108z" />
    <glyph glyph-name="oacute" unicode="&#xf3;" horiz-adv-x="412" 
d="M77.5 28q-38.5 36 -38.5 98q0 7 2 25l25 207q9 71 59 115t125 44q69 0 108 -36.5t39 -97.5q0 -7 -2 -25l-25 -207q-9 -72 -59 -115.5t-126 -43.5q-69 0 -107.5 36zM250 99q23 23 27 59l24 194q1 5 1 13q0 31 -17 50t-45 19q-31 0 -53.5 -23t-27.5 -59l-24 -194
q-1 -5 -1 -14q0 -31 17 -49.5t45 -18.5q31 0 54 23zM208 576.5q-2 3.5 2 8.5l73 108q7 7 13 7h59q6 0 7.5 -3.5t-2.5 -8.5l-85 -109q-4 -6 -12 -6h-48q-5 0 -7 3.5z" />
    <glyph glyph-name="ocircumflex" unicode="&#xf4;" horiz-adv-x="412" 
d="M77.5 28q-38.5 36 -38.5 98q0 7 2 25l25 207q9 71 59 115t125 44q69 0 108 -36.5t39 -97.5q0 -7 -2 -25l-25 -207q-9 -72 -59 -115.5t-126 -43.5q-69 0 -107.5 36zM250 99q23 23 27 59l24 194q1 5 1 13q0 31 -17 50t-45 19q-31 0 -53.5 -23t-27.5 -59l-24 -194
q-1 -5 -1 -14q0 -31 17 -49.5t45 -18.5q31 0 54 23zM137.5 580.5q-1.5 3.5 2.5 8.5l76 104q5 7 12 7h83q6 0 11 -7l53 -104q1 -2 1 -5q0 -7 -8 -7h-60q-7 0 -10 7l-30 68q-1 2 -3 1.5t-3 -1.5l-46 -68q-5 -7 -12 -7h-60q-5 0 -6.5 3.5z" />
    <glyph glyph-name="otilde" unicode="&#xf5;" horiz-adv-x="412" 
d="M77.5 28q-38.5 36 -38.5 98q0 7 2 25l25 207q9 71 59 115t125 44q69 0 108 -36.5t39 -97.5q0 -7 -2 -25l-25 -207q-9 -72 -59 -115.5t-126 -43.5q-69 0 -107.5 36zM250 99q23 23 27 59l24 194q1 5 1 13q0 31 -17 50t-45 19q-31 0 -53.5 -23t-27.5 -59l-24 -194
q-1 -5 -1 -14q0 -31 17 -49.5t45 -18.5q31 0 54 23zM298.5 605q-10.5 5 -26.5 15q-4 3 -11.5 9t-14 8.5t-14.5 2.5q-12 0 -22 -5.5t-21 -20.5q-3 -4 -7 -5t-7 2l-25 20q-6 6 -2 13q17 30 39.5 45t46.5 15q15 0 27.5 -6t27.5 -17q3 -2 10.5 -8t14.5 -9t15 -3q12 0 22 5.5
t21 20.5q3 4 7 4.5t7 -1.5l24 -18q3 -3 3 -8q0 -4 -4 -11q-19 -28 -42.5 -40.5t-44.5 -12.5q-13 0 -23.5 5z" />
    <glyph glyph-name="odieresis" unicode="&#xf6;" horiz-adv-x="412" 
d="M77.5 28q-38.5 36 -38.5 98q0 7 2 25l25 207q9 71 59 115t125 44q69 0 108 -36.5t39 -97.5q0 -7 -2 -25l-25 -207q-9 -72 -59 -115.5t-126 -43.5q-69 0 -107.5 36zM250 99q23 23 27 59l24 194q1 5 1 13q0 31 -17 50t-45 19q-31 0 -53.5 -23t-27.5 -59l-24 -194
q-1 -5 -1 -14q0 -31 17 -49.5t45 -18.5q31 0 54 23zM297 604q-15 15 -15 39q0 32 20.5 53t50.5 21q24 0 39 -15.5t15 -40.5q0 -31 -20.5 -51.5t-49.5 -20.5q-25 0 -40 15zM140 604q-15 15 -15 39q0 32 20.5 53t50.5 21q24 0 39 -15.5t15 -40.5q0 -31 -20.5 -51.5
t-49.5 -20.5q-25 0 -40 15z" />
    <glyph glyph-name="divide" unicode="&#xf7;" horiz-adv-x="427" 
d="M210.5 435.5q-13.5 14.5 -13.5 36.5q0 26 19 45.5t44 19.5q21 0 35.5 -14.5t14.5 -36.5q0 -26 -20 -45.5t-44 -19.5q-22 0 -35.5 14.5zM45 294l6 53q2 10 11 10h351q5 0 7.5 -3t1.5 -7l-7 -53q0 -4 -3 -7t-8 -3h-351q-10 0 -8 10zM171.5 121.5q-13.5 14.5 -13.5 36.5
q0 26 19 45.5t44 19.5q21 0 35.5 -15t14.5 -36q0 -26 -20 -45.5t-44 -19.5q-22 0 -35.5 14.5z" />
    <glyph glyph-name="oslash" unicode="&#xf8;" horiz-adv-x="434" 
d="M421 522q1 -4 -2 -8l-35 -59q-1 -3 0 -6q14 -30 14 -68q0 -15 -1 -23l-25 -207q-9 -73 -58.5 -116t-125.5 -43q-37 0 -65 11q-5 2 -6 -2l-26 -46q-6 -10 -15 -4l-44 30q-4 2 -4.5 6t1.5 8l32 52q2 3 0 6q-20 29 -20 72q0 8 2 26l25 207q9 71 59 115t126 44q44 0 71 -13
q5 -2 6 2l28 49q3 4 7 5t7 -1l45 -31q3 -2 4 -6zM146 192l132 227q3 4 0 5q-14 10 -36 10q-32 0 -54.5 -23t-26.5 -59l-20 -159q0 -6 5 -1zM295.5 300q-1.5 0 -3.5 -2l-124 -210q-2 -5 1 -6q12 -6 29 -6q32 0 54.5 22.5t26.5 59.5l17 139q1 3 -0.5 3z" />
    <glyph glyph-name="ugrave" unicode="&#xf9;" 
d="M327 509h74q10 0 8 -10l-60 -489q0 -4 -3 -7t-7 -3h-74q-9 0 -9 10l4 29q0 3 -1.5 3t-2.5 -2q-35 -47 -100 -47q-52 0 -83 29.5t-31 89.5q0 9 2 29l44 358q1 4 4 7t7 3h74q9 0 9 -10l-42 -337q-1 -8 -1 -21q0 -65 57 -65q32 0 53.5 24.5t26.5 67.5l40 331q2 10 11 10z
M289 581q0 -8 -9 -8h-48q-9 0 -11 6l-58 109l-1 4q0 8 9 8h59q7 0 11 -7l47 -108z" />
    <glyph glyph-name="uacute" unicode="&#xfa;" 
d="M327 509h74q10 0 8 -10l-60 -489q0 -4 -3 -7t-7 -3h-74q-9 0 -9 10l4 29q0 3 -1.5 3t-2.5 -2q-35 -47 -100 -47q-52 0 -83 29.5t-31 89.5q0 9 2 29l44 358q1 4 4 7t7 3h74q9 0 9 -10l-42 -337q-1 -8 -1 -21q0 -65 57 -65q32 0 53.5 24.5t26.5 67.5l40 331q2 10 11 10z
M208 576.5q-2 3.5 2 8.5l73 108q7 7 13 7h59q6 0 7.5 -3.5t-2.5 -8.5l-85 -109q-4 -6 -12 -6h-48q-5 0 -7 3.5z" />
    <glyph glyph-name="ucircumflex" unicode="&#xfb;" 
d="M327 509h74q10 0 8 -10l-60 -489q0 -4 -3 -7t-7 -3h-74q-9 0 -9 10l4 29q0 3 -1.5 3t-2.5 -2q-35 -47 -100 -47q-52 0 -83 29.5t-31 89.5q0 9 2 29l44 358q1 4 4 7t7 3h74q9 0 9 -10l-42 -337q-1 -8 -1 -21q0 -65 57 -65q32 0 53.5 24.5t26.5 67.5l40 331q2 10 11 10z
M138.5 580.5q-1.5 3.5 2.5 8.5l76 104q5 7 12 7h83q6 0 11 -7l53 -104q1 -2 1 -5q0 -7 -8 -7h-60q-7 0 -10 7l-30 68q-1 2 -3 1.5t-3 -1.5l-46 -68q-5 -7 -12 -7h-60q-5 0 -6.5 3.5z" />
    <glyph glyph-name="udieresis" unicode="&#xfc;" 
d="M327 509h74q10 0 8 -10l-60 -489q0 -4 -3 -7t-7 -3h-74q-9 0 -9 10l4 29q0 3 -1.5 3t-2.5 -2q-35 -47 -100 -47q-52 0 -83 29.5t-31 89.5q0 9 2 29l44 358q1 4 4 7t7 3h74q9 0 9 -10l-42 -337q-1 -8 -1 -21q0 -65 57 -65q32 0 53.5 24.5t26.5 67.5l40 331q2 10 11 10z
M298 604q-15 15 -15 39q0 32 20.5 53t50.5 21q24 0 39 -15.5t15 -40.5q0 -31 -20.5 -51.5t-49.5 -20.5q-25 0 -40 15zM141 604q-15 15 -15 39q0 32 20.5 53t50.5 21q24 0 39 -15.5t15 -40.5q0 -31 -20.5 -51.5t-49.5 -20.5q-25 0 -40 15z" />
    <glyph glyph-name="yacute" unicode="&#xfd;" horiz-adv-x="375" 
d="M-8 -189l8 59q0 4 3 7t7 3q31 1 50 10t33.5 34t28.5 73l-1 5l-63 496v2q0 4 3 6.5t7 2.5h80q9 0 9 -9l27 -361q0 -3 1.5 -3t2.5 3l114 361q3 9 12 9l80 -1q5 0 7 -3t0 -8l-199 -532q-26 -69 -49 -102.5t-57 -47.5t-94 -14h-5q-5 0 -5 10zM189 576.5q-2 3.5 2 8.5l73 108
q7 7 13 7h59q6 0 7.5 -3.5t-2.5 -8.5l-85 -109q-4 -6 -12 -6h-48q-5 0 -7 3.5z" />
    <glyph glyph-name="thorn" unicode="&#xfe;" horiz-adv-x="414" 
d="M369 484q29 -33 29 -93q0 -9 -2 -33l-25 -207q-9 -73 -48 -116t-103 -43q-29 0 -52.5 13.5t-36.5 41.5q-2 2 -3.5 1.5t-1.5 -3.5l-29 -235q-2 -10 -11 -10h-74q-10 0 -8 10l108 880q2 10 11 10h74q4 0 6.5 -3t1.5 -7l-28 -226q0 -3 2 -3t4 3q38 53 102 53q55 0 84 -33z
M303 366q0 31 -16.5 49.5t-44.5 18.5q-30 0 -52 -23t-26 -59l-24 -195q-1 -5 -1 -14q0 -31 16 -49.5t43 -18.5q31 0 53 23t27 59l24 195q1 5 1 14z" />
    <glyph glyph-name="ydieresis" unicode="&#xff;" horiz-adv-x="375" 
d="M-8 -189l8 59q0 4 3 7t7 3q31 1 50 10t33.5 34t28.5 73l-1 5l-63 496v2q0 4 3 6.5t7 2.5h80q9 0 9 -9l27 -361q0 -3 1.5 -3t2.5 3l114 361q3 9 12 9l80 -1q5 0 7 -3t0 -8l-199 -532q-26 -69 -49 -102.5t-57 -47.5t-94 -14h-5q-5 0 -5 10zM279 604q-15 15 -15 39
q0 32 20.5 53t50.5 21q24 0 39 -15.5t15 -40.5q0 -31 -20.5 -51.5t-49.5 -20.5q-25 0 -40 15zM122 604q-15 15 -15 39q0 32 20.5 53t50.5 21q24 0 39 -15.5t15 -40.5q0 -31 -20.5 -51.5t-49.5 -20.5q-25 0 -40 15z" />
    <glyph glyph-name="Amacron" unicode="&#x100;" horiz-adv-x="423" 
d="M297 9l-7 115q0 2 -1.5 3t-3.5 1h-158q-2 0 -3.5 -1t-1.5 -3l-35 -115q-1 -9 -11 -9h-74q-5 0 -7 3t0 8l228 680q2 9 11 9h87q9 0 9 -9l62 -680q0 -11 -10 -11h-75q-10 0 -10 9zM149 205.5q1 -1.5 2 -1.5h129q2 0 4 4l-23 355q0 2 -1.5 2t-2.5 -2l-108 -355q-1 -1 0 -2.5
zM187.5 784q-2.5 3 -1.5 7l6 48q2 10 11 10h182q9 0 9 -10l-6 -48q-2 -10 -11 -10h-183q-4 0 -6.5 3z" />
    <glyph glyph-name="amacron" unicode="&#x101;" horiz-adv-x="411" 
d="M319 506q3 3 7 3h74q9 0 9 -10l-61 -489q0 -4 -3 -7t-7 -3h-74q-9 0 -9 10l5 35q0 3 -1.5 3.5t-3.5 -1.5q-19 -28 -46 -41.5t-57 -13.5q-55 0 -84 33.5t-29 92.5q0 9 2 33l25 207q9 74 48.5 116.5t102.5 42.5q29 0 52.5 -13.5t36.5 -41.5q2 -2 3.5 -1.5t1.5 3.5l4 35
q1 4 4 7zM247 98q22 23 26 59l24 195q1 5 1 14q0 31 -16 49.5t-43 18.5q-31 0 -53 -23t-27 -59l-24 -195q-1 -5 -1 -14q0 -30 16.5 -49t43.5 -19q31 0 53 23zM158.5 593q-2.5 3 -1.5 7l6 48q2 10 11 10h182q9 0 9 -10l-6 -48q-2 -10 -11 -10h-183q-4 0 -6.5 3z" />
    <glyph glyph-name="Abreve" unicode="&#x102;" horiz-adv-x="423" 
d="M297 9l-7 115q0 2 -1.5 3t-3.5 1h-158q-2 0 -3.5 -1t-1.5 -3l-35 -115q-1 -9 -11 -9h-74q-5 0 -7 3t0 8l228 680q2 9 11 9h87q9 0 9 -9l62 -680q0 -11 -10 -11h-75q-10 0 -10 9zM149 205.5q1 -1.5 2 -1.5h129q2 0 4 4l-23 355q0 2 -1.5 2t-2.5 -2l-108 -355q-1 -1 0 -2.5
zM213 774q-27 28 -25 72q1 4 4 7t7 3h33q9 0 9 -8q0 -25 13 -40.5t35 -15.5t38.5 15t21.5 39q3 10 12 10h33q5 0 7 -3t1 -7q-8 -44 -41 -72t-77 -28t-71 28z" />
    <glyph glyph-name="abreve" unicode="&#x103;" horiz-adv-x="411" 
d="M319 506q3 3 7 3h74q9 0 9 -10l-61 -489q0 -4 -3 -7t-7 -3h-74q-9 0 -9 10l5 35q0 3 -1.5 3.5t-3.5 -1.5q-19 -28 -46 -41.5t-57 -13.5q-55 0 -84 33.5t-29 92.5q0 9 2 33l25 207q9 74 48.5 116.5t102.5 42.5q29 0 52.5 -13.5t36.5 -41.5q2 -2 3.5 -1.5t1.5 3.5l4 35
q1 4 4 7zM247 98q22 23 26 59l24 195q1 5 1 14q0 31 -16 49.5t-43 18.5q-31 0 -53 -23t-27 -59l-24 -195q-1 -5 -1 -14q0 -30 16.5 -49t43.5 -19q31 0 53 23zM184 583q-27 28 -25 72q1 4 4 7t7 3h33q9 0 9 -8q0 -25 13 -40.5t35 -15.5t38.5 15t21.5 39q3 10 12 10h33
q5 0 7 -3t1 -7q-8 -44 -41 -72t-77 -28t-71 28z" />
    <glyph glyph-name="Aogonek" unicode="&#x104;" horiz-adv-x="423" 
d="M297 9l-7 115q0 2 -1.5 3t-3.5 1h-158q-2 0 -3.5 -1t-1.5 -3l-35 -115q-1 -9 -11 -9h-74q-5 0 -7 3t0 8l228 680q2 9 11 9h87q9 0 9 -9l62 -680q0 -11 -10 -11h-75q-10 0 -10 9zM149 205.5q1 -1.5 2 -1.5h129q2 0 4 4l-23 355q0 2 -1.5 2t-2.5 -2l-108 -355q-1 -1 0 -2.5
zM371 -183q-20 -4 -36 -4q-30 0 -50.5 15.5t-20.5 53.5q0 29 13.5 57.5t42.5 53.5q4 3 4 4q5 3 11 3h40q7 0 7 -5q0 -3 -4 -7q-50 -47 -50 -87q0 -34 30 -34q6 0 10 1h3q8 0 8 -7l1 -32q0 -9 -9 -12z" />
    <glyph glyph-name="aogonek" unicode="&#x105;" horiz-adv-x="431" 
d="M335 -132q6 0 8 -8l1 -31q0 -9 -9 -12q-20 -4 -35 -4q-30 0 -51 15.5t-21 53.5q0 62 59 113q3 5 -2 5h-11q-5 0 -7.5 3t-1.5 7l4 36q1 3 -1 3.5t-3 -2.5q-20 -28 -47 -41.5t-56 -13.5q-56 0 -85 34t-29 92q0 11 2 33l25 207q9 74 49 116.5t102 42.5q30 0 53.5 -13.5
t36.5 -42.5q1 -3 2.5 -2.5t2.5 3.5l4 37q2 10 11 10h74q10 0 8 -10l-60 -492q-1 -6 -7 -12q-27 -23 -43 -48t-16 -48q3 -32 31 -32q7 0 10 1h2zM256.5 98q21.5 23 26.5 59l24 195q1 5 1 14q0 31 -16 49.5t-44 18.5q-31 0 -54 -23t-27 -59l-24 -195l-1 -12q0 -32 17 -51
t45 -19q31 0 52.5 23z" />
    <glyph glyph-name="Cacute" unicode="&#x106;" horiz-adv-x="439" 
d="M87.5 33q-41.5 41 -41.5 111q0 9 2 29l44 355q10 82 64 131t133 49q71 0 113 -40t42 -110q0 -10 -2 -30l-2 -16q-2 -10 -11 -10l-74 -4q-10 0 -8 10l3 26q1 5 1 16q0 34 -19.5 54.5t-52.5 20.5q-37 0 -62.5 -25t-30.5 -66l-45 -368q-1 -6 -1 -16q0 -34 19 -54.5t52 -20.5
q37 0 63 25t31 66l3 26q2 10 11 10l73 -4q10 0 8 -10l-1 -15q-10 -82 -64 -131.5t-134 -49.5q-72 0 -113.5 41zM246 767.5q-2 3.5 2 8.5l73 108q7 7 13 7h59q6 0 7.5 -3.5t-2.5 -8.5l-85 -109q-4 -6 -12 -6h-48q-5 0 -7 3.5z" />
    <glyph glyph-name="cacute" unicode="&#x107;" horiz-adv-x="401" 
d="M77.5 27.5q-38.5 35.5 -38.5 97.5q0 8 2 26l25 207q9 71 59 115t124 44q68 0 107.5 -36t39.5 -93q0 -13 -1 -19l-2 -13q-2 -10 -11 -10l-74 -3q-9 0 -9 10l2 10q3 29 -14.5 50t-47.5 21q-31 0 -53 -23t-27 -59l-24 -195q-1 -5 -1 -14q0 -31 16 -49.5t44 -18.5
q31 0 53.5 21t26.5 50l1 10q2 10 11 10l74 -1q10 0 8 -10l-2 -15q-8 -65 -57.5 -106.5t-124.5 -41.5q-68 0 -106.5 35.5zM207 576.5q-2 3.5 2 8.5l73 108q7 7 13 7h59q6 0 7.5 -3.5t-2.5 -8.5l-85 -109q-4 -6 -12 -6h-48q-5 0 -7 3.5z" />
    <glyph glyph-name="Ccircumflex" unicode="&#x108;" horiz-adv-x="439" 
d="M87.5 33q-41.5 41 -41.5 111q0 9 2 29l44 355q10 82 64 131t133 49q71 0 113 -40t42 -110q0 -10 -2 -30l-2 -16q-2 -10 -11 -10l-74 -4q-10 0 -8 10l3 26q1 5 1 16q0 34 -19.5 54.5t-52.5 20.5q-37 0 -62.5 -25t-30.5 -66l-45 -368q-1 -6 -1 -16q0 -34 19 -54.5t52 -20.5
q37 0 63 25t31 66l3 26q2 10 11 10l73 -4q10 0 8 -10l-1 -15q-10 -82 -64 -131.5t-134 -49.5q-72 0 -113.5 41zM176.5 771.5q-1.5 3.5 2.5 8.5l76 104q5 7 12 7h83q6 0 11 -7l53 -104q1 -2 1 -5q0 -7 -8 -7h-60q-7 0 -10 7l-30 68q-1 2 -3 1.5t-3 -1.5l-46 -68q-5 -7 -12 -7
h-60q-5 0 -6.5 3.5z" />
    <glyph glyph-name="ccircumflex" unicode="&#x109;" horiz-adv-x="401" 
d="M77.5 27.5q-38.5 35.5 -38.5 97.5q0 8 2 26l25 207q9 71 59 115t124 44q68 0 107.5 -36t39.5 -93q0 -13 -1 -19l-2 -13q-2 -10 -11 -10l-74 -3q-9 0 -9 10l2 10q3 29 -14.5 50t-47.5 21q-31 0 -53 -23t-27 -59l-24 -195q-1 -5 -1 -14q0 -31 16 -49.5t44 -18.5
q31 0 53.5 21t26.5 50l1 10q2 10 11 10l74 -1q10 0 8 -10l-2 -15q-8 -65 -57.5 -106.5t-124.5 -41.5q-68 0 -106.5 35.5zM137.5 580.5q-1.5 3.5 2.5 8.5l76 104q5 7 12 7h83q6 0 11 -7l53 -104q1 -2 1 -5q0 -7 -8 -7h-60q-7 0 -10 7l-30 68q-1 2 -3 1.5t-3 -1.5l-46 -68
q-5 -7 -12 -7h-60q-5 0 -6.5 3.5z" />
    <glyph glyph-name="Cdotaccent" unicode="&#x10a;" horiz-adv-x="439" 
d="M87.5 33q-41.5 41 -41.5 111q0 9 2 29l44 355q10 82 64 131t133 49q71 0 113 -40t42 -110q0 -10 -2 -30l-2 -16q-2 -10 -11 -10l-74 -4q-10 0 -8 10l3 26q1 5 1 16q0 34 -19.5 54.5t-52.5 20.5q-37 0 -62.5 -25t-30.5 -66l-45 -368q-1 -6 -1 -16q0 -34 19 -54.5t52 -20.5
q37 0 63 25t31 66l3 26q2 10 11 10l73 -4q10 0 8 -10l-1 -15q-10 -82 -64 -131.5t-134 -49.5q-72 0 -113.5 41zM258 795q-15 15 -15 39q0 32 20.5 53t50.5 21q24 0 39 -15.5t15 -40.5q0 -31 -20.5 -51.5t-49.5 -20.5q-25 0 -40 15z" />
    <glyph glyph-name="cdotaccent" unicode="&#x10b;" horiz-adv-x="401" 
d="M77.5 27.5q-38.5 35.5 -38.5 97.5q0 8 2 26l25 207q9 71 59 115t124 44q68 0 107.5 -36t39.5 -93q0 -13 -1 -19l-2 -13q-2 -10 -11 -10l-74 -3q-9 0 -9 10l2 10q3 29 -14.5 50t-47.5 21q-31 0 -53 -23t-27 -59l-24 -195q-1 -5 -1 -14q0 -31 16 -49.5t44 -18.5
q31 0 53.5 21t26.5 50l1 10q2 10 11 10l74 -1q10 0 8 -10l-2 -15q-8 -65 -57.5 -106.5t-124.5 -41.5q-68 0 -106.5 35.5zM218 604q-15 15 -15 39q0 32 20.5 53t50.5 21q24 0 39 -15.5t15 -40.5q0 -31 -20.5 -51.5t-49.5 -20.5q-25 0 -40 15z" />
    <glyph glyph-name="Ccaron" unicode="&#x10c;" horiz-adv-x="439" 
d="M87.5 33q-41.5 41 -41.5 111q0 9 2 29l44 355q10 82 64 131t133 49q71 0 113 -40t42 -110q0 -10 -2 -30l-2 -16q-2 -10 -11 -10l-74 -4q-10 0 -8 10l3 26q1 5 1 16q0 34 -19.5 54.5t-52.5 20.5q-37 0 -62.5 -25t-30.5 -66l-45 -368q-1 -6 -1 -16q0 -34 19 -54.5t52 -20.5
q37 0 63 25t31 66l3 26q2 10 11 10l73 -4q10 0 8 -10l-1 -15q-10 -82 -64 -131.5t-134 -49.5q-72 0 -113.5 41zM194 884q0 7 9 7h59q6 0 11 -7l29 -68q1 -1 3 -1t3 1l46 68q5 7 12 7h60q5 0 6.5 -3.5t-2.5 -8.5l-79 -104q-5 -7 -12 -7h-83q-6 0 -10 7l-51 104q-1 2 -1 5z
" />
    <glyph glyph-name="ccaron" unicode="&#x10d;" horiz-adv-x="401" 
d="M77.5 27.5q-38.5 35.5 -38.5 97.5q0 8 2 26l25 207q9 71 59 115t124 44q68 0 107.5 -36t39.5 -93q0 -13 -1 -19l-2 -13q-2 -10 -11 -10l-74 -3q-9 0 -9 10l2 10q3 29 -14.5 50t-47.5 21q-31 0 -53 -23t-27 -59l-24 -195q-1 -5 -1 -14q0 -31 16 -49.5t44 -18.5
q31 0 53.5 21t26.5 50l1 10q2 10 11 10l74 -1q10 0 8 -10l-2 -15q-8 -65 -57.5 -106.5t-124.5 -41.5q-68 0 -106.5 35.5zM154 693q0 7 9 7h59q6 0 11 -7l29 -68q1 -1 3 -1t3 1l46 68q5 7 12 7h60q5 0 6.5 -3.5t-2.5 -8.5l-79 -104q-5 -7 -12 -7h-83q-6 0 -10 7l-51 104
q-1 2 -1 5z" />
    <glyph glyph-name="Dcaron" unicode="&#x10e;" horiz-adv-x="455" 
d="M43.5 3q-2.5 3 -1.5 7l83 680q1 4 4 7t7 3h159q73 0 114 -42t41 -115q0 -10 -2 -32l-40 -322q-10 -87 -64 -138t-134 -51h-160q-4 0 -6.5 3zM145 84.5q1 -1.5 3 -1.5l71 1q37 0 63 29.5t33 80.5l38 312q1 8 1 23q0 42 -18 65t-52 23h-71q-1 0 -2.5 -1t-1.5 -3l-64 -526
q-1 -1 0 -2.5zM195 882q0 7 9 7h59q6 0 11 -7l29 -68q1 -1 3 -1t3 1l46 68q5 7 12 7h60q5 0 6.5 -3.5t-2.5 -8.5l-79 -104q-5 -7 -12 -7h-83q-6 0 -10 7l-51 104q-1 2 -1 5z" />
    <glyph glyph-name="dcaron" unicode="&#x10f;" horiz-adv-x="418" 
d="M350 700h74q4 0 6.5 -3t1.5 -7l-84 -680q0 -4 -3 -7t-7 -3h-74q-9 0 -9 10l2 16q1 2 -0.5 3t-3.5 -1q-21 -18 -45.5 -27t-47.5 -9q-57 0 -89 35t-32 94q0 9 2 29l25 208q9 74 52 116.5t106 42.5q23 0 45.5 -9t38.5 -27q2 -2 3.5 -1t1.5 3l26 207q2 10 11 10zM243 93.5
q21 18.5 29 48.5l27 225q0 30 -16.5 48.5t-43.5 18.5q-31 0 -53.5 -23t-27.5 -59l-24 -195q-1 -5 -1 -14q0 -30 16.5 -49t44.5 -19t49 18.5zM470 576.5q-2 3.5 2 8.5l73 108q7 7 13 7h59q6 0 7.5 -3.5t-2.5 -8.5l-85 -109q-4 -6 -12 -6h-48q-5 0 -7 3.5z" />
    <glyph glyph-name="Dcroat" unicode="&#x110;" horiz-adv-x="493" 
d="M446.5 658.5q40.5 -41.5 40.5 -114.5q0 -11 -2 -33l-40 -322q-10 -87 -64 -138t-134 -51h-159q-10 0 -8 10l39 323q1 1 0 2.5t-3 1.5h-24q-9 0 -9 10l5 38q2 10 11 10h24q3 0 5 4l35 291q2 10 11 10h159q73 0 113.5 -41.5zM391 506q1 8 1 23q0 42 -18.5 65t-52.5 23h-70
q-4 0 -4 -4l-26 -214q-1 -1 0 -2.5t3 -1.5h61q9 0 9 -10l-5 -38q-2 -10 -11 -10h-61q-4 0 -4 -4l-31 -246q0 -4 4 -4l71 1q37 0 63 29.5t33 80.5z" />
    <glyph glyph-name="dcroat" unicode="&#x111;" horiz-adv-x="418" 
d="M466 614l-5 -41q0 -4 -3 -7t-8 -3h-30q-4 0 -4 -4l-68 -549q0 -4 -3 -7t-7 -3h-74q-9 0 -9 10l2 16q1 2 -0.5 3t-3.5 -1q-21 -18 -45.5 -27t-47.5 -9q-57 0 -89 35t-32 94q0 9 2 29l25 208q9 74 52 116.5t106 42.5q23 0 45.5 -9t38.5 -27q2 -2 3.5 -1t1.5 3l10 76
q0 4 -4 4h-114q-9 0 -9 10l5 41q1 4 4 7t7 3h115q4 0 4 4l8 62q2 10 11 10h74q4 0 6.5 -3t1.5 -7l-8 -62q0 -4 4 -4h30q10 0 8 -10zM243 93.5q21 18.5 29 48.5l27 225q0 30 -16.5 48.5t-43.5 18.5q-31 0 -53.5 -23t-27.5 -59l-24 -195q-1 -5 -1 -14q0 -30 16.5 -49t44.5 -19
t49 18.5z" />
    <glyph glyph-name="Emacron" unicode="&#x112;" 
d="M432 617h-219q-1 0 -2.5 -1t-1.5 -3l-27 -217q0 -4 4 -4h134q10 0 8 -10l-8 -63q0 -4 -3 -7t-7 -3h-134q-3 0 -5 -4l-26 -218q-1 -1 0 -2.5t3 -1.5h218q9 0 9 -10l-8 -63q-2 -10 -11 -10h-306q-4 0 -6.5 3t-1.5 7l83 680q1 4 4 7t7 3h306q10 0 8 -10l-7 -63
q-2 -10 -11 -10zM199.5 784q-2.5 3 -1.5 7l6 48q2 10 11 10h182q9 0 9 -10l-6 -48q-2 -10 -11 -10h-183q-4 0 -6.5 3z" />
    <glyph glyph-name="emacron" unicode="&#x113;" horiz-adv-x="405" 
d="M365 215h-219q-3 0 -5 -4l-6 -54q-1 -5 -1 -14q0 -30 16.5 -49t43.5 -19t47.5 17t29.5 44q4 8 11 8l72 -4q5 0 6.5 -3t0.5 -7q-14 -65 -60 -101.5t-117 -36.5q-68 0 -106.5 35.5t-38.5 97.5q0 7 2 25l25 208q9 71 59 115t124 44q68 0 106.5 -36t38.5 -97q0 -8 -2 -26
l-16 -133q-2 -10 -11 -10zM186 411q-22 -23 -27 -59l-7 -53q0 -4 4 -4h132q2 0 3.5 1t1.5 3l6 53q1 5 1 14q0 31 -16.5 49.5t-44.5 18.5q-31 0 -53 -23zM157.5 614q-2.5 3 -1.5 7l6 47q0 4 3 7t8 3h183q10 0 8 -10l-5 -47q-1 -4 -4 -7t-7 -3h-184q-4 0 -6.5 3z" />
    <glyph glyph-name="Edotaccent" unicode="&#x116;" 
d="M432 617h-219q-1 0 -2.5 -1t-1.5 -3l-27 -217q0 -4 4 -4h134q10 0 8 -10l-8 -63q0 -4 -3 -7t-7 -3h-134q-3 0 -5 -4l-26 -218q-1 -1 0 -2.5t3 -1.5h218q9 0 9 -10l-8 -63q-2 -10 -11 -10h-306q-4 0 -6.5 3t-1.5 7l83 680q1 4 4 7t7 3h306q10 0 8 -10l-7 -63
q-2 -10 -11 -10zM259 795q-15 15 -15 39q0 32 20.5 53t50.5 21q24 0 39 -15.5t15 -40.5q0 -31 -20.5 -51.5t-49.5 -20.5q-25 0 -40 15z" />
    <glyph glyph-name="edotaccent" unicode="&#x117;" horiz-adv-x="405" 
d="M365 215h-219q-3 0 -5 -4l-6 -54q-1 -5 -1 -14q0 -30 16.5 -49t43.5 -19t47.5 17t29.5 44q4 8 11 8l72 -4q5 0 6.5 -3t0.5 -7q-14 -65 -60 -101.5t-117 -36.5q-68 0 -106.5 35.5t-38.5 97.5q0 7 2 25l25 208q9 71 59 115t124 44q68 0 106.5 -36t38.5 -97q0 -8 -2 -26
l-16 -133q-2 -10 -11 -10zM186 411q-22 -23 -27 -59l-7 -53q0 -4 4 -4h132q2 0 3.5 1t1.5 3l6 53q1 5 1 14q0 31 -16.5 49.5t-44.5 18.5q-31 0 -53 -23zM216 604q-15 15 -15 39q0 32 20.5 53t50.5 21q24 0 39 -15.5t15 -40.5q0 -31 -20.5 -51.5t-49.5 -20.5q-25 0 -40 15z
" />
    <glyph glyph-name="Eogonek" unicode="&#x118;" 
d="M432 617h-219q-1 0 -2.5 -1t-1.5 -3l-27 -217q0 -4 4 -4h134q10 0 8 -10l-8 -63q0 -4 -3 -7t-7 -3h-134q-3 0 -5 -4l-26 -218q-1 -1 0 -2.5t3 -1.5h218q9 0 9 -10l-8 -63q-2 -10 -11 -10h-121q-3 0 -5 -2q-56 -51 -53 -91q0 -32 30 -32q6 0 10 1h2q8 0 8 -8l1 -32
q0 -10 -9 -11q-18 -5 -37 -5q-30 0 -50 16t-20 53q0 57 50 106q3 2 2.5 3.5t-3.5 1.5h-111q-4 0 -6.5 3t-1.5 7l83 680q1 4 4 7t7 3h306q10 0 8 -10l-7 -63q-2 -10 -11 -10z" />
    <glyph glyph-name="eogonek" unicode="&#x119;" horiz-adv-x="405" 
d="M365 215h-219q-3 0 -5 -4l-6 -54q-1 -5 -1 -14q0 -30 16.5 -49t43.5 -19t47.5 17t29.5 44q4 8 11 8l72 -4q5 0 6.5 -3t0.5 -7q-13 -58 -51.5 -94t-97.5 -43q-3 0 -5 -2q-46 -44 -46 -82q0 -34 31 -34q6 0 10 1h2q8 0 8 -8l1 -32q0 -9 -9 -11q-18 -5 -37 -5
q-30 0 -50 15.5t-20 52.5q0 58 45 103q5 3 0 5q-49 11 -76 44.5t-27 84.5q0 7 2 25l25 208q9 71 59 115t124 44q68 0 106.5 -36t38.5 -97q0 -8 -2 -26l-16 -133q-2 -10 -11 -10zM186 411q-22 -23 -27 -59l-7 -53q0 -4 4 -4h132q2 0 3.5 1t1.5 3l6 53q1 5 1 14
q0 31 -16.5 49.5t-44.5 18.5q-31 0 -53 -23z" />
    <glyph glyph-name="Ecaron" unicode="&#x11a;" 
d="M432 617h-219q-1 0 -2.5 -1t-1.5 -3l-27 -217q0 -4 4 -4h134q10 0 8 -10l-8 -63q0 -4 -3 -7t-7 -3h-134q-3 0 -5 -4l-26 -218q-1 -1 0 -2.5t3 -1.5h218q9 0 9 -10l-8 -63q-2 -10 -11 -10h-306q-4 0 -6.5 3t-1.5 7l83 680q1 4 4 7t7 3h306q10 0 8 -10l-7 -63
q-2 -10 -11 -10zM196 884q0 7 9 7h59q6 0 11 -7l29 -68q1 -1 3 -1t3 1l46 68q5 7 12 7h60q5 0 6.5 -3.5t-2.5 -8.5l-79 -104q-5 -7 -12 -7h-83q-6 0 -10 7l-51 104q-1 2 -1 5z" />
    <glyph glyph-name="ecaron" unicode="&#x11b;" horiz-adv-x="405" 
d="M365 215h-219q-3 0 -5 -4l-6 -54q-1 -5 -1 -14q0 -30 16.5 -49t43.5 -19t47.5 17t29.5 44q4 8 11 8l72 -4q5 0 6.5 -3t0.5 -7q-14 -65 -60 -101.5t-117 -36.5q-68 0 -106.5 35.5t-38.5 97.5q0 7 2 25l25 208q9 71 59 115t124 44q68 0 106.5 -36t38.5 -97q0 -8 -2 -26
l-16 -133q-2 -10 -11 -10zM186 411q-22 -23 -27 -59l-7 -53q0 -4 4 -4h132q2 0 3.5 1t1.5 3l6 53q1 5 1 14q0 31 -16.5 49.5t-44.5 18.5q-31 0 -53 -23zM151 691q0 7 9 7h59q6 0 11 -7l29 -68q1 -1 3 -1t3 1l46 68q5 7 12 7h60q5 0 6.5 -3.5t-2.5 -8.5l-79 -104
q-5 -7 -12 -7h-83q-6 0 -10 7l-51 104q-1 2 -1 5z" />
    <glyph glyph-name="Gcircumflex" unicode="&#x11c;" horiz-adv-x="443" 
d="M87.5 31.5q-41.5 39.5 -41.5 107.5q0 10 2 28l45 366q10 79 63.5 127t132.5 48q71 0 113.5 -40t42.5 -109q0 -9 -2 -27l-6 -42q0 -4 -3 -7t-7 -3h-74q-9 0 -9 10l6 44q1 5 1 16q0 34 -19.5 54.5t-52.5 20.5q-37 0 -63 -25t-31 -66l-45 -368q-1 -6 -1 -16q0 -35 19 -55
t53 -20q37 0 63 25t31 66l13 110q0 4 -3 4h-74q-10 0 -8 10l7 62q2 10 11 10h161q9 0 9 -10l-23 -185q-10 -79 -64 -127t-133 -48q-72 0 -113.5 39.5zM176.5 771.5q-1.5 3.5 2.5 8.5l76 104q5 7 12 7h83q6 0 11 -7l53 -104q1 -2 1 -5q0 -7 -8 -7h-60q-7 0 -10 7l-30 68
q-1 2 -3 1.5t-3 -1.5l-46 -68q-5 -7 -12 -7h-60q-5 0 -6.5 3.5z" />
    <glyph glyph-name="gcircumflex" unicode="&#x11d;" horiz-adv-x="411" 
d="M319 506q3 3 7 3h74q9 0 9 -10l-60 -484q-13 -105 -66.5 -162.5t-167.5 -57.5l-26 1q-10 2 -8 11l8 64q2 10 11 10q80 -3 114 32.5t43 110.5l3 21q0 2 -1.5 2.5t-3.5 -1.5q-20 -24 -46 -35t-54 -11q-56 0 -85.5 33.5t-29.5 92.5q0 10 2 32l24 200q9 74 49.5 116.5
t103.5 42.5q62 0 88 -46q2 -2 3.5 -1t1.5 3l3 26q1 4 4 7zM247.5 105.5q21.5 22.5 26.5 58.5l23 188q1 5 1 15q0 30 -16 48.5t-43 18.5q-31 0 -53 -23t-27 -59l-23 -188q-1 -5 -1 -14q0 -30 16.5 -48.5t43.5 -18.5q31 0 52.5 22.5zM138.5 580.5q-1.5 3.5 2.5 8.5l76 104
q5 7 12 7h83q6 0 11 -7l53 -104q1 -2 1 -5q0 -7 -8 -7h-60q-7 0 -10 7l-30 68q-1 2 -3 1.5t-3 -1.5l-46 -68q-5 -7 -12 -7h-60q-5 0 -6.5 3.5z" />
    <glyph glyph-name="Gbreve" unicode="&#x11e;" horiz-adv-x="443" 
d="M87.5 31.5q-41.5 39.5 -41.5 107.5q0 10 2 28l45 366q10 79 63.5 127t132.5 48q71 0 113.5 -40t42.5 -109q0 -9 -2 -27l-6 -42q0 -4 -3 -7t-7 -3h-74q-9 0 -9 10l6 44q1 5 1 16q0 34 -19.5 54.5t-52.5 20.5q-37 0 -63 -25t-31 -66l-45 -368q-1 -6 -1 -16q0 -35 19 -55
t53 -20q37 0 63 25t31 66l13 110q0 4 -3 4h-74q-10 0 -8 10l7 62q2 10 11 10h161q9 0 9 -10l-23 -185q-10 -79 -64 -127t-133 -48q-72 0 -113.5 39.5zM223 774q-27 28 -25 72q1 4 4 7t7 3h33q9 0 9 -8q0 -25 13 -40.5t35 -15.5t38.5 15t21.5 39q3 10 12 10h33q5 0 7 -3t1 -7
q-8 -44 -41 -72t-77 -28t-71 28z" />
    <glyph glyph-name="gbreve" unicode="&#x11f;" horiz-adv-x="411" 
d="M319 506q3 3 7 3h74q9 0 9 -10l-60 -484q-13 -105 -66.5 -162.5t-167.5 -57.5l-26 1q-10 2 -8 11l8 64q2 10 11 10q80 -3 114 32.5t43 110.5l3 21q0 2 -1.5 2.5t-3.5 -1.5q-20 -24 -46 -35t-54 -11q-56 0 -85.5 33.5t-29.5 92.5q0 10 2 32l24 200q9 74 49.5 116.5
t103.5 42.5q62 0 88 -46q2 -2 3.5 -1t1.5 3l3 26q1 4 4 7zM247.5 105.5q21.5 22.5 26.5 58.5l23 188q1 5 1 15q0 30 -16 48.5t-43 18.5q-31 0 -53 -23t-27 -59l-23 -188q-1 -5 -1 -14q0 -30 16.5 -48.5t43.5 -18.5q31 0 52.5 22.5zM185 583q-27 28 -25 72q1 4 4 7t7 3h33
q9 0 9 -8q0 -25 13 -40.5t35 -15.5t38.5 15t21.5 39q3 10 12 10h33q5 0 7 -3t1 -7q-8 -44 -41 -72t-77 -28t-71 28z" />
    <glyph glyph-name="Gdotaccent" unicode="&#x120;" horiz-adv-x="443" 
d="M87.5 31.5q-41.5 39.5 -41.5 107.5q0 10 2 28l45 366q10 79 63.5 127t132.5 48q71 0 113.5 -40t42.5 -109q0 -9 -2 -27l-6 -42q0 -4 -3 -7t-7 -3h-74q-9 0 -9 10l6 44q1 5 1 16q0 34 -19.5 54.5t-52.5 20.5q-37 0 -63 -25t-31 -66l-45 -368q-1 -6 -1 -16q0 -35 19 -55
t53 -20q37 0 63 25t31 66l13 110q0 4 -3 4h-74q-10 0 -8 10l7 62q2 10 11 10h161q9 0 9 -10l-23 -185q-10 -79 -64 -127t-133 -48q-72 0 -113.5 39.5zM258 795q-15 15 -15 39q0 32 20.5 53t50.5 21q24 0 39 -15.5t15 -40.5q0 -31 -20.5 -51.5t-49.5 -20.5q-25 0 -40 15z" />
    <glyph glyph-name="gdotaccent" unicode="&#x121;" horiz-adv-x="411" 
d="M319 506q3 3 7 3h74q9 0 9 -10l-60 -484q-13 -105 -66.5 -162.5t-167.5 -57.5l-26 1q-10 2 -8 11l8 64q2 10 11 10q80 -3 114 32.5t43 110.5l3 21q0 2 -1.5 2.5t-3.5 -1.5q-20 -24 -46 -35t-54 -11q-56 0 -85.5 33.5t-29.5 92.5q0 10 2 32l24 200q9 74 49.5 116.5
t103.5 42.5q62 0 88 -46q2 -2 3.5 -1t1.5 3l3 26q1 4 4 7zM247.5 105.5q21.5 22.5 26.5 58.5l23 188q1 5 1 15q0 30 -16 48.5t-43 18.5q-31 0 -53 -23t-27 -59l-23 -188q-1 -5 -1 -14q0 -30 16.5 -48.5t43.5 -18.5q31 0 52.5 22.5zM219 604q-15 15 -15 39q0 32 20.5 53
t50.5 21q24 0 39 -15.5t15 -40.5q0 -31 -20.5 -51.5t-49.5 -20.5q-25 0 -40 15z" />
    <glyph glyph-name="uni0122" unicode="&#x122;" horiz-adv-x="443" 
d="M87.5 31.5q-41.5 39.5 -41.5 107.5q0 10 2 28l45 366q10 79 63.5 127t132.5 48q71 0 113.5 -40t42.5 -109q0 -9 -2 -27l-6 -42q0 -4 -3 -7t-7 -3h-74q-9 0 -9 10l6 44q1 5 1 16q0 34 -19.5 54.5t-52.5 20.5q-37 0 -63 -25t-31 -66l-45 -368q-1 -6 -1 -16q0 -35 19 -55
t53 -20q37 0 63 25t31 66l13 110q0 4 -3 4h-74q-10 0 -8 10l7 62q2 10 11 10h161q9 0 9 -10l-23 -185q-10 -79 -64 -127t-133 -48q-72 0 -113.5 39.5zM114 -189.5q-2 3.5 2 8.5l73 108q7 7 13 7h59q6 0 7.5 -3.5t-2.5 -8.5l-85 -109q-4 -6 -12 -6h-48q-5 0 -7 3.5z" />
    <glyph glyph-name="uni0123" unicode="&#x123;" horiz-adv-x="411" 
d="M333 689.5q2 -3.5 -2 -8.5l-72 -108q-7 -7 -13 -7h-59q-6 0 -7.5 3.5t2.5 8.5l85 109q4 6 12 6h47q5 0 7 -3.5zM319 506q3 3 7 3h74q9 0 9 -10l-60 -484q-13 -105 -66.5 -162.5t-167.5 -57.5l-26 1q-10 2 -8 11l8 64q2 10 11 10q80 -3 114 32.5t43 110.5l3 21
q0 2 -1.5 2.5t-3.5 -1.5q-20 -24 -46 -35t-54 -11q-56 0 -85.5 33.5t-29.5 92.5q0 10 2 32l24 200q9 74 49.5 116.5t103.5 42.5q62 0 88 -46q2 -2 3.5 -1t1.5 3l3 26q1 4 4 7zM247.5 105.5q21.5 22.5 26.5 58.5l23 188q1 5 1 15q0 30 -16 48.5t-43 18.5q-31 0 -53 -23
t-27 -59l-23 -188q-1 -5 -1 -14q0 -30 16.5 -48.5t43.5 -18.5q31 0 52.5 22.5z" />
    <glyph glyph-name="Hcircumflex" unicode="&#x124;" horiz-adv-x="461" 
d="M384 700h73q5 0 7.5 -3t1.5 -7l-84 -680q0 -4 -3 -7t-7 -3h-74q-9 0 -9 10l37 295q0 4 -4 4h-146q-3 0 -5 -4l-36 -295q-2 -10 -11 -10h-74q-4 0 -6.5 3t-1.5 7l83 680q1 4 4 7t7 3h74q9 0 9 -10l-37 -294q0 -4 4 -4h146q3 0 5 4l36 294q2 10 11 10zM184.5 772.5
q-1.5 3.5 2.5 8.5l76 104q5 7 12 7h83q6 0 11 -7l53 -104q1 -2 1 -5q0 -7 -8 -7h-60q-7 0 -10 7l-30 68q-1 2 -3 1.5t-3 -1.5l-46 -68q-5 -7 -12 -7h-60q-5 0 -6.5 3.5z" />
    <glyph glyph-name="hcircumflex" unicode="&#x125;" 
d="M372 483.5q28 -32.5 28 -92.5q0 -18 -3 -38l-42 -343q0 -4 -3 -7t-8 -3h-73q-5 0 -7.5 3t-1.5 7l41 335q1 7 1 21q0 32 -14.5 49.5t-41.5 17.5q-32 0 -53 -22.5t-27 -63.5q-1 -6 -2 -6l-41 -331q0 -4 -3 -7t-8 -3h-73q-9 0 -9 10l84 680q0 4 3 7t8 3h73q5 0 7.5 -3
t1.5 -7l-27 -218q0 -2 2 -2.5t4 2.5q40 44 103 44q53 0 81 -32.5zM171.5 753.5q-1.5 3.5 2.5 8.5l76 104q5 7 12 7h83q6 0 11 -7l53 -104q1 -2 1 -5q0 -7 -8 -7h-60q-7 0 -10 7l-30 68q-1 2 -3 1.5t-3 -1.5l-46 -68q-5 -7 -12 -7h-60q-5 0 -6.5 3.5z" />
    <glyph glyph-name="Hbar" unicode="&#x126;" horiz-adv-x="461" 
d="M495.5 572q2.5 -3 1.5 -7l-6 -47q0 -4 -3 -7t-8 -3h-33q-1 0 -2.5 -1t-1.5 -3l-61 -494q0 -4 -3 -7t-7 -3h-74q-9 0 -9 10l37 295q0 4 -4 4h-146q-3 0 -5 -4l-36 -295q-2 -10 -11 -10h-74q-4 0 -6.5 3t-1.5 7l61 494q0 4 -4 4h-33q-10 0 -8 10l6 47q0 4 3 7t7 3h33
q2 0 3.5 1t1.5 3l13 111q1 4 4 7t7 3h74q9 0 9 -10l-14 -111q0 -4 3 -4h147q4 0 4 4l14 111q2 10 11 10h73q5 0 7.5 -3t1.5 -7l-14 -111q0 -4 4 -4h33q4 0 6.5 -3zM337 396l13 108q0 4 -3 4h-147q-4 0 -4 -4l-14 -108q0 -4 4 -4h146q3 0 5 4z" />
    <glyph glyph-name="hbar" unicode="&#x127;" 
d="M372 483.5q28 -32.5 28 -92.5q0 -18 -3 -38l-42 -343q0 -4 -3 -7t-8 -3h-73q-5 0 -7.5 3t-1.5 7l41 335q1 7 1 21q0 32 -14.5 49.5t-41.5 17.5q-32 0 -53 -22.5t-27 -63.5q-1 -6 -2 -6l-41 -331q0 -4 -3 -7t-8 -3h-73q-9 0 -9 10l66 538q1 1 0 2.5t-3 1.5h-36
q-10 0 -8 10l5 41q0 4 3 7t8 3h35q2 0 3.5 1t1.5 3l9 73q0 4 3 7t8 3h73q5 0 7.5 -3t1.5 -7l-9 -73q0 -4 3 -4h109q10 0 8 -10l-5 -41q0 -4 -3 -7t-8 -3h-108q-3 0 -5 -4l-9 -76q0 -2 2 -2.5t4 2.5q40 44 103 44q53 0 81 -32.5z" />
    <glyph glyph-name="Itilde" unicode="&#x128;" horiz-adv-x="213" 
d="M43.5 3q-2.5 3 -1.5 7l83 680q1 4 4 7t7 3h74q9 0 9 -10l-84 -680q-2 -10 -11 -10h-74q-4 0 -6.5 3zM222.5 796q-10.5 5 -26.5 15q-4 3 -11.5 9t-14 8.5t-14.5 2.5q-12 0 -22 -5.5t-21 -20.5q-3 -4 -7 -5t-7 2l-25 20q-6 6 -2 13q17 30 39.5 45t46.5 15q15 0 27.5 -6
t27.5 -17q3 -2 10.5 -8t14.5 -9t15 -3q12 0 22 5.5t21 20.5q3 4 7 4.5t7 -1.5l24 -18q3 -3 3 -8q0 -4 -4 -11q-19 -28 -42.5 -40.5t-44.5 -12.5q-13 0 -23.5 5z" />
    <glyph glyph-name="itilde" unicode="&#x129;" horiz-adv-x="171" 
d="M21 10l60 489q0 4 3 7t8 3h73q5 0 7.5 -3t1.5 -7l-60 -489q-2 -10 -11 -10h-74q-10 0 -8 10zM177.5 605q-10.5 5 -26.5 15q-4 3 -11.5 9t-14 8.5t-14.5 2.5q-12 0 -22 -5.5t-21 -20.5q-3 -4 -7 -5t-7 2l-25 20q-6 6 -2 13q17 30 39.5 45t46.5 15q15 0 27.5 -6t27.5 -17
q3 -2 10.5 -8t14.5 -9t15 -3q12 0 22 5.5t21 20.5q3 4 7 4.5t7 -1.5l24 -18q3 -3 3 -8q0 -4 -4 -11q-19 -28 -42.5 -40.5t-44.5 -12.5q-13 0 -23.5 5z" />
    <glyph glyph-name="Imacron" unicode="&#x12a;" horiz-adv-x="213" 
d="M43.5 3q-2.5 3 -1.5 7l83 680q1 4 4 7t7 3h74q9 0 9 -10l-84 -680q-2 -10 -11 -10h-74q-4 0 -6.5 3zM83.5 784q-2.5 3 -1.5 7l6 48q2 10 11 10h182q9 0 9 -10l-6 -48q-2 -10 -11 -10h-183q-4 0 -6.5 3z" />
    <glyph glyph-name="imacron" unicode="&#x12b;" horiz-adv-x="171" 
d="M21 10l60 489q0 4 3 7t8 3h73q5 0 7.5 -3t1.5 -7l-60 -489q-2 -10 -11 -10h-74q-10 0 -8 10zM38.5 593q-2.5 3 -1.5 7l6 48q2 10 11 10h182q9 0 9 -10l-6 -48q-2 -10 -11 -10h-183q-4 0 -6.5 3z" />
    <glyph glyph-name="ibreve" unicode="&#x12d;" horiz-adv-x="171" 
d="M21 10l60 489q0 4 3 7t8 3h73q5 0 7.5 -3t1.5 -7l-60 -489q-2 -10 -11 -10h-74q-10 0 -8 10zM67 602q-27 28 -25 72q2 10 11 10h33q9 0 9 -10q0 -23 13.5 -38t34.5 -15t38 15t22 38q3 10 12 10h33q10 0 8 -10q-9 -44 -42 -72t-77 -28q-43 0 -70 28z" />
    <glyph glyph-name="Iogonek" unicode="&#x12e;" horiz-adv-x="192" 
d="M33.5 3q-2.5 3 -1.5 7l83 680q1 4 4 7t7 3h74q9 0 9 -10l-84 -680q-2 -10 -11 -10h-74q-4 0 -6.5 3zM103 -183q-20 -4 -36 -4q-30 0 -50.5 15.5t-20.5 53.5q0 28 13.5 57t41.5 54q4 3 4 4q4 3 11 3h41q7 0 7 -5q0 -3 -4 -7q-50 -47 -50 -87q0 -34 30 -34q6 0 10 1h3
q8 0 8 -7l1 -32q0 -9 -9 -12z" />
    <glyph glyph-name="iogonek" unicode="&#x12f;" horiz-adv-x="218" 
d="M51 10l60 489q0 4 3 7t8 3h73q5 0 7.5 -3t1.5 -7l-60 -489q-2 -10 -11 -10h-74q-10 0 -8 10zM128 604q-15 15 -15 39q0 32 20.5 53t50.5 21q24 0 39 -15.5t15 -40.5q0 -31 -20.5 -51.5t-49.5 -20.5q-25 0 -40 15zM122 -183q-20 -4 -36 -4q-30 0 -50.5 15.5t-20.5 53.5
q0 28 13.5 57t41.5 54q4 3 4 4q4 3 11 3h41q7 0 7 -5q0 -3 -4 -7q-50 -47 -50 -87q0 -34 30 -34q6 0 10 1h3q8 0 8 -7l1 -32q0 -9 -9 -12z" />
    <glyph glyph-name="Idotaccent" unicode="&#x130;" horiz-adv-x="213" 
d="M43.5 3q-2.5 3 -1.5 7l83 680q1 4 4 7t7 3h74q9 0 9 -10l-84 -680q-2 -10 -11 -10h-74q-4 0 -6.5 3zM143 795q-15 15 -15 39q0 32 20.5 53t50.5 21q24 0 39 -15.5t15 -40.5q0 -31 -20.5 -51.5t-49.5 -20.5q-25 0 -40 15z" />
    <glyph glyph-name="dotlessi" unicode="&#x131;" horiz-adv-x="171" 
d="M21 10l60 489q0 4 3 7t8 3h73q5 0 7.5 -3t1.5 -7l-60 -489q-2 -10 -11 -10h-74q-10 0 -8 10z" />
    <glyph glyph-name="ij" unicode="&#x133;" horiz-adv-x="404" 
d="M115 604q-15 15 -15 39q0 32 20.5 53t49.5 21q25 0 40 -15t15 -40q0 -31 -20.5 -52t-49.5 -21q-25 0 -40 15zM39.5 3q-2.5 3 -1.5 7l60 489q2 10 11 10h74q10 0 8 -10l-60 -489q-2 -10 -11 -10h-73q-5 0 -7.5 3zM314 604q-15 15 -15 39q0 32 20.5 53t50.5 21
q25 0 40 -15.5t15 -40.5q0 -30 -20.5 -51t-50.5 -21q-25 0 -40 15zM123 -197l7 63q2 10 11 10q80 1 91 96l64 527q2 10 11 10h74q10 0 8 -10l-64 -527q-8 -62 -25 -99.5t-56 -58.5t-110 -21q-12 0 -11 10z" />
    <glyph glyph-name="Jcircumflex" unicode="&#x134;" horiz-adv-x="422" 
d="M59 32q-41 40 -41 108q0 8 2 28l9 79q2 10 11 10h74q10 0 8 -10l-9 -81q-1 -6 -1 -16q0 -34 18.5 -54.5t49.5 -20.5q35 0 60 25.5t30 65.5l64 524q2 10 11 10h74q4 0 6.5 -3t1.5 -7l-64 -522q-10 -79 -63 -127.5t-130 -48.5q-70 0 -111 40zM269.5 772.5q-1.5 3.5 2.5 8.5
l76 104q5 7 12 7h83q6 0 11 -7l53 -104q1 -2 1 -5q0 -7 -8 -7h-60q-7 0 -10 7l-30 68q-1 2 -3 1.5t-3 -1.5l-46 -68q-5 -7 -12 -7h-60q-5 0 -6.5 3.5z" />
    <glyph glyph-name="jcircumflex" unicode="&#x135;" horiz-adv-x="200" 
d="M-81 -197l7 63q2 10 11 10q80 1 91 96l64 527q2 10 11 10h74q10 0 8 -10l-64 -527q-8 -62 -25 -99.5t-56 -58.5t-110 -21q-12 0 -11 10zM29.5 580.5q-1.5 3.5 2.5 8.5l76 104q5 7 12 7h83q6 0 11 -7l53 -104q1 -2 1 -5q0 -7 -8 -7h-60q-7 0 -10 7l-30 68q-1 2 -3 1.5
t-3 -1.5l-46 -68q-5 -7 -12 -7h-60q-5 0 -6.5 3.5z" />
    <glyph glyph-name="uni0136" unicode="&#x136;" horiz-adv-x="452" 
d="M43.5 3q-2.5 3 -1.5 7l83 680q1 4 4 7t7 3h74q9 0 9 -10l-37 -300q-1 -3 1 -3.5t3 2.5l203 304q5 7 12 7h80q5 0 7 -3.5t-2 -8.5l-183 -278q-3 -3 -1 -6l114 -392v-3q0 -4 -3 -6.5t-7 -2.5h-80q-9 0 -10 8l-88 312q0 2 -1.5 2t-2.5 -1l-60 -81q-1 -1 -1 -5l-28 -225
q-2 -10 -11 -10h-74q-4 0 -6.5 3zM142 -181.5q-2 3.5 2 8.5l73 108q7 7 13 7h59q6 0 7.5 -3.5t-2.5 -8.5l-85 -109q-4 -6 -12 -6h-48q-5 0 -7 3.5z" />
    <glyph glyph-name="uni0137" unicode="&#x137;" horiz-adv-x="408" 
d="M32 10l84 680q0 4 3 7t8 3h73q5 0 7.5 -3t1.5 -7l-47 -379q0 -3 2 -4t3 2l149 194q5 6 12 6h76q6 0 7.5 -3.5t-2.5 -8.5l-118 -152q-3 -3 -2 -6l76 -328v-2q0 -9 -9 -9h-77q-3 0 -6 2t-4 6l-47 251q-1 6 -6 1l-69 -87q-2 -2 -2 -5l-20 -158q0 -4 -3 -7t-8 -3h-73
q-9 0 -9 10zM109 -181.5q-2 3.5 2 8.5l73 108q7 7 13 7h59q6 0 7.5 -3.5t-2.5 -8.5l-85 -109q-4 -6 -12 -6h-48q-5 0 -7 3.5z" />
    <glyph glyph-name="Lacute" unicode="&#x139;" horiz-adv-x="394" 
d="M43.5 3q-2.5 3 -1.5 7l83 680q1 4 4 7t7 3h74q9 0 9 -10l-74 -603q-1 -1 0 -2.5t3 -1.5h217q9 0 9 -10l-8 -63q-2 -10 -11 -10h-305q-4 0 -6.5 3zM133 767.5q-2 3.5 2 8.5l73 108q7 7 13 7h59q6 0 7.5 -3.5t-2.5 -8.5l-85 -109q-4 -6 -12 -6h-48q-5 0 -7 3.5z" />
    <glyph glyph-name="lacute" unicode="&#x13a;" horiz-adv-x="186" 
d="M28 10l84 680q2 10 11 10h74q4 0 6.5 -3t1.5 -7l-83 -680q-1 -4 -4 -7t-7 -3h-74q-9 0 -9 10zM119 767.5q-2 3.5 2 8.5l73 108q7 7 13 7h59q6 0 7.5 -3.5t-2.5 -8.5l-85 -109q-4 -6 -12 -6h-48q-5 0 -7 3.5z" />
    <glyph glyph-name="uni013B" unicode="&#x13b;" horiz-adv-x="394" 
d="M43.5 3q-2.5 3 -1.5 7l83 680q1 4 4 7t7 3h74q9 0 9 -10l-74 -603q-1 -1 0 -2.5t3 -1.5h217q9 0 9 -10l-8 -63q-2 -10 -11 -10h-305q-4 0 -6.5 3zM90 -181.5q-2 3.5 2 8.5l73 108q7 7 13 7h59q6 0 7.5 -3.5t-2.5 -8.5l-85 -109q-4 -6 -12 -6h-48q-5 0 -7 3.5z" />
    <glyph glyph-name="uni013C" unicode="&#x13c;" horiz-adv-x="186" 
d="M28 10l84 680q2 10 11 10h74q4 0 6.5 -3t1.5 -7l-83 -680q-1 -4 -4 -7t-7 -3h-74q-9 0 -9 10zM-62 -181.5q-2 3.5 2 8.5l73 108q7 7 13 7h59q6 0 7.5 -3.5t-2.5 -8.5l-85 -109q-4 -6 -12 -6h-48q-5 0 -7 3.5z" />
    <glyph glyph-name="Lcaron" unicode="&#x13d;" horiz-adv-x="396" 
d="M43.5 3q-2.5 3 -1.5 7l83 680q1 4 4 7t7 3h74q9 0 9 -10l-74 -603q-1 -1 0 -2.5t3 -1.5h217q9 0 9 -10l-8 -63q-2 -10 -11 -10h-305q-4 0 -6.5 3zM247 576.5q-2 3.5 2 8.5l73 108q7 7 13 7h59q6 0 7.5 -3.5t-2.5 -8.5l-85 -109q-4 -6 -12 -6h-48q-5 0 -7 3.5z" />
    <glyph glyph-name="lcaron" unicode="&#x13e;" horiz-adv-x="347" 
d="M28 10l84 680q2 10 11 10h74q4 0 6.5 -3t1.5 -7l-83 -680q-1 -4 -4 -7t-7 -3h-74q-9 0 -9 10zM224 576.5q-2 3.5 2 8.5l73 108q7 7 13 7h59q6 0 7.5 -3.5t-2.5 -8.5l-85 -109q-4 -6 -12 -6h-48q-5 0 -7 3.5z" />
    <glyph glyph-name="ldot" unicode="&#x140;" horiz-adv-x="218" 
d="M44 10l84 680q2 10 11 10h74q4 0 6.5 -3t1.5 -7l-83 -680q-1 -4 -4 -7t-7 -3h-74q-9 0 -9 10zM145 795q-15 15 -15 39q0 32 20.5 53t50.5 21q24 0 39 -15.5t15 -40.5q0 -31 -20.5 -51.5t-49.5 -20.5q-25 0 -40 15z" />
    <glyph glyph-name="Lslash" unicode="&#x141;" horiz-adv-x="434" 
d="M188 83h217q10 0 8 -10l-7 -63q-2 -10 -11 -10h-305q-10 0 -8 10l26 213q0 2 -1.5 3t-3.5 -1l-64 -46q-2 -2 -6 -2t-7 4l-28 41q-2 4 -2 6q0 5 5 8l117 85q1 1 3 5l44 364q2 10 11 10h74q10 0 8 -10l-35 -287q0 -2 1.5 -3t3.5 1l152 110q2 2 6 2t7 -4l29 -42q2 -4 2 -6
q0 -5 -5 -8l-206 -148q-1 -1 -3 -5l-26 -213q0 -4 4 -4z" />
    <glyph glyph-name="lslash" unicode="&#x142;" horiz-adv-x="316" 
d="M327 390q0 -7 -7 -11l-98 -53q-3 -1 -3 -5l-38 -311q-2 -10 -11 -10h-74q-10 0 -8 10l31 254q0 2 -1.5 3t-3.5 0l-48 -26q-2 -1 -5 -1q-5 0 -8 5l-18 45q-1 1 -1 4q0 7 6 10l87 47q3 2 3 5l41 334q2 10 11 10h74q10 0 8 -10l-34 -276q0 -2 1.5 -3t3.5 0l58 32q2 1 5 1
q6 0 8 -5l20 -46z" />
    <glyph glyph-name="Nacute" unicode="&#x143;" horiz-adv-x="486" 
d="M410 700h73q4 0 6.5 -3t1.5 -7l-83 -680q-2 -10 -11 -10h-84q-8 0 -9 8l-109 457q-1 2 -3 1.5t-2 -2.5l-55 -454q-2 -10 -11 -10h-74q-4 0 -6.5 3t-1.5 7l83 680q1 4 4 7t7 3h83q7 0 10 -8l109 -457q1 -3 3 -2.5t2 3.5l56 454q2 10 11 10zM268 773.5q-2 3.5 2 8.5l73 108
q7 7 13 7h59q6 0 7.5 -3.5t-2.5 -8.5l-85 -109q-4 -6 -12 -6h-48q-5 0 -7 3.5z" />
    <glyph glyph-name="nacute" unicode="&#x144;" 
d="M372 483.5q28 -32.5 28 -92.5q0 -18 -3 -38l-42 -343q0 -4 -3 -7t-8 -3h-73q-5 0 -7.5 3t-1.5 7l41 335q1 7 1 21q0 32 -14.5 49.5t-41.5 17.5q-32 0 -53 -22.5t-27 -63.5q-1 -6 -2 -6l-41 -331q0 -4 -3 -7t-8 -3h-73q-9 0 -9 10l60 489q2 10 11 10h74q10 0 8 -10l-3 -27
q0 -2 2 -2.5t4 2.5q40 44 103 44q53 0 81 -32.5zM215 576.5q-2 3.5 2 8.5l73 108q7 7 13 7h59q6 0 7.5 -3.5t-2.5 -8.5l-85 -109q-4 -6 -12 -6h-48q-5 0 -7 3.5z" />
    <glyph glyph-name="uni0145" unicode="&#x145;" horiz-adv-x="486" 
d="M410 700h73q4 0 6.5 -3t1.5 -7l-83 -680q-2 -10 -11 -10h-84q-8 0 -9 8l-109 457q-1 2 -3 1.5t-2 -2.5l-55 -454q-2 -10 -11 -10h-74q-4 0 -6.5 3t-1.5 7l83 680q1 4 4 7t7 3h83q7 0 10 -8l109 -457q1 -3 3 -2.5t2 3.5l56 454q2 10 11 10zM141 -181.5q-2 3.5 2 8.5
l73 108q7 7 13 7h59q6 0 7.5 -3.5t-2.5 -8.5l-85 -109q-4 -6 -12 -6h-48q-5 0 -7 3.5z" />
    <glyph glyph-name="uni0146" unicode="&#x146;" 
d="M372 483.5q28 -32.5 28 -92.5q0 -18 -3 -38l-42 -343q0 -4 -3 -7t-8 -3h-73q-5 0 -7.5 3t-1.5 7l41 335q1 7 1 21q0 32 -14.5 49.5t-41.5 17.5q-32 0 -53 -22.5t-27 -63.5q-1 -6 -2 -6l-41 -331q0 -4 -3 -7t-8 -3h-73q-9 0 -9 10l60 489q2 10 11 10h74q10 0 8 -10l-3 -27
q0 -2 2 -2.5t4 2.5q40 44 103 44q53 0 81 -32.5zM111 -181.5q-2 3.5 2 8.5l73 108q7 7 13 7h59q6 0 7.5 -3.5t-2.5 -8.5l-85 -109q-4 -6 -12 -6h-48q-5 0 -7 3.5z" />
    <glyph glyph-name="Ncaron" unicode="&#x147;" horiz-adv-x="486" 
d="M410 700h73q4 0 6.5 -3t1.5 -7l-83 -680q-2 -10 -11 -10h-84q-8 0 -9 8l-109 457q-1 2 -3 1.5t-2 -2.5l-55 -454q-2 -10 -11 -10h-74q-4 0 -6.5 3t-1.5 7l83 680q1 4 4 7t7 3h83q7 0 10 -8l109 -457q1 -3 3 -2.5t2 3.5l56 454q2 10 11 10zM216 890q0 7 9 7h59q6 0 11 -7
l29 -68q1 -1 3 -1t3 1l46 68q5 7 12 7h60q5 0 6.5 -3.5t-2.5 -8.5l-79 -104q-5 -7 -12 -7h-83q-6 0 -10 7l-51 104q-1 2 -1 5z" />
    <glyph glyph-name="ncaron" unicode="&#x148;" 
d="M372 483.5q28 -32.5 28 -92.5q0 -18 -3 -38l-42 -343q0 -4 -3 -7t-8 -3h-73q-5 0 -7.5 3t-1.5 7l41 335q1 7 1 21q0 32 -14.5 49.5t-41.5 17.5q-32 0 -53 -22.5t-27 -63.5q-1 -6 -2 -6l-41 -331q0 -4 -3 -7t-8 -3h-73q-9 0 -9 10l60 489q2 10 11 10h74q10 0 8 -10l-3 -27
q0 -2 2 -2.5t4 2.5q40 44 103 44q53 0 81 -32.5zM162 693q0 7 9 7h59q6 0 11 -7l29 -68q1 -1 3 -1t3 1l46 68q5 7 12 7h60q5 0 6.5 -3.5t-2.5 -8.5l-79 -104q-5 -7 -12 -7h-83q-6 0 -10 7l-51 104q-1 2 -1 5z" />
    <glyph glyph-name="Eng" unicode="&#x14a;" horiz-adv-x="486" 
d="M410 700h73q4 0 6.5 -3t1.5 -7l-85 -690q-7 -61 -20 -95t-48.5 -53.5t-104.5 -19.5q-13 0 -12 10l8 63q2 10 11 10q26 0 39 10t17.5 25.5t8.5 46.5q0 1 0.5 2.5t-0.5 2.5l-110 463q-1 2 -3 1.5t-2 -2.5l-55 -454q-2 -10 -11 -10h-74q-4 0 -6.5 3t-1.5 7l83 680q1 4 4 7
t7 3h83q7 0 10 -8l104 -433q0 -3 2 -2.5t2 3.5l18 144q2 10 6 10v0q3 0 5 4l33 272q2 10 11 10z" />
    <glyph glyph-name="eng" unicode="&#x14b;" 
d="M372 483.5q28 -32.5 28 -92.5q0 -18 -3 -38l-42 -346l-1 -7l-1 -2q-7 -57 -21 -92.5t-50 -57t-105 -21.5q-12 0 -12 10l8 61q0 4 3 7t8 3q39 1 54.5 24t21.5 68l28 231q1 1 1 4q1 1 1 5l13 105q1 7 1 21q0 32 -14.5 49.5t-41.5 17.5q-32 0 -53 -22.5t-27 -63.5
q-1 -6 -2 -6l-41 -331q0 -4 -3 -7t-8 -3h-73q-9 0 -9 10l60 489q2 10 11 10h74q10 0 8 -10l-3 -27q0 -2 2 -2.5t4 2.5q40 44 103 44q53 0 81 -32.5z" />
    <glyph glyph-name="Omacron" unicode="&#x14c;" horiz-adv-x="448" 
d="M89 33q-42 41 -42 112q0 10 2 30l42 349q10 83 65 133.5t135 50.5q73 0 115.5 -42.5t42.5 -113.5q0 -8 -2 -28l-43 -349q-10 -83 -65.5 -133t-135.5 -50q-72 0 -114 41zM278 101.5q27 26.5 32 69.5l44 358q1 6 1 16q0 36 -20 58t-55 22q-37 0 -63.5 -26.5t-31.5 -69.5
l-44 -358q-1 -6 -1 -17q0 -36 19.5 -57.5t53.5 -21.5q38 0 65 26.5zM199.5 784q-2.5 3 -1.5 7l6 48q2 10 11 10h182q9 0 9 -10l-6 -48q-2 -10 -11 -10h-183q-4 0 -6.5 3z" />
    <glyph glyph-name="omacron" unicode="&#x14d;" horiz-adv-x="412" 
d="M77.5 28q-38.5 36 -38.5 98q0 7 2 25l25 207q9 71 59 115t125 44q69 0 108 -36.5t39 -97.5q0 -7 -2 -25l-25 -207q-9 -72 -59 -115.5t-126 -43.5q-69 0 -107.5 36zM250 99q23 23 27 59l24 194q1 5 1 13q0 31 -17 50t-45 19q-31 0 -53.5 -23t-27.5 -59l-24 -194
q-1 -5 -1 -14q0 -31 17 -49.5t45 -18.5q31 0 54 23zM158.5 593q-2.5 3 -1.5 7l6 48q2 10 11 10h182q9 0 9 -10l-6 -48q-2 -10 -11 -10h-183q-4 0 -6.5 3z" />
    <glyph glyph-name="obreve" unicode="&#x14f;" horiz-adv-x="412" 
d="M77.5 28q-38.5 36 -38.5 98q0 7 2 25l25 207q9 71 59 115t125 44q69 0 108 -36.5t39 -97.5q0 -7 -2 -25l-25 -207q-9 -72 -59 -115.5t-126 -43.5q-69 0 -107.5 36zM250 99q23 23 27 59l24 194q1 5 1 13q0 31 -17 50t-45 19q-31 0 -53.5 -23t-27.5 -59l-24 -194
q-1 -5 -1 -14q0 -31 17 -49.5t45 -18.5q31 0 54 23zM187 602q-27 28 -25 72q2 10 11 10h33q9 0 9 -10q0 -23 13.5 -38t34.5 -15t38 15t22 38q3 10 12 10h33q10 0 8 -10q-9 -44 -42 -72t-77 -28q-43 0 -70 28z" />
    <glyph glyph-name="Ohungarumlaut" unicode="&#x150;" horiz-adv-x="448" 
d="M89 33q-42 41 -42 112q0 10 2 30l42 349q10 83 65 133.5t135 50.5q73 0 115.5 -42.5t42.5 -113.5q0 -8 -2 -28l-43 -349q-10 -83 -65.5 -133t-135.5 -50q-72 0 -114 41zM278 101.5q27 26.5 32 69.5l44 358q1 6 1 16q0 36 -20 58t-55 22q-37 0 -63.5 -26.5t-31.5 -69.5
l-44 -358q-1 -6 -1 -17q0 -36 19.5 -57.5t53.5 -21.5q38 0 65 26.5zM200.5 767.5q-1.5 3.5 1.5 8.5l65 108q4 7 13 7h61q6 0 8 -3.5t-2 -8.5l-70 -108q-4 -7 -13 -7h-57q-5 0 -6.5 3.5zM333 767.5q-2 3.5 2 8.5l69 108q4 7 13 7h57q6 0 8 -3.5t-2 -8.5l-70 -108
q-4 -7 -13 -7h-56q-6 0 -8 3.5z" />
    <glyph glyph-name="ohungarumlaut" unicode="&#x151;" horiz-adv-x="412" 
d="M77.5 28q-38.5 36 -38.5 98q0 7 2 25l25 207q9 71 59 115t125 44q69 0 108 -36.5t39 -97.5q0 -7 -2 -25l-25 -207q-9 -72 -59 -115.5t-126 -43.5q-69 0 -107.5 36zM250 99q23 23 27 59l24 194q1 5 1 13q0 31 -17 50t-45 19q-31 0 -53.5 -23t-27.5 -59l-24 -194
q-1 -5 -1 -14q0 -31 17 -49.5t45 -18.5q31 0 54 23zM159.5 576.5q-1.5 3.5 1.5 8.5l65 108q4 7 13 7h61q6 0 8 -3.5t-2 -8.5l-70 -108q-4 -7 -13 -7h-57q-5 0 -6.5 3.5zM292 576.5q-2 3.5 2 8.5l69 108q4 7 13 7h57q6 0 8 -3.5t-2 -8.5l-70 -108q-4 -7 -13 -7h-56
q-6 0 -8 3.5z" />
    <glyph glyph-name="OE" unicode="&#x152;" horiz-adv-x="668" 
d="M680 617h-218q-3 0 -5 -4l-26 -217q0 -4 3 -4h134q9 0 9 -10l-8 -63q-2 -10 -11 -10h-134q-4 0 -4 -4l-27 -218q0 -4 3 -4h219q4 0 6.5 -3t1.5 -7l-8 -63q0 -4 -3 -7t-8 -3h-305q-9 0 -9 10l3 20q0 2 -1.5 3t-3.5 -1q-45 -40 -107 -40q-58 0 -96 41.5t-38 110.5q0 9 2 31
l42 349q7 54 33 96t64.5 65t80.5 23q62 0 97 -41q2 -2 3.5 -1t1.5 3l3 21q2 10 11 10h305q9 0 9 -10l-8 -63q-2 -10 -11 -10zM278 101.5q27 26.5 32 69.5l44 358q1 6 1 16q0 36 -20 58t-55 22q-37 0 -63.5 -26.5t-31.5 -69.5l-44 -358q-1 -6 -1 -17q0 -36 19.5 -57.5
t53.5 -21.5q38 0 65 26.5z" />
    <glyph glyph-name="oe" unicode="&#x153;" horiz-adv-x="649" 
d="M619 228q-3 -3 -7 -3h-221q-4 0 -4 -4l-8 -64q-1 -5 -1 -14q0 -30 16.5 -49t44.5 -19q27 0 47 17.5t29 44.5q4 8 12 8l72 -4q5 0 7 -3t1 -7q-16 -66 -61.5 -102.5t-116.5 -36.5q-77 0 -111 61q-3 3 -6 0q-48 -61 -127 -61q-69 0 -107.5 36t-38.5 98q0 7 2 25l25 207
q9 71 59 115t125 44q77 0 111 -62q3 -3 6 0q51 62 126 62q68 0 107 -37t39 -99q0 -15 -1 -23l-16 -123q0 -4 -3 -7zM302 366q0 30 -17 49t-45 19q-31 0 -53.5 -23t-27.5 -59l-24 -195q-1 -5 -1 -14q0 -30 16.5 -49t44.5 -19q32 0 54.5 23t27.5 59l24 195q1 5 1 14zM430 411
q-22 -23 -27 -59l-7 -58q0 -4 3 -4h133q3 0 5 4l7 58q1 5 1 14q0 31 -16.5 49.5t-45.5 18.5q-31 0 -53 -23z" />
    <glyph glyph-name="Racute" unicode="&#x154;" horiz-adv-x="440" 
d="M304 2q-3 2 -4 6l-53 298q-1 3 -3 3h-68q-3 0 -5 -4l-36 -295q-2 -10 -11 -10h-74q-4 0 -6.5 3t-1.5 7l83 680q1 4 4 7t7 3h174q66 0 105 -44.5t39 -118.5q0 -23 -2 -36q-7 -63 -38 -110t-77 -67q-4 -3 -3 -6l61 -307v-2q0 -9 -9 -9h-76q-3 0 -6 2zM210.5 616
q-1.5 -1 -1.5 -3l-27 -224q-1 -1 0 -2.5t3 -1.5h72q44 0 74 39t30 100q0 43 -20.5 68t-55.5 25h-72q-1 0 -2.5 -1zM244 767.5q-2 3.5 2 8.5l73 108q7 7 13 7h59q6 0 7.5 -3.5t-2.5 -8.5l-85 -109q-4 -6 -12 -6h-48q-5 0 -7 3.5z" />
    <glyph glyph-name="racute" unicode="&#x155;" horiz-adv-x="295" 
d="M322 503q6 -5 3 -13l-24 -76q-3 -9 -12 -6q-12 5 -27 5q-6 0 -18 -2q-31 -3 -54.5 -34t-28.5 -75l-36 -292q0 -4 -3 -7t-8 -3h-73q-9 0 -9 10l60 489q2 10 11 10h74q10 0 8 -10l-7 -58q0 -3 1.5 -3.5t2.5 2.5q38 74 99 74q24 0 41 -11zM172 576.5q-2 3.5 2 8.5l73 108
q7 7 13 7h59q6 0 7.5 -3.5t-2.5 -8.5l-85 -109q-4 -6 -12 -6h-48q-5 0 -7 3.5z" />
    <glyph glyph-name="uni0156" unicode="&#x156;" horiz-adv-x="440" 
d="M304 2q-3 2 -4 6l-53 298q-1 3 -3 3h-68q-3 0 -5 -4l-36 -295q-2 -10 -11 -10h-74q-4 0 -6.5 3t-1.5 7l83 680q1 4 4 7t7 3h174q66 0 105 -44.5t39 -118.5q0 -23 -2 -36q-7 -63 -38 -110t-77 -67q-4 -3 -3 -6l61 -307v-2q0 -9 -9 -9h-76q-3 0 -6 2zM210.5 616
q-1.5 -1 -1.5 -3l-27 -224q-1 -1 0 -2.5t3 -1.5h72q44 0 74 39t30 100q0 43 -20.5 68t-55.5 25h-72q-1 0 -2.5 -1zM126 -181.5q-2 3.5 2 8.5l73 108q7 7 13 7h59q6 0 7.5 -3.5t-2.5 -8.5l-85 -109q-4 -6 -12 -6h-48q-5 0 -7 3.5z" />
    <glyph glyph-name="uni0157" unicode="&#x157;" horiz-adv-x="295" 
d="M322 503q6 -5 3 -13l-24 -76q-3 -9 -12 -6q-12 5 -27 5q-6 0 -18 -2q-31 -3 -54.5 -34t-28.5 -75l-36 -292q0 -4 -3 -7t-8 -3h-73q-9 0 -9 10l60 489q2 10 11 10h74q10 0 8 -10l-7 -58q0 -3 1.5 -3.5t2.5 2.5q38 74 99 74q24 0 41 -11zM-58 -181.5q-2 3.5 2 8.5l73 108
q7 7 13 7h59q6 0 7.5 -3.5t-2.5 -8.5l-85 -109q-4 -6 -12 -6h-48q-5 0 -7 3.5z" />
    <glyph glyph-name="Rcaron" unicode="&#x158;" horiz-adv-x="440" 
d="M304 2q-3 2 -4 6l-53 298q-1 3 -3 3h-68q-3 0 -5 -4l-36 -295q-2 -10 -11 -10h-74q-4 0 -6.5 3t-1.5 7l83 680q1 4 4 7t7 3h174q66 0 105 -44.5t39 -118.5q0 -23 -2 -36q-7 -63 -38 -110t-77 -67q-4 -3 -3 -6l61 -307v-2q0 -9 -9 -9h-76q-3 0 -6 2zM210.5 616
q-1.5 -1 -1.5 -3l-27 -224q-1 -1 0 -2.5t3 -1.5h72q44 0 74 39t30 100q0 43 -20.5 68t-55.5 25h-72q-1 0 -2.5 -1zM192 884q0 7 9 7h59q6 0 11 -7l29 -68q1 -1 3 -1t3 1l46 68q5 7 12 7h60q5 0 6.5 -3.5t-2.5 -8.5l-79 -104q-5 -7 -12 -7h-83q-6 0 -10 7l-51 104q-1 2 -1 5z
" />
    <glyph glyph-name="rcaron" unicode="&#x159;" horiz-adv-x="295" 
d="M322 503q6 -5 3 -13l-24 -76q-3 -9 -12 -6q-12 5 -27 5q-6 0 -18 -2q-31 -3 -54.5 -34t-28.5 -75l-36 -292q0 -4 -3 -7t-8 -3h-73q-9 0 -9 10l60 489q2 10 11 10h74q10 0 8 -10l-7 -58q0 -3 1.5 -3.5t2.5 2.5q38 74 99 74q24 0 41 -11zM119 693q0 7 9 7h59q6 0 11 -7
l29 -68q1 -1 3 -1t3 1l46 68q5 7 12 7h60q5 0 6.5 -3.5t-2.5 -8.5l-79 -104q-5 -7 -12 -7h-83q-6 0 -10 7l-51 104q-1 2 -1 5z" />
    <glyph glyph-name="Sacute" unicode="&#x15a;" horiz-adv-x="414" 
d="M77 33q-41 41 -41 110q0 8 2 28l4 26q0 4 3 7t8 3h71q5 0 7.5 -3t1.5 -7l-3 -21q-1 -6 -1 -18q0 -39 18.5 -61t49.5 -22q39 0 66.5 31.5t27.5 79.5q0 24 -10.5 43.5t-27.5 36t-55 47.5q-41 35 -64 59t-39 56.5t-16 74.5q0 62 25 108.5t68.5 71.5t97.5 25
q70 0 110.5 -41.5t40.5 -112.5q0 -9 -2 -31l-3 -25q-2 -10 -11 -10h-72q-4 0 -6.5 3t-1.5 7l3 27q1 7 1 20q0 37 -18.5 58.5t-50.5 21.5q-38 0 -63.5 -29.5t-25.5 -80.5q0 -32 18.5 -57t68.5 -67q48 -40 73 -65.5t39 -55t14 -66.5q0 -7 -2 -27q-10 -84 -64.5 -134.5
t-130.5 -50.5q-69 0 -110 41zM228 767.5q-2 3.5 2 8.5l73 108q7 7 13 7h59q6 0 7.5 -3.5t-2.5 -8.5l-85 -109q-4 -6 -12 -6h-48q-5 0 -7 3.5z" />
    <glyph glyph-name="sacute" unicode="&#x15b;" horiz-adv-x="376" 
d="M67 25q-38 31 -38 85q0 13 1 19l1 9q1 4 4 7t7 3h69q5 0 7.5 -3t1.5 -7l-1 -7q-4 -27 14 -45.5t49 -18.5q32 0 52.5 20.5t20.5 50.5q0 28 -20 42.5t-64 34.5q-32 15 -53.5 29t-38 40t-16.5 64q0 14 1 22q8 68 54 106t116 38q65 0 101 -32.5t36 -89.5q0 -15 -1 -23v-3
q-2 -10 -11 -10h-67q-10 0 -8 10v7l1 9q0 24 -16 40t-43 16q-29 0 -49 -19t-24 -46q-2 -21 8 -35t25.5 -22.5t49.5 -24.5q34 -17 56.5 -31.5t39.5 -40.5t17 -63q0 -73 -49 -117.5t-129 -44.5q-66 0 -104 31zM192 576.5q-2 3.5 2 8.5l73 108q7 7 13 7h59q6 0 7.5 -3.5
t-2.5 -8.5l-85 -109q-4 -6 -12 -6h-48q-5 0 -7 3.5z" />
    <glyph glyph-name="Scircumflex" unicode="&#x15c;" horiz-adv-x="414" 
d="M77 33q-41 41 -41 110q0 8 2 28l4 26q0 4 3 7t8 3h71q5 0 7.5 -3t1.5 -7l-3 -21q-1 -6 -1 -18q0 -39 18.5 -61t49.5 -22q39 0 66.5 31.5t27.5 79.5q0 24 -10.5 43.5t-27.5 36t-55 47.5q-41 35 -64 59t-39 56.5t-16 74.5q0 62 25 108.5t68.5 71.5t97.5 25
q70 0 110.5 -41.5t40.5 -112.5q0 -9 -2 -31l-3 -25q-2 -10 -11 -10h-72q-4 0 -6.5 3t-1.5 7l3 27q1 7 1 20q0 37 -18.5 58.5t-50.5 21.5q-38 0 -63.5 -29.5t-25.5 -80.5q0 -32 18.5 -57t68.5 -67q48 -40 73 -65.5t39 -55t14 -66.5q0 -7 -2 -27q-10 -84 -64.5 -134.5
t-130.5 -50.5q-69 0 -110 41zM158.5 771.5q-1.5 3.5 2.5 8.5l76 104q5 7 12 7h83q6 0 11 -7l53 -104q1 -2 1 -5q0 -7 -8 -7h-60q-7 0 -10 7l-30 68q-1 2 -3 1.5t-3 -1.5l-46 -68q-5 -7 -12 -7h-60q-5 0 -6.5 3.5z" />
    <glyph glyph-name="scircumflex" unicode="&#x15d;" horiz-adv-x="376" 
d="M67 25q-38 31 -38 85q0 13 1 19l1 9q1 4 4 7t7 3h69q5 0 7.5 -3t1.5 -7l-1 -7q-4 -27 14 -45.5t49 -18.5q32 0 52.5 20.5t20.5 50.5q0 28 -20 42.5t-64 34.5q-32 15 -53.5 29t-38 40t-16.5 64q0 14 1 22q8 68 54 106t116 38q65 0 101 -32.5t36 -89.5q0 -15 -1 -23v-3
q-2 -10 -11 -10h-67q-10 0 -8 10v7l1 9q0 24 -16 40t-43 16q-29 0 -49 -19t-24 -46q-2 -21 8 -35t25.5 -22.5t49.5 -24.5q34 -17 56.5 -31.5t39.5 -40.5t17 -63q0 -73 -49 -117.5t-129 -44.5q-66 0 -104 31zM122.5 580.5q-1.5 3.5 2.5 8.5l76 104q5 7 12 7h83q6 0 11 -7
l53 -104q1 -2 1 -5q0 -7 -8 -7h-60q-7 0 -10 7l-30 68q-1 2 -3 1.5t-3 -1.5l-46 -68q-5 -7 -12 -7h-60q-5 0 -6.5 3.5z" />
    <glyph glyph-name="Scedilla" unicode="&#x15e;" horiz-adv-x="414" 
d="M329.5 55.5q-42.5 -48.5 -105.5 -60.5q-6 -1 -2 -5q29 -36 29 -78q0 -19 -6 -37q-11 -32 -34.5 -46t-52.5 -14q-18 0 -35 5q-8 3 -6 12l9 32q3 9 13 7q3 -1 10 -1q12 0 22.5 8t15.5 24q2 6 2 17q0 37 -34 74q0 2 -4 2q-53 10 -84 49.5t-31 99.5q0 9 2 27l4 26q0 4 3 7
t8 3h71q5 0 7.5 -3t1.5 -7l-3 -21q-1 -6 -1 -18q0 -39 18.5 -61t49.5 -22q39 0 66.5 31.5t27.5 79.5q0 24 -10.5 43.5t-27.5 36t-55 47.5q-41 35 -64 59t-39 56.5t-16 74.5q0 62 25 108.5t68.5 71.5t97.5 25q70 0 110.5 -41.5t40.5 -112.5q0 -9 -2 -31l-3 -25
q-2 -10 -11 -10h-72q-4 0 -6.5 3t-1.5 7l3 27q1 7 1 20q0 37 -18.5 58.5t-50.5 21.5q-38 0 -63.5 -29.5t-25.5 -80.5q0 -32 18.5 -57t68.5 -67q48 -40 73 -65.5t39 -55t14 -66.5q0 -7 -2 -27q-10 -73 -52.5 -121.5z" />
    <glyph glyph-name="scedilla" unicode="&#x15f;" horiz-adv-x="376" 
d="M312.5 51q-36.5 -42 -99.5 -53q-5 -2 -2 -5q27 -36 27 -76q0 -21 -6 -40q-10 -32 -33.5 -46t-51.5 -14q-20 0 -35 5q-9 3 -6 12l8 32q3 9 13 7q3 -1 10 -1q17 0 28.5 12.5t11.5 39.5q0 35 -31 69q-2 2 -5 2q-53 7 -82.5 37.5t-29.5 77.5q0 13 1 19l1 9q1 4 4 7t7 3h69
q5 0 7.5 -3t1.5 -7l-1 -7q-4 -27 14 -45.5t49 -18.5q32 0 52.5 20.5t20.5 50.5q0 28 -20 42.5t-64 34.5q-32 15 -53.5 29t-38 40t-16.5 64q0 14 1 22q8 68 54 106t116 38q65 0 101 -32.5t36 -89.5q0 -15 -1 -23v-3q-2 -10 -11 -10h-67q-10 0 -8 10v7l1 9q0 24 -16 40t-43 16
q-29 0 -49 -19t-24 -46q-2 -21 8 -35t25.5 -22.5t49.5 -24.5q34 -17 56.5 -31.5t39.5 -40.5t17 -63q0 -63 -36.5 -105z" />
    <glyph glyph-name="Scaron" unicode="&#x160;" horiz-adv-x="414" 
d="M77 33q-41 41 -41 110q0 8 2 28l4 26q0 4 3 7t8 3h71q5 0 7.5 -3t1.5 -7l-3 -21q-1 -6 -1 -18q0 -39 18.5 -61t49.5 -22q39 0 66.5 31.5t27.5 79.5q0 24 -10.5 43.5t-27.5 36t-55 47.5q-41 35 -64 59t-39 56.5t-16 74.5q0 62 25 108.5t68.5 71.5t97.5 25
q70 0 110.5 -41.5t40.5 -112.5q0 -9 -2 -31l-3 -25q-2 -10 -11 -10h-72q-4 0 -6.5 3t-1.5 7l3 27q1 7 1 20q0 37 -18.5 58.5t-50.5 21.5q-38 0 -63.5 -29.5t-25.5 -80.5q0 -32 18.5 -57t68.5 -67q48 -40 73 -65.5t39 -55t14 -66.5q0 -7 -2 -27q-10 -84 -64.5 -134.5
t-130.5 -50.5q-69 0 -110 41zM175 884q0 7 9 7h59q6 0 11 -7l29 -68q1 -1 3 -1t3 1l46 68q5 7 12 7h60q5 0 6.5 -3.5t-2.5 -8.5l-79 -104q-5 -7 -12 -7h-83q-6 0 -10 7l-51 104q-1 2 -1 5z" />
    <glyph glyph-name="scaron" unicode="&#x161;" horiz-adv-x="376" 
d="M67 25q-38 31 -38 85q0 13 1 19l1 9q1 4 4 7t7 3h69q5 0 7.5 -3t1.5 -7l-1 -7q-4 -27 14 -45.5t49 -18.5q32 0 52.5 20.5t20.5 50.5q0 28 -20 42.5t-64 34.5q-32 15 -53.5 29t-38 40t-16.5 64q0 14 1 22q8 68 54 106t116 38q65 0 101 -32.5t36 -89.5q0 -15 -1 -23v-3
q-2 -10 -11 -10h-67q-10 0 -8 10v7l1 9q0 24 -16 40t-43 16q-29 0 -49 -19t-24 -46q-2 -21 8 -35t25.5 -22.5t49.5 -24.5q34 -17 56.5 -31.5t39.5 -40.5t17 -63q0 -73 -49 -117.5t-129 -44.5q-66 0 -104 31zM139 693q0 7 9 7h59q6 0 11 -7l29 -68q1 -1 3 -1t3 1l46 68
q5 7 12 7h60q5 0 6.5 -3.5t-2.5 -8.5l-79 -104q-5 -7 -12 -7h-83q-6 0 -10 7l-51 104q-1 2 -1 5z" />
    <glyph glyph-name="uni0162" unicode="&#x162;" horiz-adv-x="426" 
d="M460.5 697q2.5 -3 1.5 -7l-8 -63q0 -4 -3 -7t-8 -3h-127q-4 0 -4 -4l-74 -603q-2 -10 -11 -10h-74q-10 0 -8 10l74 603q0 4 -4 4h-120q-10 0 -8 10l7 63q1 4 4 7t7 3h349q4 0 6.5 -3zM143 -171l8 31q3 10 13 8q3 -1 10 -1q28 0 38 32q2 6 2 18q0 35 -31 71q-2 2 -2 6
q0 6 9 6h40q7 0 10 -3q2 -1 2 -2t1 -2q33 -36 33 -81q0 -21 -6 -39q-11 -32 -34 -46t-51 -14q-18 0 -35 5q-8 1 -7 11z" />
    <glyph glyph-name="uni0163" unicode="&#x163;" horiz-adv-x="267" 
d="M268 439h-68q-4 0 -4 -4l-35 -281q-1 -7 -1 -20q0 -29 12 -40t37 -10h9q10 0 8 -10l-7 -64q-1 -4 -4 -7t-7 -3h-21q-5 0 -2 -5q20 -32 20 -65q0 -17 -7 -38q-10 -32 -33 -46t-51 -14q-19 0 -36 5q-9 1 -6 11l8 32q3 9 13 7q3 -1 10 -1q17 0 28.5 12.5t11.5 38.5
q0 34 -32 71q-1 2 -2 2t-2 1q-42 19 -42 79q0 8 2 30l39 315q0 4 -4 4h-37q-5 0 -7.5 3t-1.5 7l6 50q2 10 11 10h38q4 0 4 4l14 113q2 10 11 10h71q10 0 8 -10l-13 -113q-1 -1 0 -2.5t3 -1.5h68q10 0 8 -10l-6 -50q-2 -10 -11 -10z" />
    <glyph glyph-name="Tcaron" unicode="&#x164;" horiz-adv-x="426" 
d="M460.5 697q2.5 -3 1.5 -7l-8 -63q0 -4 -3 -7t-8 -3h-127q-4 0 -4 -4l-74 -603q-2 -10 -11 -10h-74q-10 0 -8 10l74 603q0 4 -4 4h-120q-10 0 -8 10l7 63q1 4 4 7t7 3h349q4 0 6.5 -3zM183 882q0 7 9 7h59q6 0 11 -7l29 -68q1 -1 3 -1t3 1l46 68q5 7 12 7h60q5 0 6.5 -3.5
t-2.5 -8.5l-79 -104q-5 -7 -12 -7h-83q-6 0 -10 7l-51 104q-1 2 -1 5z" />
    <glyph glyph-name="tcaron" unicode="&#x165;" horiz-adv-x="267" 
d="M268 439h-68q-4 0 -4 -4l-35 -281q-1 -7 -1 -20q0 -29 12 -40t37 -10h9q10 0 8 -10l-7 -64q-1 -4 -4 -7t-7 -3h-30q-56 0 -84.5 19.5t-28.5 72.5q0 8 2 28l39 315q0 4 -4 4h-37q-5 0 -7.5 3t-1.5 7l6 50q2 10 11 10h38q4 0 4 4l14 113q2 10 11 10h71q10 0 8 -10l-13 -113
q-1 -1 0 -2.5t3 -1.5h68q10 0 8 -10l-6 -50q-2 -10 -11 -10zM233 576.5q-2 3.5 2 8.5l73 108q7 7 13 7h59q6 0 7.5 -3.5t-2.5 -8.5l-85 -109q-4 -6 -12 -6h-48q-5 0 -7 3.5z" />
    <glyph glyph-name="Tbar" unicode="&#x166;" horiz-adv-x="426" 
d="M451 620q-3 -3 -8 -3h-127q-4 0 -4 -4l-24 -194q0 -4 4 -4h66q5 0 7.5 -3t1.5 -7l-5 -41q-2 -10 -11 -10h-67q-4 0 -4 -4l-42 -340q-2 -10 -11 -10h-74q-10 0 -8 10l42 340q0 4 -4 4h-77q-5 0 -7.5 3t-1.5 7l5 41q2 10 11 10h78q4 0 4 4l24 194q0 4 -4 4h-120
q-10 0 -8 10l7 63q1 4 4 7t7 3h349q4 0 6.5 -3t1.5 -7l-8 -63q0 -4 -3 -7z" />
    <glyph glyph-name="tbar" unicode="&#x167;" horiz-adv-x="267" 
d="M268 439h-68q-4 0 -4 -4l-10 -81q0 -2 1 -3t2 -1h68q5 0 7.5 -3t1.5 -7l-5 -40q-2 -10 -11 -10h-68q-4 0 -4 -4l-17 -132q-1 -7 -1 -20q0 -29 12 -40t37 -10h9q10 0 8 -10l-7 -64q-1 -4 -4 -7t-7 -3h-30q-56 0 -84.5 19.5t-28.5 72.5q0 8 2 28l20 166q1 1 0 2.5t-3 1.5
h-36q-10 0 -8 10l5 40q0 4 3 7t8 3h35q2 0 3.5 1t1.5 3l10 81q0 4 -4 4h-37q-5 0 -7.5 3t-1.5 7l6 50q2 10 11 10h38q4 0 4 4l14 113q2 10 11 10h71q10 0 8 -10l-13 -113q-1 -1 0 -2.5t3 -1.5h68q10 0 8 -10l-6 -50q-2 -10 -11 -10z" />
    <glyph glyph-name="Utilde" unicode="&#x168;" horiz-adv-x="463" 
d="M98 37q-41 45 -41 120q0 11 2 33l62 500q0 4 3 7t8 3h73q9 0 9 -10l-63 -510q-1 -7 -1 -20q0 -39 19 -62t52 -23q37 0 63.5 29t32.5 76l63 510q0 4 3 7t8 3h73q9 0 9 -10l-62 -500q-10 -89 -65.5 -143.5t-135.5 -54.5q-71 0 -112 45zM346.5 796q-10.5 5 -26.5 15
q-4 3 -11.5 9t-14 8.5t-14.5 2.5q-12 0 -22 -5.5t-21 -20.5q-3 -4 -7 -5t-7 2l-25 20q-6 6 -2 13q17 30 39.5 45t46.5 15q15 0 27.5 -6t27.5 -17q3 -2 10.5 -8t14.5 -9t15 -3q12 0 22 5.5t21 20.5q3 4 7 4.5t7 -1.5l24 -18q3 -3 3 -8q0 -4 -4 -11q-19 -28 -42.5 -40.5
t-44.5 -12.5q-13 0 -23.5 5z" />
    <glyph glyph-name="utilde" unicode="&#x169;" 
d="M327 509h74q10 0 8 -10l-60 -489q0 -4 -3 -7t-7 -3h-74q-9 0 -9 10l4 29q0 3 -1.5 3t-2.5 -2q-35 -47 -100 -47q-52 0 -83 29.5t-31 89.5q0 9 2 29l44 358q1 4 4 7t7 3h74q9 0 9 -10l-42 -337q-1 -8 -1 -21q0 -65 57 -65q32 0 53.5 24.5t26.5 67.5l40 331q2 10 11 10z
M298.5 605q-10.5 5 -26.5 15q-4 3 -11.5 9t-14 8.5t-14.5 2.5q-12 0 -22 -5.5t-21 -20.5q-3 -4 -7 -5t-7 2l-25 20q-6 6 -2 13q17 30 39.5 45t46.5 15q15 0 27.5 -6t27.5 -17q3 -2 10.5 -8t14.5 -9t15 -3q12 0 22 5.5t21 20.5q3 4 7 4.5t7 -1.5l24 -18q3 -3 3 -8
q0 -4 -4 -11q-19 -28 -42.5 -40.5t-44.5 -12.5q-13 0 -23.5 5z" />
    <glyph glyph-name="Umacron" unicode="&#x16a;" horiz-adv-x="463" 
d="M98 37q-41 45 -41 120q0 11 2 33l62 500q0 4 3 7t8 3h73q9 0 9 -10l-63 -510q-1 -7 -1 -20q0 -39 19 -62t52 -23q37 0 63.5 29t32.5 76l63 510q0 4 3 7t8 3h73q9 0 9 -10l-62 -500q-10 -89 -65.5 -143.5t-135.5 -54.5q-71 0 -112 45zM207.5 784q-2.5 3 -1.5 7l6 48
q2 10 11 10h182q9 0 9 -10l-6 -48q-2 -10 -11 -10h-183q-4 0 -6.5 3z" />
    <glyph glyph-name="umacron" unicode="&#x16b;" 
d="M327 509h74q10 0 8 -10l-60 -489q0 -4 -3 -7t-7 -3h-74q-9 0 -9 10l4 29q0 3 -1.5 3t-2.5 -2q-35 -47 -100 -47q-52 0 -83 29.5t-31 89.5q0 9 2 29l44 358q1 4 4 7t7 3h74q9 0 9 -10l-42 -337q-1 -8 -1 -21q0 -65 57 -65q32 0 53.5 24.5t26.5 67.5l40 331q2 10 11 10z
M159.5 593q-2.5 3 -1.5 7l6 48q2 10 11 10h182q9 0 9 -10l-6 -48q-2 -10 -11 -10h-183q-4 0 -6.5 3z" />
    <glyph glyph-name="Ubreve" unicode="&#x16c;" horiz-adv-x="463" 
d="M98 37q-41 45 -41 120q0 11 2 33l62 500q0 4 3 7t8 3h73q9 0 9 -10l-63 -510q-1 -7 -1 -20q0 -39 19 -62t52 -23q37 0 63.5 29t32.5 76l63 510q0 4 3 7t8 3h73q9 0 9 -10l-62 -500q-10 -89 -65.5 -143.5t-135.5 -54.5q-71 0 -112 45zM236 793q-27 28 -25 72q2 10 11 10
h33q9 0 9 -10q0 -23 13.5 -38t34.5 -15t38 15t22 38q3 10 12 10h33q10 0 8 -10q-9 -44 -42 -72t-77 -28q-43 0 -70 28z" />
    <glyph glyph-name="ubreve" unicode="&#x16d;" 
d="M327 509h74q10 0 8 -10l-60 -489q0 -4 -3 -7t-7 -3h-74q-9 0 -9 10l4 29q0 3 -1.5 3t-2.5 -2q-35 -47 -100 -47q-52 0 -83 29.5t-31 89.5q0 9 2 29l44 358q1 4 4 7t7 3h74q9 0 9 -10l-42 -337q-1 -8 -1 -21q0 -65 57 -65q32 0 53.5 24.5t26.5 67.5l40 331q2 10 11 10z
M188 602q-27 28 -25 72q2 10 11 10h33q9 0 9 -10q0 -23 13.5 -38t34.5 -15t38 15t22 38q3 10 12 10h33q10 0 8 -10q-9 -44 -42 -72t-77 -28q-43 0 -70 28z" />
    <glyph glyph-name="Uring" unicode="&#x16e;" horiz-adv-x="463" 
d="M98 37q-41 45 -41 120q0 11 2 33l62 500q0 4 3 7t8 3h73q9 0 9 -10l-63 -510q-1 -7 -1 -20q0 -39 19 -62t52 -23q37 0 63.5 29t32.5 76l63 510q0 4 3 7t8 3h73q9 0 9 -10l-62 -500q-10 -89 -65.5 -143.5t-135.5 -54.5q-71 0 -112 45zM236 792q-27 28 -27 71q0 35 17 64.5
t46 46.5t62 17q42 0 69 -28t27 -71q0 -34 -17.5 -63.5t-46 -47t-60.5 -17.5q-43 0 -70 28zM357 838q19 20 19 48q0 23 -13.5 37.5t-35.5 14.5q-26 0 -45.5 -20.5t-19.5 -48.5q0 -22 14.5 -36.5t36.5 -14.5q25 0 44 20z" />
    <glyph glyph-name="uring" unicode="&#x16f;" 
d="M327 509h74q10 0 8 -10l-60 -489q0 -4 -3 -7t-7 -3h-74q-9 0 -9 10l4 29q0 3 -1.5 3t-2.5 -2q-35 -47 -100 -47q-52 0 -83 29.5t-31 89.5q0 9 2 29l44 358q1 4 4 7t7 3h74q9 0 9 -10l-42 -337q-1 -8 -1 -21q0 -65 57 -65q32 0 53.5 24.5t26.5 67.5l40 331q2 10 11 10z
M188 601q-27 28 -27 71q0 35 17 64.5t46 46.5t62 17q42 0 69 -28t27 -71q0 -34 -17.5 -63.5t-46 -47t-60.5 -17.5q-43 0 -70 28zM309 647q19 20 19 48q0 23 -13.5 37.5t-35.5 14.5q-26 0 -45.5 -20.5t-19.5 -48.5q0 -22 14.5 -36.5t36.5 -14.5q25 0 44 20z" />
    <glyph glyph-name="Uhungarumlaut" unicode="&#x170;" horiz-adv-x="463" 
d="M98 37q-41 45 -41 120q0 11 2 33l62 500q0 4 3 7t8 3h73q9 0 9 -10l-63 -510q-1 -7 -1 -20q0 -39 19 -62t52 -23q37 0 63.5 29t32.5 76l63 510q0 4 3 7t8 3h73q9 0 9 -10l-62 -500q-10 -89 -65.5 -143.5t-135.5 -54.5q-71 0 -112 45zM208.5 767.5q-1.5 3.5 1.5 8.5
l65 108q4 7 13 7h61q6 0 8 -3.5t-2 -8.5l-70 -108q-4 -7 -13 -7h-57q-5 0 -6.5 3.5zM341 767.5q-2 3.5 2 8.5l69 108q4 7 13 7h57q6 0 8 -3.5t-2 -8.5l-70 -108q-4 -7 -13 -7h-56q-6 0 -8 3.5z" />
    <glyph glyph-name="uhungarumlaut" unicode="&#x171;" 
d="M327 509h74q10 0 8 -10l-60 -489q0 -4 -3 -7t-7 -3h-74q-9 0 -9 10l4 29q0 3 -1.5 3t-2.5 -2q-35 -47 -100 -47q-52 0 -83 29.5t-31 89.5q0 9 2 29l44 358q1 4 4 7t7 3h74q9 0 9 -10l-42 -337q-1 -8 -1 -21q0 -65 57 -65q32 0 53.5 24.5t26.5 67.5l40 331q2 10 11 10z
M160.5 576.5q-1.5 3.5 1.5 8.5l65 108q4 7 13 7h61q6 0 8 -3.5t-2 -8.5l-70 -108q-4 -7 -13 -7h-57q-5 0 -6.5 3.5zM293 576.5q-2 3.5 2 8.5l69 108q4 7 13 7h57q6 0 8 -3.5t-2 -8.5l-70 -108q-4 -7 -13 -7h-56q-6 0 -8 3.5z" />
    <glyph glyph-name="Uogonek" unicode="&#x172;" horiz-adv-x="463" 
d="M383 697q3 3 8 3h73q9 0 9 -10l-62 -500q-10 -80 -55.5 -132.5t-113.5 -63.5q-3 0 -5 -2q-22 -21 -34.5 -43t-12.5 -42q3 -32 31 -32q6 0 10 1h2q8 0 8 -8l1 -32q0 -9 -9 -12q-20 -4 -35 -4q-31 0 -51.5 15t-20.5 53q0 57 46 103q4 4 -1 5q-53 11 -83.5 54t-30.5 107
q0 11 2 33l62 500q0 4 3 7t8 3h73q9 0 9 -10l-63 -510q-1 -7 -1 -20q0 -39 19 -62t52 -23q37 0 63.5 29t32.5 76l63 510q0 4 3 7z" />
    <glyph glyph-name="uogonek" unicode="&#x173;" 
d="M328 -132q8 0 8 -7l1 -32q0 -10 -9 -11q-17 -5 -37 -5q-30 0 -50 16t-20 54q0 62 58 112q3 5 -2 5h-12q-9 0 -9 10l4 29q0 3 -1.5 3t-2.5 -2q-35 -47 -100 -47q-52 0 -83 29.5t-31 89.5q0 9 2 29l44 358q1 4 4 7t7 3h74q9 0 9 -10l-42 -337q-1 -8 -1 -21q0 -65 57 -65
q32 0 53.5 24.5t26.5 67.5l40 331q2 10 11 10h74q10 0 8 -10l-61 -499l-5 -5q-27 -23 -43 -48t-15 -48q1 -16 9 -24t21 -8q7 0 10 1h3z" />
    <glyph glyph-name="Wcircumflex" unicode="&#x174;" horiz-adv-x="622" 
d="M136 9l-46 680q0 5 3 8t7 3h77q9 0 10 -9l21 -469q0 -2 1.5 -2t2.5 2l127 469q3 9 11 9h65q8 0 8 -9l17 -469q1 -2 2 -2t2 2l130 469q2 9 11 9h75q10 0 8 -11l-206 -680q-3 -9 -12 -9h-69q-8 0 -8 9l-16 473q-1 2 -2.5 2t-1.5 -2l-128 -473q-3 -9 -11 -9h-68q-10 0 -10 9
zM266.5 771.5q-1.5 3.5 2.5 8.5l76 104q5 7 12 7h83q6 0 11 -7l53 -104q1 -2 1 -5q0 -7 -8 -7h-60q-7 0 -10 7l-30 68q-1 2 -3 1.5t-3 -1.5l-46 -68q-5 -7 -12 -7h-60q-5 0 -6.5 3.5z" />
    <glyph glyph-name="wcircumflex" unicode="&#x175;" horiz-adv-x="558" 
d="M106 9l-44 489q0 11 10 11h71q9 0 10 -9l17 -345q1 -2 2 -2t2 2l104 345q2 9 11 9h64q10 0 10 -9l21 -345q0 -2 1.5 -2t2.5 2l103 345q3 9 12 9l70 -1q4 0 6.5 -3t0.5 -8l-165 -488q-1 -9 -11 -9h-73q-10 0 -10 9l-21 328q0 2 -1.5 2t-2.5 -2l-99 -328q-3 -9 -12 -9h-70
q-9 0 -9 9zM210.5 580.5q-1.5 3.5 2.5 8.5l76 104q5 7 12 7h83q6 0 11 -7l53 -104q1 -2 1 -5q0 -7 -8 -7h-60q-7 0 -10 7l-30 68q-1 2 -3 1.5t-3 -1.5l-46 -68q-5 -7 -12 -7h-60q-5 0 -6.5 3.5z" />
    <glyph glyph-name="Ycircumflex" unicode="&#x176;" horiz-adv-x="429" 
d="M150 11l35 286q0 1 -0.5 2.5t0.5 2.5l-88 387v2q0 9 9 9h78q8 0 11 -8l48 -276q1 -2 3 -2t3 2l116 276q5 8 13 8h78q5 0 6.5 -3t-0.5 -8l-182 -387q-2 -2 -2 -5l-35 -286q-2 -10 -11 -10h-74q-10 0 -8 10zM170.5 771.5q-1.5 3.5 2.5 8.5l76 104q5 7 12 7h83q6 0 11 -7
l53 -104q1 -2 1 -5q0 -7 -8 -7h-60q-7 0 -10 7l-30 68q-1 2 -3 1.5t-3 -1.5l-46 -68q-5 -7 -12 -7h-60q-5 0 -6.5 3.5z" />
    <glyph glyph-name="ycircumflex" unicode="&#x177;" horiz-adv-x="375" 
d="M-8 -189l8 59q0 4 3 7t7 3q31 1 50 10t33.5 34t28.5 73l-1 5l-63 496v2q0 4 3 6.5t7 2.5h80q9 0 9 -9l27 -361q0 -3 1.5 -3t2.5 3l114 361q3 9 12 9l80 -1q5 0 7 -3t0 -8l-199 -532q-26 -69 -49 -102.5t-57 -47.5t-94 -14h-5q-5 0 -5 10zM119.5 580.5q-1.5 3.5 2.5 8.5
l76 104q5 7 12 7h83q6 0 11 -7l53 -104q1 -2 1 -5q0 -7 -8 -7h-60q-7 0 -10 7l-30 68q-1 2 -3 1.5t-3 -1.5l-46 -68q-5 -7 -12 -7h-60q-5 0 -6.5 3.5z" />
    <glyph glyph-name="Ydieresis" unicode="&#x178;" horiz-adv-x="429" 
d="M150 11l35 286q0 1 -0.5 2.5t0.5 2.5l-88 387v2q0 9 9 9h78q8 0 11 -8l48 -276q1 -2 3 -2t3 2l116 276q5 8 13 8h78q5 0 6.5 -3t-0.5 -8l-182 -387q-2 -2 -2 -5l-35 -286q-2 -10 -11 -10h-74q-10 0 -8 10zM329 795q-15 15 -15 39q0 32 20.5 53t50.5 21q24 0 39 -15.5
t15 -40.5q0 -31 -20.5 -51.5t-49.5 -20.5q-25 0 -40 15zM172 795q-15 15 -15 39q0 32 20.5 53t50.5 21q24 0 39 -15.5t15 -40.5q0 -31 -20.5 -51.5t-49.5 -20.5q-25 0 -40 15z" />
    <glyph glyph-name="Zacute" unicode="&#x179;" horiz-adv-x="389" 
d="M11.5 3q-2.5 3 -1.5 7l8 67q2 6 5 12l289 523q1 2 0 3.5t-2 1.5h-216q-10 0 -8 10l7 63q1 4 4 7t7 3h310q10 0 8 -10l-8 -67q0 -2 -4 -12l-291 -523q-1 -2 0 -3.5t3 -1.5h216q9 0 9 -10l-8 -63q-2 -10 -11 -10h-310q-4 0 -6.5 3zM219 767.5q-2 3.5 2 8.5l73 108q7 7 13 7
h59q6 0 7.5 -3.5t-2.5 -8.5l-85 -109q-4 -6 -12 -6h-48q-5 0 -7 3.5z" />
    <glyph glyph-name="zacute" unicode="&#x17a;" horiz-adv-x="354" 
d="M10.5 3q-2.5 3 -1.5 7l9 70q0 5 4 13l221 323q1 2 0.5 3.5t-2.5 1.5h-168q-10 0 -8 10l8 68q2 10 11 10h274q5 0 7.5 -3t1.5 -7l-9 -71q0 -5 -4 -13l-226 -323q-2 -2 -1 -3.5t3 -1.5h179q5 0 7.5 -3t1.5 -7l-8 -67q-2 -10 -11 -10h-282q-4 0 -6.5 3zM181 576.5
q-2 3.5 2 8.5l73 108q7 7 13 7h59q6 0 7.5 -3.5t-2.5 -8.5l-85 -109q-4 -6 -12 -6h-48q-5 0 -7 3.5z" />
    <glyph glyph-name="Zdotaccent" unicode="&#x17b;" horiz-adv-x="389" 
d="M11.5 3q-2.5 3 -1.5 7l8 67q2 6 5 12l289 523q1 2 0 3.5t-2 1.5h-216q-10 0 -8 10l7 63q1 4 4 7t7 3h310q10 0 8 -10l-8 -67q0 -2 -4 -12l-291 -523q-1 -2 0 -3.5t3 -1.5h216q9 0 9 -10l-8 -63q-2 -10 -11 -10h-310q-4 0 -6.5 3zM230 795q-15 15 -15 39q0 32 20.5 53
t50.5 21q24 0 39 -15.5t15 -40.5q0 -31 -20.5 -51.5t-49.5 -20.5q-25 0 -40 15z" />
    <glyph glyph-name="zdotaccent" unicode="&#x17c;" horiz-adv-x="354" 
d="M10.5 3q-2.5 3 -1.5 7l9 70q0 5 4 13l221 323q1 2 0.5 3.5t-2.5 1.5h-168q-10 0 -8 10l8 68q2 10 11 10h274q5 0 7.5 -3t1.5 -7l-9 -71q0 -5 -4 -13l-226 -323q-2 -2 -1 -3.5t3 -1.5h179q5 0 7.5 -3t1.5 -7l-8 -67q-2 -10 -11 -10h-282q-4 0 -6.5 3zM192 604
q-15 15 -15 39q0 32 20.5 53t50.5 21q24 0 39 -15.5t15 -40.5q0 -31 -20.5 -51.5t-49.5 -20.5q-25 0 -40 15z" />
    <glyph glyph-name="Zcaron" unicode="&#x17d;" horiz-adv-x="389" 
d="M11.5 3q-2.5 3 -1.5 7l8 67q2 6 5 12l289 523q1 2 0 3.5t-2 1.5h-216q-10 0 -8 10l7 63q1 4 4 7t7 3h310q10 0 8 -10l-8 -67q0 -2 -4 -12l-291 -523q-1 -2 0 -3.5t3 -1.5h216q9 0 9 -10l-8 -63q-2 -10 -11 -10h-310q-4 0 -6.5 3zM166 884q0 7 9 7h59q6 0 11 -7l29 -68
q1 -1 3 -1t3 1l46 68q5 7 12 7h60q5 0 6.5 -3.5t-2.5 -8.5l-79 -104q-5 -7 -12 -7h-83q-6 0 -10 7l-51 104q-1 2 -1 5z" />
    <glyph glyph-name="zcaron" unicode="&#x17e;" horiz-adv-x="354" 
d="M10.5 3q-2.5 3 -1.5 7l9 70q0 5 4 13l221 323q1 2 0.5 3.5t-2.5 1.5h-168q-10 0 -8 10l8 68q2 10 11 10h274q5 0 7.5 -3t1.5 -7l-9 -71q0 -5 -4 -13l-226 -323q-2 -2 -1 -3.5t3 -1.5h179q5 0 7.5 -3t1.5 -7l-8 -67q-2 -10 -11 -10h-282q-4 0 -6.5 3zM128 693q0 7 9 7h59
q6 0 11 -7l29 -68q1 -1 3 -1t3 1l46 68q5 7 12 7h60q5 0 6.5 -3.5t-2.5 -8.5l-79 -104q-5 -7 -12 -7h-83q-6 0 -10 7l-51 104q-1 2 -1 5z" />
    <glyph glyph-name="uni018F" unicode="&#x18f;" horiz-adv-x="512" 
d="M458 659.5q50 -48.5 50 -130.5q0 -10 -2 -34l-36 -293q-7 -62 -39.5 -110.5t-84 -75.5t-114.5 -27q-87 0 -137 49.5t-50 131.5q0 10 2 32l21 169q2 10 11 10h316q4 0 4 4l13 104q1 8 1 23q0 50 -28 81t-75 31q-44 0 -75.5 -28t-45.5 -75q-4 -9 -12 -9l-79 4q-10 0 -7 11
q20 84 81 132.5t149 48.5q87 0 137 -48.5zM332.5 111q37.5 38 45.5 98l10 80q0 4 -4 4h-230q-4 0 -4 -4l-10 -80q-1 -8 -1 -22q0 -51 28.5 -82.5t75.5 -31.5q52 0 89.5 38z" />
    <glyph glyph-name="florin" unicode="&#x192;" horiz-adv-x="458" 
d="M338 671q40 38 109 38q18 0 41 -3q6 -1 8 -3t1 -7l-10 -66q-1 -10 -11 -10h-25q-35 0 -54.5 -23.5t-32.5 -70.5l-34 -125q-1 -4 2 -4h65q10 0 8 -10l-6 -50q0 -4 -3 -7t-8 -3h-76q-5 0 -6 -4l-105 -376q-22 -80 -62 -118t-109 -38q-19 0 -41 3q-9 2 -8 10l10 66
q1 10 11 10h24q34 0 54 24t32 70l99 349q1 4 -2 4h-51q-5 0 -7.5 3t-1.5 7l6 50q2 10 11 10h62q5 0 6 4l42 152q22 80 62 118z" />
    <glyph glyph-name="Ohorn" unicode="&#x1a0;" horiz-adv-x="448" 
d="M405 667q44 -42 44 -115q0 -10 -2 -28l-43 -349q-10 -83 -65.5 -133t-135.5 -50q-72 0 -114 41t-42 112q0 10 2 30l42 349q10 83 65 133.5t135 50.5q24 0 54 -7q1 -1 4 -1q23 3 41.5 20t25.5 51q0 4 3 7t8 3h33q4 0 6 -4t1 -10q-13 -66 -61 -95q-5 -1 -1 -5zM354 529
q1 6 1 16q0 36 -20 58t-55 22q-37 0 -63.5 -26.5t-31.5 -69.5l-44 -358q-1 -6 -1 -17q0 -36 19.5 -57.5t53.5 -21.5q38 0 65 26.5t32 69.5z" />
    <glyph glyph-name="ohorn" unicode="&#x1a1;" horiz-adv-x="412" 
d="M363 475q34 -36 34 -92q0 -7 -2 -25l-25 -207q-9 -72 -59 -115.5t-126 -43.5q-69 0 -107.5 36t-38.5 98q0 7 2 25l25 207q9 71 59 115t125 44q24 0 54 -7q1 -1 4 -1q23 3 41.5 20t25.5 51q2 10 11 10h33q10 0 7 -14q-13 -67 -62 -96q-6 -2 -1 -5zM302 365q0 31 -17 50
t-45 19q-31 0 -53.5 -23t-27.5 -59l-24 -194q-1 -5 -1 -14q0 -31 17 -49.5t45 -18.5q31 0 54 23t27 59l24 194q1 5 1 13z" />
    <glyph glyph-name="Uhorn" unicode="&#x1af;" horiz-adv-x="463" 
d="M558 771q-7 -43 -30 -70.5t-56 -39.5q-3 -1 -3 -4l-58 -467q-10 -89 -65.5 -143.5t-135.5 -54.5q-71 0 -112 45t-41 120q0 11 2 33l62 500q0 4 3 7t8 3h73q9 0 9 -10l-63 -510q-1 -7 -1 -20q0 -39 19 -62t52 -23q37 0 63.5 29t32.5 76l63 510q0 4 3 7t8 3h43
q24 0 44.5 17.5t27.5 53.5q2 10 11 10h33q10 0 8 -10z" />
    <glyph glyph-name="uhorn" unicode="&#x1b0;" 
d="M493 580q-7 -42 -29.5 -70t-54.5 -39q-3 -1 -3 -4l-57 -457q0 -4 -3 -7t-7 -3h-74q-9 0 -9 10l4 29q0 3 -1.5 3t-2.5 -2q-35 -47 -100 -47q-52 0 -83 29.5t-31 89.5q0 9 2 29l44 358q1 4 4 7t7 3h74q9 0 9 -10l-42 -337q-1 -8 -1 -21q0 -65 57 -65q32 0 53.5 24.5
t26.5 67.5l40 331q2 10 11 10h42q24 0 44.5 17.5t27.5 53.5q2 10 11 10h33q10 0 8 -10z" />
    <glyph glyph-name="uni01CD" unicode="&#x1cd;" horiz-adv-x="423" 
d="M297 9l-7 115q0 2 -1.5 3t-3.5 1h-158q-2 0 -3.5 -1t-1.5 -3l-35 -115q-1 -9 -11 -9h-74q-5 0 -7 3t0 8l228 680q2 9 11 9h87q9 0 9 -9l62 -680q0 -11 -10 -11h-75q-10 0 -10 9zM149 205.5q1 -1.5 2 -1.5h129q2 0 4 4l-23 355q0 2 -1.5 2t-2.5 -2l-108 -355q-1 -1 0 -2.5
zM182 882q0 7 9 7h59q6 0 11 -7l29 -68q1 -1 3 -1t3 1l46 68q5 7 12 7h60q5 0 6.5 -3.5t-2.5 -8.5l-79 -104q-5 -7 -12 -7h-83q-6 0 -10 7l-51 104q-1 2 -1 5z" />
    <glyph glyph-name="uni01CE" unicode="&#x1ce;" horiz-adv-x="411" 
d="M319 506q3 3 7 3h74q9 0 9 -10l-61 -489q0 -4 -3 -7t-7 -3h-74q-9 0 -9 10l5 35q0 3 -1.5 3.5t-3.5 -1.5q-19 -28 -46 -41.5t-57 -13.5q-55 0 -84 33.5t-29 92.5q0 9 2 33l25 207q9 74 48.5 116.5t102.5 42.5q29 0 52.5 -13.5t36.5 -41.5q2 -2 3.5 -1.5t1.5 3.5l4 35
q1 4 4 7zM247 98q22 23 26 59l24 195q1 5 1 14q0 31 -16 49.5t-43 18.5q-31 0 -53 -23t-27 -59l-24 -195q-1 -5 -1 -14q0 -30 16.5 -49t43.5 -19q31 0 53 23zM153 691q0 7 9 7h59q6 0 11 -7l29 -68q1 -1 3 -1t3 1l46 68q5 7 12 7h60q5 0 6.5 -3.5t-2.5 -8.5l-79 -104
q-5 -7 -12 -7h-83q-6 0 -10 7l-51 104q-1 2 -1 5z" />
    <glyph glyph-name="uni01D4" unicode="&#x1d4;" 
d="M327 509h74q10 0 8 -10l-60 -489q0 -4 -3 -7t-7 -3h-74q-9 0 -9 10l4 29q0 3 -1.5 3t-2.5 -2q-35 -47 -100 -47q-52 0 -83 29.5t-31 89.5q0 9 2 29l44 358q1 4 4 7t7 3h74q9 0 9 -10l-42 -337q-1 -8 -1 -21q0 -65 57 -65q32 0 53.5 24.5t26.5 67.5l40 331q2 10 11 10z
M154 691q0 7 9 7h59q6 0 11 -7l29 -68q1 -1 3 -1t3 1l46 68q5 7 12 7h60q5 0 6.5 -3.5t-2.5 -8.5l-79 -104q-5 -7 -12 -7h-83q-6 0 -10 7l-51 104q-1 2 -1 5z" />
    <glyph glyph-name="uni01E5" unicode="&#x1e5;" 
d="M429 274l-5 -41q0 -4 -3 -7t-8 -3h-34q-2 0 -3.5 -1t-1.5 -3l-25 -204q-13 -105 -66.5 -162.5t-167.5 -57.5l-26 1q-10 2 -8 11l8 64q2 10 11 10q80 -3 114 32.5t43 110.5l3 21q0 2 -1.5 2.5t-3.5 -1.5q-20 -24 -46 -35t-54 -11q-56 0 -85.5 33.5t-29.5 92.5q0 10 2 32
l24 200q9 74 49.5 116.5t103.5 42.5q62 0 88 -46q2 -2 3.5 -1t1.5 3l3 26q1 4 4 7t7 3h74q9 0 9 -10l-26 -211q-1 -1 0 -2.5t3 -1.5h35q10 0 8 -10zM247.5 105.5q21.5 22.5 26.5 58.5l7 55q0 4 -3 4h-64q-5 0 -7.5 3t-1.5 7l5 41q2 10 11 10h64q3 0 5 4l7 64q1 5 1 15
q0 30 -16 48.5t-43 18.5q-31 0 -53 -23t-27 -59l-23 -188q-1 -5 -1 -14q0 -30 16.5 -48.5t43.5 -18.5q31 0 52.5 22.5z" />
    <glyph glyph-name="gcaron" unicode="&#x1e7;" horiz-adv-x="411" 
d="M319 506q3 3 7 3h74q9 0 9 -10l-60 -484q-13 -105 -66.5 -162.5t-167.5 -57.5l-26 1q-10 2 -8 11l8 64q2 10 11 10q80 -3 114 32.5t43 110.5l3 21q0 2 -1.5 2.5t-3.5 -1.5q-20 -24 -46 -35t-54 -11q-56 0 -85.5 33.5t-29.5 92.5q0 10 2 32l24 200q9 74 49.5 116.5
t103.5 42.5q62 0 88 -46q2 -2 3.5 -1t1.5 3l3 26q1 4 4 7zM247.5 105.5q21.5 22.5 26.5 58.5l23 188q1 5 1 15q0 30 -16 48.5t-43 18.5q-31 0 -53 -23t-27 -59l-23 -188q-1 -5 -1 -14q0 -30 16.5 -48.5t43.5 -18.5q31 0 52.5 22.5zM154 691q0 7 9 7h59q6 0 11 -7l29 -68
q1 -1 3 -1t3 1l46 68q5 7 12 7h60q5 0 6.5 -3.5t-2.5 -8.5l-79 -104q-5 -7 -12 -7h-83q-6 0 -10 7l-51 104q-1 2 -1 5z" />
    <glyph glyph-name="uni01E9" unicode="&#x1e9;" horiz-adv-x="408" 
d="M32 10l84 680q0 4 3 7t8 3h73q5 0 7.5 -3t1.5 -7l-47 -379q0 -3 2 -4t3 2l149 194q5 6 12 6h76q6 0 7.5 -3.5t-2.5 -8.5l-118 -152q-3 -3 -2 -6l76 -328v-2q0 -9 -9 -9h-77q-3 0 -6 2t-4 6l-47 251q-1 6 -6 1l-69 -87q-2 -2 -2 -5l-20 -158q0 -4 -3 -7t-8 -3h-73
q-9 0 -9 10zM179 882q0 7 9 7h59q6 0 11 -7l29 -68q1 -1 3 -1t3 1l46 68q5 7 12 7h60q5 0 6.5 -3.5t-2.5 -8.5l-79 -104q-5 -7 -12 -7h-83q-6 0 -10 7l-51 104q-1 2 -1 5z" />
    <glyph glyph-name="uni01EF" unicode="&#x1ef;" horiz-adv-x="418" 
d="M213 253q76 -15 116 -66t40 -124q0 -23 -2 -35q-9 -73 -48.5 -125.5t-98 -80t-122.5 -27.5q-43 0 -88 14q-7 4 -6 12l11 65q1 11 12 8q30 -12 72 -12q65 0 115.5 36.5t60.5 115.5q2 16 2 25q0 52 -29.5 85.5t-94.5 33.5q-24 0 -56 -6h-3q-6 0 -8 6l-14 48v3q0 6 5 11
l187 176q3 5 -2 5h-176q-5 0 -7.5 3t-1.5 7l9 68q0 4 3 7t7 3h290q4 0 6.5 -3t1.5 -7l-9 -71q0 -6 -6 -12l-167 -158q-3 -3 1 -5zM154 691q0 7 9 7h59q6 0 11 -7l29 -68q1 -1 3 -1t3 1l46 68q5 7 12 7h60q5 0 6.5 -3.5t-2.5 -8.5l-79 -104q-5 -7 -12 -7h-83q-6 0 -10 7
l-51 104q-1 2 -1 5z" />
    <glyph glyph-name="oslashacute" unicode="&#x1ff;" horiz-adv-x="412" 
d="M421 522q1 -4 -2 -8l-35 -59q-1 -3 0 -6q14 -30 14 -68q0 -15 -1 -23l-25 -207q-9 -73 -58.5 -116t-125.5 -43q-37 0 -65 11q-5 2 -6 -2l-26 -46q-6 -10 -15 -4l-44 30q-4 2 -4.5 6t1.5 8l32 52q2 3 0 6q-20 29 -20 72q0 8 2 26l25 207q9 71 59 115t126 44q44 0 71 -13
q5 -2 6 2l28 49q3 4 7 5t7 -1l45 -31q3 -2 4 -6zM146 192l132 227q3 4 0 5q-14 10 -36 10q-32 0 -54.5 -23t-26.5 -59l-20 -159q0 -6 5 -1zM295.5 300q-1.5 0 -3.5 -2l-124 -210q-2 -5 1 -6q12 -6 29 -6q32 0 54.5 22.5t26.5 59.5l17 139q1 3 -0.5 3zM208 576.5
q-2 3.5 2 8.5l73 108q7 7 13 7h59q6 0 7.5 -3.5t-2.5 -8.5l-85 -109q-4 -6 -12 -6h-48q-5 0 -7 3.5z" />
    <glyph glyph-name="uni0218" unicode="&#x218;" horiz-adv-x="414" 
d="M77 33q-41 41 -41 110q0 8 2 28l4 26q0 4 3 7t8 3h71q5 0 7.5 -3t1.5 -7l-3 -21q-1 -6 -1 -18q0 -39 18.5 -61t49.5 -22q39 0 66.5 31.5t27.5 79.5q0 24 -10.5 43.5t-27.5 36t-55 47.5q-41 35 -64 59t-39 56.5t-16 74.5q0 62 25 108.5t68.5 71.5t97.5 25
q70 0 110.5 -41.5t40.5 -112.5q0 -9 -2 -31l-3 -25q-2 -10 -11 -10h-72q-4 0 -6.5 3t-1.5 7l3 27q1 7 1 20q0 37 -18.5 58.5t-50.5 21.5q-38 0 -63.5 -29.5t-25.5 -80.5q0 -32 18.5 -57t68.5 -67q48 -40 73 -65.5t39 -55t14 -66.5q0 -7 -2 -27q-10 -84 -64.5 -134.5
t-130.5 -50.5q-69 0 -110 41zM103 -189.5q-2 3.5 2 8.5l73 108q7 7 13 7h59q6 0 7.5 -3.5t-2.5 -8.5l-85 -109q-4 -6 -12 -6h-48q-5 0 -7 3.5z" />
    <glyph glyph-name="uni0219" unicode="&#x219;" horiz-adv-x="376" 
d="M67 25q-38 31 -38 85q0 13 1 19l1 9q1 4 4 7t7 3h69q5 0 7.5 -3t1.5 -7l-1 -7q-4 -27 14 -45.5t49 -18.5q32 0 52.5 20.5t20.5 50.5q0 28 -20 42.5t-64 34.5q-32 15 -53.5 29t-38 40t-16.5 64q0 14 1 22q8 68 54 106t116 38q65 0 101 -32.5t36 -89.5q0 -15 -1 -23v-3
q-2 -10 -11 -10h-67q-10 0 -8 10v7l1 9q0 24 -16 40t-43 16q-29 0 -49 -19t-24 -46q-2 -21 8 -35t25.5 -22.5t49.5 -24.5q34 -17 56.5 -31.5t39.5 -40.5t17 -63q0 -73 -49 -117.5t-129 -44.5q-66 0 -104 31zM91 -187.5q-2 3.5 2 8.5l73 108q7 7 13 7h59q6 0 7.5 -3.5
t-2.5 -8.5l-85 -109q-4 -6 -12 -6h-48q-5 0 -7 3.5z" />
    <glyph glyph-name="uni021A" unicode="&#x21a;" horiz-adv-x="426" 
d="M460.5 697q2.5 -3 1.5 -7l-8 -63q0 -4 -3 -7t-8 -3h-127q-4 0 -4 -4l-74 -603q-2 -10 -11 -10h-74q-10 0 -8 10l74 603q0 4 -4 4h-120q-10 0 -8 10l7 63q1 4 4 7t7 3h349q4 0 6.5 -3zM50 -183.5q-2 3.5 2 8.5l73 108q7 7 13 7h59q6 0 7.5 -3.5t-2.5 -8.5l-85 -109
q-4 -6 -12 -6h-48q-5 0 -7 3.5z" />
    <glyph glyph-name="uni021B" unicode="&#x21b;" horiz-adv-x="267" 
d="M268 439h-68q-4 0 -4 -4l-35 -281q-1 -7 -1 -20q0 -29 12 -40t37 -10h9q10 0 8 -10l-7 -64q-1 -4 -4 -7t-7 -3h-30q-56 0 -84.5 19.5t-28.5 72.5q0 8 2 28l39 315q0 4 -4 4h-37q-5 0 -7.5 3t-1.5 7l6 50q2 10 11 10h38q4 0 4 4l14 113q2 10 11 10h71q10 0 8 -10l-13 -113
q-1 -1 0 -2.5t3 -1.5h68q10 0 8 -10l-6 -50q-2 -10 -11 -10zM57 -172.5q-2 3.5 2 8.5l73 108q7 7 13 7h59q6 0 7.5 -3.5t-2.5 -8.5l-85 -109q-4 -6 -12 -6h-48q-5 0 -7 3.5z" />
    <glyph glyph-name="uni021F" unicode="&#x21f;" 
d="M372 483.5q28 -32.5 28 -92.5q0 -18 -3 -38l-42 -343q0 -4 -3 -7t-8 -3h-73q-5 0 -7.5 3t-1.5 7l41 335q1 7 1 21q0 32 -14.5 49.5t-41.5 17.5q-32 0 -53 -22.5t-27 -63.5q-1 -6 -2 -6l-41 -331q0 -4 -3 -7t-8 -3h-73q-9 0 -9 10l84 680q0 4 3 7t8 3h73q5 0 7.5 -3
t1.5 -7l-27 -218q0 -2 2 -2.5t4 2.5q40 44 103 44q53 0 81 -32.5zM187 882q0 7 9 7h59q6 0 11 -7l29 -68q1 -1 3 -1t3 1l46 68q5 7 12 7h60q5 0 6.5 -3.5t-2.5 -8.5l-79 -104q-5 -7 -12 -7h-83q-6 0 -10 7l-51 104q-1 2 -1 5z" />
    <glyph glyph-name="uni0228" unicode="&#x228;" 
d="M432 617h-219q-1 0 -2.5 -1t-1.5 -3l-27 -217q0 -4 4 -4h134q10 0 8 -10l-8 -63q0 -4 -3 -7t-7 -3h-134q-3 0 -5 -4l-26 -218q-1 -1 0 -2.5t3 -1.5h218q9 0 9 -10l-8 -63q-2 -10 -11 -10h-117q-2 0 -3 -1.5t0 -3.5q25 -33 25 -73q0 -20 -6 -39q-10 -32 -33.5 -46
t-51.5 -14q-20 0 -35 5q-9 3 -6 12l9 32q1 9 12 7q3 -1 10 -1q17 0 28.5 12.5t11.5 38.5q0 32 -30 69q-2 2 -5 2h-115q-4 0 -6.5 3t-1.5 7l83 680q1 4 4 7t7 3h306q10 0 8 -10l-7 -63q-2 -10 -11 -10z" />
    <glyph glyph-name="uni0229" unicode="&#x229;" horiz-adv-x="405" 
d="M365 215h-219q-3 0 -5 -4l-6 -54q-1 -5 -1 -14q0 -30 16.5 -49t43.5 -19t47.5 17t29.5 44q4 8 11 8l72 -4q5 0 6.5 -3t0.5 -7q-12 -55 -46.5 -90t-87.5 -44q-6 -1 -2 -5q22 -32 22 -69q0 -20 -6 -39q-11 -32 -34.5 -46t-51.5 -14q-19 0 -34 5q-9 3 -7 12l8 31q3 10 13 8
q3 -1 10 -1q12 0 22.5 8t15.5 24q2 12 2 18q0 33 -26 64l-4 2q-55 8 -85.5 42t-30.5 89q0 7 2 25l25 208q9 71 59 115t124 44q68 0 106.5 -36t38.5 -97q0 -8 -2 -26l-16 -133q-2 -10 -11 -10zM186 411q-22 -23 -27 -59l-7 -53q0 -4 4 -4h132q2 0 3.5 1t1.5 3l6 53q1 5 1 14
q0 31 -16.5 49.5t-44.5 18.5q-31 0 -53 -23z" />
    <glyph glyph-name="uni0237" unicode="&#x237;" horiz-adv-x="200" 
d="M-81 -197l7 63q2 10 11 10q80 1 91 96l64 527q2 10 11 10h74q10 0 8 -10l-64 -527q-8 -62 -25 -99.5t-56 -58.5t-110 -21q-12 0 -11 10z" />
    <glyph glyph-name="uni0259" unicode="&#x259;" horiz-adv-x="405" 
d="M351.5 481.5q38.5 -35.5 38.5 -97.5q0 -7 -2 -25l-25 -208q-9 -71 -59 -115t-124 -44q-68 0 -107 36.5t-39 97.5q0 7 2 25l16 133q2 10 11 10h220q2 0 3.5 1t1.5 3l6 54q1 5 1 14q0 30 -16.5 49t-43.5 19t-47.5 -17t-29.5 -44q-3 -8 -11 -8l-73 4q-4 0 -6 2.5t-1 6.5
q15 66 60.5 102.5t117.5 36.5q68 0 106.5 -35.5zM244 98q23 23 27 59l6 53q0 4 -3 4h-134q-3 0 -5 -4l-6 -53q-1 -5 -1 -14q0 -30 17 -49t46 -19q30 0 53 23z" />
    <glyph glyph-name="uni0292" unicode="&#x292;" horiz-adv-x="417" 
d="M213 253q76 -15 116 -66t40 -124q0 -23 -2 -35q-9 -73 -48.5 -125.5t-98 -80t-122.5 -27.5q-43 0 -88 14q-7 4 -6 12l11 65q1 11 12 8q30 -12 72 -12q65 0 115.5 36.5t60.5 115.5q2 16 2 25q0 52 -29.5 85.5t-94.5 33.5q-24 0 -56 -6h-3q-6 0 -8 6l-14 48v3q0 6 5 11
l187 176q3 5 -2 5h-176q-5 0 -7.5 3t-1.5 7l9 68q0 4 3 7t7 3h290q4 0 6.5 -3t1.5 -7l-9 -71q0 -6 -6 -12l-167 -158q-3 -3 1 -5z" />
    <glyph glyph-name="uni02BB" unicode="&#x2bb;" horiz-adv-x="142" 
d="M69 691q0 9 9 9h75q9 0 9 -9l20 -192q0 -5 -3 -8t-8 -3h-54q-8 0 -11 8l-37 193v2z" />
    <glyph glyph-name="uni02BC" unicode="&#x2bc;" horiz-adv-x="142" 
d="M203.5 697q1.5 -3 -0.5 -8l-84 -193q-1 -4 -5 -6t-8 -2h-55q-5 0 -6.5 3t0.5 8l66 192q4 9 12 9h74q5 0 6.5 -3z" />
    <glyph glyph-name="circumflex" unicode="&#x2c6;" horiz-adv-x="249" 
d="M75.5 580.5q-1.5 3.5 2.5 8.5l76 104q5 7 12 7h83q6 0 11 -7l53 -104q1 -2 1 -5q0 -7 -8 -7h-60q-7 0 -10 7l-30 68q-1 2 -3 1.5t-3 -1.5l-46 -68q-5 -7 -12 -7h-60q-5 0 -6.5 3.5z" />
    <glyph glyph-name="caron" unicode="&#x2c7;" horiz-adv-x="287" 
d="M90 693q0 7 9 7h59q6 0 11 -7l29 -68q1 -1 3 -1t3 1l46 68q5 7 12 7h60q5 0 6.5 -3.5t-2.5 -8.5l-79 -104q-5 -7 -12 -7h-83q-6 0 -10 7l-51 104q-1 2 -1 5z" />
    <glyph glyph-name="uni02C9" unicode="&#x2c9;" horiz-adv-x="203" 
d="M60 643l5 47q2 10 11 10h184q4 0 6.5 -3t1.5 -7l-6 -47q0 -4 -3 -7t-8 -3h-183q-10 0 -8 10z" />
    <glyph glyph-name="breve" unicode="&#x2d8;" horiz-adv-x="251" 
d="M104 583q-27 28 -25 72q1 4 4 7t7 3h33q9 0 9 -8q0 -25 13 -40.5t35 -15.5t38.5 15t21.5 39q3 10 12 10h33q5 0 7 -3t1 -7q-8 -44 -41 -72t-77 -28t-71 28z" />
    <glyph glyph-name="dotaccent" unicode="&#x2d9;" horiz-adv-x="161" 
d="M94 604q-15 15 -15 39q0 32 20.5 53t50.5 21q24 0 39 -15.5t15 -40.5q0 -31 -20.5 -51.5t-49.5 -20.5q-25 0 -40 15z" />
    <glyph glyph-name="ring" unicode="&#x2da;" horiz-adv-x="255" 
d="M109 601q-27 28 -27 71q0 35 17 64.5t46 46.5t62 17q42 0 69 -28t27 -71q0 -34 -17.5 -63.5t-46 -47t-60.5 -17.5q-43 0 -70 28zM230 647q19 20 19 48q0 23 -13.5 37.5t-35.5 14.5q-26 0 -45.5 -20.5t-19.5 -48.5q0 -22 14.5 -36.5t36.5 -14.5q25 0 44 20z" />
    <glyph glyph-name="ogonek" unicode="&#x2db;" horiz-adv-x="128" 
d="M74 -183q-20 -4 -36 -4q-30 0 -50.5 15.5t-20.5 53.5q0 29 13.5 57.5t42.5 53.5q4 3 4 4q5 3 11 3h40q7 0 7 -5q0 -3 -4 -7q-50 -47 -50 -87q0 -34 30 -34q6 0 10 1h3q8 0 8 -7l1 -32q0 -9 -9 -12z" />
    <glyph glyph-name="tilde" unicode="&#x2dc;" horiz-adv-x="307" 
d="M232.5 605q-10.5 5 -26.5 15q-4 3 -11.5 9t-14 8.5t-14.5 2.5q-12 0 -22 -5.5t-21 -20.5q-3 -4 -7 -5t-7 2l-25 20q-6 6 -2 13q17 30 39.5 45t46.5 15q15 0 27.5 -6t27.5 -17q3 -2 10.5 -8t14.5 -9t15 -3q12 0 22 5.5t21 20.5q3 4 7 4.5t7 -1.5l24 -18q3 -3 3 -8
q0 -4 -4 -11q-19 -28 -42.5 -40.5t-44.5 -12.5q-13 0 -23.5 5z" />
    <glyph glyph-name="hungarumlaut" unicode="&#x2dd;" horiz-adv-x="320" 
d="M76.5 584.5q-1.5 3.5 2.5 8.5l72 108q5 7 13 7h58q6 0 7.5 -3.5t-2.5 -8.5l-84 -109q-5 -6 -12 -6h-47q-6 0 -7.5 3.5zM209.5 584.5q-1.5 3.5 2.5 8.5l72 108q5 7 12 7h59q5 0 7 -4t-2 -8l-84 -109q-5 -6 -13 -6h-46q-6 0 -7.5 3.5z" />
    <glyph glyph-name="gravecomb" unicode="&#x300;" horiz-adv-x="0" 
d="M43 581q0 -8 -9 -8h-48q-9 0 -11 6l-58 109l-1 4q0 8 9 8h59q7 0 11 -7l47 -108z" />
    <glyph glyph-name="acutecomb" unicode="&#x301;" horiz-adv-x="0" 
d="M-99 576.5q-2 3.5 2 8.5l73 108q7 7 13 7h59q6 0 7.5 -3.5t-2.5 -8.5l-85 -109q-4 -6 -12 -6h-48q-5 0 -7 3.5z" />
    <glyph glyph-name="uni0302" unicode="&#x302;" horiz-adv-x="0" 
d="M-210.5 580.5q-1.5 3.5 2.5 8.5l76 104q5 7 12 7h83q6 0 11 -7l53 -104q1 -2 1 -5q0 -7 -8 -7h-60q-7 0 -10 7l-30 68q-1 2 -3 1.5t-3 -1.5l-46 -68q-5 -7 -12 -7h-60q-5 0 -6.5 3.5z" />
    <glyph glyph-name="tildecomb" unicode="&#x303;" horiz-adv-x="0" 
d="M-56.5 605q-10.5 5 -26.5 15q-4 3 -11.5 9t-14 8.5t-14.5 2.5q-12 0 -22 -5.5t-21 -20.5q-3 -4 -7 -5t-7 2l-25 20q-6 6 -2 13q17 30 39.5 45t46.5 15q15 0 27.5 -6t27.5 -17q3 -2 10.5 -8t14.5 -9t15 -3q12 0 22 5.5t21 20.5q3 4 7 4.5t7 -1.5l24 -18q3 -3 3 -8
q0 -4 -4 -11q-19 -28 -42.5 -40.5t-44.5 -12.5q-13 0 -23.5 5z" />
    <glyph glyph-name="uni0304" unicode="&#x304;" horiz-adv-x="0" 
d="M-144.5 614q-2.5 3 -1.5 7l6 47q0 4 3 7t8 3h183q10 0 8 -10l-5 -47q-1 -4 -4 -7t-7 -3h-184q-4 0 -6.5 3z" />
    <glyph glyph-name="uni0306" unicode="&#x306;" horiz-adv-x="0" 
d="M-144 602q-27 28 -25 72q2 10 11 10h33q9 0 9 -10q0 -23 13.5 -38t34.5 -15t38 15t22 38q3 10 12 10h33q10 0 8 -10q-9 -44 -42 -72t-77 -28q-43 0 -70 28z" />
    <glyph glyph-name="uni0307" unicode="&#x307;" horiz-adv-x="0" 
d="M-55 604q-15 15 -15 39q0 32 20.5 53t50.5 21q24 0 39 -15.5t15 -40.5q0 -31 -20.5 -51.5t-49.5 -20.5q-25 0 -40 15z" />
    <glyph glyph-name="uni0308" unicode="&#x308;" horiz-adv-x="0" 
d="M-50 604q-15 15 -15 39q0 32 20.5 53t50.5 21q24 0 39 -15.5t15 -40.5q0 -31 -20.5 -51.5t-49.5 -20.5q-25 0 -40 15zM-207 604q-15 15 -15 39q0 32 20.5 53t50.5 21q24 0 39 -15.5t15 -40.5q0 -31 -20.5 -51.5t-49.5 -20.5q-25 0 -40 15z" />
    <glyph glyph-name="hookabovecomb" unicode="&#x309;" horiz-adv-x="0" 
d="M-272.5 556.5q-1.5 3.5 1.5 8.5q8 16 16.5 26.5t22.5 22.5q13 13 19 21.5t8 22.5q1 13 -8 22.5t-23 9.5q-16 0 -27.5 -7.5t-27.5 -26.5q-8 -9 -14 -3l-21 17q-7 7 -1 14q24 30 45 43t54 13q35 0 56 -19t21 -51q0 -28 -12 -46t-35 -39q-22 -20 -30 -32q-5 -8 -13 -6l-25 5
q-5 1 -6.5 4.5z" />
    <glyph glyph-name="uni030A" unicode="&#x30a;" horiz-adv-x="0" 
d="M-117 601q-27 28 -27 71q0 35 17 64.5t46 46.5t62 17q42 0 69 -28t27 -71q0 -34 -17.5 -63.5t-46 -47t-60.5 -17.5q-43 0 -70 28zM4 647q19 20 19 48q0 23 -13.5 37.5t-35.5 14.5q-26 0 -45.5 -20.5t-19.5 -48.5q0 -22 14.5 -36.5t36.5 -14.5q25 0 44 20z" />
    <glyph glyph-name="uni030B" unicode="&#x30b;" horiz-adv-x="0" 
d="M-238.5 576.5q-1.5 3.5 1.5 8.5l65 108q4 7 13 7h61q6 0 8 -3.5t-2 -8.5l-70 -108q-4 -7 -13 -7h-57q-5 0 -6.5 3.5zM-106 576.5q-2 3.5 2 8.5l69 108q4 7 13 7h57q6 0 8 -3.5t-2 -8.5l-70 -108q-4 -7 -13 -7h-56q-6 0 -8 3.5z" />
    <glyph glyph-name="uni030C" unicode="&#x30c;" horiz-adv-x="0" 
d="M-197 693q0 7 9 7h59q6 0 11 -7l29 -68q1 -1 3 -1t3 1l46 68q5 7 12 7h60q5 0 6.5 -3.5t-2.5 -8.5l-79 -104q-5 -7 -12 -7h-83q-6 0 -10 7l-51 104q-1 2 -1 5z" />
    <glyph glyph-name="uni0312" unicode="&#x312;" horiz-adv-x="0" 
d="M41 696.5q2 -3.5 -2 -8.5l-72 -108q-7 -7 -13 -7h-59q-6 0 -7.5 3.5t2.5 8.5l85 109q4 6 12 6h47q5 0 7 -3.5z" />
    <glyph glyph-name="uni0313" unicode="&#x313;" horiz-adv-x="0" 
d="M-99 576.5q-2 3.5 2 8.5l73 108q7 7 13 7h59q6 0 7.5 -3.5t-2.5 -8.5l-85 -109q-4 -6 -12 -6h-48q-5 0 -7 3.5z" />
    <glyph glyph-name="uni031B" unicode="&#x31b;" horiz-adv-x="0" 
d="M-86 473l3 26q2 10 11 11q22 3 39 20.5t23 49.5q2 10 11 10h33q5 0 6.5 -3.5t0.5 -9.5q-9 -52 -42 -81.5t-77 -32.5q-10 0 -8 10z" />
    <glyph glyph-name="dotbelowcomb" unicode="&#x323;" horiz-adv-x="0" 
d="M-150.5 -194q-14.5 15 -14.5 38q0 29 19.5 49t47.5 20q23 0 37.5 -14t14.5 -37q0 -30 -19.5 -50.5t-47.5 -20.5q-23 0 -37.5 15z" />
    <glyph glyph-name="uni0326" unicode="&#x326;" horiz-adv-x="0" 
d="M-215 -181.5q-2 3.5 2 8.5l73 108q7 7 13 7h59q6 0 7.5 -3.5t-2.5 -8.5l-85 -109q-4 -6 -12 -6h-48q-5 0 -7 3.5z" />
    <glyph glyph-name="uni0327" unicode="&#x327;" horiz-adv-x="0" 
d="M-164 -171l8 31q3 10 13 8q3 -1 10 -1q28 0 38 32q2 6 2 18q0 35 -31 71q-2 2 -2 6q0 6 9 6h40q7 0 10 -3q2 -1 2 -2t1 -2q33 -36 33 -81q0 -21 -6 -39q-11 -32 -34 -46t-51 -14q-18 0 -35 5q-8 1 -7 11z" />
    <glyph glyph-name="uni0328" unicode="&#x328;" horiz-adv-x="0" 
d="M-54 -183q-20 -4 -36 -4q-30 0 -50.5 15.5t-20.5 53.5q0 28 13.5 57t41.5 54q4 3 4 4q4 3 11 3h41q7 0 7 -5q0 -3 -4 -7q-50 -47 -50 -87q0 -34 30 -34q6 0 10 1h3q8 0 8 -7l1 -32q0 -9 -9 -12z" />
    <glyph glyph-name="uni0335" unicode="&#x335;" horiz-adv-x="0" 
d="M-204 624h245q9 0 9 -10l-5 -41q-2 -10 -11 -10h-246q-4 0 -6.5 3t-1.5 7l5 41q2 10 11 10z" />
    <glyph glyph-name="uni0336" unicode="&#x336;" horiz-adv-x="0" 
d="M-388 523l6 48q0 4 3 7t8 3h413q10 0 8 -10l-6 -48q0 -4 -3 -7t-7 -3h-414q-10 0 -8 10z" />
    <glyph glyph-name="uni0337" unicode="&#x337;" horiz-adv-x="0" 
d="M-305 136l-29 42q-2 4 -2 6q0 6 5 8l380 275q2 2 6 2t7 -4l29 -42q2 -4 2 -6q0 -3 -5 -8l-380 -274q-8 -7 -13 1z" />
    <glyph glyph-name="uni0338" unicode="&#x338;" horiz-adv-x="0" 
d="M-412 -39.5q-2 3.5 1 8.5l413 771q4 8 12 8h46q5 0 7 -3.5t-1 -8.5l-415 -771q-3 -8 -11 -8h-45q-5 0 -7 3.5z" />
    <glyph glyph-name="uni0394" unicode="&#x394;" horiz-adv-x="498" 
d="M-8 10l9 67q0 4 1 7t2 5l273 603q5 8 13 8h51q8 0 11 -8l125 -604q1 -4 1 -12l-8 -66q-2 -10 -11 -10h-458q-9 0 -9 10zM94 85q1 -2 3 -2h286q2 0 3.5 1.5t0.5 3.5l-84 482q-1 2 -3 2t-3 -2l-203 -482q-1 -1 0 -3z" />
    <glyph glyph-name="uni03A9" unicode="&#x3a9;" horiz-adv-x="472" 
d="M28 10l8 63q2 10 11 10h48q2 0 2.5 1.5t-0.5 3.5q-33 38 -33 95q0 8 2 28l38 313q10 83 65 133.5t135 50.5q73 0 115.5 -41.5t42.5 -112.5q0 -10 -2 -30l-38 -313q-11 -78 -63 -123q-3 -5 1 -5h47q10 0 8 -10l-7 -63q-2 -10 -11 -10h-150q-4 0 -6.5 3t-1.5 7l8 64
q0 8 10 11q25 7 44 32.5t23 60.5l44 351q1 6 1 16q0 36 -20.5 58t-54.5 22q-37 0 -64 -26.5t-32 -69.5l-43 -351q-1 -6 -1 -16q0 -29 12.5 -49.5t32.5 -26.5q8 -3 7 -11l-8 -65q-2 -10 -11 -10h-150q-9 0 -9 10z" />
    <glyph glyph-name="uni03BC" unicode="&#x3bc;" horiz-adv-x="424" 
d="M332 509h74q10 0 8 -10l-60 -489q0 -4 -3 -7t-8 -3h-73q-5 0 -7.5 3t-1.5 7l4 29q0 3 -1.5 3t-3.5 -2q-35 -47 -99 -47q-18 0 -33 3q-1 1 -3 -0.5t-2 -3.5l-22 -182q-2 -10 -11 -10h-74q-10 0 -8 10l84 689q2 10 11 10h75q10 0 8 -10l-41 -337q-1 -8 -1 -21q0 -65 56 -65
q32 0 54 24.5t27 67.5l40 331q2 10 11 10z" />
    <glyph glyph-name="pi" unicode="&#x3c0;" horiz-adv-x="503" 
d="M506 430q-3 -3 -7 -3h-46q-4 0 -4 -4l-36 -291q-1 -6 -1 -17q0 -21 9 -26.5t28 -4.5q10 0 8 -10l-8 -64q0 -10 -11 -10q-40 -1 -64.5 2t-43 17.5t-18.5 47.5q0 11 1 17l42 339q0 4 -4 4h-131q-4 0 -4 -4l-51 -413q-2 -10 -11 -10h-73q-5 0 -7.5 3t-1.5 7l51 413q0 4 -4 4
h-48q-9 0 -9 10l8 62q2 10 11 10h428q10 0 8 -10l-7 -62q-1 -4 -4 -7z" />
    <glyph glyph-name="Wgrave" unicode="&#x1e80;" horiz-adv-x="622" 
d="M136 9l-46 680q0 5 3 8t7 3h77q9 0 10 -9l21 -469q0 -2 1.5 -2t2.5 2l127 469q3 9 11 9h65q8 0 8 -9l17 -469q1 -2 2 -2t2 2l130 469q2 9 11 9h75q10 0 8 -11l-206 -680q-3 -9 -12 -9h-69q-8 0 -8 9l-16 473q-1 2 -2.5 2t-1.5 -2l-128 -473q-3 -9 -11 -9h-68q-10 0 -10 9
zM416 772q0 -8 -9 -8h-48q-9 0 -11 6l-58 109l-1 4q0 8 9 8h59q7 0 11 -7l47 -108z" />
    <glyph glyph-name="wgrave" unicode="&#x1e81;" horiz-adv-x="558" 
d="M106 9l-44 489q0 11 10 11h71q9 0 10 -9l17 -345q1 -2 2 -2t2 2l104 345q2 9 11 9h64q10 0 10 -9l21 -345q0 -2 1.5 -2t2.5 2l103 345q3 9 12 9l70 -1q4 0 6.5 -3t0.5 -8l-165 -488q-1 -9 -11 -9h-73q-10 0 -10 9l-21 328q0 2 -1.5 2t-2.5 -2l-99 -328q-3 -9 -12 -9h-70
q-9 0 -9 9zM361 581q0 -8 -9 -8h-48q-9 0 -11 6l-58 109l-1 4q0 8 9 8h59q7 0 11 -7l47 -108z" />
    <glyph glyph-name="Wacute" unicode="&#x1e82;" horiz-adv-x="622" 
d="M136 9l-46 680q0 5 3 8t7 3h77q9 0 10 -9l21 -469q0 -2 1.5 -2t2.5 2l127 469q3 9 11 9h65q8 0 8 -9l17 -469q1 -2 2 -2t2 2l130 469q2 9 11 9h75q10 0 8 -11l-206 -680q-3 -9 -12 -9h-69q-8 0 -8 9l-16 473q-1 2 -2.5 2t-1.5 -2l-128 -473q-3 -9 -11 -9h-68q-10 0 -10 9
zM336 767.5q-2 3.5 2 8.5l73 108q7 7 13 7h59q6 0 7.5 -3.5t-2.5 -8.5l-85 -109q-4 -6 -12 -6h-48q-5 0 -7 3.5z" />
    <glyph glyph-name="wacute" unicode="&#x1e83;" horiz-adv-x="558" 
d="M106 9l-44 489q0 11 10 11h71q9 0 10 -9l17 -345q1 -2 2 -2t2 2l104 345q2 9 11 9h64q10 0 10 -9l21 -345q0 -2 1.5 -2t2.5 2l103 345q3 9 12 9l70 -1q4 0 6.5 -3t0.5 -8l-165 -488q-1 -9 -11 -9h-73q-10 0 -10 9l-21 328q0 2 -1.5 2t-2.5 -2l-99 -328q-3 -9 -12 -9h-70
q-9 0 -9 9zM280 576.5q-2 3.5 2 8.5l73 108q7 7 13 7h59q6 0 7.5 -3.5t-2.5 -8.5l-85 -109q-4 -6 -12 -6h-48q-5 0 -7 3.5z" />
    <glyph glyph-name="Wdieresis" unicode="&#x1e84;" horiz-adv-x="622" 
d="M136 9l-46 680q0 5 3 8t7 3h77q9 0 10 -9l21 -469q0 -2 1.5 -2t2.5 2l127 469q3 9 11 9h65q8 0 8 -9l17 -469q1 -2 2 -2t2 2l130 469q2 9 11 9h75q10 0 8 -11l-206 -680q-3 -9 -12 -9h-69q-8 0 -8 9l-16 473q-1 2 -2.5 2t-1.5 -2l-128 -473q-3 -9 -11 -9h-68q-10 0 -10 9
zM425 795q-15 15 -15 39q0 32 20.5 53t50.5 21q24 0 39 -15.5t15 -40.5q0 -31 -20.5 -51.5t-49.5 -20.5q-25 0 -40 15zM268 795q-15 15 -15 39q0 32 20.5 53t50.5 21q24 0 39 -15.5t15 -40.5q0 -31 -20.5 -51.5t-49.5 -20.5q-25 0 -40 15z" />
    <glyph glyph-name="wdieresis" unicode="&#x1e85;" horiz-adv-x="558" 
d="M106 9l-44 489q0 11 10 11h71q9 0 10 -9l17 -345q1 -2 2 -2t2 2l104 345q2 9 11 9h64q10 0 10 -9l21 -345q0 -2 1.5 -2t2.5 2l103 345q3 9 12 9l70 -1q4 0 6.5 -3t0.5 -8l-165 -488q-1 -9 -11 -9h-73q-10 0 -10 9l-21 328q0 2 -1.5 2t-2.5 -2l-99 -328q-3 -9 -12 -9h-70
q-9 0 -9 9zM369 604q-15 15 -15 39q0 32 20.5 53t50.5 21q24 0 39 -15.5t15 -40.5q0 -31 -20.5 -51.5t-49.5 -20.5q-25 0 -40 15zM212 604q-15 15 -15 39q0 32 20.5 53t50.5 21q24 0 39 -15.5t15 -40.5q0 -31 -20.5 -51.5t-49.5 -20.5q-25 0 -40 15z" />
    <glyph glyph-name="uni1EA0" unicode="&#x1ea0;" horiz-adv-x="423" 
d="M297 9l-7 115q0 2 -1.5 3t-3.5 1h-158q-2 0 -3.5 -1t-1.5 -3l-35 -115q-1 -9 -11 -9h-74q-5 0 -7 3t0 8l228 680q2 9 11 9h87q9 0 9 -9l62 -680q0 -11 -10 -11h-75q-10 0 -10 9zM149 205.5q1 -1.5 2 -1.5h129q2 0 4 4l-23 355q0 2 -1.5 2t-2.5 -2l-108 -355q-1 -1 0 -2.5
zM129.5 -194q-14.5 15 -14.5 38q0 29 19.5 49t47.5 20q23 0 37.5 -14t14.5 -37q0 -30 -19.5 -50.5t-47.5 -20.5q-23 0 -37.5 15z" />
    <glyph glyph-name="uni1EA1" unicode="&#x1ea1;" horiz-adv-x="411" 
d="M319 506q3 3 7 3h74q9 0 9 -10l-61 -489q0 -4 -3 -7t-7 -3h-74q-9 0 -9 10l5 35q0 3 -1.5 3.5t-3.5 -1.5q-19 -28 -46 -41.5t-57 -13.5q-55 0 -84 33.5t-29 92.5q0 9 2 33l25 207q9 74 48.5 116.5t102.5 42.5q29 0 52.5 -13.5t36.5 -41.5q2 -2 3.5 -1.5t1.5 3.5l4 35
q1 4 4 7zM247 98q22 23 26 59l24 195q1 5 1 14q0 31 -16 49.5t-43 18.5q-31 0 -53 -23t-27 -59l-24 -195q-1 -5 -1 -14q0 -30 16.5 -49t43.5 -19q31 0 53 23zM122.5 -194q-14.5 15 -14.5 38q0 29 19.5 49t47.5 20q23 0 37.5 -14t14.5 -37q0 -30 -19.5 -50.5t-47.5 -20.5
q-23 0 -37.5 15z" />
    <glyph glyph-name="uni1EA2" unicode="&#x1ea2;" horiz-adv-x="423" 
d="M297 9l-7 115q0 2 -1.5 3t-3.5 1h-158q-2 0 -3.5 -1t-1.5 -3l-35 -115q-1 -9 -11 -9h-74q-5 0 -7 3t0 8l228 680q2 9 11 9h87q9 0 9 -9l62 -680q0 -11 -10 -11h-75q-10 0 -10 9zM149 205.5q1 -1.5 2 -1.5h129q2 0 4 4l-23 355q0 2 -1.5 2t-2.5 -2l-108 -355q-1 -1 0 -2.5
zM266.5 747.5q-1.5 3.5 1.5 8.5q8 16 16.5 26.5t22.5 22.5q13 13 19 21.5t8 22.5q1 13 -8 22.5t-23 9.5q-16 0 -27.5 -7.5t-27.5 -26.5q-8 -9 -14 -3l-21 17q-7 7 -1 14q24 30 45 43t54 13q35 0 56 -19t21 -51q0 -28 -12 -46t-35 -39q-22 -20 -30 -32q-5 -8 -13 -6l-25 5
q-5 1 -6.5 4.5z" />
    <glyph glyph-name="uni1EA3" unicode="&#x1ea3;" horiz-adv-x="411" 
d="M319 506q3 3 7 3h74q9 0 9 -10l-61 -489q0 -4 -3 -7t-7 -3h-74q-9 0 -9 10l5 35q0 3 -1.5 3.5t-3.5 -1.5q-19 -28 -46 -41.5t-57 -13.5q-55 0 -84 33.5t-29 92.5q0 9 2 33l25 207q9 74 48.5 116.5t102.5 42.5q29 0 52.5 -13.5t36.5 -41.5q2 -2 3.5 -1.5t1.5 3.5l4 35
q1 4 4 7zM247 98q22 23 26 59l24 195q1 5 1 14q0 31 -16 49.5t-43 18.5q-31 0 -53 -23t-27 -59l-24 -195q-1 -5 -1 -14q0 -30 16.5 -49t43.5 -19q31 0 53 23zM237.5 556.5q-1.5 3.5 1.5 8.5q8 16 16.5 26.5t22.5 22.5q13 13 19 21.5t8 22.5q1 13 -8 22.5t-23 9.5
q-16 0 -27.5 -7.5t-27.5 -26.5q-8 -9 -14 -3l-21 17q-7 7 -1 14q24 30 45 43t54 13q35 0 56 -19t21 -51q0 -28 -12 -46t-35 -39q-22 -20 -30 -32q-5 -8 -13 -6l-25 5q-5 1 -6.5 4.5z" />
    <glyph glyph-name="uni1EA4" unicode="&#x1ea4;" horiz-adv-x="423" 
d="M297 9l-7 115q0 2 -1.5 3t-3.5 1h-158q-2 0 -3.5 -1t-1.5 -3l-35 -115q-1 -9 -11 -9h-74q-5 0 -7 3t0 8l228 680q2 9 11 9h87q9 0 9 -9l62 -680q0 -11 -10 -11h-75q-10 0 -10 9zM149 205.5q1 -1.5 2 -1.5h129q2 0 4 4l-23 355q0 2 -1.5 2t-2.5 -2l-108 -355q-1 -1 0 -2.5
zM166.5 771.5q-1.5 3.5 2.5 8.5l76 104q5 7 12 7h83q6 0 11 -7l53 -104q1 -2 1 -5q0 -7 -8 -7h-60q-7 0 -10 7l-30 68q-1 2 -3 1.5t-3 -1.5l-46 -68q-5 -7 -12 -7h-60q-5 0 -6.5 3.5zM410 846.5q-2 3.5 2 8.5l73 108q7 7 13 7h59q6 0 7.5 -3.5t-2.5 -8.5l-85 -109
q-4 -6 -12 -6h-48q-5 0 -7 3.5z" />
    <glyph glyph-name="uni1EA5" unicode="&#x1ea5;" horiz-adv-x="411" 
d="M319 506q3 3 7 3h74q9 0 9 -10l-61 -489q0 -4 -3 -7t-7 -3h-74q-9 0 -9 10l5 35q0 3 -1.5 3.5t-3.5 -1.5q-19 -28 -46 -41.5t-57 -13.5q-55 0 -84 33.5t-29 92.5q0 9 2 33l25 207q9 74 48.5 116.5t102.5 42.5q29 0 52.5 -13.5t36.5 -41.5q2 -2 3.5 -1.5t1.5 3.5l4 35
q1 4 4 7zM247 98q22 23 26 59l24 195q1 5 1 14q0 31 -16 49.5t-43 18.5q-31 0 -53 -23t-27 -59l-24 -195q-1 -5 -1 -14q0 -30 16.5 -49t43.5 -19q31 0 53 23zM137.5 580.5q-1.5 3.5 2.5 8.5l76 104q5 7 12 7h83q6 0 11 -7l53 -104q1 -2 1 -5q0 -7 -8 -7h-60q-7 0 -10 7
l-30 68q-1 2 -3 1.5t-3 -1.5l-46 -68q-5 -7 -12 -7h-60q-5 0 -6.5 3.5zM381 655.5q-2 3.5 2 8.5l73 108q7 7 13 7h59q6 0 7.5 -3.5t-2.5 -8.5l-85 -109q-4 -6 -12 -6h-48q-5 0 -7 3.5z" />
    <glyph glyph-name="uni1EA6" unicode="&#x1ea6;" horiz-adv-x="423" 
d="M297 9l-7 115q0 2 -1.5 3t-3.5 1h-158q-2 0 -3.5 -1t-1.5 -3l-35 -115q-1 -9 -11 -9h-74q-5 0 -7 3t0 8l228 680q2 9 11 9h87q9 0 9 -9l62 -680q0 -11 -10 -11h-75q-10 0 -10 9zM149 205.5q1 -1.5 2 -1.5h129q2 0 4 4l-23 355q0 2 -1.5 2t-2.5 -2l-108 -355q-1 -1 0 -2.5
zM166.5 771.5q-1.5 3.5 2.5 8.5l76 104q5 7 12 7h83q6 0 11 -7l53 -104q1 -2 1 -5q0 -7 -8 -7h-60q-7 0 -10 7l-30 68q-1 2 -3 1.5t-3 -1.5l-46 -68q-5 -7 -12 -7h-60q-5 0 -6.5 3.5zM477 892q0 -8 -9 -8h-48q-9 0 -11 6l-58 109l-1 4q0 8 9 8h59q7 0 11 -7l47 -108z" />
    <glyph glyph-name="uni1EA7" unicode="&#x1ea7;" horiz-adv-x="411" 
d="M319 506q3 3 7 3h74q9 0 9 -10l-61 -489q0 -4 -3 -7t-7 -3h-74q-9 0 -9 10l5 35q0 3 -1.5 3.5t-3.5 -1.5q-19 -28 -46 -41.5t-57 -13.5q-55 0 -84 33.5t-29 92.5q0 9 2 33l25 207q9 74 48.5 116.5t102.5 42.5q29 0 52.5 -13.5t36.5 -41.5q2 -2 3.5 -1.5t1.5 3.5l4 35
q1 4 4 7zM247 98q22 23 26 59l24 195q1 5 1 14q0 31 -16 49.5t-43 18.5q-31 0 -53 -23t-27 -59l-24 -195q-1 -5 -1 -14q0 -30 16.5 -49t43.5 -19q31 0 53 23zM137.5 580.5q-1.5 3.5 2.5 8.5l76 104q5 7 12 7h83q6 0 11 -7l53 -104q1 -2 1 -5q0 -7 -8 -7h-60q-7 0 -10 7
l-30 68q-1 2 -3 1.5t-3 -1.5l-46 -68q-5 -7 -12 -7h-60q-5 0 -6.5 3.5zM448 701q0 -8 -9 -8h-48q-9 0 -11 6l-58 109l-1 4q0 8 9 8h59q7 0 11 -7l47 -108z" />
    <glyph glyph-name="uni1EA8" unicode="&#x1ea8;" horiz-adv-x="423" 
d="M297 9l-7 115q0 2 -1.5 3t-3.5 1h-158q-2 0 -3.5 -1t-1.5 -3l-35 -115q-1 -9 -11 -9h-74q-5 0 -7 3t0 8l228 680q2 9 11 9h87q9 0 9 -9l62 -680q0 -11 -10 -11h-75q-10 0 -10 9zM149 205.5q1 -1.5 2 -1.5h129q2 0 4 4l-23 355q0 2 -1.5 2t-2.5 -2l-108 -355q-1 -1 0 -2.5
zM410 869.5q-2 3.5 1 8.5q13 24 37 46q13 12 19 20.5t7 22.5q1 13 -7.5 21.5t-22.5 8.5q-15 0 -25.5 -7t-25.5 -25q-8 -9 -14 -3l-20 16q-6 6 0 14q22 29 42 41t51 12q34 0 54.5 -18t20.5 -49q0 -27 -11.5 -44t-34.5 -37q-21 -19 -29 -31q-4 -7 -13 -6l-23 5q-4 1 -6 4.5z
M166.5 771.5q-1.5 3.5 2.5 8.5l76 104q5 7 12 7h83q6 0 11 -7l53 -104q1 -2 1 -5q0 -7 -8 -7h-60q-7 0 -10 7l-30 68q-1 2 -3 1.5t-3 -1.5l-46 -68q-5 -7 -12 -7h-60q-5 0 -6.5 3.5z" />
    <glyph glyph-name="uni1EA9" unicode="&#x1ea9;" horiz-adv-x="411" 
d="M319 506q3 3 7 3h74q9 0 9 -10l-61 -489q0 -4 -3 -7t-7 -3h-74q-9 0 -9 10l5 35q0 3 -1.5 3.5t-3.5 -1.5q-19 -28 -46 -41.5t-57 -13.5q-55 0 -84 33.5t-29 92.5q0 9 2 33l25 207q9 74 48.5 116.5t102.5 42.5q29 0 52.5 -13.5t36.5 -41.5q2 -2 3.5 -1.5t1.5 3.5l4 35
q1 4 4 7zM247 98q22 23 26 59l24 195q1 5 1 14q0 31 -16 49.5t-43 18.5q-31 0 -53 -23t-27 -59l-24 -195q-1 -5 -1 -14q0 -30 16.5 -49t43.5 -19q31 0 53 23zM381 678.5q-2 3.5 1 8.5q13 24 37 46q13 12 19 20.5t7 22.5q1 13 -7.5 21.5t-22.5 8.5q-15 0 -25.5 -7t-25.5 -25
q-8 -9 -14 -3l-20 16q-6 6 0 14q22 29 42 41t51 12q34 0 54.5 -18t20.5 -49q0 -27 -11.5 -44t-34.5 -37q-21 -19 -29 -31q-4 -7 -13 -6l-23 5q-4 1 -6 4.5zM137.5 580.5q-1.5 3.5 2.5 8.5l76 104q5 7 12 7h83q6 0 11 -7l53 -104q1 -2 1 -5q0 -7 -8 -7h-60q-7 0 -10 7l-30 68
q-1 2 -3 1.5t-3 -1.5l-46 -68q-5 -7 -12 -7h-60q-5 0 -6.5 3.5z" />
    <glyph glyph-name="uni1EAA" unicode="&#x1eaa;" horiz-adv-x="423" 
d="M297 9l-7 115q0 2 -1.5 3t-3.5 1h-158q-2 0 -3.5 -1t-1.5 -3l-35 -115q-1 -9 -11 -9h-74q-5 0 -7 3t0 8l228 680q2 9 11 9h87q9 0 9 -9l62 -680q0 -11 -10 -11h-75q-10 0 -10 9zM149 205.5q1 -1.5 2 -1.5h129q2 0 4 4l-23 355q0 2 -1.5 2t-2.5 -2l-108 -355q-1 -1 0 -2.5
zM166.5 771.5q-1.5 3.5 2.5 8.5l76 104q5 7 12 7h83q6 0 11 -7l53 -104q1 -2 1 -5q0 -7 -8 -7h-60q-7 0 -10 7l-30 68q-1 2 -3 1.5t-3 -1.5l-46 -68q-5 -7 -12 -7h-60q-5 0 -6.5 3.5zM332.5 929q-10.5 5 -26.5 15q-4 3 -11.5 9t-14 8.5t-14.5 2.5q-12 0 -22 -5.5t-21 -20.5
q-3 -4 -7 -5t-7 2l-25 20q-6 6 -2 13q17 30 39.5 45t46.5 15q15 0 27.5 -6t27.5 -17q3 -2 10.5 -8t14.5 -9t15 -3q12 0 22 5.5t21 20.5q3 4 7 4.5t7 -1.5l24 -18q3 -3 3 -8q0 -4 -4 -11q-19 -28 -42.5 -40.5t-44.5 -12.5q-13 0 -23.5 5z" />
    <glyph glyph-name="uni1EAB" unicode="&#x1eab;" horiz-adv-x="411" 
d="M319 506q3 3 7 3h74q9 0 9 -10l-61 -489q0 -4 -3 -7t-7 -3h-74q-9 0 -9 10l5 35q0 3 -1.5 3.5t-3.5 -1.5q-19 -28 -46 -41.5t-57 -13.5q-55 0 -84 33.5t-29 92.5q0 9 2 33l25 207q9 74 48.5 116.5t102.5 42.5q29 0 52.5 -13.5t36.5 -41.5q2 -2 3.5 -1.5t1.5 3.5l4 35
q1 4 4 7zM247 98q22 23 26 59l24 195q1 5 1 14q0 31 -16 49.5t-43 18.5q-31 0 -53 -23t-27 -59l-24 -195q-1 -5 -1 -14q0 -30 16.5 -49t43.5 -19q31 0 53 23zM137.5 580.5q-1.5 3.5 2.5 8.5l76 104q5 7 12 7h83q6 0 11 -7l53 -104q1 -2 1 -5q0 -7 -8 -7h-60q-7 0 -10 7
l-30 68q-1 2 -3 1.5t-3 -1.5l-46 -68q-5 -7 -12 -7h-60q-5 0 -6.5 3.5zM303.5 738q-10.5 5 -26.5 15q-4 3 -11.5 9t-14 8.5t-14.5 2.5q-12 0 -22 -5.5t-21 -20.5q-3 -4 -7 -5t-7 2l-25 20q-6 6 -2 13q17 30 39.5 45t46.5 15q15 0 27.5 -6t27.5 -17q3 -2 10.5 -8t14.5 -9
t15 -3q12 0 22 5.5t21 20.5q3 4 7 4.5t7 -1.5l24 -18q3 -3 3 -8q0 -4 -4 -11q-19 -28 -42.5 -40.5t-44.5 -12.5q-13 0 -23.5 5z" />
    <glyph glyph-name="uni1EAC" unicode="&#x1eac;" horiz-adv-x="423" 
d="M297 9l-7 115q0 2 -1.5 3t-3.5 1h-158q-2 0 -3.5 -1t-1.5 -3l-35 -115q-1 -9 -11 -9h-74q-5 0 -7 3t0 8l228 680q2 9 11 9h87q9 0 9 -9l62 -680q0 -11 -10 -11h-75q-10 0 -10 9zM149 205.5q1 -1.5 2 -1.5h129q2 0 4 4l-23 355q0 2 -1.5 2t-2.5 -2l-108 -355q-1 -1 0 -2.5
zM129.5 -194q-14.5 15 -14.5 38q0 29 19.5 49t47.5 20q23 0 37.5 -14t14.5 -37q0 -30 -19.5 -50.5t-47.5 -20.5q-23 0 -37.5 15zM166.5 771.5q-1.5 3.5 2.5 8.5l76 104q5 7 12 7h83q6 0 11 -7l53 -104q1 -2 1 -5q0 -7 -8 -7h-60q-7 0 -10 7l-30 68q-1 2 -3 1.5t-3 -1.5
l-46 -68q-5 -7 -12 -7h-60q-5 0 -6.5 3.5z" />
    <glyph glyph-name="uni1EAD" unicode="&#x1ead;" horiz-adv-x="411" 
d="M319 506q3 3 7 3h74q9 0 9 -10l-61 -489q0 -4 -3 -7t-7 -3h-74q-9 0 -9 10l5 35q0 3 -1.5 3.5t-3.5 -1.5q-19 -28 -46 -41.5t-57 -13.5q-55 0 -84 33.5t-29 92.5q0 9 2 33l25 207q9 74 48.5 116.5t102.5 42.5q29 0 52.5 -13.5t36.5 -41.5q2 -2 3.5 -1.5t1.5 3.5l4 35
q1 4 4 7zM247 98q22 23 26 59l24 195q1 5 1 14q0 31 -16 49.5t-43 18.5q-31 0 -53 -23t-27 -59l-24 -195q-1 -5 -1 -14q0 -30 16.5 -49t43.5 -19q31 0 53 23zM122.5 -194q-14.5 15 -14.5 38q0 29 19.5 49t47.5 20q23 0 37.5 -14t14.5 -37q0 -30 -19.5 -50.5t-47.5 -20.5
q-23 0 -37.5 15zM137.5 580.5q-1.5 3.5 2.5 8.5l76 104q5 7 12 7h83q6 0 11 -7l53 -104q1 -2 1 -5q0 -7 -8 -7h-60q-7 0 -10 7l-30 68q-1 2 -3 1.5t-3 -1.5l-46 -68q-5 -7 -12 -7h-60q-5 0 -6.5 3.5z" />
    <glyph glyph-name="uni1EAE" unicode="&#x1eae;" horiz-adv-x="423" 
d="M297 9l-7 115q0 2 -1.5 3t-3.5 1h-158q-2 0 -3.5 -1t-1.5 -3l-35 -115q-1 -9 -11 -9h-74q-5 0 -7 3t0 8l228 680q2 9 11 9h87q9 0 9 -9l62 -680q0 -11 -10 -11h-75q-10 0 -10 9zM149 205.5q1 -1.5 2 -1.5h129q2 0 4 4l-23 355q0 2 -1.5 2t-2.5 -2l-108 -355q-1 -1 0 -2.5
zM216 793q-27 28 -25 72q2 10 11 10h33q9 0 9 -10q0 -23 13.5 -38t34.5 -15t38 15t22 38q3 10 12 10h33q10 0 8 -10q-9 -44 -42 -72t-77 -28q-43 0 -70 28zM256 926.5q-2 3.5 2 8.5l73 108q7 7 13 7h59q6 0 7.5 -3.5t-2.5 -8.5l-85 -109q-4 -6 -12 -6h-48q-5 0 -7 3.5z" />
    <glyph glyph-name="uni1EAF" unicode="&#x1eaf;" horiz-adv-x="411" 
d="M319 506q3 3 7 3h74q9 0 9 -10l-61 -489q0 -4 -3 -7t-7 -3h-74q-9 0 -9 10l5 35q0 3 -1.5 3.5t-3.5 -1.5q-19 -28 -46 -41.5t-57 -13.5q-55 0 -84 33.5t-29 92.5q0 9 2 33l25 207q9 74 48.5 116.5t102.5 42.5q29 0 52.5 -13.5t36.5 -41.5q2 -2 3.5 -1.5t1.5 3.5l4 35
q1 4 4 7zM247 98q22 23 26 59l24 195q1 5 1 14q0 31 -16 49.5t-43 18.5q-31 0 -53 -23t-27 -59l-24 -195q-1 -5 -1 -14q0 -30 16.5 -49t43.5 -19q31 0 53 23zM187 602q-27 28 -25 72q2 10 11 10h33q9 0 9 -10q0 -23 13.5 -38t34.5 -15t38 15t22 38q3 10 12 10h33q10 0 8 -10
q-9 -44 -42 -72t-77 -28q-43 0 -70 28zM227 735.5q-2 3.5 2 8.5l73 108q7 7 13 7h59q6 0 7.5 -3.5t-2.5 -8.5l-85 -109q-4 -6 -12 -6h-48q-5 0 -7 3.5z" />
    <glyph glyph-name="uni1EB0" unicode="&#x1eb0;" horiz-adv-x="423" 
d="M297 9l-7 115q0 2 -1.5 3t-3.5 1h-158q-2 0 -3.5 -1t-1.5 -3l-35 -115q-1 -9 -11 -9h-74q-5 0 -7 3t0 8l228 680q2 9 11 9h87q9 0 9 -9l62 -680q0 -11 -10 -11h-75q-10 0 -10 9zM149 205.5q1 -1.5 2 -1.5h129q2 0 4 4l-23 355q0 2 -1.5 2t-2.5 -2l-108 -355q-1 -1 0 -2.5
zM216 793q-27 28 -25 72q2 10 11 10h33q9 0 9 -10q0 -23 13.5 -38t34.5 -15t38 15t22 38q3 10 12 10h33q10 0 8 -10q-9 -44 -42 -72t-77 -28q-43 0 -70 28zM337 931q0 -8 -9 -8h-48q-9 0 -11 6l-58 109l-1 4q0 8 9 8h59q7 0 11 -7l47 -108z" />
    <glyph glyph-name="uni1EB1" unicode="&#x1eb1;" horiz-adv-x="411" 
d="M319 506q3 3 7 3h74q9 0 9 -10l-61 -489q0 -4 -3 -7t-7 -3h-74q-9 0 -9 10l5 35q0 3 -1.5 3.5t-3.5 -1.5q-19 -28 -46 -41.5t-57 -13.5q-55 0 -84 33.5t-29 92.5q0 9 2 33l25 207q9 74 48.5 116.5t102.5 42.5q29 0 52.5 -13.5t36.5 -41.5q2 -2 3.5 -1.5t1.5 3.5l4 35
q1 4 4 7zM247 98q22 23 26 59l24 195q1 5 1 14q0 31 -16 49.5t-43 18.5q-31 0 -53 -23t-27 -59l-24 -195q-1 -5 -1 -14q0 -30 16.5 -49t43.5 -19q31 0 53 23zM187 602q-27 28 -25 72q2 10 11 10h33q9 0 9 -10q0 -23 13.5 -38t34.5 -15t38 15t22 38q3 10 12 10h33q10 0 8 -10
q-9 -44 -42 -72t-77 -28q-43 0 -70 28zM308 740q0 -8 -9 -8h-48q-9 0 -11 6l-58 109l-1 4q0 8 9 8h59q7 0 11 -7l47 -108z" />
    <glyph glyph-name="uni1EB2" unicode="&#x1eb2;" horiz-adv-x="423" 
d="M297 9l-7 115q0 2 -1.5 3t-3.5 1h-158q-2 0 -3.5 -1t-1.5 -3l-35 -115q-1 -9 -11 -9h-74q-5 0 -7 3t0 8l228 680q2 9 11 9h87q9 0 9 -9l62 -680q0 -11 -10 -11h-75q-10 0 -10 9zM149 205.5q1 -1.5 2 -1.5h129q2 0 4 4l-23 355q0 2 -1.5 2t-2.5 -2l-108 -355q-1 -1 0 -2.5
zM290 913q11 21 35 43q13 13 18.5 21t7.5 21q1 12 -7.5 20.5t-22.5 8.5q-15 0 -25 -6.5t-25 -24.5q-8 -8 -14 -2l-18 14q-6 6 0 14q21 28 40.5 39.5t49.5 11.5q32 0 51.5 -17.5t19.5 -46.5q0 -26 -10.5 -42t-32.5 -37q-20 -16 -28 -29q-5 -8 -13 -6l-21 5q-11 3 -5 13z
M216 793q-27 28 -25 72q2 10 11 10h33q9 0 9 -10q0 -23 13.5 -38t34.5 -15t38 15t22 38q3 10 12 10h33q10 0 8 -10q-9 -44 -42 -72t-77 -28q-43 0 -70 28z" />
    <glyph glyph-name="uni1EB3" unicode="&#x1eb3;" horiz-adv-x="411" 
d="M319 506q3 3 7 3h74q9 0 9 -10l-61 -489q0 -4 -3 -7t-7 -3h-74q-9 0 -9 10l5 35q0 3 -1.5 3.5t-3.5 -1.5q-19 -28 -46 -41.5t-57 -13.5q-55 0 -84 33.5t-29 92.5q0 9 2 33l25 207q9 74 48.5 116.5t102.5 42.5q29 0 52.5 -13.5t36.5 -41.5q2 -2 3.5 -1.5t1.5 3.5l4 35
q1 4 4 7zM247 98q22 23 26 59l24 195q1 5 1 14q0 31 -16 49.5t-43 18.5q-31 0 -53 -23t-27 -59l-24 -195q-1 -5 -1 -14q0 -30 16.5 -49t43.5 -19q31 0 53 23zM261 722q11 21 35 43q13 13 18.5 21t7.5 21q1 12 -7.5 20.5t-22.5 8.5q-15 0 -25 -6.5t-25 -24.5q-8 -8 -14 -2
l-18 14q-6 6 0 14q21 28 40.5 39.5t49.5 11.5q32 0 51.5 -17.5t19.5 -46.5q0 -26 -10.5 -42t-32.5 -37q-20 -16 -28 -29q-5 -8 -13 -6l-21 5q-11 3 -5 13zM187 602q-27 28 -25 72q2 10 11 10h33q9 0 9 -10q0 -23 13.5 -38t34.5 -15t38 15t22 38q3 10 12 10h33q10 0 8 -10
q-9 -44 -42 -72t-77 -28q-43 0 -70 28z" />
    <glyph glyph-name="uni1EB4" unicode="&#x1eb4;" horiz-adv-x="423" 
d="M297 9l-7 115q0 2 -1.5 3t-3.5 1h-158q-2 0 -3.5 -1t-1.5 -3l-35 -115q-1 -9 -11 -9h-74q-5 0 -7 3t0 8l228 680q2 9 11 9h87q9 0 9 -9l62 -680q0 -11 -10 -11h-75q-10 0 -10 9zM149 205.5q1 -1.5 2 -1.5h129q2 0 4 4l-23 355q0 2 -1.5 2t-2.5 -2l-108 -355q-1 -1 0 -2.5
zM216 793q-27 28 -25 72q2 10 11 10h33q9 0 9 -10q0 -23 13.5 -38t34.5 -15t38 15t22 38q3 10 12 10h33q10 0 8 -10q-9 -44 -42 -72t-77 -28q-43 0 -70 28zM335.5 925q-10.5 5 -26.5 15q-4 3 -11.5 9t-14 8.5t-14.5 2.5q-12 0 -22 -5.5t-21 -20.5q-3 -4 -7 -5t-7 2l-25 20
q-6 6 -2 13q17 30 39.5 45t46.5 15q15 0 27.5 -6t27.5 -17q3 -2 10.5 -8t14.5 -9t15 -3q12 0 22 5.5t21 20.5q3 4 7 4.5t7 -1.5l24 -18q3 -3 3 -8q0 -4 -4 -11q-19 -28 -42.5 -40.5t-44.5 -12.5q-13 0 -23.5 5z" />
    <glyph glyph-name="uni1EB5" unicode="&#x1eb5;" horiz-adv-x="411" 
d="M319 506q3 3 7 3h74q9 0 9 -10l-61 -489q0 -4 -3 -7t-7 -3h-74q-9 0 -9 10l5 35q0 3 -1.5 3.5t-3.5 -1.5q-19 -28 -46 -41.5t-57 -13.5q-55 0 -84 33.5t-29 92.5q0 9 2 33l25 207q9 74 48.5 116.5t102.5 42.5q29 0 52.5 -13.5t36.5 -41.5q2 -2 3.5 -1.5t1.5 3.5l4 35
q1 4 4 7zM247 98q22 23 26 59l24 195q1 5 1 14q0 31 -16 49.5t-43 18.5q-31 0 -53 -23t-27 -59l-24 -195q-1 -5 -1 -14q0 -30 16.5 -49t43.5 -19q31 0 53 23zM187 602q-27 28 -25 72q2 10 11 10h33q9 0 9 -10q0 -23 13.5 -38t34.5 -15t38 15t22 38q3 10 12 10h33q10 0 8 -10
q-9 -44 -42 -72t-77 -28q-43 0 -70 28zM306.5 734q-10.5 5 -26.5 15q-4 3 -11.5 9t-14 8.5t-14.5 2.5q-12 0 -22 -5.5t-21 -20.5q-3 -4 -7 -5t-7 2l-25 20q-6 6 -2 13q17 30 39.5 45t46.5 15q15 0 27.5 -6t27.5 -17q3 -2 10.5 -8t14.5 -9t15 -3q12 0 22 5.5t21 20.5
q3 4 7 4.5t7 -1.5l24 -18q3 -3 3 -8q0 -4 -4 -11q-19 -28 -42.5 -40.5t-44.5 -12.5q-13 0 -23.5 5z" />
    <glyph glyph-name="uni1EB6" unicode="&#x1eb6;" horiz-adv-x="423" 
d="M297 9l-7 115q0 2 -1.5 3t-3.5 1h-158q-2 0 -3.5 -1t-1.5 -3l-35 -115q-1 -9 -11 -9h-74q-5 0 -7 3t0 8l228 680q2 9 11 9h87q9 0 9 -9l62 -680q0 -11 -10 -11h-75q-10 0 -10 9zM149 205.5q1 -1.5 2 -1.5h129q2 0 4 4l-23 355q0 2 -1.5 2t-2.5 -2l-108 -355q-1 -1 0 -2.5
zM129.5 -194q-14.5 15 -14.5 38q0 29 19.5 49t47.5 20q23 0 37.5 -14t14.5 -37q0 -30 -19.5 -50.5t-47.5 -20.5q-23 0 -37.5 15zM216 793q-27 28 -25 72q2 10 11 10h33q9 0 9 -10q0 -23 13.5 -38t34.5 -15t38 15t22 38q3 10 12 10h33q10 0 8 -10q-9 -44 -42 -72t-77 -28
q-43 0 -70 28z" />
    <glyph glyph-name="uni1EB7" unicode="&#x1eb7;" horiz-adv-x="411" 
d="M319 506q3 3 7 3h74q9 0 9 -10l-61 -489q0 -4 -3 -7t-7 -3h-74q-9 0 -9 10l5 35q0 3 -1.5 3.5t-3.5 -1.5q-19 -28 -46 -41.5t-57 -13.5q-55 0 -84 33.5t-29 92.5q0 9 2 33l25 207q9 74 48.5 116.5t102.5 42.5q29 0 52.5 -13.5t36.5 -41.5q2 -2 3.5 -1.5t1.5 3.5l4 35
q1 4 4 7zM247 98q22 23 26 59l24 195q1 5 1 14q0 31 -16 49.5t-43 18.5q-31 0 -53 -23t-27 -59l-24 -195q-1 -5 -1 -14q0 -30 16.5 -49t43.5 -19q31 0 53 23zM122.5 -194q-14.5 15 -14.5 38q0 29 19.5 49t47.5 20q23 0 37.5 -14t14.5 -37q0 -30 -19.5 -50.5t-47.5 -20.5
q-23 0 -37.5 15zM187 602q-27 28 -25 72q2 10 11 10h33q9 0 9 -10q0 -23 13.5 -38t34.5 -15t38 15t22 38q3 10 12 10h33q10 0 8 -10q-9 -44 -42 -72t-77 -28q-43 0 -70 28z" />
    <glyph glyph-name="uni1EB8" unicode="&#x1eb8;" 
d="M432 617h-219q-1 0 -2.5 -1t-1.5 -3l-27 -217q0 -4 4 -4h134q10 0 8 -10l-8 -63q0 -4 -3 -7t-7 -3h-134q-3 0 -5 -4l-26 -218q-1 -1 0 -2.5t3 -1.5h218q9 0 9 -10l-8 -63q-2 -10 -11 -10h-306q-4 0 -6.5 3t-1.5 7l83 680q1 4 4 7t7 3h306q10 0 8 -10l-7 -63
q-2 -10 -11 -10zM135.5 -194q-14.5 15 -14.5 38q0 29 19.5 49t47.5 20q23 0 37.5 -14t14.5 -37q0 -30 -19.5 -50.5t-47.5 -20.5q-23 0 -37.5 15z" />
    <glyph glyph-name="uni1EB9" unicode="&#x1eb9;" horiz-adv-x="405" 
d="M365 215h-219q-3 0 -5 -4l-6 -54q-1 -5 -1 -14q0 -30 16.5 -49t43.5 -19t47.5 17t29.5 44q4 8 11 8l72 -4q5 0 6.5 -3t0.5 -7q-14 -65 -60 -101.5t-117 -36.5q-68 0 -106.5 35.5t-38.5 97.5q0 7 2 25l25 208q9 71 59 115t124 44q68 0 106.5 -36t38.5 -97q0 -8 -2 -26
l-16 -133q-2 -10 -11 -10zM186 411q-22 -23 -27 -59l-7 -53q0 -4 4 -4h132q2 0 3.5 1t1.5 3l6 53q1 5 1 14q0 31 -16.5 49.5t-44.5 18.5q-31 0 -53 -23zM120.5 -194q-14.5 15 -14.5 38q0 29 19.5 49t47.5 20q23 0 37.5 -14t14.5 -37q0 -30 -19.5 -50.5t-47.5 -20.5
q-23 0 -37.5 15z" />
    <glyph glyph-name="uni1EBA" unicode="&#x1eba;" 
d="M432 617h-219q-1 0 -2.5 -1t-1.5 -3l-27 -217q0 -4 4 -4h134q10 0 8 -10l-8 -63q0 -4 -3 -7t-7 -3h-134q-3 0 -5 -4l-26 -218q-1 -1 0 -2.5t3 -1.5h218q9 0 9 -10l-8 -63q-2 -10 -11 -10h-306q-4 0 -6.5 3t-1.5 7l83 680q1 4 4 7t7 3h306q10 0 8 -10l-7 -63
q-2 -10 -11 -10zM278.5 747.5q-1.5 3.5 1.5 8.5q8 16 16.5 26.5t22.5 22.5q13 13 19 21.5t8 22.5q1 13 -8 22.5t-23 9.5q-16 0 -27.5 -7.5t-27.5 -26.5q-8 -9 -14 -3l-21 17q-7 7 -1 14q24 30 45 43t54 13q35 0 56 -19t21 -51q0 -28 -12 -46t-35 -39q-22 -20 -30 -32
q-5 -8 -13 -6l-25 5q-5 1 -6.5 4.5z" />
    <glyph glyph-name="uni1EBB" unicode="&#x1ebb;" horiz-adv-x="405" 
d="M365 215h-219q-3 0 -5 -4l-6 -54q-1 -5 -1 -14q0 -30 16.5 -49t43.5 -19t47.5 17t29.5 44q4 8 11 8l72 -4q5 0 6.5 -3t0.5 -7q-14 -65 -60 -101.5t-117 -36.5q-68 0 -106.5 35.5t-38.5 97.5q0 7 2 25l25 208q9 71 59 115t124 44q68 0 106.5 -36t38.5 -97q0 -8 -2 -26
l-16 -133q-2 -10 -11 -10zM186 411q-22 -23 -27 -59l-7 -53q0 -4 4 -4h132q2 0 3.5 1t1.5 3l6 53q1 5 1 14q0 31 -16.5 49.5t-44.5 18.5q-31 0 -53 -23zM235.5 556.5q-1.5 3.5 1.5 8.5q8 16 16.5 26.5t22.5 22.5q13 13 19 21.5t8 22.5q1 13 -8 22.5t-23 9.5
q-16 0 -27.5 -7.5t-27.5 -26.5q-8 -9 -14 -3l-21 17q-7 7 -1 14q24 30 45 43t54 13q35 0 56 -19t21 -51q0 -28 -12 -46t-35 -39q-22 -20 -30 -32q-5 -8 -13 -6l-25 5q-5 1 -6.5 4.5z" />
    <glyph glyph-name="uni1EBC" unicode="&#x1ebc;" 
d="M432 617h-219q-1 0 -2.5 -1t-1.5 -3l-27 -217q0 -4 4 -4h134q10 0 8 -10l-8 -63q0 -4 -3 -7t-7 -3h-134q-3 0 -5 -4l-26 -218q-1 -1 0 -2.5t3 -1.5h218q9 0 9 -10l-8 -63q-2 -10 -11 -10h-306q-4 0 -6.5 3t-1.5 7l83 680q1 4 4 7t7 3h306q10 0 8 -10l-7 -63
q-2 -10 -11 -10zM338.5 796q-10.5 5 -26.5 15q-4 3 -11.5 9t-14 8.5t-14.5 2.5q-12 0 -22 -5.5t-21 -20.5q-3 -4 -7 -5t-7 2l-25 20q-6 6 -2 13q17 30 39.5 45t46.5 15q15 0 27.5 -6t27.5 -17q3 -2 10.5 -8t14.5 -9t15 -3q12 0 22 5.5t21 20.5q3 4 7 4.5t7 -1.5l24 -18
q3 -3 3 -8q0 -4 -4 -11q-19 -28 -42.5 -40.5t-44.5 -12.5q-13 0 -23.5 5z" />
    <glyph glyph-name="uni1EBD" unicode="&#x1ebd;" horiz-adv-x="405" 
d="M365 215h-219q-3 0 -5 -4l-6 -54q-1 -5 -1 -14q0 -30 16.5 -49t43.5 -19t47.5 17t29.5 44q4 8 11 8l72 -4q5 0 6.5 -3t0.5 -7q-14 -65 -60 -101.5t-117 -36.5q-68 0 -106.5 35.5t-38.5 97.5q0 7 2 25l25 208q9 71 59 115t124 44q68 0 106.5 -36t38.5 -97q0 -8 -2 -26
l-16 -133q-2 -10 -11 -10zM186 411q-22 -23 -27 -59l-7 -53q0 -4 4 -4h132q2 0 3.5 1t1.5 3l6 53q1 5 1 14q0 31 -16.5 49.5t-44.5 18.5q-31 0 -53 -23zM295.5 605q-10.5 5 -26.5 15q-4 3 -11.5 9t-14 8.5t-14.5 2.5q-12 0 -22 -5.5t-21 -20.5q-3 -4 -7 -5t-7 2l-25 20
q-6 6 -2 13q17 30 39.5 45t46.5 15q15 0 27.5 -6t27.5 -17q3 -2 10.5 -8t14.5 -9t15 -3q12 0 22 5.5t21 20.5q3 4 7 4.5t7 -1.5l24 -18q3 -3 3 -8q0 -4 -4 -11q-19 -28 -42.5 -40.5t-44.5 -12.5q-13 0 -23.5 5z" />
    <glyph glyph-name="uni1EBE" unicode="&#x1ebe;" 
d="M432 617h-219q-1 0 -2.5 -1t-1.5 -3l-27 -217q0 -4 4 -4h134q10 0 8 -10l-8 -63q0 -4 -3 -7t-7 -3h-134q-3 0 -5 -4l-26 -218q-1 -1 0 -2.5t3 -1.5h218q9 0 9 -10l-8 -63q-2 -10 -11 -10h-306q-4 0 -6.5 3t-1.5 7l83 680q1 4 4 7t7 3h306q10 0 8 -10l-7 -63
q-2 -10 -11 -10zM178.5 771.5q-1.5 3.5 2.5 8.5l76 104q5 7 12 7h83q6 0 11 -7l53 -104q1 -2 1 -5q0 -7 -8 -7h-60q-7 0 -10 7l-30 68q-1 2 -3 1.5t-3 -1.5l-46 -68q-5 -7 -12 -7h-60q-5 0 -6.5 3.5zM422 846.5q-2 3.5 2 8.5l73 108q7 7 13 7h59q6 0 7.5 -3.5t-2.5 -8.5
l-85 -109q-4 -6 -12 -6h-48q-5 0 -7 3.5z" />
    <glyph glyph-name="uni1EBF" unicode="&#x1ebf;" horiz-adv-x="405" 
d="M365 215h-219q-3 0 -5 -4l-6 -54q-1 -5 -1 -14q0 -30 16.5 -49t43.5 -19t47.5 17t29.5 44q4 8 11 8l72 -4q5 0 6.5 -3t0.5 -7q-14 -65 -60 -101.5t-117 -36.5q-68 0 -106.5 35.5t-38.5 97.5q0 7 2 25l25 208q9 71 59 115t124 44q68 0 106.5 -36t38.5 -97q0 -8 -2 -26
l-16 -133q-2 -10 -11 -10zM186 411q-22 -23 -27 -59l-7 -53q0 -4 4 -4h132q2 0 3.5 1t1.5 3l6 53q1 5 1 14q0 31 -16.5 49.5t-44.5 18.5q-31 0 -53 -23zM134.5 580.5q-1.5 3.5 2.5 8.5l76 104q5 7 12 7h83q6 0 11 -7l53 -104q1 -2 1 -5q0 -7 -8 -7h-60q-7 0 -10 7l-30 68
q-1 2 -3 1.5t-3 -1.5l-46 -68q-5 -7 -12 -7h-60q-5 0 -6.5 3.5zM378 655.5q-2 3.5 2 8.5l73 108q7 7 13 7h59q6 0 7.5 -3.5t-2.5 -8.5l-85 -109q-4 -6 -12 -6h-48q-5 0 -7 3.5z" />
    <glyph glyph-name="uni1EC0" unicode="&#x1ec0;" 
d="M432 617h-219q-1 0 -2.5 -1t-1.5 -3l-27 -217q0 -4 4 -4h134q10 0 8 -10l-8 -63q0 -4 -3 -7t-7 -3h-134q-3 0 -5 -4l-26 -218q-1 -1 0 -2.5t3 -1.5h218q9 0 9 -10l-8 -63q-2 -10 -11 -10h-306q-4 0 -6.5 3t-1.5 7l83 680q1 4 4 7t7 3h306q10 0 8 -10l-7 -63
q-2 -10 -11 -10zM178.5 771.5q-1.5 3.5 2.5 8.5l76 104q5 7 12 7h83q6 0 11 -7l53 -104q1 -2 1 -5q0 -7 -8 -7h-60q-7 0 -10 7l-30 68q-1 2 -3 1.5t-3 -1.5l-46 -68q-5 -7 -12 -7h-60q-5 0 -6.5 3.5zM489 892q0 -8 -9 -8h-48q-9 0 -11 6l-58 109l-1 4q0 8 9 8h59q7 0 11 -7
l47 -108z" />
    <glyph glyph-name="uni1EC1" unicode="&#x1ec1;" horiz-adv-x="405" 
d="M365 215h-219q-3 0 -5 -4l-6 -54q-1 -5 -1 -14q0 -30 16.5 -49t43.5 -19t47.5 17t29.5 44q4 8 11 8l72 -4q5 0 6.5 -3t0.5 -7q-14 -65 -60 -101.5t-117 -36.5q-68 0 -106.5 35.5t-38.5 97.5q0 7 2 25l25 208q9 71 59 115t124 44q68 0 106.5 -36t38.5 -97q0 -8 -2 -26
l-16 -133q-2 -10 -11 -10zM186 411q-22 -23 -27 -59l-7 -53q0 -4 4 -4h132q2 0 3.5 1t1.5 3l6 53q1 5 1 14q0 31 -16.5 49.5t-44.5 18.5q-31 0 -53 -23zM134.5 580.5q-1.5 3.5 2.5 8.5l76 104q5 7 12 7h83q6 0 11 -7l53 -104q1 -2 1 -5q0 -7 -8 -7h-60q-7 0 -10 7l-30 68
q-1 2 -3 1.5t-3 -1.5l-46 -68q-5 -7 -12 -7h-60q-5 0 -6.5 3.5zM445 701q0 -8 -9 -8h-48q-9 0 -11 6l-58 109l-1 4q0 8 9 8h59q7 0 11 -7l47 -108z" />
    <glyph glyph-name="uni1EC2" unicode="&#x1ec2;" 
d="M432 617h-219q-1 0 -2.5 -1t-1.5 -3l-27 -217q0 -4 4 -4h134q10 0 8 -10l-8 -63q0 -4 -3 -7t-7 -3h-134q-3 0 -5 -4l-26 -218q-1 -1 0 -2.5t3 -1.5h218q9 0 9 -10l-8 -63q-2 -10 -11 -10h-306q-4 0 -6.5 3t-1.5 7l83 680q1 4 4 7t7 3h306q10 0 8 -10l-7 -63
q-2 -10 -11 -10zM422 869.5q-2 3.5 1 8.5q13 24 37 46q13 12 19 20.5t7 22.5q1 13 -7.5 21.5t-22.5 8.5q-15 0 -25.5 -7t-25.5 -25q-8 -9 -14 -3l-20 16q-6 6 0 14q22 29 42 41t51 12q34 0 54.5 -18t20.5 -49q0 -27 -11.5 -44t-34.5 -37q-21 -19 -29 -31q-4 -7 -13 -6l-23 5
q-4 1 -6 4.5zM178.5 771.5q-1.5 3.5 2.5 8.5l76 104q5 7 12 7h83q6 0 11 -7l53 -104q1 -2 1 -5q0 -7 -8 -7h-60q-7 0 -10 7l-30 68q-1 2 -3 1.5t-3 -1.5l-46 -68q-5 -7 -12 -7h-60q-5 0 -6.5 3.5z" />
    <glyph glyph-name="uni1EC3" unicode="&#x1ec3;" horiz-adv-x="405" 
d="M365 215h-219q-3 0 -5 -4l-6 -54q-1 -5 -1 -14q0 -30 16.5 -49t43.5 -19t47.5 17t29.5 44q4 8 11 8l72 -4q5 0 6.5 -3t0.5 -7q-14 -65 -60 -101.5t-117 -36.5q-68 0 -106.5 35.5t-38.5 97.5q0 7 2 25l25 208q9 71 59 115t124 44q68 0 106.5 -36t38.5 -97q0 -8 -2 -26
l-16 -133q-2 -10 -11 -10zM186 411q-22 -23 -27 -59l-7 -53q0 -4 4 -4h132q2 0 3.5 1t1.5 3l6 53q1 5 1 14q0 31 -16.5 49.5t-44.5 18.5q-31 0 -53 -23zM378 678.5q-2 3.5 1 8.5q13 24 37 46q13 12 19 20.5t7 22.5q1 13 -7.5 21.5t-22.5 8.5q-15 0 -25.5 -7t-25.5 -25
q-8 -9 -14 -3l-20 16q-6 6 0 14q22 29 42 41t51 12q34 0 54.5 -18t20.5 -49q0 -27 -11.5 -44t-34.5 -37q-21 -19 -29 -31q-4 -7 -13 -6l-23 5q-4 1 -6 4.5zM134.5 580.5q-1.5 3.5 2.5 8.5l76 104q5 7 12 7h83q6 0 11 -7l53 -104q1 -2 1 -5q0 -7 -8 -7h-60q-7 0 -10 7l-30 68
q-1 2 -3 1.5t-3 -1.5l-46 -68q-5 -7 -12 -7h-60q-5 0 -6.5 3.5z" />
    <glyph glyph-name="uni1EC4" unicode="&#x1ec4;" 
d="M432 617h-219q-1 0 -2.5 -1t-1.5 -3l-27 -217q0 -4 4 -4h134q10 0 8 -10l-8 -63q0 -4 -3 -7t-7 -3h-134q-3 0 -5 -4l-26 -218q-1 -1 0 -2.5t3 -1.5h218q9 0 9 -10l-8 -63q-2 -10 -11 -10h-306q-4 0 -6.5 3t-1.5 7l83 680q1 4 4 7t7 3h306q10 0 8 -10l-7 -63
q-2 -10 -11 -10zM178.5 771.5q-1.5 3.5 2.5 8.5l76 104q5 7 12 7h83q6 0 11 -7l53 -104q1 -2 1 -5q0 -7 -8 -7h-60q-7 0 -10 7l-30 68q-1 2 -3 1.5t-3 -1.5l-46 -68q-5 -7 -12 -7h-60q-5 0 -6.5 3.5zM344.5 929q-10.5 5 -26.5 15q-4 3 -11.5 9t-14 8.5t-14.5 2.5
q-12 0 -22 -5.5t-21 -20.5q-3 -4 -7 -5t-7 2l-25 20q-6 6 -2 13q17 30 39.5 45t46.5 15q15 0 27.5 -6t27.5 -17q3 -2 10.5 -8t14.5 -9t15 -3q12 0 22 5.5t21 20.5q3 4 7 4.5t7 -1.5l24 -18q3 -3 3 -8q0 -4 -4 -11q-19 -28 -42.5 -40.5t-44.5 -12.5q-13 0 -23.5 5z" />
    <glyph glyph-name="uni1EC5" unicode="&#x1ec5;" horiz-adv-x="405" 
d="M365 215h-219q-3 0 -5 -4l-6 -54q-1 -5 -1 -14q0 -30 16.5 -49t43.5 -19t47.5 17t29.5 44q4 8 11 8l72 -4q5 0 6.5 -3t0.5 -7q-14 -65 -60 -101.5t-117 -36.5q-68 0 -106.5 35.5t-38.5 97.5q0 7 2 25l25 208q9 71 59 115t124 44q68 0 106.5 -36t38.5 -97q0 -8 -2 -26
l-16 -133q-2 -10 -11 -10zM186 411q-22 -23 -27 -59l-7 -53q0 -4 4 -4h132q2 0 3.5 1t1.5 3l6 53q1 5 1 14q0 31 -16.5 49.5t-44.5 18.5q-31 0 -53 -23zM134.5 580.5q-1.5 3.5 2.5 8.5l76 104q5 7 12 7h83q6 0 11 -7l53 -104q1 -2 1 -5q0 -7 -8 -7h-60q-7 0 -10 7l-30 68
q-1 2 -3 1.5t-3 -1.5l-46 -68q-5 -7 -12 -7h-60q-5 0 -6.5 3.5zM300.5 738q-10.5 5 -26.5 15q-4 3 -11.5 9t-14 8.5t-14.5 2.5q-12 0 -22 -5.5t-21 -20.5q-3 -4 -7 -5t-7 2l-25 20q-6 6 -2 13q17 30 39.5 45t46.5 15q15 0 27.5 -6t27.5 -17q3 -2 10.5 -8t14.5 -9t15 -3
q12 0 22 5.5t21 20.5q3 4 7 4.5t7 -1.5l24 -18q3 -3 3 -8q0 -4 -4 -11q-19 -28 -42.5 -40.5t-44.5 -12.5q-13 0 -23.5 5z" />
    <glyph glyph-name="uni1EC6" unicode="&#x1ec6;" 
d="M432 617h-219q-1 0 -2.5 -1t-1.5 -3l-27 -217q0 -4 4 -4h134q10 0 8 -10l-8 -63q0 -4 -3 -7t-7 -3h-134q-3 0 -5 -4l-26 -218q-1 -1 0 -2.5t3 -1.5h218q9 0 9 -10l-8 -63q-2 -10 -11 -10h-306q-4 0 -6.5 3t-1.5 7l83 680q1 4 4 7t7 3h306q10 0 8 -10l-7 -63
q-2 -10 -11 -10zM135.5 -194q-14.5 15 -14.5 38q0 29 19.5 49t47.5 20q23 0 37.5 -14t14.5 -37q0 -30 -19.5 -50.5t-47.5 -20.5q-23 0 -37.5 15zM178.5 771.5q-1.5 3.5 2.5 8.5l76 104q5 7 12 7h83q6 0 11 -7l53 -104q1 -2 1 -5q0 -7 -8 -7h-60q-7 0 -10 7l-30 68
q-1 2 -3 1.5t-3 -1.5l-46 -68q-5 -7 -12 -7h-60q-5 0 -6.5 3.5z" />
    <glyph glyph-name="uni1EC7" unicode="&#x1ec7;" horiz-adv-x="405" 
d="M365 215h-219q-3 0 -5 -4l-6 -54q-1 -5 -1 -14q0 -30 16.5 -49t43.5 -19t47.5 17t29.5 44q4 8 11 8l72 -4q5 0 6.5 -3t0.5 -7q-14 -65 -60 -101.5t-117 -36.5q-68 0 -106.5 35.5t-38.5 97.5q0 7 2 25l25 208q9 71 59 115t124 44q68 0 106.5 -36t38.5 -97q0 -8 -2 -26
l-16 -133q-2 -10 -11 -10zM186 411q-22 -23 -27 -59l-7 -53q0 -4 4 -4h132q2 0 3.5 1t1.5 3l6 53q1 5 1 14q0 31 -16.5 49.5t-44.5 18.5q-31 0 -53 -23zM120.5 -194q-14.5 15 -14.5 38q0 29 19.5 49t47.5 20q23 0 37.5 -14t14.5 -37q0 -30 -19.5 -50.5t-47.5 -20.5
q-23 0 -37.5 15zM134.5 580.5q-1.5 3.5 2.5 8.5l76 104q5 7 12 7h83q6 0 11 -7l53 -104q1 -2 1 -5q0 -7 -8 -7h-60q-7 0 -10 7l-30 68q-1 2 -3 1.5t-3 -1.5l-46 -68q-5 -7 -12 -7h-60q-5 0 -6.5 3.5z" />
    <glyph glyph-name="uni1EC8" unicode="&#x1ec8;" horiz-adv-x="213" 
d="M43.5 3q-2.5 3 -1.5 7l83 680q1 4 4 7t7 3h74q9 0 9 -10l-84 -680q-2 -10 -11 -10h-74q-4 0 -6.5 3zM162.5 747.5q-1.5 3.5 1.5 8.5q8 16 16.5 26.5t22.5 22.5q13 13 19 21.5t8 22.5q1 13 -8 22.5t-23 9.5q-16 0 -27.5 -7.5t-27.5 -26.5q-8 -9 -14 -3l-21 17q-7 7 -1 14
q24 30 45 43t54 13q35 0 56 -19t21 -51q0 -28 -12 -46t-35 -39q-22 -20 -30 -32q-5 -8 -13 -6l-25 5q-5 1 -6.5 4.5z" />
    <glyph glyph-name="uni1EC9" unicode="&#x1ec9;" horiz-adv-x="171" 
d="M21 10l60 489q0 4 3 7t8 3h73q5 0 7.5 -3t1.5 -7l-60 -489q-2 -10 -11 -10h-74q-10 0 -8 10zM117.5 556.5q-1.5 3.5 1.5 8.5q8 16 16.5 26.5t22.5 22.5q13 13 19 21.5t8 22.5q1 13 -8 22.5t-23 9.5q-16 0 -27.5 -7.5t-27.5 -26.5q-8 -9 -14 -3l-21 17q-7 7 -1 14
q24 30 45 43t54 13q35 0 56 -19t21 -51q0 -28 -12 -46t-35 -39q-22 -20 -30 -32q-5 -8 -13 -6l-25 5q-5 1 -6.5 4.5z" />
    <glyph glyph-name="uni1ECA" unicode="&#x1eca;" horiz-adv-x="213" 
d="M43.5 3q-2.5 3 -1.5 7l83 680q1 4 4 7t7 3h74q9 0 9 -10l-84 -680q-2 -10 -11 -10h-74q-4 0 -6.5 3zM24.5 -194q-14.5 15 -14.5 38q0 29 19.5 49t47.5 20q23 0 37.5 -14t14.5 -37q0 -30 -19.5 -50.5t-47.5 -20.5q-23 0 -37.5 15z" />
    <glyph glyph-name="uni1ECB" unicode="&#x1ecb;" horiz-adv-x="205" 
d="M115 604q-15 15 -15 39q0 32 20.5 53t49.5 21q25 0 40 -15t15 -40q0 -31 -20.5 -52t-49.5 -21q-25 0 -40 15zM39.5 3q-2.5 3 -1.5 7l60 489q2 10 11 10h74q10 0 8 -10l-60 -489q-2 -10 -11 -10h-73q-5 0 -7.5 3zM20.5 -194q-14.5 15 -14.5 38q0 29 19.5 49t47.5 20
q23 0 37.5 -14t14.5 -37q0 -30 -19.5 -50.5t-47.5 -20.5q-23 0 -37.5 15z" />
    <glyph glyph-name="uni1ECC" unicode="&#x1ecc;" horiz-adv-x="448" 
d="M89 33q-42 41 -42 112q0 10 2 30l42 349q10 83 65 133.5t135 50.5q73 0 115.5 -42.5t42.5 -113.5q0 -8 -2 -28l-43 -349q-10 -83 -65.5 -133t-135.5 -50q-72 0 -114 41zM278 101.5q27 26.5 32 69.5l44 358q1 6 1 16q0 36 -20 58t-55 22q-37 0 -63.5 -26.5t-31.5 -69.5
l-44 -358q-1 -6 -1 -17q0 -36 19.5 -57.5t53.5 -21.5q38 0 65 26.5zM141.5 -194q-14.5 15 -14.5 38q0 29 19.5 49t47.5 20q23 0 37.5 -14t14.5 -37q0 -30 -19.5 -50.5t-47.5 -20.5q-23 0 -37.5 15z" />
    <glyph glyph-name="uni1ECD" unicode="&#x1ecd;" horiz-adv-x="412" 
d="M77.5 28q-38.5 36 -38.5 98q0 7 2 25l25 207q9 71 59 115t125 44q69 0 108 -36.5t39 -97.5q0 -7 -2 -25l-25 -207q-9 -72 -59 -115.5t-126 -43.5q-69 0 -107.5 36zM250 99q23 23 27 59l24 194q1 5 1 13q0 31 -17 50t-45 19q-31 0 -53.5 -23t-27.5 -59l-24 -194
q-1 -5 -1 -14q0 -31 17 -49.5t45 -18.5q31 0 54 23zM123.5 -194q-14.5 15 -14.5 38q0 29 19.5 49t47.5 20q23 0 37.5 -14t14.5 -37q0 -30 -19.5 -50.5t-47.5 -20.5q-23 0 -37.5 15z" />
    <glyph glyph-name="uni1ECE" unicode="&#x1ece;" horiz-adv-x="448" 
d="M89 33q-42 41 -42 112q0 10 2 30l42 349q10 83 65 133.5t135 50.5q73 0 115.5 -42.5t42.5 -113.5q0 -8 -2 -28l-43 -349q-10 -83 -65.5 -133t-135.5 -50q-72 0 -114 41zM278 101.5q27 26.5 32 69.5l44 358q1 6 1 16q0 36 -20 58t-55 22q-37 0 -63.5 -26.5t-31.5 -69.5
l-44 -358q-1 -6 -1 -17q0 -36 19.5 -57.5t53.5 -21.5q38 0 65 26.5zM279.5 747.5q-1.5 3.5 1.5 8.5q8 16 16.5 26.5t22.5 22.5q13 13 19 21.5t8 22.5q1 13 -8 22.5t-23 9.5q-16 0 -27.5 -7.5t-27.5 -26.5q-8 -9 -14 -3l-21 17q-7 7 -1 14q24 30 45 43t54 13q35 0 56 -19
t21 -51q0 -28 -12 -46t-35 -39q-22 -20 -30 -32q-5 -8 -13 -6l-25 5q-5 1 -6.5 4.5z" />
    <glyph glyph-name="uni1ECF" unicode="&#x1ecf;" horiz-adv-x="412" 
d="M77.5 28q-38.5 36 -38.5 98q0 7 2 25l25 207q9 71 59 115t125 44q69 0 108 -36.5t39 -97.5q0 -7 -2 -25l-25 -207q-9 -72 -59 -115.5t-126 -43.5q-69 0 -107.5 36zM250 99q23 23 27 59l24 194q1 5 1 13q0 31 -17 50t-45 19q-31 0 -53.5 -23t-27.5 -59l-24 -194
q-1 -5 -1 -14q0 -31 17 -49.5t45 -18.5q31 0 54 23zM237.5 556.5q-1.5 3.5 1.5 8.5q8 16 16.5 26.5t22.5 22.5q13 13 19 21.5t8 22.5q1 13 -8 22.5t-23 9.5q-16 0 -27.5 -7.5t-27.5 -26.5q-8 -9 -14 -3l-21 17q-7 7 -1 14q24 30 45 43t54 13q35 0 56 -19t21 -51
q0 -28 -12 -46t-35 -39q-22 -20 -30 -32q-5 -8 -13 -6l-25 5q-5 1 -6.5 4.5z" />
    </font>
</defs>
</svg>
