<?xml version="1.0" standalone="no"?>
<!DOCTYPE svg PUBLIC "-//W3C//DTD SVG 1.1//EN" "http://www.w3.org/Graphics/SVG/1.1/DTD/svg11.dtd" >
<svg xmlns="http://www.w3.org/2000/svg" xmlns:xlink="http://www.w3.org/1999/xlink" version="1.1">
<metadata>
Created by FontForge 20201107 at Wed Nov  7 06:08:23 2018
 By 
Copyright 2017 The Barlow Project Authors (https://github.com/jpt/barlow)
</metadata>
<defs>
<font id="BarlowCondensed-Medium" horiz-adv-x="432" >
  <font-face 
    font-family="Barlow Condensed Medium"
    font-weight="500"
    font-stretch="condensed"
    units-per-em="1000"
    panose-1="0 0 6 6 0 0 0 0 0 0"
    ascent="800"
    descent="-200"
    x-height="509"
    cap-height="700"
    bbox="-600.455 -209 988 1073"
    underline-thickness="50"
    underline-position="-100"
    unicode-range="U+000D-FB02"
  />
<missing-glyph horiz-adv-x="363" 
d="M4 0h355q4 0 4 4v692q0 4 -4 4h-355q-4 0 -4 -4v-692q0 -4 4 -4zM142 248v33q0 33 12.5 52.5t38.5 44.5q23 23 34.5 41t11.5 45q0 31 -14.5 50t-37.5 19q-25 0 -40.5 -19t-15.5 -51v-16q0 -10 -10 -10l-48 2q-4 0 -7 3t-3 8v13q0 59 34.5 96t90.5 37q55 0 88 -35.5
t33 -94.5q0 -45 -15.5 -71t-43.5 -52q-20 -19 -29.5 -33t-9.5 -33v-29q0 -10 -10 -10h-49q-10 0 -10 10zM144 103q-13 13 -13 33t13 32.5t33 12.5t32.5 -12.5t12.5 -32.5t-12.5 -33t-32.5 -13t-33 13z" />
    <glyph glyph-name="fi" unicode="fi" horiz-adv-x="495" 
d="M171 513q0 -4 4 -4h70q10 0 10 -10v-50q0 -10 -10 -10h-70q-4 0 -4 -4v-425q0 -10 -10 -10h-75q-10 0 -10 10v425q0 4 -4 4h-37q-10 0 -10 10v50q0 10 10 10h37q4 0 4 4v26q0 89 37 127.5t120 38.5h13q10 0 10 -10l-2 -61q0 -10 -10 -10h-10q-33 0 -48 -21.5t-15 -66.5
v-23zM343 607q-18 18 -18 46t18 46t46 18q29 0 46.5 -17.5t17.5 -46.5q0 -28 -18 -46t-46 -18t-46 18zM342 10v489q0 10 10 10h76q10 0 10 -10v-489q0 -10 -10 -10h-76q-10 0 -10 10z" />
    <glyph glyph-name="fl" unicode="fl" horiz-adv-x="475" 
d="M171 513q0 -4 4 -4h70q10 0 10 -10v-50q0 -10 -10 -10h-70q-4 0 -4 -4v-425q0 -10 -10 -10h-75q-10 0 -10 10v425q0 4 -4 4h-37q-10 0 -10 10v50q0 10 10 10h37q4 0 4 4v26q0 89 37 127.5t120 38.5h13q10 0 10 -10l-2 -61q0 -10 -10 -10h-10q-33 0 -48 -21.5t-15 -66.5
v-23zM332 10v680q0 10 10 10h76q10 0 10 -10v-680q0 -10 -10 -10h-76q-10 0 -10 10z" />
    <glyph glyph-name="I_J.liga" unicode="IJ" horiz-adv-x="655" 
d="M62 10v680q0 10 10 10h76q10 0 10 -10v-680q0 -10 -10 -10h-76q-10 0 -10 10zM287.5 40.5q-48.5 48.5 -48.5 127.5v79q0 10 10 10h76q10 0 10 -10v-81q0 -40 22.5 -65.5t58.5 -25.5t58.5 25.5t22.5 65.5v524q0 10 10 10h76q10 0 10 -10v-522q0 -79 -48.5 -127.5
t-128.5 -48.5t-128.5 48.5z" />
    <glyph glyph-name="f_f_i.liga" unicode="ffi" horiz-adv-x="759" 
d="M607 607q-18 18 -18 46q0 29 18 46.5t46 17.5t46 -18t18 -46t-18.5 -46t-45.5 -18q-28 0 -46 18zM436 513q0 -4 4 -4h69q10 0 10 -10v-50q0 -10 -10 -10h-69q-4 0 -4 -4v-425q0 -10 -10 -10h-76q-10 0 -10 10v425q0 4 -4 4h-160q-4 0 -4 -4v-425q0 -10 -10 -10h-76
q-10 0 -10 10v425q0 4 -4 4h-38q-10 0 -10 10v50q0 10 10 10h38q4 0 4 4v40q0 83 38 119t120 34h7q10 0 10 -10v-48q0 -10 -10 -10h-7q-35 -1 -48.5 -24.5t-13.5 -68.5v-32q0 -4 4 -4h160q4 0 4 4v40q0 83 37.5 119t119.5 34h8q10 0 10 -10v-48q0 -10 -10 -10h-7
q-35 -1 -48.5 -24.5t-13.5 -68.5v-32zM606 10v489q0 10 10 10h76q10 0 10 -10v-489q0 -10 -10 -10h-76q-10 0 -10 10z" />
    <glyph glyph-name="f_f_l.liga" unicode="ffl" horiz-adv-x="742" 
d="M439 513q0 -4 4 -4h69q10 0 10 -10v-50q0 -10 -10 -10h-69q-4 0 -4 -4v-425q0 -10 -10 -10h-76q-10 0 -10 10v425q0 4 -4 4h-163q-4 0 -4 -4v-425q0 -10 -10 -10h-76q-10 0 -10 10v425q0 4 -4 4h-38q-10 0 -10 10v50q0 10 10 10h38q4 0 4 4v40q0 83 38 119t120 34h7
q10 0 10 -10v-48q0 -10 -10 -10h-7q-35 -1 -48.5 -24.5t-13.5 -68.5v-32q0 -4 4 -4h163q4 0 4 4v40q0 83 38 119t120 34h7q10 0 10 -10v-48q0 -10 -10 -10h-7q-35 -1 -48.5 -24.5t-13.5 -68.5v-32zM608 700h76q10 0 10 -10v-680q0 -10 -10 -10h-76q-10 0 -10 10v680
q0 10 10 10z" />
    <glyph glyph-name="g_j.liga" unicode="gj" horiz-adv-x="628" 
d="M477 607q-18 18 -18 46t18 46t46 18q29 0 46.5 -17.5t17.5 -46.5q0 -28 -18 -46t-46 -18t-46 18zM280.5 470q1.5 1 1.5 3v26q0 10 10 10h76q10 0 10 -10v-484q0 -105 -48 -162.5t-165 -57.5l-27 1q-10 1 -10 11v64q0 10 11 10q82 -3 112.5 32.5t30.5 110.5v21
q0 2 -1.5 2.5t-3.5 -1.5q-34 -46 -97 -46q-66 0 -101.5 42.5t-35.5 115.5v200q0 74 36 116.5t101 42.5t97 -46q2 -2 3.5 -1zM476 499q0 10 10 10h75q10 0 10 -10v-527q0 -90 -35.5 -134.5t-128.5 -43.5q-10 0 -10 10l2 62q0 10 8 10q33 1 51 26.5t18 69.5v527zM262.5 105.5
q19.5 22.5 19.5 58.5v188q0 36 -19.5 59t-51.5 23t-52 -23t-20 -59v-188q0 -36 20 -58.5t52 -22.5t51.5 22.5z" />
    <glyph glyph-name="i_j.liga" unicode="ij" horiz-adv-x="413" 
d="M59 607q-18 18 -18 46t18 46t46 18q29 0 46.5 -17.5t17.5 -46.5q0 -28 -18 -46t-46 -18t-46 18zM261 607q-18 18 -18 46t18 46t46 18q29 0 46.5 -17.5t17.5 -46.5q0 -28 -18 -46t-46 -18t-46 18zM58 10v489q0 10 10 10h76q10 0 10 -10v-489q0 -10 -10 -10h-76
q-10 0 -10 10zM167 -197v63q0 10 10 10q82 1 82 96v527q0 10 10 10h76q10 0 10 -10v-527q0 -62 -13 -99.5t-51 -58.5t-111 -21q-13 0 -13 10z" />
    <glyph glyph-name="hyphen_hyphen.liga" unicode="&#x2d;&#x2d;" horiz-adv-x="592" 
d="M29 269v63q0 10 10 10h514q10 0 10 -10v-63q0 -10 -10 -10h-514q-10 0 -10 10z" />
    <glyph glyph-name=".notdef" horiz-adv-x="363" 
d="M4 0h355q4 0 4 4v692q0 4 -4 4h-355q-4 0 -4 -4v-692q0 -4 4 -4zM142 248v33q0 33 12.5 52.5t38.5 44.5q23 23 34.5 41t11.5 45q0 31 -14.5 50t-37.5 19q-25 0 -40.5 -19t-15.5 -51v-16q0 -10 -10 -10l-48 2q-4 0 -7 3t-3 8v13q0 59 34.5 96t90.5 37q55 0 88 -35.5
t33 -94.5q0 -45 -15.5 -71t-43.5 -52q-20 -19 -29.5 -33t-9.5 -33v-29q0 -10 -10 -10h-49q-10 0 -10 10zM144 103q-13 13 -13 33t13 32.5t33 12.5t32.5 -12.5t12.5 -32.5t-12.5 -33t-32.5 -13t-33 13z" />
    <glyph glyph-name=".null" horiz-adv-x="0" 
 />
    <glyph glyph-name="nonmarkingreturn" unicode="&#xd;" horiz-adv-x="200" 
 />
    <glyph glyph-name="NULL" horiz-adv-x="0" 
 />
    <glyph glyph-name="NULL" horiz-adv-x="0" 
 />
    <glyph glyph-name="space" unicode=" " horiz-adv-x="200" 
 />
    <glyph glyph-name="exclam" unicode="!" horiz-adv-x="261" 
d="M92 242l-9 448q0 10 10 10h76q10 0 10 -10l-10 -448q0 -10 -10 -10h-57q-10 0 -10 10zM85 21q-18 18 -18 46q0 29 18 46.5t46 17.5t46 -18t18 -46t-18 -46t-46 -18t-46 18z" />
    <glyph glyph-name="quotedbl" unicode="&#x22;" horiz-adv-x="274" 
d="M29 492l-9 194q0 10 9 10h73q10 0 10 -10l-10 -194q0 -10 -10 -10h-52q-11 0 -11 10zM171 492l-9 194q0 10 9 10h73q9 0 9 -10l-10 -194q0 -10 -10 -10h-52q-10 0 -10 10z" />
    <glyph glyph-name="numbersign" unicode="#" horiz-adv-x="599" 
d="M541 420h-64q-5 0 -5 -4l-19 -138q0 -4 3 -4h52q10 0 10 -10v-63q0 -10 -10 -10h-65q-5 0 -5 -4l-23 -158q-1 -9 -10 -9l-76 1q-4 0 -7 3t-2 8l22 155q0 4 -3 4h-124q-5 0 -5 -4l-23 -158q-1 -9 -10 -9l-76 1q-4 0 -7 3t-2 8l22 155q0 4 -3 4h-53q-10 0 -10 10v63
q0 10 10 10h66q5 0 5 4l19 138q0 4 -3 4h-54q-10 0 -10 10v64q0 10 10 10h67q5 0 5 4l23 158q1 9 10 9l76 -1q4 0 7 -3t2 -8l-22 -155q0 -4 3 -4h124q5 0 5 4l23 158q1 9 10 9l76 -1q4 0 7 -3t2 -8l-22 -155q0 -4 3 -4h51q10 0 10 -10v-64q0 -10 -10 -10zM357 278l19 138
q0 4 -3 4h-124q-5 0 -5 -4l-19 -138q0 -4 3 -4h124q5 0 5 4z" />
    <glyph glyph-name="dollar" unicode="$" horiz-adv-x="426" 
d="M354.5 57q-36.5 -48 -98.5 -61q-4 -1 -4 -5l1 -66q0 -10 -10 -10h-53q-10 0 -10 10l1 66q0 4 -4 5q-64 11 -101.5 58t-37.5 117v26q0 10 10 10h74q10 0 10 -10v-21q0 -46 23 -73.5t59 -27.5t59.5 26.5t23.5 69.5q0 29 -12.5 51t-33 39.5t-66.5 51.5q-51 38 -80 65t-49 65
t-20 89q0 72 37.5 117.5t101.5 55.5q4 1 4 5l-1 71q0 10 10 10h52q10 0 10 -10l-1 -73q0 -4 4 -5q62 -13 97.5 -61t35.5 -119v-25q0 -10 -10 -10h-74q-10 0 -10 10v27q0 45 -23 72.5t-60 27.5q-35 0 -57 -24.5t-22 -68.5q0 -40 22 -67.5t85 -73.5q60 -45 90.5 -73t47 -61.5
t16.5 -79.5q0 -72 -36.5 -120z" />
    <glyph glyph-name="percent" unicode="%" horiz-adv-x="776" 
d="M134.5 433q-33.5 20 -53 54t-19.5 75q0 40 19.5 74t53 53.5t73.5 19.5q39 0 72 -20t52.5 -53.5t19.5 -73.5q0 -41 -19.5 -75t-52.5 -54t-72 -20q-40 0 -73.5 20zM168.5 3.5q-2.5 3.5 0.5 8.5l367 681q3 7 12 7h49q6 0 8.5 -3.5t-0.5 -8.5l-367 -681q-3 -7 -12 -7h-49
q-6 0 -8.5 3.5zM271 494.5q26 27.5 26 67.5q0 39 -26 66.5t-63 27.5q-38 0 -64.5 -27.5t-26.5 -66.5q0 -40 26.5 -67.5t64.5 -27.5q37 0 63 27.5zM496.5 11q-33.5 20 -53 54t-19.5 74t19.5 74t53 54t72.5 20t72.5 -20t53 -54t19.5 -74t-19.5 -74t-52.5 -54t-73 -20
q-39 0 -72.5 20zM633 72q26 28 26 67t-26.5 66.5t-63.5 27.5t-63.5 -27.5t-26.5 -66.5q0 -40 26 -67.5t64 -27.5t64 28z" />
    <glyph glyph-name="ampersand" unicode="&#x26;" horiz-adv-x="564" 
d="M522 6q0 -2 -2 -4t-6 -2h-82q-7 0 -13 6l-34 49q-3 3 -6 0q-37 -33 -77.5 -48.5t-88.5 -15.5q-82 0 -129.5 43.5t-47.5 125.5q0 68 31 115.5t85 90.5q3 1 1 5q-35 50 -51.5 78.5t-22 49t-5.5 46.5q0 74 44 118.5t115 44.5q72 0 118 -45t46 -119q0 -61 -31.5 -105.5
t-87.5 -88.5q-3 -1 -1 -5l48 -68l58 -79q2 -4 6 0q3 6 11 18q24 40 36 62q2 4 6 5t8 -1l56 -32q8 -5 4 -14q-30 -56 -69 -111q-1 -3 0 -6l79 -107q2 -2 2 -6zM188.5 599.5q-18.5 -21.5 -18.5 -57.5q0 -25 9 -46.5t41 -70.5q3 -4 6 -1q37 31 56 58.5t19 61.5t-18 55.5
t-47 21.5t-47.5 -21.5zM328 125q3 3 1 6l-119 161q-2 3 -5 0q-35 -31 -54 -60.5t-19 -65.5q0 -41 23.5 -66.5t67.5 -25.5q52 0 105 51z" />
    <glyph glyph-name="quotesingle" unicode="'" horiz-adv-x="137" 
d="M29 496l-9 192q0 10 9 10h78q9 0 9 -10l-10 -192q0 -10 -10 -10h-57q-10 0 -10 10z" />
    <glyph glyph-name="parenleft" unicode="(" horiz-adv-x="254" 
d="M95 -93q-43 76 -69.5 185.5t-26.5 235.5q0 128 27 239.5t71 187.5q4 7 12 7h73q5 0 7.5 -3.5t0.5 -8.5q-36 -82 -59.5 -190.5t-23.5 -230.5q0 -121 23.5 -228.5t59.5 -188.5l1 -4q0 -8 -9 -8h-75q-8 0 -12 7z" />
    <glyph glyph-name="parenright" unicode=")" horiz-adv-x="254" 
d="M159 755q43 -76 69.5 -186t26.5 -235q0 -128 -27 -239.5t-71 -187.5q-4 -7 -12 -7h-74q-5 0 -7.5 3.5t-0.5 8.5q36 81 60 190t24 231q0 121 -24 229t-60 188l-1 4q0 8 9 8h76q8 0 12 -7z" />
    <glyph glyph-name="asterisk" unicode="*" horiz-adv-x="361" 
d="M152 405v107q0 2 -1.5 3t-3.5 0l-90 -55l-5 -2q-5 0 -9 6l-19 33q-2 4 -2 6q0 6 5 8l94 56q2 1 2 3t-2 3l-94 56q-8 5 -3 14l19 34q6 10 14 4l90 -56q2 -1 3.5 0t1.5 3v108q0 10 10 10h38q10 0 10 -10l-1 -108q0 -3 1.5 -4t3.5 1l90 56l5 2q5 0 9 -6l19 -34q2 -4 2 -6
q0 -5 -5 -8l-94 -56q-1 -1 -1 -3t1 -3l94 -56q8 -5 3 -14l-19 -34q-6 -10 -14 -4l-90 56q-2 2 -3.5 1t-1.5 -4l1 -107q0 -10 -10 -10h-38q-10 0 -10 10z" />
    <glyph glyph-name="plus" unicode="+" horiz-adv-x="440" 
d="M411 343v-54q0 -10 -10 -10h-140q-4 0 -4 -4v-140q0 -10 -10 -10h-54q-10 0 -10 10v140q0 4 -4 4h-140q-10 0 -10 10v54q0 10 10 10h140q4 0 4 4v140q0 10 10 10h54q10 0 10 -10v-140q0 -4 4 -4h140q10 0 10 -10z" />
    <glyph glyph-name="comma" unicode="," horiz-adv-x="189" 
d="M37 -82.5q-3 3.5 -2 7.5l29 222q1 9 10 9h66q11 0 9 -11l-48 -222q-1 -9 -11 -9h-45q-5 0 -8 3.5z" />
    <glyph glyph-name="hyphen" unicode="-" horiz-adv-x="320" 
d="M29 274v63q0 10 10 10h242q10 0 10 -10v-63q0 -10 -10 -10h-242q-10 0 -10 10z" />
    <glyph glyph-name="period" unicode="." horiz-adv-x="202" 
d="M55 18q-18 18 -18 46t18 46t46 18t46 -18t18 -46t-18 -46t-46 -18t-46 18z" />
    <glyph glyph-name="slash" unicode="/" horiz-adv-x="363" 
d="M23.5 3q-2.5 3 -1.5 8l195 681q3 8 11 8h75q5 0 7.5 -3t1.5 -8l-195 -681q-3 -8 -11 -8h-75q-5 0 -7.5 3z" />
    <glyph glyph-name="zero" unicode="0" horiz-adv-x="447" 
d="M93 41q-49 51 -49 136v346q0 85 49 136t130 51t130.5 -51t49.5 -136v-346q0 -85 -49.5 -136t-130.5 -51t-130 51zM284 100q23 27 23 71v358q0 44 -23 71t-61 27q-37 0 -60 -27t-23 -71v-358q0 -44 23 -71t60 -27q38 0 61 27z" />
    <glyph glyph-name="one" unicode="1" horiz-adv-x="266" 
d="M125 700h80q10 0 10 -10v-680q0 -10 -10 -10h-76q-10 0 -10 10v585q0 2 -1.5 3.5t-2.5 0.5l-89 -23l-4 -1q-6 0 -8 9l-4 56q0 9 7 12l96 45q6 3 12 3z" />
    <glyph glyph-name="two" unicode="2" horiz-adv-x="415" 
d="M149 84.5q1 -1.5 3 -1.5h229q10 0 10 -10v-63q0 -10 -10 -10h-336q-10 0 -10 10v66q0 8 4 13l31 46q95 137 147 222q60 102 60 170q0 45 -20.5 71.5t-53.5 26.5t-53 -26t-19 -69v-40q0 -10 -10 -10h-78q-10 0 -10 10v43q3 79 51 127t123 48t121 -50t46 -132
q0 -49 -17.5 -99.5t-53.5 -108.5q-25 -40 -105 -159l-49 -71q-1 -2 0 -3.5z" />
    <glyph glyph-name="three" unicode="3" horiz-adv-x="418" 
d="M373 215q0 -50 -9 -91q-14 -64 -53 -98t-107 -34q-70 0 -114.5 38t-52.5 104q-5 37 -5 71q0 10 10 10h76q10 0 10 -10q2 -41 5 -58q6 -34 24.5 -52.5t46.5 -18.5q56 0 71 65q6 38 6 84q0 54 -9 94q-8 28 -25.5 43.5t-42.5 15.5q-13 0 -27 -9q-3 -3 -7 -3t-7 4l-38 39
q-5 7 -1 14l130 189q1 1 0 3t-3 2h-202q-10 0 -10 10v63q0 10 10 10h312q10 0 10 -10v-66q0 -8 -4 -13l-117 -172q-3 -3 2 -5q40 -6 68.5 -37.5t41.5 -80.5q11 -49 11 -101z" />
    <glyph glyph-name="four" unicode="4" horiz-adv-x="440" 
d="M421 263v-67q0 -10 -10 -10h-32q-4 0 -4 -4v-172q0 -10 -10 -10h-76q-10 0 -10 10v172q0 4 -4 4h-246q-10 0 -10 10v56q0 4 2 12l144 428q3 8 12 8h82q11 0 8 -11l-136 -411q-1 -2 0.5 -3.5t3.5 -1.5h140q4 0 4 4v137q0 10 10 10h76q10 0 10 -10v-137q0 -4 4 -4h32
q10 0 10 -10z" />
    <glyph glyph-name="five" unicode="5" horiz-adv-x="420" 
d="M388 215q0 -38 -5 -76q-7 -71 -51 -109t-116 -38q-70 0 -113 37t-54 110l-3 30q0 10 10 10h76q10 0 10 -10l3 -22q13 -72 71 -72q28 0 46 18t24 52q6 30 6 70q0 42 -8 74q-7 30 -24.5 46t-43.5 16q-59 0 -73 -57q-3 -9 -11 -9h-77q-10 0 -10 10v395q0 10 10 10h309
q10 0 10 -10v-63q0 -10 -10 -10h-219q-4 0 -4 -4v-220q0 -2 1.5 -2.5t3.5 1.5q16 20 41 31.5t56 11.5q57 0 92.5 -35.5t44.5 -100.5q8 -38 8 -84z" />
    <glyph glyph-name="six" unicode="6" horiz-adv-x="420" 
d="M389 215q0 -27 -4 -69q-6 -74 -50 -114t-118 -40q-68 0 -111.5 37t-53.5 109q-6 30 -6 70l-1 326q0 79 47 126.5t124 47.5q71 0 116.5 -47.5t45.5 -126.5v-22q0 -10 -10 -10h-76q-10 0 -10 10v18q0 41 -19 66.5t-47 25.5q-33 0 -53.5 -25.5t-20.5 -66.5v-110q0 -5 5 -2
q29 29 73 29q68 0 111 -42t51 -112q7 -38 7 -78zM292 221q0 31 -7 78q-14 65 -69 65t-69 -68q-5 -32 -5 -75q0 -39 4 -72q14 -74 70 -74q29 0 47.5 20t24.5 59q4 32 4 67z" />
    <glyph glyph-name="seven" unicode="7" horiz-adv-x="381" 
d="M96.5 3q-2.5 3 -1.5 8l169 602q1 1 -0.5 2.5t-3.5 1.5h-158q-4 0 -4 -4v-40q0 -10 -10 -10h-59q-10 0 -10 10l1 117q0 10 10 10h326q10 0 10 -10v-67q0 -2 -2 -12l-169 -603q-2 -8 -11 -8h-80q-5 0 -7.5 3z" />
    <glyph glyph-name="eight" unicode="8" horiz-adv-x="429" 
d="M311 366q36 -20 52 -57q21 -47 21 -111q0 -54 -14 -94q-19 -53 -59.5 -82.5t-96.5 -29.5q-55 0 -95.5 29t-59.5 82q-15 42 -15 95q0 61 18 104q17 43 56 63q4 3 0 6q-36 22 -53 57q-21 41 -21 98q0 59 21 99q20 41 59 63.5t90 22.5q50 0 88.5 -21.5t59.5 -62.5
q22 -41 22 -101q0 -57 -20 -97q-17 -35 -53 -57q-5 -3 0 -6zM139 518q0 -39 12 -65q8 -23 24.5 -35t38.5 -12q23 0 40 13t25 37q11 27 11 62q0 39 -14 65q-18 45 -62 45q-45 0 -63 -48q-12 -25 -12 -62zM289 203q0 43 -11 74q-7 26 -24 40t-40 14q-24 0 -41 -14.5t-25 -42.5
q-9 -28 -9 -70q0 -37 7 -64q8 -31 25.5 -48t42.5 -17q26 0 44 18t25 50q6 26 6 60z" />
    <glyph glyph-name="nine" unicode="9" horiz-adv-x="414" 
d="M369 166q0 -79 -47 -126.5t-124 -47.5q-71 0 -116.5 47.5t-45.5 126.5v22q0 10 10 10h76q10 0 10 -10v-18q0 -40 19 -66t47 -26q33 0 53.5 25.5t20.5 66.5v110q0 5 -5 2q-29 -29 -73 -29q-67 0 -110.5 42.5t-51.5 111.5q-6 33 -6 78q0 38 3 69q6 74 50 114t118 40
q69 0 112 -37t53 -109q6 -30 6 -70zM272 479q0 39 -4 72q-14 74 -70 74q-29 0 -47.5 -20t-24.5 -59q-3 -36 -3 -67q0 -37 6 -78q14 -65 69 -65t69 68q5 33 5 75z" />
    <glyph glyph-name="colon" unicode=":" horiz-adv-x="234" 
d="M72 355q-18 18 -18 46t18 46t46 18t46 -18t18 -46t-18 -46t-46 -18t-46 18zM72 22q-18 18 -18 46t18 46t46 18t46 -18t18 -46t-18 -46t-46 -18t-46 18z" />
    <glyph glyph-name="semicolon" unicode=";" horiz-adv-x="207" 
d="M56.5 355q-18.5 20 -18.5 49q0 28 20 48.5t46 20.5q25 0 45 -20.5t20 -48.5q0 -29 -18.5 -49t-46.5 -20q-29 0 -47.5 20zM44 -80q-3 3 -2 7l20 216q1 10 11 10h66q5 0 7.5 -3t1.5 -8l-39 -216q-1 -9 -11 -9h-46q-5 0 -8 3z" />
    <glyph glyph-name="less" unicode="&#x3c;" horiz-adv-x="440" 
d="M407.5 59.5q-3.5 -2.5 -8.5 0.5l-363 174q-7 4 -7 12v69q0 8 7 12l363 174l5 2q3 0 5 -2.5t2 -6.5v-73q0 -7 -7 -11l-278 -127q-6 -3 0 -6l278 -127q7 -3 7 -11v-72q0 -5 -3.5 -7.5z" />
    <glyph glyph-name="equal" unicode="=" horiz-adv-x="440" 
d="M29 396v54q0 10 10 10h362q10 0 10 -10v-54q0 -10 -10 -10h-362q-10 0 -10 10zM29 199v54q0 10 10 10h362q10 0 10 -10v-54q0 -10 -10 -10h-362q-10 0 -10 10z" />
    <glyph glyph-name="greater" unicode="&#x3e;" horiz-adv-x="440" 
d="M36 58q-3 0 -5 2.5t-2 6.5v72q0 8 7 11l278 127q6 3 0 6l-278 127q-7 4 -7 11v73q0 5 3.5 7.5t8.5 -0.5l363 -174q7 -4 7 -12v-69q0 -8 -7 -12l-363 -174z" />
    <glyph glyph-name="question" unicode="?" horiz-adv-x="394" 
d="M135 218v50q0 45 18 74t53 62q32 30 48.5 55.5t16.5 64.5q0 45 -20 71.5t-53 26.5q-36 0 -57 -27.5t-21 -72.5v-26q0 -10 -10 -10l-76 4q-10 0 -10 10v22q0 84 48.5 135.5t127.5 51.5q76 0 122 -49.5t46 -132.5q0 -44 -12 -76t-28.5 -52t-42.5 -45q-28 -26 -41 -45
t-13 -46v-45q0 -10 -10 -10h-76q-10 0 -10 10zM138 19q-18 18 -18 46t18 46t46 18t46 -18t18 -46t-18.5 -46t-45.5 -18q-28 0 -46 18z" />
    <glyph glyph-name="at" unicode="@" horiz-adv-x="759" 
d="M575 594.5q67 -35.5 104 -100.5t37 -150q0 -25 -3 -52q-13 -96 -62 -149.5t-122 -53.5q-63 0 -96 41q-3 3 -6 0q-14 -22 -36 -32t-45 -10q-48 0 -78 27t-30 75q0 17 5 50l4 36q0 -3 9 67q9 53 37.5 82.5t77.5 29.5q14 0 30 -6t29 -18q1 -2 3 -1.5t2 2.5l1 8q1 9 10 9h47
q5 0 8 -3.5t2 -7.5l-25 -195q-1 -6 -1 -18q0 -35 17 -53.5t46 -18.5q40 0 67 38t35 102q3 24 3 46q0 69 -29 121t-81.5 80t-121.5 28q-74 0 -138.5 -38t-107 -106.5t-53.5 -154.5q-3 -24 -3 -47q0 -75 30 -129.5t80.5 -82.5t110.5 -28q45 0 82 12t62 31l4 3q1 1 3 1
q6 0 9 -5l23 -36q2 -4 2 -6q0 -5 -5 -8q-35 -25 -84.5 -40.5t-106.5 -15.5q-80 0 -143 36t-99 103.5t-36 157.5q0 18 4 58q13 103 66.5 184.5t134.5 127t173 45.5q87 0 154 -35.5zM386.5 161.5q15.5 15.5 20.5 41.5l2 12v4q0 9 1 13l15 115v4q-2 21 -13.5 33.5t-30.5 12.5
q-22 0 -38.5 -16t-19.5 -42l-3 -21q-5 -38 -6 -47l-8 -68q-2 -27 9.5 -42t33.5 -15t37.5 15.5z" />
    <glyph glyph-name="A" unicode="A" horiz-adv-x="436" 
d="M325 9l-22 115q0 2 -1.5 3t-3.5 1h-163q-2 0 -3.5 -1t-1.5 -3l-21 -115q-1 -9 -11 -9h-76q-5 0 -7.5 3t-1.5 8l149 680q2 9 11 9h89q10 0 11 -9l150 -680v-2q0 -9 -9 -9h-78q-9 0 -11 9zM150 204h133q3 0 3 4l-68 355q-1 2 -2 2t-2 -2l-67 -355q0 -4 3 -4z" />
    <glyph glyph-name="B" unicode="B" horiz-adv-x="456" 
d="M374.5 50q-51.5 -50 -135.5 -50h-167q-10 0 -10 10v680q0 10 10 10h153q91 0 142.5 -47.5t51.5 -138.5q0 -108 -77 -149q-5 -3 -1 -5q40 -24 62.5 -67t22.5 -102q0 -91 -51.5 -141zM158 613v-212q0 -4 4 -4h64q47 0 73 28.5t26 79.5q0 53 -26 82.5t-73 29.5h-64
q-4 0 -4 -4zM303.5 115q26.5 31 26.5 88q0 58 -26 90.5t-72 32.5h-70q-4 0 -4 -4v-234q0 -4 4 -4h69q46 0 72.5 31z" />
    <glyph glyph-name="C" unicode="C" horiz-adv-x="452" 
d="M97.5 41.5q-49.5 49.5 -49.5 131.5v355q0 82 49.5 131t130.5 49q82 0 131.5 -49t49.5 -131v-16q0 -10 -10 -10l-76 -4q-10 0 -10 10v26q0 41 -23.5 66t-61.5 25t-61 -25t-23 -66v-368q0 -41 23 -66t61 -25t61.5 25t23.5 66v26q0 10 10 10l76 -4q10 0 10 -10v-15
q0 -82 -49.5 -131.5t-131.5 -49.5q-81 0 -130.5 49.5z" />
    <glyph glyph-name="D" unicode="D" horiz-adv-x="469" 
d="M62 10v680q0 10 10 10h164q83 0 132 -51t49 -138v-322q0 -87 -49 -138t-132 -51h-164q-10 0 -10 10zM162 83l73 1q38 0 61 29.5t24 80.5v312q0 51 -23 81t-62 30h-73q-4 0 -4 -4v-526q0 -4 4 -4z" />
    <glyph glyph-name="E" unicode="E" 
d="M387 617h-225q-4 0 -4 -4v-217q0 -4 4 -4h138q10 0 10 -10v-63q0 -10 -10 -10h-138q-4 0 -4 -4v-218q0 -4 4 -4h225q10 0 10 -10v-63q0 -10 -10 -10h-315q-10 0 -10 10v680q0 10 10 10h315q10 0 10 -10v-63q0 -10 -10 -10z" />
    <glyph glyph-name="F" unicode="F" horiz-adv-x="410" 
d="M386 617h-224q-4 0 -4 -4v-217q0 -4 4 -4h137q10 0 10 -10v-63q0 -10 -10 -10h-137q-4 0 -4 -4v-295q0 -10 -10 -10h-76q-10 0 -10 10v680q0 10 10 10h314q10 0 10 -10v-63q0 -10 -10 -10z" />
    <glyph glyph-name="G" unicode="G" horiz-adv-x="457" 
d="M97.5 40q-49.5 48 -49.5 127v366q0 79 49.5 127t130.5 48t131 -48t50 -128v-42q0 -10 -10 -10h-76q-10 0 -10 10v44q0 41 -23.5 66t-61.5 25t-61.5 -25t-23.5 -66v-368q0 -41 23.5 -66t61.5 -25t61.5 25t23.5 66v110q0 4 -4 4h-76q-10 0 -10 10v62q0 10 10 10h166
q10 0 10 -10v-185q0 -79 -50 -127t-131 -48t-130.5 48z" />
    <glyph glyph-name="H" unicode="H" horiz-adv-x="475" 
d="M327 700h76q10 0 10 -10v-680q0 -10 -10 -10h-76q-10 0 -10 10v295q0 4 -4 4h-151q-4 0 -4 -4v-295q0 -10 -10 -10h-76q-10 0 -10 10v680q0 10 10 10h76q10 0 10 -10v-294q0 -4 4 -4h151q4 0 4 4v294q0 10 10 10z" />
    <glyph glyph-name="I" unicode="I" horiz-adv-x="220" 
d="M62 10v680q0 10 10 10h76q10 0 10 -10v-680q0 -10 -10 -10h-76q-10 0 -10 10z" />
    <glyph glyph-name="J" unicode="J" horiz-adv-x="435" 
d="M67.5 40.5q-48.5 48.5 -48.5 127.5v79q0 10 10 10h76q10 0 10 -10v-81q0 -40 22.5 -65.5t58.5 -25.5t58.5 25.5t22.5 65.5v524q0 10 10 10h76q10 0 10 -10v-522q0 -79 -48.5 -127.5t-128.5 -48.5t-128.5 48.5z" />
    <glyph glyph-name="K" unicode="K" horiz-adv-x="466" 
d="M62 10v680q0 10 10 10h76q10 0 10 -10v-300q0 -3 2 -3.5t3 2.5l170 304q5 7 12 7h82q6 0 8 -3.5t-1 -8.5l-154 -278q-1 -3 0 -6l167 -392l1 -4q0 -8 -9 -8h-83q-8 0 -11 8l-130 312q-1 5 -5 1l-51 -81q-1 -1 -1 -5v-225q0 -10 -10 -10h-76q-10 0 -10 10z" />
    <glyph glyph-name="L" unicode="L" horiz-adv-x="407" 
d="M62 10v680q0 10 10 10h76q10 0 10 -10v-603q0 -4 4 -4h224q10 0 10 -10v-63q0 -10 -10 -10h-314q-10 0 -10 10z" />
    <glyph glyph-name="M" unicode="M" horiz-adv-x="530" 
d="M385 700h76q10 0 10 -10v-680q0 -10 -10 -10h-76q-10 0 -10 10v496q0 3 -1.5 3t-3.5 -2l-96 -179q-3 -7 -9 -7t-9 7l-95 178q-2 2 -3.5 2t-1.5 -3v-495q0 -10 -10 -10h-76q-10 0 -10 10v680q0 10 10 10h76q7 0 12 -7l105 -188q1 -1 3 -1t3 1l104 188q4 7 12 7z" />
    <glyph glyph-name="N" unicode="N" horiz-adv-x="501" 
d="M354 700h75q10 0 10 -10v-680q0 -10 -10 -10h-86q-8 0 -11 8l-170 457q-1 2 -3 1.5t-2 -2.5l1 -454q0 -10 -10 -10h-76q-10 0 -10 10v680q0 10 10 10h85q8 0 11 -8l171 -457q1 -3 3 -2.5t2 3.5v454q0 10 10 10z" />
    <glyph glyph-name="O" unicode="O" horiz-adv-x="462" 
d="M98 42q-50 50 -50 133v349q0 83 50 133.5t132 50.5q83 0 133.5 -50.5t50.5 -133.5v-349q0 -83 -50.5 -133t-133.5 -50q-82 0 -132 50zM294 101.5q24 26.5 24 69.5v358q0 43 -24 69.5t-64 26.5q-39 0 -62.5 -26.5t-23.5 -69.5v-358q0 -43 23.5 -69.5t62.5 -26.5
q40 0 64 26.5z" />
    <glyph glyph-name="P" unicode="P" horiz-adv-x="451" 
d="M374.5 645.5q47.5 -55.5 47.5 -145.5q0 -88 -46 -142t-121 -54h-94q-4 0 -4 -4v-290q0 -10 -10 -10h-76q-10 0 -10 10v681q0 10 10 10h179q77 0 124.5 -55.5zM301 412.5q25 31.5 25 85.5q0 55 -25 87.5t-66 32.5h-74q-4 0 -4 -4v-229q0 -4 4 -4h74q41 0 66 31.5z" />
    <glyph glyph-name="Q" unicode="Q" horiz-adv-x="450" 
d="M353 656q49 -52 49 -136v-340q0 -69 -34 -117.5t-92 -63.5q-3 -2 -3 -5v-93q0 -10 -10 -10h-77q-10 0 -10 10v93q0 3 -3 5q-58 16 -91.5 64t-33.5 117v340q0 84 49 136t128 52t128 -52zM306 530q0 42 -22.5 68.5t-58.5 26.5t-58.5 -26.5t-22.5 -68.5v-360
q0 -42 22.5 -68.5t58.5 -26.5t58.5 26.5t22.5 68.5v360z" />
    <glyph glyph-name="R" unicode="R" horiz-adv-x="453" 
d="M328 8l-92 298q-1 3 -4 3h-70q-4 0 -4 -4v-295q0 -10 -10 -10h-76q-10 0 -10 10v680q0 10 10 10h179q51 0 90 -25t60.5 -70.5t21.5 -103.5q0 -63 -26 -109.5t-71 -67.5q-3 -3 -2 -6l102 -307l1 -4q0 -7 -9 -7h-78q-9 0 -12 8zM158 613v-224q0 -4 4 -4h74q41 0 66 31.5
t25 83.5q0 54 -25 85.5t-66 31.5h-74q-4 0 -4 -4z" />
    <glyph glyph-name="S" unicode="S" horiz-adv-x="426" 
d="M86.5 41.5q-48.5 49.5 -48.5 129.5v26q0 10 10 10h74q10 0 10 -10v-21q0 -46 23 -73.5t59 -27.5t59.5 26.5t23.5 69.5q0 29 -12.5 51t-33 39.5t-66.5 51.5q-51 38 -80 65t-49 65t-20 89q0 81 48 128.5t125 47.5q80 0 128.5 -51t48.5 -134v-25q0 -10 -10 -10h-74
q-10 0 -10 10v27q0 45 -23 72.5t-60 27.5q-35 0 -57 -24.5t-22 -68.5q0 -40 22 -67.5t85 -73.5q60 -45 90.5 -73t47 -61.5t16.5 -79.5q0 -84 -49 -134.5t-128 -50.5t-127.5 49.5z" />
    <glyph glyph-name="T" unicode="T" horiz-adv-x="439" 
d="M409 690v-63q0 -10 -10 -10h-131q-4 0 -4 -4v-603q0 -10 -10 -10h-76q-10 0 -10 10v603q0 4 -4 4h-124q-10 0 -10 10v63q0 10 10 10h359q10 0 10 -10z" />
    <glyph glyph-name="U" unicode="U" horiz-adv-x="477" 
d="M106.5 46.5q-49.5 54.5 -49.5 143.5v500q0 10 10 10h76q10 0 10 -10v-510q0 -47 23.5 -76t61.5 -29q39 0 62.5 29t23.5 76v510q0 10 10 10h76q10 0 10 -10v-500q0 -89 -50 -143.5t-132 -54.5t-131.5 54.5z" />
    <glyph glyph-name="V" unicode="V" horiz-adv-x="457" 
d="M175 9l-144 680v2q0 9 9 9h83q10 0 11 -9l95 -519q1 -2 2 -2t2 2l93 519q2 9 11 9h80q11 0 9 -11l-144 -680q-1 -9 -11 -9h-85q-9 0 -11 9z" />
    <glyph glyph-name="W" unicode="W" horiz-adv-x="646" 
d="M159 9l-133 680v2q0 9 9 9h79q10 0 11 -9l81 -469q1 -2 2 -2t2 2l72 469q1 9 10 9h67q9 0 10 -9l77 -469q1 -2 2 -2t2 2l74 469q2 9 10 9h78q5 0 7.5 -3t1.5 -8l-126 -680q-1 -9 -11 -9h-71q-8 0 -10 9l-76 473q-1 2 -2.5 2t-1.5 -2l-72 -473q-1 -9 -10 -9h-71
q-9 0 -11 9z" />
    <glyph glyph-name="X" unicode="X" horiz-adv-x="449" 
d="M34.5 3.5q-2.5 3.5 -0.5 8.5l139 335q2 3 0 6l-139 335l-1 4q0 8 9 8h78q8 0 11 -8l91 -241q1 -3 3 -3t3 3l90 241q3 8 11 8h78q5 0 7.5 -3.5t0.5 -8.5l-139 -336q-1 -3 0 -6l139 -334l1 -4q0 -8 -9 -8h-77q-8 0 -11 8l-91 240q-1 3 -3 3t-3 -3l-91 -240q-3 -8 -11 -8
h-78q-5 0 -7.5 3.5z" />
    <glyph glyph-name="Y" unicode="Y" horiz-adv-x="442" 
d="M173 11v286l-1 5l-139 387l-1 4q0 7 9 7h80q9 0 12 -8l85 -276q1 -2 3 -2t3 2l85 276q3 8 12 8h80q11 0 8 -11l-139 -387l-1 -5v-286q0 -10 -10 -10h-76q-10 0 -10 10z" />
    <glyph glyph-name="Z" unicode="Z" horiz-adv-x="401" 
d="M29 10v67q0 5 3 12l232 523q1 2 0 3.5t-3 1.5h-222q-10 0 -10 10v63q0 10 10 10h319q10 0 10 -10v-67q0 -4 -3 -12l-233 -523q-1 -2 0 -3.5t3 -1.5h223q10 0 10 -10v-63q0 -10 -10 -10h-319q-10 0 -10 10z" />
    <glyph glyph-name="bracketleft" unicode="[" horiz-adv-x="318" 
d="M27 -120v894q0 10 10 10h174q10 0 10 -10v-64q0 -10 -10 -10h-84q-4 0 -4 -4v-739q0 -4 4 -4h85q10 0 10 -10v-63q0 -10 -10 -10h-175q-10 0 -10 10z" />
    <glyph glyph-name="backslash" unicode="\" horiz-adv-x="363" 
d="M342 8q0 -8 -10 -8h-75q-8 0 -11 8l-195 681l-1 3q0 8 10 8h75q8 0 11 -8l195 -681z" />
    <glyph glyph-name="bracketright" unicode="]" horiz-adv-x="318" 
d="M281 -130h-175q-10 0 -10 10v63q0 10 10 10h85q4 0 4 4v739q0 4 -4 4h-84q-10 0 -10 10v64q0 10 10 10h174q10 0 10 -10v-894q0 -10 -10 -10z" />
    <glyph glyph-name="asciicircum" unicode="^" horiz-adv-x="406" 
d="M33 315l125 377q3 8 12 8h64q9 0 12 -8l127 -377l1 -4q0 -7 -9 -7h-62q-9 0 -12 8l-85 278q-1 2 -3 2t-3 -2l-86 -278q-3 -8 -12 -8h-61q-11 0 -8 11z" />
    <glyph glyph-name="underscore" unicode="_" horiz-adv-x="392" 
d="M19 10v55q0 10 10 10h334q10 0 10 -10v-55q0 -10 -10 -10h-334q-10 0 -10 10z" />
    <glyph glyph-name="grave" unicode="`" horiz-adv-x="194" 
d="M171 579q0 -6 -9 -6h-49q-8 0 -12 6l-74 109l-2 5q0 7 9 7h61q7 0 12 -7l62 -108q2 -4 2 -6z" />
    <glyph glyph-name="a" unicode="a" horiz-adv-x="425" 
d="M335.5 471q46.5 -46 46.5 -121v-340q0 -10 -10 -10h-76q-10 0 -10 10v22q0 2 -1.5 3t-3.5 -1q-35 -42 -103 -42q-57 0 -100.5 32.5t-43.5 115.5q0 87 52.5 127.5t137.5 40.5h58q4 0 4 4v29q0 42 -20 67.5t-52 25.5q-25 0 -42 -17t-20 -44q0 -10 -10 -10h-81q-10 0 -10 10
q5 64 51 104t114 40q73 0 119.5 -46zM260 98q26 22 26 62v68q0 4 -4 4h-61q-40 0 -64 -21.5t-24 -62.5q0 -36 18 -54t48 -18q35 0 61 22z" />
    <glyph glyph-name="b" unicode="b" horiz-adv-x="431" 
d="M349 474.5q38 -42.5 38 -116.5v-208q0 -71 -38.5 -114.5t-103.5 -43.5q-24 0 -48.5 9t-43.5 27q-2 2 -3.5 1t-1.5 -3v-16q0 -10 -10 -10h-76q-10 0 -10 10v680q0 10 10 10h76q10 0 10 -10v-208q0 -2 2 -2.5t4 2.5q38 35 91 35q66 0 104 -42.5zM271.5 411
q-20.5 23 -52.5 23q-31 0 -51 -23t-20 -59v-195q0 -36 20 -59t51 -23q32 0 52.5 23t20.5 59v195q0 36 -20.5 59z" />
    <glyph glyph-name="c" unicode="c" horiz-adv-x="413" 
d="M88.5 35q-45.5 43 -45.5 116v207q0 71 45.5 115t122.5 44q51 0 89.5 -19.5t59 -53t20.5 -75.5v-13q0 -10 -10 -10l-76 -3q-10 0 -10 10v10q0 29 -21 50t-52 21q-32 0 -52 -23t-20 -59v-195q0 -36 20 -59t52 -23q31 0 52 21t21 50v10q0 10 10 10l76 -1q10 0 10 -10v-15
q0 -65 -46 -106.5t-123 -41.5t-122.5 43z" />
    <glyph glyph-name="d" unicode="d" horiz-adv-x="431" 
d="M292 700h76q10 0 10 -10v-680q0 -10 -10 -10h-76q-10 0 -10 10v16q0 2 -1.5 3t-3.5 -1q-19 -18 -43 -27t-48 -9q-66 0 -104.5 43.5t-38.5 114.5v208q0 74 38.5 116.5t104.5 42.5q24 0 48 -9t43 -27q2 -2 3.5 -1t1.5 3v207q0 10 10 10zM258.5 93.5q19.5 18.5 23.5 48.5
v225q-4 30 -23.5 48.5t-47.5 18.5q-32 0 -52.5 -23t-20.5 -59v-195q0 -36 20.5 -59t52.5 -23q28 0 47.5 18.5z" />
    <glyph glyph-name="e" unicode="e" horiz-adv-x="417" 
d="M369 215h-226q-4 0 -4 -4v-54q0 -36 20 -59t52 -23q28 0 47 17t24 44q3 8 11 8l74 -4q5 0 7.5 -3t1.5 -7q-7 -65 -49.5 -101.5t-115.5 -36.5q-77 0 -122.5 43t-45.5 115v208q0 71 45.5 115t122.5 44q78 0 123 -44t45 -115v-133q0 -10 -10 -10zM159 411q-20 -23 -20 -59
v-53q0 -4 4 -4h137q4 0 4 4v53q0 36 -20 59t-53 23q-32 0 -52 -23z" />
    <glyph glyph-name="f" unicode="f" horiz-adv-x="285" 
d="M171 513q0 -4 4 -4h70q10 0 10 -10v-50q0 -10 -10 -10h-70q-4 0 -4 -4v-425q0 -10 -10 -10h-75q-10 0 -10 10v425q0 4 -4 4h-37q-10 0 -10 10v50q0 10 10 10h37q4 0 4 4v26q0 89 37 127.5t120 38.5h13q10 0 10 -10l-2 -61q0 -10 -10 -10h-10q-33 0 -48 -21.5t-15 -66.5
v-23z" />
    <glyph glyph-name="g" unicode="g" horiz-adv-x="423" 
d="M292 509h76q10 0 10 -10v-484q0 -105 -48 -162.5t-165 -57.5l-27 1q-10 1 -10 11v64q0 10 11 10q82 -3 112.5 32.5t30.5 110.5v21q0 2 -1.5 2.5t-3.5 -1.5q-34 -46 -97 -46q-66 0 -101.5 42.5t-35.5 115.5v200q0 74 36 116.5t101 42.5t97 -46q2 -2 3.5 -1t1.5 3v26
q0 10 10 10zM262.5 105.5q19.5 22.5 19.5 58.5v188q0 36 -19.5 59t-51.5 23t-52 -23t-20 -59v-188q0 -36 20 -58.5t52 -22.5t51.5 22.5z" />
    <glyph glyph-name="h" unicode="h" 
d="M351.5 473.5q33.5 -42.5 33.5 -120.5v-343q0 -10 -10 -10h-76q-10 0 -10 10v335q0 42 -18 65t-50 23q-33 0 -51.5 -22.5t-20.5 -63.5q0 -6 -1 -6v-331q0 -10 -10 -10h-76q-10 0 -10 10v680q0 10 10 10h76q10 0 10 -10v-218q0 -2 2 -2.5t4 2.5q36 44 101 44
q63 0 96.5 -42.5z" />
    <glyph glyph-name="i" unicode="i" horiz-adv-x="212" 
d="M59 607q-18 18 -18 46t18 46t46 18q29 0 46.5 -17.5t17.5 -46.5q0 -28 -18 -46t-46 -18t-46 18zM58 10v489q0 10 10 10h76q10 0 10 -10v-489q0 -10 -10 -10h-76q-10 0 -10 10z" />
    <glyph glyph-name="j" unicode="j" horiz-adv-x="206" 
d="M54 607q-18 18 -18 46t18 46t46 18q29 0 47 -18t18 -46t-18.5 -46t-46.5 -18t-46 18zM-39 -197v63q0 10 10 10q81 1 81 96v527q0 10 10 10h76q10 0 10 -10v-527q0 -62 -12.5 -99.5t-50.5 -58.5t-111 -21q-13 0 -13 10z" />
    <glyph glyph-name="k" unicode="k" horiz-adv-x="421" 
d="M52 10v680q0 10 10 10h76q10 0 10 -10v-379q0 -3 2 -4t3 2l129 194q5 6 12 6h78q6 0 8 -3.5t-1 -8.5l-103 -152q-3 -3 -1 -6l120 -328l1 -4q0 -7 -9 -7h-79q-9 0 -12 8l-80 251q-1 6 -6 1l-60 -87q-2 -2 -2 -5v-158q0 -10 -10 -10h-76q-10 0 -10 10z" />
    <glyph glyph-name="l" unicode="l" horiz-adv-x="191" 
d="M48 10v680q0 10 10 10h76q10 0 10 -10v-680q0 -10 -10 -10h-76q-10 0 -10 10z" />
    <glyph glyph-name="m" unicode="m" horiz-adv-x="657" 
d="M575.5 471.5q33.5 -44.5 33.5 -124.5v-337q0 -10 -10 -10h-75q-10 0 -10 10v330q0 44 -18 68.5t-48 24.5q-32 0 -51 -24.5t-19 -67.5v-331q0 -10 -10 -10h-75q-10 0 -10 10v330q0 44 -18 68.5t-48 24.5q-32 0 -51 -24.5t-19 -67.5v-331q0 -10 -10 -10h-75q-10 0 -10 10
v489q0 10 10 10h75q10 0 10 -10v-25q0 -2 1.5 -3t3.5 1q20 22 46 33t52 11q76 0 109 -67q1 -2 3 -1.5t3 4.5q20 34 51 49t64 15q62 0 95.5 -44.5z" />
    <glyph glyph-name="n" unicode="n" 
d="M351.5 473.5q33.5 -42.5 33.5 -120.5v-343q0 -10 -10 -10h-76q-10 0 -10 10v335q0 42 -18 65t-50 23q-33 0 -51.5 -22.5t-20.5 -63.5q0 -6 -1 -6v-331q0 -10 -10 -10h-76q-10 0 -10 10v489q0 10 10 10h76q10 0 10 -10v-27q0 -2 2 -2.5t4 2.5q36 44 101 44
q63 0 96.5 -42.5z" />
    <glyph glyph-name="o" unicode="o" horiz-adv-x="424" 
d="M88.5 35.5q-45.5 43.5 -45.5 115.5v207q0 71 46 115t123 44q78 0 124 -44t46 -115v-207q0 -72 -46 -115.5t-124 -43.5t-123.5 43.5zM265 98.5q21 22.5 21 59.5v194q0 36 -21 59t-53 23t-52.5 -23t-20.5 -59v-194q0 -37 20.5 -59.5t52.5 -22.5t53 22.5z" />
    <glyph glyph-name="p" unicode="p" horiz-adv-x="435" 
d="M353.5 473.5q38.5 -43.5 38.5 -114.5v-208q0 -74 -38.5 -116.5t-103.5 -42.5q-24 0 -48.5 9t-43.5 28q-5 3 -5 -2v-208q0 -10 -10 -10h-76q-10 0 -10 10v680q0 10 10 10h76q10 0 10 -10v-16q0 -2 2 -2.5t4 1.5q19 18 43 26.5t48 8.5q65 0 103.5 -43.5zM276.5 411
q-20.5 23 -52.5 23q-31 0 -51 -23t-20 -59v-195q0 -36 20 -59t51 -23q32 0 52.5 23t20.5 59v195q0 36 -20.5 59z" />
    <glyph glyph-name="q" unicode="q" horiz-adv-x="435" 
d="M292 509h76q10 0 10 -10v-680q0 -10 -10 -10h-76q-10 0 -10 10v207q0 2 -1.5 3t-3.5 -1q-19 -18 -43 -27t-48 -9q-66 0 -104.5 42.5t-38.5 116.5v208q0 71 38.5 114.5t104.5 43.5q24 0 48 -9t43 -27q2 -2 3.5 -1t1.5 3v16q0 10 10 10zM258.5 93.5q19.5 18.5 23.5 48.5
v225q-4 30 -23.5 48.5t-47.5 18.5q-32 0 -52.5 -23t-20.5 -59v-195q0 -36 20.5 -59t52.5 -23q28 0 47.5 18.5z" />
    <glyph glyph-name="r" unicode="r" horiz-adv-x="304" 
d="M288 503q7 -4 5 -13l-15 -76q-1 -9 -12 -6q-13 5 -28 5q-6 0 -18 -2q-31 -3 -51.5 -34t-20.5 -75v-292q0 -10 -10 -10h-76q-10 0 -10 10v489q0 10 10 10h76q10 0 10 -10v-58q0 -3 1.5 -3.5t2.5 2.5q29 74 93 74q25 0 43 -11z" />
    <glyph glyph-name="s" unicode="s" horiz-adv-x="387" 
d="M78.5 30.5q-43.5 36.5 -43.5 98.5v9q0 10 10 10h71q10 0 10 -10v-7q0 -27 21 -45.5t52 -18.5q30 0 48.5 18t18.5 46q0 22 -13 37t-30.5 23.5t-53.5 23.5q-39 17 -64.5 33t-45.5 46t-20 76q0 68 42.5 106t114.5 38q74 0 116.5 -39t42.5 -106v-3q0 -10 -10 -10h-69
q-10 0 -10 10v7q0 27 -19 46t-49 19q-31 0 -49 -19t-18 -46q0 -21 12 -35t29 -22.5t54 -24.5q41 -18 68 -34.5t47.5 -46.5t20.5 -75q0 -65 -44.5 -103t-120.5 -38q-75 0 -118.5 36.5z" />
    <glyph glyph-name="t" unicode="t" horiz-adv-x="275" 
d="M241 439h-70q-4 0 -4 -4v-281q0 -40 14 -55.5t44 -14.5h9q10 0 10 -10v-64q0 -10 -10 -10h-31q-64 0 -96.5 25t-32.5 95v315q0 4 -4 4h-39q-10 0 -10 10v50q0 10 10 10h39q4 0 4 4v113q0 10 10 10h73q10 0 10 -10v-113q0 -4 4 -4h70q10 0 10 -10v-50q0 -10 -10 -10z" />
    <glyph glyph-name="u" unicode="u" 
d="M293 509h76q10 0 10 -10v-489q0 -10 -10 -10h-76q-10 0 -10 10v29q0 3 -1.5 3t-3.5 -2q-30 -47 -96 -47q-60 0 -97 36.5t-37 111.5v358q0 10 10 10h76q10 0 10 -10v-337q0 -86 68 -86q34 0 52.5 24.5t18.5 67.5v331q0 10 10 10z" />
    <glyph glyph-name="v" unicode="v" horiz-adv-x="399" 
d="M145 9l-123 489l-1 4q0 7 9 7h85q10 0 11 -9l72 -343q1 -3 2 -3t2 3l71 343q2 9 11 9l85 -1q5 0 7.5 -3t0.5 -8l-122 -488q-1 -9 -11 -9h-88q-9 0 -11 9z" />
    <glyph glyph-name="w" unicode="w" horiz-adv-x="575" 
d="M128 9l-107 489v2q0 9 9 9h73q10 0 11 -9l62 -345q1 -2 2 -2t2 2l63 345q2 9 11 9h66q10 0 11 -9l65 -345q1 -2 2 -2t2 2l63 345q2 9 11 9l72 -1q5 0 7.5 -3t1.5 -8l-108 -488q-1 -9 -11 -9h-75q-9 0 -11 9l-63 328q-1 2 -2 2t-2 -2l-61 -328q-1 -9 -11 -9h-72
q-9 0 -11 9z" />
    <glyph glyph-name="x" unicode="x" horiz-adv-x="398" 
d="M20 3.5q-2 3.5 0 8.5l121 239q2 3 0 6l-121 240q-1 2 -1 5q0 7 8 7h84q9 0 12 -7l73 -156q1 -2 3 -2t3 2l74 156q3 7 12 7h83q5 0 7 -3.5t0 -8.5l-120 -240q-1 -3 0 -6l120 -239q1 -2 1 -5q0 -7 -8 -7h-83q-9 0 -12 7l-74 158q-1 2 -3 2t-3 -2l-74 -158q-3 -7 -11 -7h-84
q-5 0 -7 3.5z" />
    <glyph glyph-name="y" unicode="y" horiz-adv-x="387" 
d="M38 -196q-2 3 -2 7v59q0 10 10 10q32 1 50.5 10t30 34t19.5 73l-1 5l-128 496l-1 3q0 8 10 8h82q10 0 11 -9l73 -361q1 -3 2 -3t2 3l72 361q2 9 11 9l83 -1q5 0 7.5 -3t0.5 -8l-137 -532q-19 -69 -38 -102.5t-52.5 -47.5t-95.5 -14h-5q-2 0 -4 3z" />
    <glyph glyph-name="z" unicode="z" horiz-adv-x="365" 
d="M28 10v70q0 7 3 13l187 323q1 2 0 3.5t-3 1.5h-173q-10 0 -10 10v68q0 10 10 10h283q10 0 10 -10v-71q0 -7 -3 -13l-192 -323q-1 -2 0 -3.5t3 -1.5h185q10 0 10 -10v-67q0 -10 -10 -10h-290q-10 0 -10 10z" />
    <glyph glyph-name="braceleft" unicode="{" horiz-adv-x="298" 
d="M90 -13v213q0 42 -13.5 63.5t-40.5 26.5q-9 2 -9 11v57q0 10 9 11q54 9 54 89v208q0 118 108 118h64q10 0 10 -10v-64q0 -10 -10 -10h-24q-25 0 -38.5 -18t-13.5 -52v-182q0 -46 -12.5 -74t-38.5 -42q-5 -2 0 -5q51 -27 51 -116v-187q0 -34 13.5 -52.5t38.5 -18.5h24
q10 0 10 -10v-63q0 -10 -10 -10h-64q-108 0 -108 117z" />
    <glyph glyph-name="bar" unicode="|" horiz-adv-x="159" 
d="M31 -70v820q0 10 10 10h76q10 0 10 -10v-820q0 -10 -10 -10h-76q-10 0 -10 10z" />
    <glyph glyph-name="braceright" unicode="}" horiz-adv-x="298" 
d="M37 -130q-10 0 -10 10v63q0 10 10 10h23q26 0 39.5 18.5t13.5 52.5v187q0 46 12.5 74.5t38.5 41.5q5 3 0 5q-26 14 -38.5 42t-12.5 74v182q0 34 -13.5 52t-39.5 18h-23q-10 0 -10 10v64q0 10 10 10h63q109 0 109 -118v-208q0 -41 13 -63t41 -26q9 -1 9 -11v-57
q0 -9 -9 -11q-28 -4 -41 -26t-13 -64v-213q0 -117 -109 -117h-63z" />
    <glyph glyph-name="asciitilde" unicode="~" horiz-adv-x="471" 
d="M277.5 229q-18.5 8 -45.5 24q-5 3 -19.5 11t-27 12t-24.5 4q-42 0 -69 -39q-5 -10 -14 -4l-41 25q-8 5 -5 14q16 39 48 63.5t73 24.5q23 0 42 -7t38 -19q28 -17 45 -25t39 -8q19 0 32.5 10t26.5 29q6 8 14 3l44 -27q8 -5 4 -11l-2 -4q-48 -84 -114 -84q-26 0 -44.5 8z
" />
    <glyph glyph-name="uni00A0" unicode="&#xa0;" horiz-adv-x="200" 
 />
    <glyph glyph-name="exclamdown" unicode="&#xa1;" horiz-adv-x="261" 
d="M177 690q18 -18 18 -46t-18 -46t-46 -18t-46 18t-18 46t18 46t46 18t46 -18zM102 478h57q10 0 10 -10l10 -447q0 -10 -10 -10h-76q-10 0 -10 10l9 447q0 10 10 10z" />
    <glyph glyph-name="cent" unicode="&#xa2;" horiz-adv-x="413" 
d="M370 436l-76 -3q-10 0 -10 10v10q0 29 -21 50t-52 21q-32 0 -52 -23t-20 -59v-195q0 -36 20 -59t52 -23q31 0 52 21t21 50v10q0 10 10 10l76 -1q10 0 10 -10v-15q0 -56 -34 -94.5t-92 -49.5q-4 -1 -4 -5l2 -70q0 -10 -10 -10h-62q-10 0 -10 10l2 70q0 4 -4 5
q-58 11 -91.5 52t-33.5 103v207q0 60 33.5 101.5t91.5 53.5q4 1 4 5l-2 70q0 10 10 10h62q10 0 10 -10l-2 -70q0 -4 4 -5q58 -11 92 -50.5t34 -93.5v-13q0 -10 -10 -10z" />
    <glyph glyph-name="sterling" unicode="&#xa3;" horiz-adv-x="508" 
d="M200 83h269q10 0 10 -10v-63q0 -10 -10 -10h-368q-10 0 -10 10v65q0 7 6 13q17 16 26.5 44.5t9.5 66.5v98q0 4 -4 4h-57q-10 0 -10 10v58q0 10 10 10h57q4 0 4 4v121q0 96 47 150t128 54q64 0 105 -37.5t57 -109.5v-2q0 -7 -8 -9l-72 -10h-2q-8 0 -10 9
q-10 39 -27.5 57.5t-44.5 18.5q-39 0 -59 -30t-20 -87v-125q0 -4 4 -4h141q10 0 10 -10v-58q0 -10 -10 -10h-141q-4 0 -4 -4v-96q0 -37 -8 -66t-21 -47q-3 -5 2 -5z" />
    <glyph glyph-name="currency" unicode="&#xa4;" horiz-adv-x="531" 
d="M436 192q-2 -3 1 -6l66 -66q3 -3 3 -6q0 -4 -4 -8l-47 -41q-3 -3 -6 -3q-4 0 -8 4l-63 62q-3 3 -6 1q-47 -32 -110 -32q-60 0 -106 29q-3 2 -6 -1l-60 -59q-7 -7 -14 -1l-47 41q-7 8 -1 14l62 61q3 3 1 6q-36 52 -36 115q0 60 32 110q2 3 -1 6l-65 65q-3 3 -3 6q0 4 4 8
l48 42q3 3 6 3q4 0 8 -4l61 -61q3 -3 6 -1q51 32 111 32q63 0 114 -35q3 -2 6 1l65 64q8 8 14 1l48 -42q8 -7 1 -14l-70 -69q-3 -3 -1 -6q30 -49 30 -106q0 -61 -33 -110zM174.5 215q36.5 -36 87.5 -36t87 35.5t37 87.5q-1 51 -37.5 87t-86.5 36q-51 0 -87.5 -36t-36.5 -87
t36.5 -87z" />
    <glyph glyph-name="yen" unicode="&#xa5;" horiz-adv-x="526" 
d="M449 689l-125 -345q-1 -2 0 -3.5t3 -1.5h115q10 0 10 -10v-36q0 -10 -10 -10h-130q-4 0 -4 -4v-58q0 -4 4 -4h130q10 0 10 -10v-36q0 -10 -10 -10h-130q-4 0 -4 -4v-146q0 -10 -10 -10h-76q-10 0 -10 10v146q0 4 -4 4h-127q-10 0 -10 10v36q0 10 10 10h127q4 0 4 4v58
q0 4 -4 4h-127q-10 0 -10 10v36q0 10 10 10h112q2 0 3 1.5t0 3.5l-124 345l-1 4q0 7 9 7h80q9 0 12 -8l86 -276q1 -2 3 -2t3 2l85 276q3 8 12 8h80q11 0 8 -11z" />
    <glyph glyph-name="brokenbar" unicode="&#xa6;" horiz-adv-x="159" 
d="M31 395v355q0 10 10 10h76q10 0 10 -10v-355q0 -10 -10 -10h-76q-10 0 -10 10zM31 -70v349q0 10 10 10h76q10 0 10 -10v-349q0 -10 -10 -10h-76q-10 0 -10 10z" />
    <glyph glyph-name="section" unicode="&#xa7;" horiz-adv-x="405" 
d="M86.5 -161q-44.5 44 -44.5 116v16q0 10 10 10h76q10 0 10 -10v-10q1 -37 19 -60t46 -23q29 0 47.5 23.5t18.5 57.5q0 29 -16 50t-37.5 34t-55.5 30q-42 20 -67.5 40.5t-39.5 53.5q-15 35 -15 79q0 51 26 93q23 39 58 54q5 2 0 5q-38 25 -60.5 62.5t-22.5 87.5
q0 70 45 115t118 45q71 0 115.5 -45.5t45.5 -118.5v-13q0 -10 -10 -10h-77q-10 0 -10 10v9q0 37 -18 61t-47 24t-47 -24t-18 -60q0 -40 23 -64.5t74 -47.5q45 -23 68.5 -37.5t41.5 -40.5q27 -39 27 -93q0 -53 -20 -91q-22 -46 -65 -63q-6 -2 -1 -5q38 -24 59.5 -59t21.5 -85
q0 -71 -45 -115.5t-117 -44.5t-116.5 44zM263 195q12 26 12 56q0 35 -18 62q-22 29 -55 29q-20 0 -34.5 -11t-21.5 -28q-11 -22 -11 -54q0 -30 11 -55q17 -37 58 -37t59 38z" />
    <glyph glyph-name="dieresis" unicode="&#xa8;" horiz-adv-x="328" 
d="M199 607q-18 18 -18 46t18 46t46 18t46 -18t18 -46t-18 -46t-46 -18t-46 18zM37 607q-18 18 -18 46t18 46t46 18t46 -18t18 -46t-18 -46t-46 -18t-46 18z" />
    <glyph glyph-name="copyright" unicode="&#xa9;" horiz-adv-x="819" 
d="M225 39.5q-83 47.5 -130 129.5t-47 182t47 181.5t130 128.5t184 47q102 0 184.5 -47t130 -128.5t47.5 -181.5t-47.5 -182t-130 -129.5t-184.5 -47.5q-101 0 -184 47.5zM564.5 88q69.5 40 109 109.5t39.5 153.5t-39.5 153t-109 108.5t-155.5 39.5t-155.5 -39.5
t-109 -108.5t-39.5 -153t39.5 -153.5t109 -109.5t155.5 -40t155.5 40zM344 204q-25 23 -25 63v162q0 39 24.5 62t66.5 23t67 -23t25 -62v-4q0 -10 -10 -10l-34 -2q-10 0 -10 10v10q0 15 -10.5 25t-27.5 10q-16 0 -26.5 -10t-10.5 -25v-170q0 -16 10 -25.5t27 -9.5t27.5 9.5
t10.5 25.5v10q0 10 10 10l34 -2q10 0 10 -10v-4q0 -39 -25 -62.5t-67 -23.5q-41 0 -66 23z" />
    <glyph glyph-name="ordfeminine" unicode="&#xaa;" horiz-adv-x="281" 
d="M179 564q4 0 4 4v24q0 28 -12 44t-34 16q-16 0 -28.5 -9.5t-16.5 -24.5q-1 -9 -11 -9l-45 2q-5 0 -7.5 3t-1.5 8q4 38 34.5 62t74.5 24q52 0 82.5 -29.5t30.5 -79.5v-222q0 -10 -10 -10h-46q-10 0 -10 10v8q0 2 -1.5 3t-3.5 -1q-21 -25 -62 -25q-39 0 -68.5 21.5
t-29.5 77.5q0 57 32.5 80t90.5 23h38zM167 429q16 14 16 39v40q0 4 -4 4h-38q-26 0 -41.5 -13.5t-15.5 -38.5q0 -23 12 -34t32 -11q23 0 39 14zM28 318h221q10 0 10 -10v-37q0 -10 -10 -10h-221q-10 0 -10 10v37q0 10 10 10z" />
    <glyph glyph-name="guillemotleft" unicode="&#xab;" horiz-adv-x="467" 
d="M247 113q0 -6 -9 -6h-70q-7 0 -12 7l-96 160q-2 3 -2 7t2 7l96 160q5 7 12 7h70q6 0 8 -3.5t-1 -8.5l-96 -159q-1 -3 0 -6l96 -159q2 -4 2 -6zM401 113q0 -6 -9 -6h-71q-7 0 -12 7l-95 160q-2 3 -2 7t2 7l95 160q5 7 12 7h71q6 0 8 -3.5t-1 -8.5l-97 -159q-1 -3 0 -6
l97 -159q2 -4 2 -6z" />
    <glyph glyph-name="logicalnot" unicode="&#xac;" horiz-adv-x="440" 
d="M411 341v-58v-6l-1 -2v-93q0 -10 -10 -10h-54q-10 0 -10 10v91q0 4 -4 4h-293q-10 0 -10 10v54q0 10 10 10h362q10 0 10 -10z" />
    <glyph glyph-name="uni00AD" unicode="&#xad;" horiz-adv-x="320" 
d="M29 274v63q0 10 10 10h242q10 0 10 -10v-63q0 -10 -10 -10h-242q-10 0 -10 10z" />
    <glyph glyph-name="registered" unicode="&#xae;" horiz-adv-x="436" 
d="M318.5 686.5q45.5 -25.5 72 -70t26.5 -98.5q0 -56 -26.5 -102t-72 -72t-100.5 -26t-100.5 26t-72 72t-26.5 102q0 54 26.5 98.5t72 70t100.5 25.5t100.5 -25.5zM296 382.5q35 20.5 55.5 56t20.5 79.5q0 41 -20.5 75.5t-55.5 54.5t-78 20q-42 0 -77 -20t-55.5 -54.5
t-20.5 -75.5q0 -44 20 -79.5t55.5 -56t77.5 -20.5q43 0 78 20.5zM258 505q-3 -3 -2 -6l25 -62q1 -2 1 -5q0 -7 -8 -7h-19q-9 0 -12 8l-23 63q-1 3 -4 3h-12q-4 0 -4 -4v-60q0 -10 -10 -10h-16q-10 0 -10 10v161q0 10 10 10h56q24 0 39 -15.5t15 -39.5q0 -33 -26 -46z
M200 571v-41q0 -4 4 -4h20q11 0 17.5 7t6.5 17q0 12 -6.5 18.5t-17.5 6.5h-20q-4 0 -4 -4z" />
    <glyph glyph-name="macron" unicode="&#xaf;" horiz-adv-x="436" 
d="M113 600v48q0 10 10 10h188q10 0 10 -10v-48q0 -10 -10 -10h-188q-10 0 -10 10z" />
    <glyph glyph-name="degree" unicode="&#xb0;" horiz-adv-x="358" 
d="M98.5 504.5q-36.5 21.5 -58 59t-21.5 82.5t21.5 82t58 58.5t80.5 21.5t80.5 -21.5t58 -58.5t21.5 -82t-21.5 -82.5t-58 -59t-80.5 -21.5t-80.5 21.5zM246.5 576.5q27.5 28.5 27.5 69.5t-27.5 70t-67.5 29t-67.5 -29t-27.5 -70t27.5 -69.5t67.5 -28.5t67.5 28.5z" />
    <glyph glyph-name="plusminus" unicode="&#xb1;" horiz-adv-x="440" 
d="M411 391v-54q0 -10 -10 -10h-140q-4 0 -4 -4v-140q0 -10 -10 -10h-54q-10 0 -10 10v140q0 4 -4 4h-140q-10 0 -10 10v54q0 10 10 10h140q4 0 4 4v140q0 10 10 10h54q10 0 10 -10v-140q0 -4 4 -4h140q10 0 10 -10zM29 32v54q0 10 10 10h362q10 0 10 -10v-54q0 -10 -10 -10
h-362q-10 0 -10 10z" />
    <glyph glyph-name="uni00B2" unicode="&#xb2;" horiz-adv-x="252" 
d="M19 443v39q0 8 4 13q72 100 107 155q34 57 34 97q0 26 -11 40t-30 14q-17 0 -28 -14t-11 -37v-21q0 -10 -10 -10h-46q-10 0 -10 10v23q1 49 30 77.5t77 28.5t76.5 -29t28.5 -85q0 -54 -34 -116q-21 -37 -73 -115q-2 -3 -5.5 -8t-7.5 -11q-1 -2 0 -3.5t3 -1.5h116
q10 0 10 -10v-36q0 -10 -10 -10h-200q-10 0 -10 10z" />
    <glyph glyph-name="uni00B3" unicode="&#xb3;" horiz-adv-x="270" 
d="M240 563q0 -31 -6 -54q-1 -1 -1 -4q-6 -36 -32.5 -57t-66.5 -21q-45 0 -73.5 26.5t-32.5 68.5q-2 20 -2 31q0 10 10 10h44q10 0 10 -10q0 -6 2 -20q2 -23 13 -36t29 -13q29 0 39 35q6 24 6 50q0 27 -4 46q-8 40 -41 40q-4 0 -12 -2l-4 -2q-7 -3 -11 2l-22 22q-6 6 -1 14
l75 103q2 2 1 3.5t-3 1.5h-116q-10 0 -10 10v35q0 10 10 10h186q10 0 10 -10v-38q0 -8 -4 -13l-64 -89q-2 -3 1 -5q26 -5 43 -28.5t22 -56.5q5 -25 5 -49z" />
    <glyph glyph-name="acute" unicode="&#xb4;" horiz-adv-x="194" 
d="M25 576.5q-2 3.5 1 8.5l62 108q5 7 12 7h61q6 0 8 -3.5t-1 -8.5l-74 -109q-4 -6 -12 -6h-49q-6 0 -8 3.5z" />
    <glyph glyph-name="uni00B5" unicode="&#xb5;" horiz-adv-x="437" 
d="M298 509h76q10 0 10 -10v-489q0 -10 -10 -10h-76q-10 0 -10 10v29q0 3 -1.5 3t-3.5 -2q-30 -47 -96 -47q-18 0 -35 3q-1 1 -2.5 -0.5t-1.5 -3.5v-182q0 -10 -10 -10h-76q-10 0 -10 10v689q0 10 10 10h77q10 0 10 -10v-337q0 -86 68 -86q33 0 52 24.5t19 67.5v331
q0 10 10 10z" />
    <glyph glyph-name="paragraph" unicode="&#xb6;" horiz-adv-x="486" 
d="M414 700q10 0 10 -10v-880q0 -10 -10 -10h-61q-10 0 -10 10v807q0 4 -4 4h-68q-4 0 -4 -4v-807q0 -10 -10 -10h-61q-10 0 -10 10v437q0 4 -4 5q-70 10 -111.5 71.5t-41.5 151.5q0 64 22 115t63 80.5t95 29.5h205z" />
    <glyph glyph-name="periodcentered" unicode="&#xb7;" horiz-adv-x="206" 
d="M57 237q-18 18 -18 46t18 46t46 18t46 -18t18 -46t-18 -46t-46 -18t-46 18z" />
    <glyph glyph-name="cedilla" unicode="&#xb8;" horiz-adv-x="132" 
d="M5 -171l4 31q1 4 4 6.5t8 1.5q3 -1 10 -1q14 0 23.5 8t12.5 24q6 42 -41 89q-3 3 -3 7q0 5 8 5h42q7 0 10 -3l4 -4q45 -42 45 -97q0 -15 -2 -23q-8 -32 -29.5 -46t-50.5 -14q-20 0 -37 5q-9 2 -8 11z" />
    <glyph glyph-name="uni00B9" unicode="&#xb9;" horiz-adv-x="149" 
d="M65 853h48q10 0 10 -10v-400q0 -10 -10 -10h-45q-10 0 -10 10v346q0 2 -1.5 3.5t-2.5 0.5l-25 -6h-2q-9 0 -9 9v29q0 9 7 12l27 13q6 3 13 3z" />
    <glyph glyph-name="ordmasculine" unicode="&#xba;" horiz-adv-x="285" 
d="M59 389.5q-30 28.5 -30 77.5v136q0 47 30.5 76t82.5 29t82.5 -29t30.5 -76v-136q0 -49 -30.5 -77.5t-82.5 -28.5q-53 0 -83 28.5zM176 432.5q14 15.5 14 38.5v127q0 23 -14 38.5t-34 15.5q-21 0 -35 -15.5t-14 -38.5v-127q0 -23 14 -38.5t35 -15.5q20 0 34 15.5zM22 271
v37q0 10 10 10h221q10 0 10 -10v-37q0 -10 -10 -10h-221q-10 0 -10 10z" />
    <glyph glyph-name="guillemotright" unicode="&#xbb;" horiz-adv-x="467" 
d="M68 110.5q-2 3.5 1 8.5l96 159q2 3 0 6l-96 159q-2 4 -2 6q0 6 9 6h70q7 0 12 -7l96 -160q2 -3 2 -7t-2 -7l-96 -160q-5 -7 -12 -7h-70q-6 0 -8 3.5zM221 110.5q-2 3.5 1 8.5l96 159q2 3 0 6l-96 159q-2 4 -2 6q0 6 9 6h70q7 0 12 -7l96 -160q2 -3 2 -7t-2 -7l-96 -160
q-5 -7 -12 -7h-70q-6 0 -8 3.5z" />
    <glyph glyph-name="onequarter" unicode="&#xbc;" horiz-adv-x="682" 
d="M65 700h48q10 0 10 -10v-400q0 -10 -10 -10h-45q-10 0 -10 10v346q0 2 -1.5 3.5t-2.5 0.5l-25 -6h-2q-9 0 -9 9v29q0 9 7 12l27 13q6 3 13 3zM65 3.5q-2 3.5 1 8.5l424 681q5 7 12 7h49q6 0 8 -3.5t-1 -8.5l-424 -681q-5 -7 -12 -7h-49q-6 0 -8 3.5zM671 159v-39
q0 -10 -10 -10h-14q-4 0 -4 -4v-96q0 -10 -10 -10h-45q-10 0 -10 10v96q0 4 -4 4h-137q-10 0 -10 10v33q0 4 2 12l82 247q3 8 12 8h48q11 0 8 -11l-76 -235q-1 -2 0.5 -3.5t3.5 -1.5h67q4 0 4 4v71q0 10 10 10h45q10 0 10 -10v-71q0 -4 4 -4h14q10 0 10 -10z" />
    <glyph glyph-name="onehalf" unicode="&#xbd;" horiz-adv-x="674" 
d="M65 700h48q10 0 10 -10v-400q0 -10 -10 -10h-45q-10 0 -10 10v346q0 2 -1.5 3.5t-2.5 0.5l-25 -6h-2q-9 0 -9 9v29q0 9 7 12l27 13q6 3 13 3zM65 3.5q-2 3.5 1 8.5l424 681q5 7 12 7h49q6 0 8 -3.5t-1 -8.5l-424 -681q-5 -7 -12 -7h-49q-6 0 -8 3.5zM441 10v39q0 8 4 13
q72 100 107 155q34 57 34 97q0 26 -11 40t-30 14q-17 0 -28 -14t-11 -37v-21q0 -10 -10 -10h-46q-10 0 -10 10v23q1 49 30 77.5t77 28.5t76.5 -29t28.5 -85q0 -54 -34 -116q-21 -37 -73 -115q-2 -3 -5.5 -8t-7.5 -11q-1 -2 0 -3.5t3 -1.5h116q10 0 10 -10v-36q0 -10 -10 -10
h-200q-10 0 -10 10z" />
    <glyph glyph-name="threequarters" unicode="&#xbe;" horiz-adv-x="754" 
d="M240 409q0 -31 -6 -54q-1 -1 -1 -4q-6 -36 -32.5 -57t-66.5 -21q-45 0 -73.5 26.5t-32.5 68.5q-2 20 -2 31q0 10 10 10h44q10 0 10 -10q0 -6 2 -20q2 -23 13 -36t29 -13q29 0 39 35q6 24 6 50q0 27 -4 46q-8 40 -41 40q-4 0 -12 -2l-4 -2q-7 -3 -11 2l-22 22q-6 6 -1 14
l75 103q2 2 1 3.5t-3 1.5h-116q-10 0 -10 10v35q0 10 10 10h186q10 0 10 -10v-38q0 -8 -4 -13l-64 -89q-2 -3 1 -5q26 -5 43 -28.5t22 -56.5q5 -25 5 -49zM137 3.5q-2 3.5 1 8.5l424 681q5 7 12 7h49q6 0 8 -3.5t-1 -8.5l-424 -681q-5 -7 -12 -7h-49q-6 0 -8 3.5zM743 159
v-39q0 -10 -10 -10h-14q-4 0 -4 -4v-96q0 -10 -10 -10h-45q-10 0 -10 10v96q0 4 -4 4h-137q-10 0 -10 10v33q0 4 2 12l82 247q3 8 12 8h48q11 0 8 -11l-76 -235q-1 -2 0.5 -3.5t3.5 -1.5h67q4 0 4 4v71q0 10 10 10h45q10 0 10 -10v-71q0 -4 4 -4h14q10 0 10 -10z" />
    <glyph glyph-name="questiondown" unicode="&#xbf;" horiz-adv-x="394" 
d="M256 481q18 -18 18 -46t-18 -46t-46 -18t-46 18t-18 46t18 46t46 18t46 -18zM259 282v-50q0 -45 -18 -74t-53 -62q-33 -30 -49.5 -55.5t-16.5 -64.5q0 -45 20.5 -71.5t53.5 -26.5q36 0 57 27.5t21 72.5v26q0 10 10 10l76 -4q10 0 10 -10v-22q0 -84 -49 -135.5t-127 -51.5
q-77 0 -122.5 49.5t-45.5 132.5q0 44 12 76t28.5 52t42.5 45q28 26 41 45t13 46v45q0 10 10 10h76q10 0 10 -10z" />
    <glyph glyph-name="Agrave" unicode="&#xc0;" horiz-adv-x="436" 
d="M325 9l-22 115q0 2 -1.5 3t-3.5 1h-163q-2 0 -3.5 -1t-1.5 -3l-21 -115q-1 -9 -11 -9h-76q-5 0 -7.5 3t-1.5 8l149 680q2 9 11 9h89q10 0 11 -9l150 -680v-2q0 -9 -9 -9h-78q-9 0 -11 9zM150 204h133q3 0 3 4l-68 355q-1 2 -2 2t-2 -2l-67 -355q0 -4 3 -4zM250 770
q0 -6 -9 -6h-49q-8 0 -12 6l-74 109l-2 5q0 7 9 7h61q7 0 12 -7l62 -108q2 -4 2 -6z" />
    <glyph glyph-name="Aacute" unicode="&#xc1;" horiz-adv-x="436" 
d="M325 9l-22 115q0 2 -1.5 3t-3.5 1h-163q-2 0 -3.5 -1t-1.5 -3l-21 -115q-1 -9 -11 -9h-76q-5 0 -7.5 3t-1.5 8l149 680q2 9 11 9h89q10 0 11 -9l150 -680v-2q0 -9 -9 -9h-78q-9 0 -11 9zM150 204h133q3 0 3 4l-68 355q-1 2 -2 2t-2 -2l-67 -355q0 -4 3 -4zM167 767.5
q-2 3.5 1 8.5l62 108q5 7 12 7h61q6 0 8 -3.5t-1 -8.5l-74 -109q-4 -6 -12 -6h-49q-6 0 -8 3.5z" />
    <glyph glyph-name="Acircumflex" unicode="&#xc2;" horiz-adv-x="436" 
d="M325 9l-22 115q0 2 -1.5 3t-3.5 1h-163q-2 0 -3.5 -1t-1.5 -3l-21 -115q-1 -9 -11 -9h-76q-5 0 -7.5 3t-1.5 8l149 680q2 9 11 9h89q10 0 11 -9l150 -680v-2q0 -9 -9 -9h-78q-9 0 -11 9zM150 204h133q3 0 3 4l-68 355q-1 2 -2 2t-2 -2l-67 -355q0 -4 3 -4zM94.5 771.5
q-1.5 3.5 1.5 8.5l65 104q5 7 12 7h85q7 0 12 -7l68 -104q2 -4 2 -6q0 -6 -8 -6h-61q-7 0 -12 7l-39 68q-1 2 -3 2t-3 -2l-39 -68q-5 -7 -12 -7h-61q-6 0 -7.5 3.5z" />
    <glyph glyph-name="Atilde" unicode="&#xc3;" horiz-adv-x="436" 
d="M325 9l-22 115q0 2 -1.5 3t-3.5 1h-163q-2 0 -3.5 -1t-1.5 -3l-21 -115q-1 -9 -11 -9h-76q-5 0 -7.5 3t-1.5 8l149 680q2 9 11 9h89q10 0 11 -9l150 -680v-2q0 -9 -9 -9h-78q-9 0 -11 9zM150 204h133q3 0 3 4l-68 355q-1 2 -2 2t-2 -2l-67 -355q0 -4 3 -4zM256.5 796
q-11.5 5 -29.5 15q-5 3 -13.5 9t-15 8.5t-14.5 2.5q-13 0 -22.5 -5.5t-19.5 -20.5q-2 -4 -6 -5t-8 2l-28 20q-7 6 -3 13q13 30 34 45t46 15q16 0 30 -6t30 -17q4 -2 12 -8t16 -9t16 -3q12 0 22 5.5t19 20.5q4 9 14 3l27 -18q4 -3 4 -9q0 -4 -3 -10q-15 -28 -38 -40.5
t-45 -12.5q-13 0 -24.5 5z" />
    <glyph glyph-name="Adieresis" unicode="&#xc4;" horiz-adv-x="436" 
d="M325 9l-22 115q0 2 -1.5 3t-3.5 1h-163q-2 0 -3.5 -1t-1.5 -3l-21 -115q-1 -9 -11 -9h-76q-5 0 -7.5 3t-1.5 8l149 680q2 9 11 9h89q10 0 11 -9l150 -680v-2q0 -9 -9 -9h-78q-9 0 -11 9zM150 204h133q3 0 3 4l-68 355q-1 2 -2 2t-2 -2l-67 -355q0 -4 3 -4zM253 798
q-18 18 -18 46t18 46t46 18t46 -18t18 -46t-18 -46t-46 -18t-46 18zM91 798q-18 18 -18 46t18 46t46 18t46 -18t18 -46t-18 -46t-46 -18t-46 18z" />
    <glyph glyph-name="Aring" unicode="&#xc5;" horiz-adv-x="436" 
d="M325 9l-22 115q0 2 -1.5 3t-3.5 1h-163q-2 0 -3.5 -1t-1.5 -3l-21 -115q-1 -9 -11 -9h-76q-5 0 -7.5 3t-1.5 8l149 680q2 9 11 9h89q10 0 11 -9l150 -680v-2q0 -9 -9 -9h-78q-9 0 -11 9zM150 204h133q3 0 3 4l-68 355q-1 2 -2 2t-2 -2l-67 -355q0 -4 3 -4zM137.5 797
q-32.5 33 -32.5 81t32.5 80.5t80.5 32.5q47 0 79.5 -32.5t32.5 -80.5t-32.5 -81t-79.5 -33q-48 0 -80.5 33zM259 835.5q17 17.5 17 42.5t-17 42.5t-41 17.5t-41.5 -17.5t-17.5 -42.5t17.5 -42.5t41.5 -17.5t41 17.5z" />
    <glyph glyph-name="AE" unicode="&#xc6;" horiz-adv-x="719" 
d="M674 617h-225q-4 0 -4 -4v-217q0 -4 4 -4h138q10 0 10 -10v-63q0 -10 -10 -10h-138q-4 0 -4 -4v-218q0 -4 4 -4h225q10 0 10 -10v-63q0 -10 -10 -10h-316q-10 0 -10 10v114q0 4 -4 4h-177q-2 0 -4 -3l-49 -117q-3 -8 -11 -8h-79q-5 0 -7.5 3.5t-0.5 8.5l292 680q3 8 11 8
h355q10 0 10 -10v-63q0 -10 -10 -10zM198 205.5q1 -1.5 3 -1.5h143q4 0 4 4l1 354q0 3 -2 3t-3 -2l-146 -354q-1 -2 0 -3.5z" />
    <glyph glyph-name="Ccedilla" unicode="&#xc7;" horiz-adv-x="452" 
d="M399 502l-76 -4q-10 0 -10 10v26q0 41 -23.5 66t-61.5 25t-61 -25t-23 -66v-368q0 -41 23 -66t61 -25t61.5 25t23.5 66v26q0 10 10 10l76 -4q10 0 10 -10v-15q0 -72 -38.5 -119.5t-104.5 -58.5q-5 -2 -2 -5q40 -40 40 -92q0 -7 -2 -23q-8 -32 -30 -46t-51 -14
q-20 0 -37 5q-9 3 -8 12l5 32q1 9 12 7q4 -1 10 -1q16 0 26.5 10.5t10.5 31.5q0 39 -45 81q-1 2 -5 2q-65 11 -103.5 58.5t-38.5 119.5v355q0 82 49.5 131t130.5 49q82 0 131.5 -49t49.5 -131v-16q0 -10 -10 -10z" />
    <glyph glyph-name="Egrave" unicode="&#xc8;" 
d="M387 617h-225q-4 0 -4 -4v-217q0 -4 4 -4h138q10 0 10 -10v-63q0 -10 -10 -10h-138q-4 0 -4 -4v-218q0 -4 4 -4h225q10 0 10 -10v-63q0 -10 -10 -10h-315q-10 0 -10 10v680q0 10 10 10h315q10 0 10 -10v-63q0 -10 -10 -10zM262 770q0 -6 -9 -6h-49q-8 0 -12 6l-74 109
l-2 5q0 7 9 7h61q7 0 12 -7l62 -108q2 -4 2 -6z" />
    <glyph glyph-name="Eacute" unicode="&#xc9;" 
d="M387 617h-225q-4 0 -4 -4v-217q0 -4 4 -4h138q10 0 10 -10v-63q0 -10 -10 -10h-138q-4 0 -4 -4v-218q0 -4 4 -4h225q10 0 10 -10v-63q0 -10 -10 -10h-315q-10 0 -10 10v680q0 10 10 10h315q10 0 10 -10v-63q0 -10 -10 -10zM179 767.5q-2 3.5 1 8.5l62 108q5 7 12 7h61
q6 0 8 -3.5t-1 -8.5l-74 -109q-4 -6 -12 -6h-49q-6 0 -8 3.5z" />
    <glyph glyph-name="Ecircumflex" unicode="&#xca;" 
d="M387 617h-225q-4 0 -4 -4v-217q0 -4 4 -4h138q10 0 10 -10v-63q0 -10 -10 -10h-138q-4 0 -4 -4v-218q0 -4 4 -4h225q10 0 10 -10v-63q0 -10 -10 -10h-315q-10 0 -10 10v680q0 10 10 10h315q10 0 10 -10v-63q0 -10 -10 -10zM106.5 771.5q-1.5 3.5 1.5 8.5l65 104q5 7 12 7
h85q7 0 12 -7l68 -104q2 -4 2 -6q0 -6 -8 -6h-61q-7 0 -12 7l-39 68q-1 2 -3 2t-3 -2l-39 -68q-5 -7 -12 -7h-61q-6 0 -7.5 3.5z" />
    <glyph glyph-name="Edieresis" unicode="&#xcb;" 
d="M387 617h-225q-4 0 -4 -4v-217q0 -4 4 -4h138q10 0 10 -10v-63q0 -10 -10 -10h-138q-4 0 -4 -4v-218q0 -4 4 -4h225q10 0 10 -10v-63q0 -10 -10 -10h-315q-10 0 -10 10v680q0 10 10 10h315q10 0 10 -10v-63q0 -10 -10 -10zM265 798q-18 18 -18 46t18 46t46 18t46 -18
t18 -46t-18 -46t-46 -18t-46 18zM103 798q-18 18 -18 46t18 46t46 18t46 -18t18 -46t-18 -46t-46 -18t-46 18z" />
    <glyph glyph-name="Igrave" unicode="&#xcc;" horiz-adv-x="220" 
d="M62 10v680q0 10 10 10h76q10 0 10 -10v-680q0 -10 -10 -10h-76q-10 0 -10 10zM142 770q0 -6 -9 -6h-49q-8 0 -12 6l-74 109l-2 5q0 7 9 7h61q7 0 12 -7l62 -108q2 -4 2 -6z" />
    <glyph glyph-name="Iacute" unicode="&#xcd;" horiz-adv-x="220" 
d="M62 10v680q0 10 10 10h76q10 0 10 -10v-680q0 -10 -10 -10h-76q-10 0 -10 10zM59 767.5q-2 3.5 1 8.5l62 108q5 7 12 7h61q6 0 8 -3.5t-1 -8.5l-74 -109q-4 -6 -12 -6h-49q-6 0 -8 3.5z" />
    <glyph glyph-name="Icircumflex" unicode="&#xce;" horiz-adv-x="220" 
d="M62 10v680q0 10 10 10h76q10 0 10 -10v-680q0 -10 -10 -10h-76q-10 0 -10 10zM-13.5 771.5q-1.5 3.5 1.5 8.5l65 104q5 7 12 7h85q7 0 12 -7l68 -104q2 -4 2 -6q0 -6 -8 -6h-61q-7 0 -12 7l-39 68q-1 2 -3 2t-3 -2l-39 -68q-5 -7 -12 -7h-61q-6 0 -7.5 3.5z" />
    <glyph glyph-name="Idieresis" unicode="&#xcf;" horiz-adv-x="220" 
d="M62 10v680q0 10 10 10h76q10 0 10 -10v-680q0 -10 -10 -10h-76q-10 0 -10 10zM145 798q-18 18 -18 46t18 46t46 18t46 -18t18 -46t-18 -46t-46 -18t-46 18zM-17 798q-18 18 -18 46t18 46t46 18t46 -18t18 -46t-18 -46t-46 -18t-46 18z" />
    <glyph glyph-name="Eth" unicode="&#xd0;" horiz-adv-x="508" 
d="M406.5 649q48.5 -51 48.5 -138v-322q0 -87 -48.5 -138t-131.5 -51h-164q-10 0 -10 10v323q0 4 -4 4h-25q-10 0 -10 10v38q0 10 10 10h25q4 0 4 4v291q0 10 10 10h164q83 0 131.5 -51zM359 506q0 51 -23 81t-63 30h-72q-4 0 -4 -4v-214q0 -4 4 -4h63q10 0 10 -10v-38
q0 -10 -10 -10h-63q-4 0 -4 -4v-246q0 -4 4 -4l73 1q38 0 61 29.5t24 80.5v312z" />
    <glyph glyph-name="Ntilde" unicode="&#xd1;" horiz-adv-x="501" 
d="M354 700h75q10 0 10 -10v-680q0 -10 -10 -10h-86q-8 0 -11 8l-170 457q-1 2 -3 1.5t-2 -2.5l1 -454q0 -10 -10 -10h-76q-10 0 -10 10v680q0 10 10 10h85q8 0 11 -8l171 -457q1 -3 3 -2.5t2 3.5v454q0 10 10 10zM288.5 802q-11.5 5 -29.5 15q-5 3 -13.5 9t-15 8.5
t-14.5 2.5q-13 0 -22.5 -5.5t-19.5 -20.5q-2 -4 -6 -5t-8 2l-28 20q-7 6 -3 13q13 30 34 45t46 15q16 0 30 -6t30 -17q4 -2 12 -8t16 -9t16 -3q12 0 22 5.5t19 20.5q4 9 14 3l27 -18q4 -3 4 -9q0 -4 -3 -10q-15 -28 -38 -40.5t-45 -12.5q-13 0 -24.5 5z" />
    <glyph glyph-name="Ograve" unicode="&#xd2;" horiz-adv-x="462" 
d="M98 42q-50 50 -50 133v349q0 83 50 133.5t132 50.5q83 0 133.5 -50.5t50.5 -133.5v-349q0 -83 -50.5 -133t-133.5 -50q-82 0 -132 50zM294 101.5q24 26.5 24 69.5v358q0 43 -24 69.5t-64 26.5q-39 0 -62.5 -26.5t-23.5 -69.5v-358q0 -43 23.5 -69.5t62.5 -26.5
q40 0 64 26.5zM262 770q0 -6 -9 -6h-49q-8 0 -12 6l-74 109l-2 5q0 7 9 7h61q7 0 12 -7l62 -108q2 -4 2 -6z" />
    <glyph glyph-name="Oacute" unicode="&#xd3;" horiz-adv-x="462" 
d="M98 42q-50 50 -50 133v349q0 83 50 133.5t132 50.5q83 0 133.5 -50.5t50.5 -133.5v-349q0 -83 -50.5 -133t-133.5 -50q-82 0 -132 50zM294 101.5q24 26.5 24 69.5v358q0 43 -24 69.5t-64 26.5q-39 0 -62.5 -26.5t-23.5 -69.5v-358q0 -43 23.5 -69.5t62.5 -26.5
q40 0 64 26.5zM179 767.5q-2 3.5 1 8.5l62 108q5 7 12 7h61q6 0 8 -3.5t-1 -8.5l-74 -109q-4 -6 -12 -6h-49q-6 0 -8 3.5z" />
    <glyph glyph-name="Ocircumflex" unicode="&#xd4;" horiz-adv-x="462" 
d="M98 42q-50 50 -50 133v349q0 83 50 133.5t132 50.5q83 0 133.5 -50.5t50.5 -133.5v-349q0 -83 -50.5 -133t-133.5 -50q-82 0 -132 50zM294 101.5q24 26.5 24 69.5v358q0 43 -24 69.5t-64 26.5q-39 0 -62.5 -26.5t-23.5 -69.5v-358q0 -43 23.5 -69.5t62.5 -26.5
q40 0 64 26.5zM106.5 771.5q-1.5 3.5 1.5 8.5l65 104q5 7 12 7h85q7 0 12 -7l68 -104q2 -4 2 -6q0 -6 -8 -6h-61q-7 0 -12 7l-39 68q-1 2 -3 2t-3 -2l-39 -68q-5 -7 -12 -7h-61q-6 0 -7.5 3.5z" />
    <glyph glyph-name="Otilde" unicode="&#xd5;" horiz-adv-x="462" 
d="M98 42q-50 50 -50 133v349q0 83 50 133.5t132 50.5q83 0 133.5 -50.5t50.5 -133.5v-349q0 -83 -50.5 -133t-133.5 -50q-82 0 -132 50zM294 101.5q24 26.5 24 69.5v358q0 43 -24 69.5t-64 26.5q-39 0 -62.5 -26.5t-23.5 -69.5v-358q0 -43 23.5 -69.5t62.5 -26.5
q40 0 64 26.5zM268.5 796q-11.5 5 -29.5 15q-5 3 -13.5 9t-15 8.5t-14.5 2.5q-13 0 -22.5 -5.5t-19.5 -20.5q-2 -4 -6 -5t-8 2l-28 20q-7 6 -3 13q13 30 34 45t46 15q16 0 30 -6t30 -17q4 -2 12 -8t16 -9t16 -3q12 0 22 5.5t19 20.5q4 9 14 3l27 -18q4 -3 4 -9q0 -4 -3 -10
q-15 -28 -38 -40.5t-45 -12.5q-13 0 -24.5 5z" />
    <glyph glyph-name="Odieresis" unicode="&#xd6;" horiz-adv-x="462" 
d="M98 42q-50 50 -50 133v349q0 83 50 133.5t132 50.5q83 0 133.5 -50.5t50.5 -133.5v-349q0 -83 -50.5 -133t-133.5 -50q-82 0 -132 50zM294 101.5q24 26.5 24 69.5v358q0 43 -24 69.5t-64 26.5q-39 0 -62.5 -26.5t-23.5 -69.5v-358q0 -43 23.5 -69.5t62.5 -26.5
q40 0 64 26.5zM265 798q-18 18 -18 46t18 46t46 18t46 -18t18 -46t-18 -46t-46 -18t-46 18zM103 798q-18 18 -18 46t18 46t46 18t46 -18t18 -46t-18 -46t-46 -18t-46 18z" />
    <glyph glyph-name="multiply" unicode="&#xd7;" horiz-adv-x="380" 
d="M347 420q0 -4 -3 -7l-99 -99q-3 -3 0 -6l99 -99q3 -3 3 -7t-3 -7l-38 -38q-3 -3 -7 -3t-7 3l-99 99q-3 3 -6 0l-99 -99q-3 -3 -7 -3t-7 3l-38 38q-3 3 -3 7t3 7l99 99q3 3 0 6l-99 99q-3 3 -3 7t3 7l38 38q3 3 7 3t7 -3l99 -99q3 -3 6 0l99 99q3 3 7 3t7 -3l38 -38
q3 -3 3 -7z" />
    <glyph glyph-name="Oslash" unicode="&#xd8;" horiz-adv-x="564" 
d="M423 698l-31 -70q-1 -3 0 -6q24 -40 24 -98v-349q0 -83 -50.5 -133t-133.5 -50q-60 0 -102 27q-4 1 -6 -2l-23 -52q-4 -8 -13 -4l-43 23q-8 5 -5 13l33 76q2 3 0 6q-23 40 -23 96v349q0 83 50 133.5t132 50.5q59 0 104 -28q4 -1 6 2l22 51q4 9 13 4l42 -25q7 -4 4 -14z
M146 250q0 -3 2 -3t3 2l149 340q1 2 -1 6q-24 30 -67 30q-39 0 -62.5 -26.5t-23.5 -69.5v-279zM320 451q0 3 -2 3t-3 -2l-150 -340q-1 -2 1 -6q23 -31 66 -31q40 0 64 26.5t24 69.5v280z" />
    <glyph glyph-name="Ugrave" unicode="&#xd9;" horiz-adv-x="477" 
d="M106.5 46.5q-49.5 54.5 -49.5 143.5v500q0 10 10 10h76q10 0 10 -10v-510q0 -47 23.5 -76t61.5 -29q39 0 62.5 29t23.5 76v510q0 10 10 10h76q10 0 10 -10v-500q0 -89 -50 -143.5t-132 -54.5t-131.5 54.5zM270 770q0 -6 -9 -6h-49q-8 0 -12 6l-74 109l-2 5q0 7 9 7h61
q7 0 12 -7l62 -108q2 -4 2 -6z" />
    <glyph glyph-name="Uacute" unicode="&#xda;" horiz-adv-x="477" 
d="M106.5 46.5q-49.5 54.5 -49.5 143.5v500q0 10 10 10h76q10 0 10 -10v-510q0 -47 23.5 -76t61.5 -29q39 0 62.5 29t23.5 76v510q0 10 10 10h76q10 0 10 -10v-500q0 -89 -50 -143.5t-132 -54.5t-131.5 54.5zM187 767.5q-2 3.5 1 8.5l62 108q5 7 12 7h61q6 0 8 -3.5t-1 -8.5
l-74 -109q-4 -6 -12 -6h-49q-6 0 -8 3.5z" />
    <glyph glyph-name="Ucircumflex" unicode="&#xdb;" horiz-adv-x="477" 
d="M106.5 46.5q-49.5 54.5 -49.5 143.5v500q0 10 10 10h76q10 0 10 -10v-510q0 -47 23.5 -76t61.5 -29q39 0 62.5 29t23.5 76v510q0 10 10 10h76q10 0 10 -10v-500q0 -89 -50 -143.5t-132 -54.5t-131.5 54.5zM114.5 771.5q-1.5 3.5 1.5 8.5l65 104q5 7 12 7h85q7 0 12 -7
l68 -104q2 -4 2 -6q0 -6 -8 -6h-61q-7 0 -12 7l-39 68q-1 2 -3 2t-3 -2l-39 -68q-5 -7 -12 -7h-61q-6 0 -7.5 3.5z" />
    <glyph glyph-name="Udieresis" unicode="&#xdc;" horiz-adv-x="477" 
d="M106.5 46.5q-49.5 54.5 -49.5 143.5v500q0 10 10 10h76q10 0 10 -10v-510q0 -47 23.5 -76t61.5 -29q39 0 62.5 29t23.5 76v510q0 10 10 10h76q10 0 10 -10v-500q0 -89 -50 -143.5t-132 -54.5t-131.5 54.5zM273 798q-18 18 -18 46t18 46t46 18t46 -18t18 -46t-18 -46
t-46 -18t-46 18zM111 798q-18 18 -18 46t18 46t46 18t46 -18t18 -46t-18 -46t-46 -18t-46 18z" />
    <glyph glyph-name="Yacute" unicode="&#xdd;" horiz-adv-x="442" 
d="M173 11v286l-1 5l-139 387l-1 4q0 7 9 7h80q9 0 12 -8l85 -276q1 -2 3 -2t3 2l85 276q3 8 12 8h80q11 0 8 -11l-139 -387l-1 -5v-286q0 -10 -10 -10h-76q-10 0 -10 10zM170 767.5q-2 3.5 1 8.5l62 108q5 7 12 7h61q6 0 8 -3.5t-1 -8.5l-74 -109q-4 -6 -12 -6h-49
q-6 0 -8 3.5z" />
    <glyph glyph-name="Thorn" unicode="&#xde;" horiz-adv-x="450" 
d="M339 524.5q39 -25.5 60.5 -71t21.5 -104.5q0 -88 -46 -142.5t-121 -54.5h-93q-4 0 -4 -4v-138q0 -10 -10 -10h-76q-10 0 -10 10v680q0 10 10 10h76q10 0 10 -10v-136q0 -4 4 -4h89q50 0 89 -25.5zM300.5 261q24.5 32 24.5 86q0 55 -24.5 87.5t-65.5 32.5h-74q-4 0 -4 -4
v-230q0 -4 4 -4h74q41 0 65.5 32z" />
    <glyph glyph-name="germandbls" unicode="&#xdf;" horiz-adv-x="441" 
d="M52 10v491q0 98 43.5 153t121.5 55q80 0 126.5 -51.5t46.5 -139.5q0 -52 -17.5 -87.5t-49.5 -54.5q-5 -3 0 -6q35 -20 55 -65t20 -107q0 -93 -48 -145.5t-136 -52.5h-20q-10 0 -10 10v62q0 10 10 10l21 1q43 1 66 33t23 92q0 59 -20.5 91.5t-57.5 34.5h-22q-10 0 -10 10
v56q0 10 10 10h21q33 0 51.5 26t18.5 73q0 55 -20 86t-57 31q-33 0 -51.5 -29t-18.5 -82v-505q0 -10 -10 -10h-76q-10 0 -10 10z" />
    <glyph glyph-name="agrave" unicode="&#xe0;" horiz-adv-x="423" 
d="M335.5 471q46.5 -46 46.5 -121v-340q0 -10 -10 -10h-76q-10 0 -10 10v22q0 2 -1.5 3t-3.5 -1q-35 -42 -103 -42q-57 0 -100.5 32.5t-43.5 115.5q0 87 52.5 127.5t137.5 40.5h58q4 0 4 4v29q0 42 -20 67.5t-52 25.5q-25 0 -42 -17t-20 -44q0 -10 -10 -10h-81q-10 0 -10 10
q5 64 51 104t114 40q73 0 119.5 -46zM260 98q26 22 26 62v68q0 4 -4 4h-61q-40 0 -64 -21.5t-24 -62.5q0 -36 18 -54t48 -18q35 0 61 22zM244 579q0 -6 -9 -6h-49q-8 0 -12 6l-74 109l-2 5q0 7 9 7h61q7 0 12 -7l62 -108q2 -4 2 -6z" />
    <glyph glyph-name="aacute" unicode="&#xe1;" horiz-adv-x="423" 
d="M335.5 471q46.5 -46 46.5 -121v-340q0 -10 -10 -10h-76q-10 0 -10 10v22q0 2 -1.5 3t-3.5 -1q-35 -42 -103 -42q-57 0 -100.5 32.5t-43.5 115.5q0 87 52.5 127.5t137.5 40.5h58q4 0 4 4v29q0 42 -20 67.5t-52 25.5q-25 0 -42 -17t-20 -44q0 -10 -10 -10h-81q-10 0 -10 10
q5 64 51 104t114 40q73 0 119.5 -46zM260 98q26 22 26 62v68q0 4 -4 4h-61q-40 0 -64 -21.5t-24 -62.5q0 -36 18 -54t48 -18q35 0 61 22zM161 576.5q-2 3.5 1 8.5l62 108q5 7 12 7h61q6 0 8 -3.5t-1 -8.5l-74 -109q-4 -6 -12 -6h-49q-6 0 -8 3.5z" />
    <glyph glyph-name="acircumflex" unicode="&#xe2;" horiz-adv-x="423" 
d="M335.5 471q46.5 -46 46.5 -121v-340q0 -10 -10 -10h-76q-10 0 -10 10v22q0 2 -1.5 3t-3.5 -1q-35 -42 -103 -42q-57 0 -100.5 32.5t-43.5 115.5q0 87 52.5 127.5t137.5 40.5h58q4 0 4 4v29q0 42 -20 67.5t-52 25.5q-25 0 -42 -17t-20 -44q0 -10 -10 -10h-81q-10 0 -10 10
q5 64 51 104t114 40q73 0 119.5 -46zM260 98q26 22 26 62v68q0 4 -4 4h-61q-40 0 -64 -21.5t-24 -62.5q0 -36 18 -54t48 -18q35 0 61 22zM88.5 580.5q-1.5 3.5 1.5 8.5l65 104q5 7 12 7h85q7 0 12 -7l68 -104q2 -4 2 -6q0 -6 -8 -6h-61q-7 0 -12 7l-39 68q-1 2 -3 2t-3 -2
l-39 -68q-5 -7 -12 -7h-61q-6 0 -7.5 3.5z" />
    <glyph glyph-name="atilde" unicode="&#xe3;" horiz-adv-x="423" 
d="M335.5 471q46.5 -46 46.5 -121v-340q0 -10 -10 -10h-76q-10 0 -10 10v22q0 2 -1.5 3t-3.5 -1q-35 -42 -103 -42q-57 0 -100.5 32.5t-43.5 115.5q0 87 52.5 127.5t137.5 40.5h58q4 0 4 4v29q0 42 -20 67.5t-52 25.5q-25 0 -42 -17t-20 -44q0 -10 -10 -10h-81q-10 0 -10 10
q5 64 51 104t114 40q73 0 119.5 -46zM260 98q26 22 26 62v68q0 4 -4 4h-61q-40 0 -64 -21.5t-24 -62.5q0 -36 18 -54t48 -18q35 0 61 22zM250.5 605q-11.5 5 -29.5 15q-5 3 -13.5 9t-15 8.5t-14.5 2.5q-13 0 -22.5 -5.5t-19.5 -20.5q-2 -4 -6 -5t-8 2l-28 20q-7 6 -3 13
q13 30 34 45t46 15q16 0 30 -6t30 -17q4 -2 12 -8t16 -9t16 -3q12 0 22 5.5t19 20.5q4 9 14 3l27 -18q4 -3 4 -9q0 -4 -3 -10q-15 -28 -38 -40.5t-45 -12.5q-13 0 -24.5 5z" />
    <glyph glyph-name="adieresis" unicode="&#xe4;" horiz-adv-x="423" 
d="M335.5 471q46.5 -46 46.5 -121v-340q0 -10 -10 -10h-76q-10 0 -10 10v22q0 2 -1.5 3t-3.5 -1q-35 -42 -103 -42q-57 0 -100.5 32.5t-43.5 115.5q0 87 52.5 127.5t137.5 40.5h58q4 0 4 4v29q0 42 -20 67.5t-52 25.5q-25 0 -42 -17t-20 -44q0 -10 -10 -10h-81q-10 0 -10 10
q5 64 51 104t114 40q73 0 119.5 -46zM260 98q26 22 26 62v68q0 4 -4 4h-61q-40 0 -64 -21.5t-24 -62.5q0 -36 18 -54t48 -18q35 0 61 22zM247 607q-18 18 -18 46t18 46t46 18t46 -18t18 -46t-18 -46t-46 -18t-46 18zM85 607q-18 18 -18 46t18 46t46 18t46 -18t18 -46
t-18 -46t-46 -18t-46 18z" />
    <glyph glyph-name="aring" unicode="&#xe5;" horiz-adv-x="423" 
d="M335.5 471q46.5 -46 46.5 -121v-340q0 -10 -10 -10h-76q-10 0 -10 10v22q0 2 -1.5 3t-3.5 -1q-35 -42 -103 -42q-57 0 -100.5 32.5t-43.5 115.5q0 87 52.5 127.5t137.5 40.5h58q4 0 4 4v29q0 42 -20 67.5t-52 25.5q-25 0 -42 -17t-20 -44q0 -10 -10 -10h-81q-10 0 -10 10
q5 64 51 104t114 40q73 0 119.5 -46zM260 98q26 22 26 62v68q0 4 -4 4h-61q-40 0 -64 -21.5t-24 -62.5q0 -36 18 -54t48 -18q35 0 61 22zM131.5 606q-32.5 33 -32.5 81t32.5 80.5t80.5 32.5q47 0 79.5 -32.5t32.5 -80.5t-32.5 -81t-79.5 -33q-48 0 -80.5 33zM253 644.5
q17 17.5 17 42.5t-17 42.5t-41 17.5t-41.5 -17.5t-17.5 -42.5t17.5 -42.5t41.5 -17.5t41 17.5z" />
    <glyph glyph-name="ae" unicode="&#xe6;" horiz-adv-x="664" 
d="M34 138q0 86 47 122.5t132 36.5h67q4 0 4 4v40q0 43 -19 68t-54 25q-28 0 -48.5 -17t-23.5 -43q-1 -10 -11 -10l-76 3q-10 0 -10 10q4 64 51.5 102t115.5 38q77 0 119 -62q3 -3 6 0q20 29 52.5 45.5t74.5 16.5q74 0 119.5 -44t45.5 -115v-132q0 -10 -10 -10h-227
q-4 0 -4 -4v-55q0 -32 20.5 -54t52.5 -22q26 0 45 16.5t26 41.5q3 9 11 8l74 -9q10 -2 9 -11q-8 -63 -49.5 -99t-108.5 -36q-49 0 -85.5 20.5t-47.5 47.5q-2 5 -3 2q-12 -30 -55 -50t-99 -20q-141 0 -141 146zM389 297h137q4 0 4 4v51q0 36 -20 59t-52 23t-52.5 -23
t-20.5 -59v-51q0 -4 4 -4zM258.5 90q25.5 21 25.5 57v64q0 4 -4 4h-61q-40 0 -64 -19.5t-24 -55.5q0 -35 19 -53t49 -18q34 0 59.5 21z" />
    <glyph glyph-name="ccedilla" unicode="&#xe7;" horiz-adv-x="413" 
d="M370 346l-76 -3q-10 0 -10 10v10q0 29 -21 50t-52 21q-32 0 -52 -23t-20 -59v-195q0 -36 20 -59t52 -23q31 0 52 21t21 50v10q0 10 10 10l76 -1q10 0 10 -10v-15q0 -56 -35 -95.5t-95 -49.5q-5 -2 -2 -5q39 -40 39 -92q0 -45 -24 -64t-59 -19q-19 0 -36 5q-9 3 -8 12
l4 31q1 4 4 6.5t8 1.5q4 -1 10 -1q16 0 26.5 10.5t10.5 31.5q0 20 -11.5 41t-31.5 39q-1 2 -5 2q-62 10 -97 51.5t-35 105.5v207q0 71 45.5 115t122.5 44q51 0 89.5 -19.5t59 -53t20.5 -75.5v-13q0 -10 -10 -10z" />
    <glyph glyph-name="egrave" unicode="&#xe8;" horiz-adv-x="418" 
d="M369 215h-226q-4 0 -4 -4v-54q0 -36 20 -59t52 -23q28 0 47 17t24 44q3 8 11 8l74 -4q5 0 7.5 -3t1.5 -7q-7 -65 -49.5 -101.5t-115.5 -36.5q-77 0 -122.5 43t-45.5 115v208q0 71 45.5 115t122.5 44q78 0 123 -44t45 -115v-133q0 -10 -10 -10zM159 411q-20 -23 -20 -59
v-53q0 -4 4 -4h137q4 0 4 4v53q0 36 -20 59t-53 23q-32 0 -52 -23zM241 579q0 -6 -9 -6h-49q-8 0 -12 6l-74 109l-2 5q0 7 9 7h61q7 0 12 -7l62 -108q2 -4 2 -6z" />
    <glyph glyph-name="eacute" unicode="&#xe9;" horiz-adv-x="418" 
d="M369 215h-226q-4 0 -4 -4v-54q0 -36 20 -59t52 -23q28 0 47 17t24 44q3 8 11 8l74 -4q5 0 7.5 -3t1.5 -7q-7 -65 -49.5 -101.5t-115.5 -36.5q-77 0 -122.5 43t-45.5 115v208q0 71 45.5 115t122.5 44q78 0 123 -44t45 -115v-133q0 -10 -10 -10zM159 411q-20 -23 -20 -59
v-53q0 -4 4 -4h137q4 0 4 4v53q0 36 -20 59t-53 23q-32 0 -52 -23zM158 576.5q-2 3.5 1 8.5l62 108q5 7 12 7h61q6 0 8 -3.5t-1 -8.5l-74 -109q-4 -6 -12 -6h-49q-6 0 -8 3.5z" />
    <glyph glyph-name="ecircumflex" unicode="&#xea;" horiz-adv-x="418" 
d="M369 215h-226q-4 0 -4 -4v-54q0 -36 20 -59t52 -23q28 0 47 17t24 44q3 8 11 8l74 -4q5 0 7.5 -3t1.5 -7q-7 -65 -49.5 -101.5t-115.5 -36.5q-77 0 -122.5 43t-45.5 115v208q0 71 45.5 115t122.5 44q78 0 123 -44t45 -115v-133q0 -10 -10 -10zM159 411q-20 -23 -20 -59
v-53q0 -4 4 -4h137q4 0 4 4v53q0 36 -20 59t-53 23q-32 0 -52 -23zM85.5 580.5q-1.5 3.5 1.5 8.5l65 104q5 7 12 7h85q7 0 12 -7l68 -104q2 -4 2 -6q0 -6 -8 -6h-61q-7 0 -12 7l-39 68q-1 2 -3 2t-3 -2l-39 -68q-5 -7 -12 -7h-61q-6 0 -7.5 3.5z" />
    <glyph glyph-name="edieresis" unicode="&#xeb;" horiz-adv-x="418" 
d="M369 215h-226q-4 0 -4 -4v-54q0 -36 20 -59t52 -23q28 0 47 17t24 44q3 8 11 8l74 -4q5 0 7.5 -3t1.5 -7q-7 -65 -49.5 -101.5t-115.5 -36.5q-77 0 -122.5 43t-45.5 115v208q0 71 45.5 115t122.5 44q78 0 123 -44t45 -115v-133q0 -10 -10 -10zM159 411q-20 -23 -20 -59
v-53q0 -4 4 -4h137q4 0 4 4v53q0 36 -20 59t-53 23q-32 0 -52 -23zM244 607q-18 18 -18 46t18 46t46 18t46 -18t18 -46t-18 -46t-46 -18t-46 18zM82 607q-18 18 -18 46t18 46t46 18t46 -18t18 -46t-18 -46t-46 -18t-46 18z" />
    <glyph glyph-name="igrave" unicode="&#xec;" horiz-adv-x="176" 
d="M40 10v489q0 10 10 10h76q10 0 10 -10v-489q0 -10 -10 -10h-76q-10 0 -10 10zM120 579q0 -6 -9 -6h-49q-8 0 -12 6l-74 109l-2 5q0 7 9 7h61q7 0 12 -7l62 -108q2 -4 2 -6z" />
    <glyph glyph-name="iacute" unicode="&#xed;" horiz-adv-x="176" 
d="M40 10v489q0 10 10 10h76q10 0 10 -10v-489q0 -10 -10 -10h-76q-10 0 -10 10zM37 576.5q-2 3.5 1 8.5l62 108q5 7 12 7h61q6 0 8 -3.5t-1 -8.5l-74 -109q-4 -6 -12 -6h-49q-6 0 -8 3.5z" />
    <glyph glyph-name="icircumflex" unicode="&#xee;" horiz-adv-x="176" 
d="M40 10v489q0 10 10 10h76q10 0 10 -10v-489q0 -10 -10 -10h-76q-10 0 -10 10zM-35.5 580.5q-1.5 3.5 1.5 8.5l65 104q5 7 12 7h85q7 0 12 -7l68 -104q2 -4 2 -6q0 -6 -8 -6h-61q-7 0 -12 7l-39 68q-1 2 -3 2t-3 -2l-39 -68q-5 -7 -12 -7h-61q-6 0 -7.5 3.5z" />
    <glyph glyph-name="idieresis" unicode="&#xef;" horiz-adv-x="176" 
d="M40 10v489q0 10 10 10h76q10 0 10 -10v-489q0 -10 -10 -10h-76q-10 0 -10 10zM123 607q-18 18 -18 46t18 46t46 18t46 -18t18 -46t-18 -46t-46 -18t-46 18zM-39 607q-18 18 -18 46t18 46t46 18t46 -18t18 -46t-18 -46t-46 -18t-46 18z" />
    <glyph glyph-name="eth" unicode="&#xf0;" horiz-adv-x="438" 
d="M317 587q61 -109 64 -247v-30v-64v-95q0 -73 -45.5 -116t-123.5 -43t-123.5 43t-45.5 116v189q0 46 20 82.5t55.5 56.5t78.5 20q49 0 75 -29q4 -3 4 2q-10 46 -36 95q-2 4 -5 2l-76 -21l-4 -1q-6 0 -9 8l-6 24l-1 4q0 6 8 9l60 17q5 2 2 5q-19 31 -55 74q-2 2 -2 6
q0 2 2 4t6 2h71q7 0 13 -6q10 -14 16 -21l28 -38q2 -4 5 -2l81 23l4 1q6 0 8 -8l6 -26v-3q0 -7 -7 -10l-66 -18q-3 -2 -2 -5zM265 393q-20 23 -53 23q-32 0 -52.5 -23t-20.5 -59v-177q0 -36 20.5 -59t52.5 -23q33 0 53 23t20 59v177q0 36 -20 59z" />
    <glyph glyph-name="ntilde" unicode="&#xf1;" 
d="M167.5 634.5q-9.5 -5.5 -17.5 -19.5q-5 -10 -14 -3l-23 19q-7 5 -4 13q12 30 31 45t42 15q14 0 26.5 -6t27.5 -17q2 -2 10 -8t15 -9t14 -3q11 0 20 5.5t17 19.5q7 10 14 4l24 -18q7 -5 4 -13q-14 -31 -35.5 -45t-42.5 -14q-12 0 -22.5 5t-26.5 15q-3 3 -11 9t-14.5 8.5
t-13.5 2.5q-11 0 -20.5 -5.5zM351.5 473.5q33.5 -42.5 33.5 -120.5v-343q0 -10 -10 -10h-76q-10 0 -10 10v335q0 42 -18 65t-50 23q-33 0 -51.5 -22.5t-20.5 -63.5q0 -6 -1 -6v-331q0 -10 -10 -10h-76q-10 0 -10 10v489q0 10 10 10h76q10 0 10 -10v-27q0 -2 2 -2.5t4 2.5
q36 44 101 44q63 0 96.5 -42.5z" />
    <glyph glyph-name="ograve" unicode="&#xf2;" horiz-adv-x="424" 
d="M88.5 35.5q-45.5 43.5 -45.5 115.5v207q0 71 46 115t123 44q78 0 124 -44t46 -115v-207q0 -72 -46 -115.5t-124 -43.5t-123.5 43.5zM265 98.5q21 22.5 21 59.5v194q0 36 -21 59t-53 23t-52.5 -23t-20.5 -59v-194q0 -37 20.5 -59.5t52.5 -22.5t53 22.5zM244 579
q0 -6 -9 -6h-49q-8 0 -12 6l-74 109l-2 5q0 7 9 7h61q7 0 12 -7l62 -108q2 -4 2 -6z" />
    <glyph glyph-name="oacute" unicode="&#xf3;" horiz-adv-x="424" 
d="M88.5 35.5q-45.5 43.5 -45.5 115.5v207q0 71 46 115t123 44q78 0 124 -44t46 -115v-207q0 -72 -46 -115.5t-124 -43.5t-123.5 43.5zM265 98.5q21 22.5 21 59.5v194q0 36 -21 59t-53 23t-52.5 -23t-20.5 -59v-194q0 -37 20.5 -59.5t52.5 -22.5t53 22.5zM161 576.5
q-2 3.5 1 8.5l62 108q5 7 12 7h61q6 0 8 -3.5t-1 -8.5l-74 -109q-4 -6 -12 -6h-49q-6 0 -8 3.5z" />
    <glyph glyph-name="ocircumflex" unicode="&#xf4;" horiz-adv-x="424" 
d="M88.5 35.5q-45.5 43.5 -45.5 115.5v207q0 71 46 115t123 44q78 0 124 -44t46 -115v-207q0 -72 -46 -115.5t-124 -43.5t-123.5 43.5zM265 98.5q21 22.5 21 59.5v194q0 36 -21 59t-53 23t-52.5 -23t-20.5 -59v-194q0 -37 20.5 -59.5t52.5 -22.5t53 22.5zM88.5 580.5
q-1.5 3.5 1.5 8.5l65 104q5 7 12 7h85q7 0 12 -7l68 -104q2 -4 2 -6q0 -6 -8 -6h-61q-7 0 -12 7l-39 68q-1 2 -3 2t-3 -2l-39 -68q-5 -7 -12 -7h-61q-6 0 -7.5 3.5z" />
    <glyph glyph-name="otilde" unicode="&#xf5;" horiz-adv-x="424" 
d="M88.5 35.5q-45.5 43.5 -45.5 115.5v207q0 71 46 115t123 44q78 0 124 -44t46 -115v-207q0 -72 -46 -115.5t-124 -43.5t-123.5 43.5zM265 98.5q21 22.5 21 59.5v194q0 36 -21 59t-53 23t-52.5 -23t-20.5 -59v-194q0 -37 20.5 -59.5t52.5 -22.5t53 22.5zM250.5 605
q-11.5 5 -29.5 15q-5 3 -13.5 9t-15 8.5t-14.5 2.5q-13 0 -22.5 -5.5t-19.5 -20.5q-2 -4 -6 -5t-8 2l-28 20q-7 6 -3 13q13 30 34 45t46 15q16 0 30 -6t30 -17q4 -2 12 -8t16 -9t16 -3q12 0 22 5.5t19 20.5q4 9 14 3l27 -18q4 -3 4 -9q0 -4 -3 -10q-15 -28 -38 -40.5
t-45 -12.5q-13 0 -24.5 5z" />
    <glyph glyph-name="odieresis" unicode="&#xf6;" horiz-adv-x="424" 
d="M88.5 35.5q-45.5 43.5 -45.5 115.5v207q0 71 46 115t123 44q78 0 124 -44t46 -115v-207q0 -72 -46 -115.5t-124 -43.5t-123.5 43.5zM265 98.5q21 22.5 21 59.5v194q0 36 -21 59t-53 23t-52.5 -23t-20.5 -59v-194q0 -37 20.5 -59.5t52.5 -22.5t53 22.5zM247 607
q-18 18 -18 46t18 46t46 18t46 -18t18 -46t-18 -46t-46 -18t-46 18zM85 607q-18 18 -18 46t18 46t46 18t46 -18t18 -46t-18 -46t-46 -18t-46 18z" />
    <glyph glyph-name="divide" unicode="&#xf7;" horiz-adv-x="440" 
d="M179 438q-17 17 -17 41t17 41t41 17t41.5 -17t17.5 -41t-17.5 -41t-41.5 -17t-41 17zM29 294v53q0 10 10 10h362q10 0 10 -10v-53q0 -10 -10 -10h-362q-10 0 -10 10zM179 124q-17 17 -17 41q0 23 17 40.5t41 17.5q23 0 41 -17.5t18 -40.5q0 -24 -17.5 -41t-41.5 -17
t-41 17z" />
    <glyph glyph-name="oslash" unicode="&#xf8;" horiz-adv-x="448" 
d="M388 522q1 -4 -1 -8l-29 -59q-1 -2 1 -6q25 -39 25 -91v-207q0 -73 -45.5 -116t-123.5 -43q-38 0 -69 11q-5 2 -6 -2l-21 -46q-5 -10 -14 -4l-50 30q-4 2 -5 6t1 8l26 52q1 2 -1 6q-31 37 -31 98v207q0 71 46 115t124 44q45 0 75 -13q5 -2 6 2l23 49q2 4 6 5t8 -1l50 -31
q4 -2 5 -6zM142.5 190q1.5 0 3.5 2l108 227q1 4 -1 5q-16 10 -38 10q-33 0 -53.5 -23t-20.5 -59v-159q0 -3 1.5 -3zM286.5 300q-1.5 0 -3.5 -2l-101 -210q-2 -5 2 -6q14 -6 31 -6q32 0 52.5 22.5t20.5 59.5v139q0 3 -1.5 3z" />
    <glyph glyph-name="ugrave" unicode="&#xf9;" 
d="M293 509h76q10 0 10 -10v-489q0 -10 -10 -10h-76q-10 0 -10 10v29q0 3 -1.5 3t-3.5 -2q-30 -47 -96 -47q-60 0 -97 36.5t-37 111.5v358q0 10 10 10h76q10 0 10 -10v-337q0 -86 68 -86q34 0 52.5 24.5t18.5 67.5v331q0 10 10 10zM245 579q0 -6 -9 -6h-49q-8 0 -12 6
l-74 109l-2 5q0 7 9 7h61q7 0 12 -7l62 -108q2 -4 2 -6z" />
    <glyph glyph-name="uacute" unicode="&#xfa;" 
d="M293 509h76q10 0 10 -10v-489q0 -10 -10 -10h-76q-10 0 -10 10v29q0 3 -1.5 3t-3.5 -2q-30 -47 -96 -47q-60 0 -97 36.5t-37 111.5v358q0 10 10 10h76q10 0 10 -10v-337q0 -86 68 -86q34 0 52.5 24.5t18.5 67.5v331q0 10 10 10zM162 576.5q-2 3.5 1 8.5l62 108q5 7 12 7
h61q6 0 8 -3.5t-1 -8.5l-74 -109q-4 -6 -12 -6h-49q-6 0 -8 3.5z" />
    <glyph glyph-name="ucircumflex" unicode="&#xfb;" 
d="M293 509h76q10 0 10 -10v-489q0 -10 -10 -10h-76q-10 0 -10 10v29q0 3 -1.5 3t-3.5 -2q-30 -47 -96 -47q-60 0 -97 36.5t-37 111.5v358q0 10 10 10h76q10 0 10 -10v-337q0 -86 68 -86q34 0 52.5 24.5t18.5 67.5v331q0 10 10 10zM89.5 580.5q-1.5 3.5 1.5 8.5l65 104
q5 7 12 7h85q7 0 12 -7l68 -104q2 -4 2 -6q0 -6 -8 -6h-61q-7 0 -12 7l-39 68q-1 2 -3 2t-3 -2l-39 -68q-5 -7 -12 -7h-61q-6 0 -7.5 3.5z" />
    <glyph glyph-name="udieresis" unicode="&#xfc;" 
d="M293 509h76q10 0 10 -10v-489q0 -10 -10 -10h-76q-10 0 -10 10v29q0 3 -1.5 3t-3.5 -2q-30 -47 -96 -47q-60 0 -97 36.5t-37 111.5v358q0 10 10 10h76q10 0 10 -10v-337q0 -86 68 -86q34 0 52.5 24.5t18.5 67.5v331q0 10 10 10zM248 607q-18 18 -18 46t18 46t46 18
t46 -18t18 -46t-18 -46t-46 -18t-46 18zM86 607q-18 18 -18 46t18 46t46 18t46 -18t18 -46t-18 -46t-46 -18t-46 18z" />
    <glyph glyph-name="yacute" unicode="&#xfd;" horiz-adv-x="387" 
d="M38 -196q-2 3 -2 7v59q0 10 10 10q32 1 50.5 10t30 34t19.5 73l-1 5l-128 496l-1 3q0 8 10 8h82q10 0 11 -9l73 -361q1 -3 2 -3t2 3l72 361q2 9 11 9l83 -1q5 0 7.5 -3t0.5 -8l-137 -532q-19 -69 -38 -102.5t-52.5 -47.5t-95.5 -14h-5q-2 0 -4 3zM143 576.5q-2 3.5 1 8.5
l62 108q5 7 12 7h61q6 0 8 -3.5t-1 -8.5l-74 -109q-4 -6 -12 -6h-49q-6 0 -8 3.5z" />
    <glyph glyph-name="thorn" unicode="&#xfe;" horiz-adv-x="426" 
d="M348 474.5q35 -42.5 35 -116.5v-207q0 -73 -35 -116t-100 -43q-30 0 -56.5 13.5t-42.5 41.5q-2 2 -3.5 1.5t-1.5 -3.5v-235q0 -10 -10 -10h-76q-10 0 -10 10v880q0 10 10 10h76q10 0 10 -10v-226q0 -3 2 -3t4 3q16 28 42 40.5t56 12.5q65 0 100 -42.5zM267 411
q-20 23 -52 23q-31 0 -51 -23t-20 -59v-195q0 -36 20 -59t51 -23q32 0 52 23t20 59v195q0 36 -20 59z" />
    <glyph glyph-name="ydieresis" unicode="&#xff;" horiz-adv-x="387" 
d="M38 -196q-2 3 -2 7v59q0 10 10 10q32 1 50.5 10t30 34t19.5 73l-1 5l-128 496l-1 3q0 8 10 8h82q10 0 11 -9l73 -361q1 -3 2 -3t2 3l72 361q2 9 11 9l83 -1q5 0 7.5 -3t0.5 -8l-137 -532q-19 -69 -38 -102.5t-52.5 -47.5t-95.5 -14h-5q-2 0 -4 3zM228 607q-18 18 -18 46
t18 46t46 18t46 -18t18 -46t-18 -46t-46 -18t-46 18zM66 607q-18 18 -18 46t18 46t46 18t46 -18t18 -46t-18 -46t-46 -18t-46 18z" />
    <glyph glyph-name="Amacron" unicode="&#x100;" horiz-adv-x="436" 
d="M325 9l-22 115q0 2 -1.5 3t-3.5 1h-163q-2 0 -3.5 -1t-1.5 -3l-21 -115q-1 -9 -11 -9h-76q-5 0 -7.5 3t-1.5 8l149 680q2 9 11 9h89q10 0 11 -9l150 -680v-2q0 -9 -9 -9h-78q-9 0 -11 9zM150 204h133q3 0 3 4l-68 355q-1 2 -2 2t-2 -2l-67 -355q0 -4 3 -4zM112 791v48
q0 10 10 10h188q10 0 10 -10v-48q0 -10 -10 -10h-188q-10 0 -10 10z" />
    <glyph glyph-name="amacron" unicode="&#x101;" horiz-adv-x="423" 
d="M335.5 471q46.5 -46 46.5 -121v-340q0 -10 -10 -10h-76q-10 0 -10 10v22q0 2 -1.5 3t-3.5 -1q-35 -42 -103 -42q-57 0 -100.5 32.5t-43.5 115.5q0 87 52.5 127.5t137.5 40.5h58q4 0 4 4v29q0 42 -20 67.5t-52 25.5q-25 0 -42 -17t-20 -44q0 -10 -10 -10h-81q-10 0 -10 10
q5 64 51 104t114 40q73 0 119.5 -46zM260 98q26 22 26 62v68q0 4 -4 4h-61q-40 0 -64 -21.5t-24 -62.5q0 -36 18 -54t48 -18q35 0 61 22zM106 600v48q0 10 10 10h188q10 0 10 -10v-48q0 -10 -10 -10h-188q-10 0 -10 10z" />
    <glyph glyph-name="Abreve" unicode="&#x102;" horiz-adv-x="436" 
d="M325 9l-22 115q0 2 -1.5 3t-3.5 1h-163q-2 0 -3.5 -1t-1.5 -3l-21 -115q-1 -9 -11 -9h-76q-5 0 -7.5 3t-1.5 8l149 680q2 9 11 9h89q10 0 11 -9l150 -680v-2q0 -9 -9 -9h-78q-9 0 -11 9zM150 204h133q3 0 3 4l-68 355q-1 2 -2 2t-2 -2l-67 -355q0 -4 3 -4zM141.5 774
q-30.5 28 -34.5 72q0 10 10 10h34q10 0 11 -10q3 -24 18.5 -39t37.5 -15t37.5 15t17.5 39q1 10 11 10h34q10 0 10 -10q-4 -44 -34 -72t-76 -28t-76.5 28z" />
    <glyph glyph-name="abreve" unicode="&#x103;" horiz-adv-x="423" 
d="M335.5 471q46.5 -46 46.5 -121v-340q0 -10 -10 -10h-76q-10 0 -10 10v22q0 2 -1.5 3t-3.5 -1q-35 -42 -103 -42q-57 0 -100.5 32.5t-43.5 115.5q0 87 52.5 127.5t137.5 40.5h58q4 0 4 4v29q0 42 -20 67.5t-52 25.5q-25 0 -42 -17t-20 -44q0 -10 -10 -10h-81q-10 0 -10 10
q5 64 51 104t114 40q73 0 119.5 -46zM260 98q26 22 26 62v68q0 4 -4 4h-61q-40 0 -64 -21.5t-24 -62.5q0 -36 18 -54t48 -18q35 0 61 22zM135.5 583q-30.5 28 -34.5 72q0 10 10 10h34q10 0 11 -10q3 -24 18.5 -39t37.5 -15t37.5 15t17.5 39q1 10 11 10h34q10 0 10 -10
q-4 -44 -34 -72t-76 -28t-76.5 28z" />
    <glyph glyph-name="Aogonek" unicode="&#x104;" horiz-adv-x="436" 
d="M325 9l-22 115q0 2 -1.5 3t-3.5 1h-163q-2 0 -3.5 -1t-1.5 -3l-21 -115q-1 -9 -11 -9h-76q-5 0 -7.5 3t-1.5 8l149 680q2 9 11 9h89q10 0 11 -9l150 -680v-2q0 -9 -9 -9h-78q-9 0 -11 9zM150 204h133q3 0 3 4l-68 355q-1 2 -2 2t-2 -2l-67 -355q0 -4 3 -4zM434 -173
q0 -7 -8 -10q-20 -4 -36 -4q-35 0 -59 18.5t-24 64.5q0 55 45 97l4 4q3 3 10 3h41q7 0 8.5 -3.5t-3.5 -8.5q-41 -41 -41 -78q0 -22 10 -32.5t26 -10.5q7 0 10 1h3q8 0 9 -7l5 -32v-2z" />
    <glyph glyph-name="aogonek" unicode="&#x105;" horiz-adv-x="423" 
d="M375 -132q8 0 9 -7l5 -32v-2q0 -7 -8 -9q-17 -5 -37 -5q-34 0 -58 19t-24 65q0 55 47 98q3 5 -2 5h-11q-10 0 -10 10v22q0 2 -1.5 3t-3.5 -1q-35 -42 -103 -42q-57 0 -100.5 32.5t-43.5 115.5q0 87 52.5 127.5t137.5 40.5h58q4 0 4 4v29q0 42 -20 67.5t-52 25.5
q-25 0 -42 -17t-20 -44q0 -10 -10 -10h-81q-5 0 -7.5 3t-1.5 7q4 64 50 104t114 40q73 0 119.5 -46t46.5 -121v-340l-1 -10h-1q-54 -47 -54 -90q0 -22 10 -32.5t26 -10.5q7 0 10 1h3zM260 98q26 22 26 62v68q0 4 -4 4h-61q-40 0 -64 -21.5t-24 -62.5q0 -36 18 -54t48 -18
q35 0 61 22z" />
    <glyph glyph-name="Cacute" unicode="&#x106;" horiz-adv-x="452" 
d="M97.5 41.5q-49.5 49.5 -49.5 131.5v355q0 82 49.5 131t130.5 49q82 0 131.5 -49t49.5 -131v-16q0 -10 -10 -10l-76 -4q-10 0 -10 10v26q0 41 -23.5 66t-61.5 25t-61 -25t-23 -66v-368q0 -41 23 -66t61 -25t61.5 25t23.5 66v26q0 10 10 10l76 -4q10 0 10 -10v-15
q0 -82 -49.5 -131.5t-131.5 -49.5q-81 0 -130.5 49.5zM177 767.5q-2 3.5 1 8.5l62 108q5 7 12 7h61q6 0 8 -3.5t-1 -8.5l-74 -109q-4 -6 -12 -6h-49q-6 0 -8 3.5z" />
    <glyph glyph-name="cacute" unicode="&#x107;" horiz-adv-x="413" 
d="M88.5 35q-45.5 43 -45.5 116v207q0 71 45.5 115t122.5 44q51 0 89.5 -19.5t59 -53t20.5 -75.5v-13q0 -10 -10 -10l-76 -3q-10 0 -10 10v10q0 29 -21 50t-52 21q-32 0 -52 -23t-20 -59v-195q0 -36 20 -59t52 -23q31 0 52 21t21 50v10q0 10 10 10l76 -1q10 0 10 -10v-15
q0 -65 -46 -106.5t-123 -41.5t-122.5 43zM160 576.5q-2 3.5 1 8.5l62 108q5 7 12 7h61q6 0 8 -3.5t-1 -8.5l-74 -109q-4 -6 -12 -6h-49q-6 0 -8 3.5z" />
    <glyph glyph-name="Ccircumflex" unicode="&#x108;" horiz-adv-x="452" 
d="M97.5 41.5q-49.5 49.5 -49.5 131.5v355q0 82 49.5 131t130.5 49q82 0 131.5 -49t49.5 -131v-16q0 -10 -10 -10l-76 -4q-10 0 -10 10v26q0 41 -23.5 66t-61.5 25t-61 -25t-23 -66v-368q0 -41 23 -66t61 -25t61.5 25t23.5 66v26q0 10 10 10l76 -4q10 0 10 -10v-15
q0 -82 -49.5 -131.5t-131.5 -49.5q-81 0 -130.5 49.5zM104.5 771.5q-1.5 3.5 1.5 8.5l65 104q5 7 12 7h85q7 0 12 -7l68 -104q2 -4 2 -6q0 -6 -8 -6h-61q-7 0 -12 7l-39 68q-1 2 -3 2t-3 -2l-39 -68q-5 -7 -12 -7h-61q-6 0 -7.5 3.5z" />
    <glyph glyph-name="ccircumflex" unicode="&#x109;" horiz-adv-x="413" 
d="M88.5 35q-45.5 43 -45.5 116v207q0 71 45.5 115t122.5 44q51 0 89.5 -19.5t59 -53t20.5 -75.5v-13q0 -10 -10 -10l-76 -3q-10 0 -10 10v10q0 29 -21 50t-52 21q-32 0 -52 -23t-20 -59v-195q0 -36 20 -59t52 -23q31 0 52 21t21 50v10q0 10 10 10l76 -1q10 0 10 -10v-15
q0 -65 -46 -106.5t-123 -41.5t-122.5 43zM87.5 580.5q-1.5 3.5 1.5 8.5l65 104q5 7 12 7h85q7 0 12 -7l68 -104q2 -4 2 -6q0 -6 -8 -6h-61q-7 0 -12 7l-39 68q-1 2 -3 2t-3 -2l-39 -68q-5 -7 -12 -7h-61q-6 0 -7.5 3.5z" />
    <glyph glyph-name="Cdotaccent" unicode="&#x10a;" horiz-adv-x="452" 
d="M97.5 41.5q-49.5 49.5 -49.5 131.5v355q0 82 49.5 131t130.5 49q82 0 131.5 -49t49.5 -131v-16q0 -10 -10 -10l-76 -4q-10 0 -10 10v26q0 41 -23.5 66t-61.5 25t-61 -25t-23 -66v-368q0 -41 23 -66t61 -25t61.5 25t23.5 66v26q0 10 10 10l76 -4q10 0 10 -10v-15
q0 -82 -49.5 -131.5t-131.5 -49.5q-81 0 -130.5 49.5zM182 798q-18 18 -18 46t18 46t46 18t46 -18t18 -46t-18 -46t-46 -18t-46 18z" />
    <glyph glyph-name="cdotaccent" unicode="&#x10b;" horiz-adv-x="413" 
d="M88.5 35q-45.5 43 -45.5 116v207q0 71 45.5 115t122.5 44q51 0 89.5 -19.5t59 -53t20.5 -75.5v-13q0 -10 -10 -10l-76 -3q-10 0 -10 10v10q0 29 -21 50t-52 21q-32 0 -52 -23t-20 -59v-195q0 -36 20 -59t52 -23q31 0 52 21t21 50v10q0 10 10 10l76 -1q10 0 10 -10v-15
q0 -65 -46 -106.5t-123 -41.5t-122.5 43zM165 607q-18 18 -18 46t18 46t46 18t46 -18t18 -46t-18 -46t-46 -18t-46 18z" />
    <glyph glyph-name="Ccaron" unicode="&#x10c;" horiz-adv-x="452" 
d="M97.5 41.5q-49.5 49.5 -49.5 131.5v355q0 82 49.5 131t130.5 49q82 0 131.5 -49t49.5 -131v-16q0 -10 -10 -10l-76 -4q-10 0 -10 10v26q0 41 -23.5 66t-61.5 25t-61 -25t-23 -66v-368q0 -41 23 -66t61 -25t61.5 25t23.5 66v26q0 10 10 10l76 -4q10 0 10 -10v-15
q0 -82 -49.5 -131.5t-131.5 -49.5q-81 0 -130.5 49.5zM108 885q0 6 8 6h61q7 0 12 -7l39 -68q1 -1 3 -1t3 1l39 68q5 7 12 7h61q6 0 7.5 -3.5t-1.5 -8.5l-68 -104q-5 -7 -12 -7h-85q-7 0 -12 7l-65 104q-2 4 -2 6z" />
    <glyph glyph-name="ccaron" unicode="&#x10d;" horiz-adv-x="413" 
d="M88.5 35q-45.5 43 -45.5 116v207q0 71 45.5 115t122.5 44q51 0 89.5 -19.5t59 -53t20.5 -75.5v-13q0 -10 -10 -10l-76 -3q-10 0 -10 10v10q0 29 -21 50t-52 21q-32 0 -52 -23t-20 -59v-195q0 -36 20 -59t52 -23q31 0 52 21t21 50v10q0 10 10 10l76 -1q10 0 10 -10v-15
q0 -65 -46 -106.5t-123 -41.5t-122.5 43zM91 694q0 6 8 6h61q7 0 12 -7l39 -68q1 -1 3 -1t3 1l39 68q5 7 12 7h61q6 0 7.5 -3.5t-1.5 -8.5l-68 -104q-5 -7 -12 -7h-85q-7 0 -12 7l-65 104q-2 4 -2 6z" />
    <glyph glyph-name="Dcaron" unicode="&#x10e;" horiz-adv-x="469" 
d="M62 10v680q0 10 10 10h164q83 0 132 -51t49 -138v-322q0 -87 -49 -138t-132 -51h-164q-10 0 -10 10zM162 83l73 1q38 0 61 29.5t24 80.5v312q0 51 -23 81t-62 30h-73q-4 0 -4 -4v-526q0 -4 4 -4zM109 883q0 6 8 6h61q7 0 12 -7l39 -68q1 -1 3 -1t3 1l39 68q5 7 12 7h61
q6 0 7.5 -3.5t-1.5 -8.5l-68 -104q-5 -7 -12 -7h-85q-7 0 -12 7l-65 104q-2 4 -2 6z" />
    <glyph glyph-name="dcaron" unicode="&#x10f;" horiz-adv-x="431" 
d="M292 700h76q10 0 10 -10v-680q0 -10 -10 -10h-76q-10 0 -10 10v16q0 2 -1.5 3t-3.5 -1q-19 -18 -43 -27t-48 -9q-66 0 -104.5 43.5t-38.5 114.5v208q0 74 38.5 116.5t104.5 42.5q24 0 48 -9t43 -27q2 -2 3.5 -1t1.5 3v207q0 10 10 10zM258.5 93.5q19.5 18.5 23.5 48.5
v225q-4 30 -23.5 48.5t-47.5 18.5q-32 0 -52.5 -23t-20.5 -59v-195q0 -36 20.5 -59t52.5 -23q28 0 47.5 18.5zM432 576.5q-2 3.5 1 8.5l62 108q5 7 12 7h61q6 0 8 -3.5t-1 -8.5l-74 -109q-4 -6 -12 -6h-49q-6 0 -8 3.5z" />
    <glyph glyph-name="Dcroat" unicode="&#x110;" horiz-adv-x="508" 
d="M406.5 649q48.5 -51 48.5 -138v-322q0 -87 -48.5 -138t-131.5 -51h-164q-10 0 -10 10v323q0 4 -4 4h-25q-10 0 -10 10v38q0 10 10 10h25q4 0 4 4v291q0 10 10 10h164q83 0 131.5 -51zM359 506q0 51 -23 81t-63 30h-72q-4 0 -4 -4v-214q0 -4 4 -4h63q10 0 10 -10v-38
q0 -10 -10 -10h-63q-4 0 -4 -4v-246q0 -4 4 -4l73 1q38 0 61 29.5t24 80.5v312z" />
    <glyph glyph-name="dcroat" unicode="&#x111;" horiz-adv-x="431" 
d="M423 614v-41q0 -10 -10 -10h-31q-4 0 -4 -4v-549q0 -10 -10 -10h-76q-10 0 -10 10v16q0 2 -1.5 3t-3.5 -1q-19 -18 -43 -27t-48 -9q-66 0 -104.5 43.5t-38.5 114.5v208q0 74 38.5 116.5t104.5 42.5q24 0 48 -9t43 -27q2 -2 3.5 -1t1.5 3v76q0 4 -4 4h-118q-10 0 -10 10
v41q0 10 10 10h118q4 0 4 4v62q0 10 10 10h76q10 0 10 -10v-62q0 -4 4 -4h31q10 0 10 -10zM258.5 93.5q19.5 18.5 23.5 48.5v225q-4 30 -23.5 48.5t-47.5 18.5q-32 0 -52.5 -23t-20.5 -59v-195q0 -36 20.5 -59t52.5 -23q28 0 47.5 18.5z" />
    <glyph glyph-name="Emacron" unicode="&#x112;" 
d="M387 617h-225q-4 0 -4 -4v-217q0 -4 4 -4h138q10 0 10 -10v-63q0 -10 -10 -10h-138q-4 0 -4 -4v-218q0 -4 4 -4h225q10 0 10 -10v-63q0 -10 -10 -10h-315q-10 0 -10 10v680q0 10 10 10h315q10 0 10 -10v-63q0 -10 -10 -10zM124 791v48q0 10 10 10h188q10 0 10 -10v-48
q0 -10 -10 -10h-188q-10 0 -10 10z" />
    <glyph glyph-name="emacron" unicode="&#x113;" horiz-adv-x="418" 
d="M369 215h-226q-4 0 -4 -4v-54q0 -36 20 -59t52 -23q28 0 47 17t24 44q3 8 11 8l74 -4q5 0 7.5 -3t1.5 -7q-7 -65 -49.5 -101.5t-115.5 -36.5q-77 0 -122.5 43t-45.5 115v208q0 71 45.5 115t122.5 44q78 0 123 -44t45 -115v-133q0 -10 -10 -10zM159 411q-20 -23 -20 -59
v-53q0 -4 4 -4h137q4 0 4 4v53q0 36 -20 59t-53 23q-32 0 -52 -23zM102 621v47q0 10 10 10h189q10 0 10 -10v-47q0 -10 -10 -10h-189q-10 0 -10 10z" />
    <glyph glyph-name="Edotaccent" unicode="&#x116;" 
d="M387 617h-225q-4 0 -4 -4v-217q0 -4 4 -4h138q10 0 10 -10v-63q0 -10 -10 -10h-138q-4 0 -4 -4v-218q0 -4 4 -4h225q10 0 10 -10v-63q0 -10 -10 -10h-315q-10 0 -10 10v680q0 10 10 10h315q10 0 10 -10v-63q0 -10 -10 -10zM184 798q-18 18 -18 46t18 46t46 18t46 -18
t18 -46t-18 -46t-46 -18t-46 18z" />
    <glyph glyph-name="edotaccent" unicode="&#x117;" horiz-adv-x="418" 
d="M369 215h-226q-4 0 -4 -4v-54q0 -36 20 -59t52 -23q28 0 47 17t24 44q3 8 11 8l74 -4q5 0 7.5 -3t1.5 -7q-7 -65 -49.5 -101.5t-115.5 -36.5q-77 0 -122.5 43t-45.5 115v208q0 71 45.5 115t122.5 44q78 0 123 -44t45 -115v-133q0 -10 -10 -10zM159 411q-20 -23 -20 -59
v-53q0 -4 4 -4h137q4 0 4 4v53q0 36 -20 59t-53 23q-32 0 -52 -23zM163 607q-18 18 -18 46t18 46t46 18t46 -18t18 -46t-18 -46t-46 -18t-46 18z" />
    <glyph glyph-name="Eogonek" unicode="&#x118;" 
d="M387 617h-225q-4 0 -4 -4v-217q0 -4 4 -4h138q10 0 10 -10v-63q0 -10 -10 -10h-138q-4 0 -4 -4v-218q0 -4 4 -4h225q10 0 10 -10v-63q0 -10 -10 -10h-125q-3 0 -5 -2q-44 -44 -44 -80q0 -8 1 -11q2 -16 11.5 -24t23.5 -8q6 0 10 1h2q8 0 10 -8l5 -32v-2q0 -7 -8 -9
q-18 -5 -37 -5q-35 0 -59 19t-24 65q0 50 40 91q2 2 1 3.5t-3 1.5h-114q-10 0 -10 10v680q0 10 10 10h315q10 0 10 -10v-63q0 -10 -10 -10z" />
    <glyph glyph-name="eogonek" unicode="&#x119;" horiz-adv-x="418" 
d="M369 215h-226q-4 0 -4 -4v-54q0 -36 20 -59t52 -23q28 0 47 17t24 44q3 8 11 8l74 -4q5 0 7.5 -3t1.5 -7q-6 -58 -41.5 -94t-95.5 -43q-3 0 -5 -2q-37 -40 -37 -74q0 -22 10.5 -32t26.5 -10q7 0 10 1h2q7 0 9 -8l5 -32v-2q0 -7 -8 -9q-17 -5 -37 -5q-34 0 -58 19t-24 65
q0 48 35 87q4 3 -1 5q-58 12 -91 52.5t-33 101.5v208q0 71 45.5 115t122.5 44q78 0 123 -44t45 -115v-133q0 -10 -10 -10zM159 411q-20 -23 -20 -59v-53q0 -4 4 -4h137q4 0 4 4v53q0 36 -20 59t-53 23q-32 0 -52 -23z" />
    <glyph glyph-name="Ecaron" unicode="&#x11a;" 
d="M387 617h-225q-4 0 -4 -4v-217q0 -4 4 -4h138q10 0 10 -10v-63q0 -10 -10 -10h-138q-4 0 -4 -4v-218q0 -4 4 -4h225q10 0 10 -10v-63q0 -10 -10 -10h-315q-10 0 -10 10v680q0 10 10 10h315q10 0 10 -10v-63q0 -10 -10 -10zM110 885q0 6 8 6h61q7 0 12 -7l39 -68
q1 -1 3 -1t3 1l39 68q5 7 12 7h61q6 0 7.5 -3.5t-1.5 -8.5l-68 -104q-5 -7 -12 -7h-85q-7 0 -12 7l-65 104q-2 4 -2 6z" />
    <glyph glyph-name="ecaron" unicode="&#x11b;" horiz-adv-x="418" 
d="M369 215h-226q-4 0 -4 -4v-54q0 -36 20 -59t52 -23q28 0 47 17t24 44q3 8 11 8l74 -4q5 0 7.5 -3t1.5 -7q-7 -65 -49.5 -101.5t-115.5 -36.5q-77 0 -122.5 43t-45.5 115v208q0 71 45.5 115t122.5 44q78 0 123 -44t45 -115v-133q0 -10 -10 -10zM159 411q-20 -23 -20 -59
v-53q0 -4 4 -4h137q4 0 4 4v53q0 36 -20 59t-53 23q-32 0 -52 -23zM88 692q0 6 8 6h61q7 0 12 -7l39 -68q1 -1 3 -1t3 1l39 68q5 7 12 7h61q6 0 7.5 -3.5t-1.5 -8.5l-68 -104q-5 -7 -12 -7h-85q-7 0 -12 7l-65 104q-2 4 -2 6z" />
    <glyph glyph-name="Gcircumflex" unicode="&#x11c;" horiz-adv-x="456" 
d="M97.5 40q-49.5 48 -49.5 127v366q0 79 49.5 127t130.5 48t131 -48t50 -128v-42q0 -10 -10 -10h-76q-10 0 -10 10v44q0 41 -23.5 66t-61.5 25t-61.5 -25t-23.5 -66v-368q0 -41 23.5 -66t61.5 -25t61.5 25t23.5 66v110q0 4 -4 4h-76q-10 0 -10 10v62q0 10 10 10h166
q10 0 10 -10v-185q0 -79 -50 -127t-131 -48t-130.5 48zM104.5 771.5q-1.5 3.5 1.5 8.5l65 104q5 7 12 7h85q7 0 12 -7l68 -104q2 -4 2 -6q0 -6 -8 -6h-61q-7 0 -12 7l-39 68q-1 2 -3 2t-3 -2l-39 -68q-5 -7 -12 -7h-61q-6 0 -7.5 3.5z" />
    <glyph glyph-name="gcircumflex" unicode="&#x11d;" horiz-adv-x="423" 
d="M292 509h76q10 0 10 -10v-484q0 -105 -48 -162.5t-165 -57.5l-27 1q-10 1 -10 11v64q0 10 11 10q82 -3 112.5 32.5t30.5 110.5v21q0 2 -1.5 2.5t-3.5 -1.5q-34 -46 -97 -46q-66 0 -101.5 42.5t-35.5 115.5v200q0 74 36 116.5t101 42.5t97 -46q2 -2 3.5 -1t1.5 3v26
q0 10 10 10zM262.5 105.5q19.5 22.5 19.5 58.5v188q0 36 -19.5 59t-51.5 23t-52 -23t-20 -59v-188q0 -36 20 -58.5t52 -22.5t51.5 22.5zM89.5 580.5q-1.5 3.5 1.5 8.5l65 104q5 7 12 7h85q7 0 12 -7l68 -104q2 -4 2 -6q0 -6 -8 -6h-61q-7 0 -12 7l-39 68q-1 2 -3 2t-3 -2
l-39 -68q-5 -7 -12 -7h-61q-6 0 -7.5 3.5z" />
    <glyph glyph-name="Gbreve" unicode="&#x11e;" horiz-adv-x="456" 
d="M97.5 40q-49.5 48 -49.5 127v366q0 79 49.5 127t130.5 48t131 -48t50 -128v-42q0 -10 -10 -10h-76q-10 0 -10 10v44q0 41 -23.5 66t-61.5 25t-61.5 -25t-23.5 -66v-368q0 -41 23.5 -66t61.5 -25t61.5 25t23.5 66v110q0 4 -4 4h-76q-10 0 -10 10v62q0 10 10 10h166
q10 0 10 -10v-185q0 -79 -50 -127t-131 -48t-130.5 48zM151.5 774q-30.5 28 -34.5 72q0 10 10 10h34q10 0 11 -10q3 -24 18.5 -39t37.5 -15t37.5 15t17.5 39q1 10 11 10h34q10 0 10 -10q-4 -44 -34 -72t-76 -28t-76.5 28z" />
    <glyph glyph-name="gbreve" unicode="&#x11f;" horiz-adv-x="423" 
d="M292 509h76q10 0 10 -10v-484q0 -105 -48 -162.5t-165 -57.5l-27 1q-10 1 -10 11v64q0 10 11 10q82 -3 112.5 32.5t30.5 110.5v21q0 2 -1.5 2.5t-3.5 -1.5q-34 -46 -97 -46q-66 0 -101.5 42.5t-35.5 115.5v200q0 74 36 116.5t101 42.5t97 -46q2 -2 3.5 -1t1.5 3v26
q0 10 10 10zM262.5 105.5q19.5 22.5 19.5 58.5v188q0 36 -19.5 59t-51.5 23t-52 -23t-20 -59v-188q0 -36 20 -58.5t52 -22.5t51.5 22.5zM136.5 583q-30.5 28 -34.5 72q0 10 10 10h34q10 0 11 -10q3 -24 18.5 -39t37.5 -15t37.5 15t17.5 39q1 10 11 10h34q10 0 10 -10
q-4 -44 -34 -72t-76 -28t-76.5 28z" />
    <glyph glyph-name="Gdotaccent" unicode="&#x120;" horiz-adv-x="456" 
d="M97.5 40q-49.5 48 -49.5 127v366q0 79 49.5 127t130.5 48t131 -48t50 -128v-42q0 -10 -10 -10h-76q-10 0 -10 10v44q0 41 -23.5 66t-61.5 25t-61.5 -25t-23.5 -66v-368q0 -41 23.5 -66t61.5 -25t61.5 25t23.5 66v110q0 4 -4 4h-76q-10 0 -10 10v62q0 10 10 10h166
q10 0 10 -10v-185q0 -79 -50 -127t-131 -48t-130.5 48zM182 798q-18 18 -18 46t18 46t46 18t46 -18t18 -46t-18 -46t-46 -18t-46 18z" />
    <glyph glyph-name="gdotaccent" unicode="&#x121;" horiz-adv-x="423" 
d="M292 509h76q10 0 10 -10v-484q0 -105 -48 -162.5t-165 -57.5l-27 1q-10 1 -10 11v64q0 10 11 10q82 -3 112.5 32.5t30.5 110.5v21q0 2 -1.5 2.5t-3.5 -1.5q-34 -46 -97 -46q-66 0 -101.5 42.5t-35.5 115.5v200q0 74 36 116.5t101 42.5t97 -46q2 -2 3.5 -1t1.5 3v26
q0 10 10 10zM262.5 105.5q19.5 22.5 19.5 58.5v188q0 36 -19.5 59t-51.5 23t-52 -23t-20 -59v-188q0 -36 20 -58.5t52 -22.5t51.5 22.5zM167 607q-18 18 -18 46t18 46t46 18t46 -18t18 -46t-18 -46t-46 -18t-46 18z" />
    <glyph glyph-name="uni0122" unicode="&#x122;" horiz-adv-x="456" 
d="M97.5 40q-49.5 48 -49.5 127v366q0 79 49.5 127t130.5 48t131 -48t50 -128v-42q0 -10 -10 -10h-76q-10 0 -10 10v44q0 41 -23.5 66t-61.5 25t-61.5 -25t-23.5 -66v-368q0 -41 23.5 -66t61.5 -25t61.5 25t23.5 66v110q0 4 -4 4h-76q-10 0 -10 10v62q0 10 10 10h166
q10 0 10 -10v-185q0 -79 -50 -127t-131 -48t-130.5 48zM163 -189.5q-2 3.5 1 8.5l62 108q5 7 12 7h61q6 0 8 -3.5t-1 -8.5l-74 -109q-4 -6 -12 -6h-49q-6 0 -8 3.5z" />
    <glyph glyph-name="uni0123" unicode="&#x123;" horiz-adv-x="423" 
d="M276 689.5q2 -3.5 -1 -8.5l-61 -108q-5 -7 -12 -7h-61q-6 0 -8 3.5t1 8.5l74 109q4 6 12 6h48q6 0 8 -3.5zM292 509h76q10 0 10 -10v-484q0 -105 -48 -162.5t-165 -57.5l-27 1q-10 1 -10 11v64q0 10 11 10q82 -3 112.5 32.5t30.5 110.5v21q0 2 -1.5 2.5t-3.5 -1.5
q-34 -46 -97 -46q-66 0 -101.5 42.5t-35.5 115.5v200q0 74 36 116.5t101 42.5t97 -46q2 -2 3.5 -1t1.5 3v26q0 10 10 10zM262.5 105.5q19.5 22.5 19.5 58.5v188q0 36 -19.5 59t-51.5 23t-52 -23t-20 -59v-188q0 -36 20 -58.5t52 -22.5t51.5 22.5z" />
    <glyph glyph-name="Hcircumflex" unicode="&#x124;" horiz-adv-x="475" 
d="M327 700h76q10 0 10 -10v-680q0 -10 -10 -10h-76q-10 0 -10 10v295q0 4 -4 4h-151q-4 0 -4 -4v-295q0 -10 -10 -10h-76q-10 0 -10 10v680q0 10 10 10h76q10 0 10 -10v-294q0 -4 4 -4h151q4 0 4 4v294q0 10 10 10zM112.5 772.5q-1.5 3.5 1.5 8.5l65 104q5 7 12 7h85
q7 0 12 -7l68 -104q2 -4 2 -6q0 -6 -8 -6h-61q-7 0 -12 7l-39 68q-1 2 -3 2t-3 -2l-39 -68q-5 -7 -12 -7h-61q-6 0 -7.5 3.5z" />
    <glyph glyph-name="hcircumflex" unicode="&#x125;" 
d="M351.5 473.5q33.5 -42.5 33.5 -120.5v-343q0 -10 -10 -10h-76q-10 0 -10 10v335q0 42 -18 65t-50 23q-33 0 -51.5 -22.5t-20.5 -63.5q0 -6 -1 -6v-331q0 -10 -10 -10h-76q-10 0 -10 10v680q0 10 10 10h76q10 0 10 -10v-218q0 -2 2 -2.5t4 2.5q36 44 101 44
q63 0 96.5 -42.5zM101.5 753.5q-1.5 3.5 1.5 8.5l65 104q5 7 12 7h85q7 0 12 -7l68 -104q2 -4 2 -6q0 -6 -8 -6h-61q-7 0 -12 7l-39 68q-1 2 -3 2t-3 -2l-39 -68q-5 -7 -12 -7h-61q-6 0 -7.5 3.5z" />
    <glyph glyph-name="Hbar" unicode="&#x126;" horiz-adv-x="475" 
d="M461 565v-47q0 -10 -10 -10h-34q-4 0 -4 -4v-494q0 -10 -10 -10h-76q-10 0 -10 10v295q0 4 -4 4h-151q-4 0 -4 -4v-295q0 -10 -10 -10h-76q-10 0 -10 10v494q0 4 -4 4h-34q-10 0 -10 10v47q0 10 10 10h34q4 0 4 4v111q0 10 10 10h76q10 0 10 -10v-111q0 -4 4 -4h151
q4 0 4 4v111q0 10 10 10h76q10 0 10 -10v-111q0 -4 4 -4h34q10 0 10 -10zM317 396v108q0 4 -4 4h-151q-4 0 -4 -4v-108q0 -4 4 -4h151q4 0 4 4z" />
    <glyph glyph-name="hbar" unicode="&#x127;" 
d="M351.5 473.5q33.5 -42.5 33.5 -120.5v-343q0 -10 -10 -10h-76q-10 0 -10 10v335q0 42 -18 65t-50 23q-33 0 -51.5 -22.5t-20.5 -63.5q0 -6 -1 -6v-331q0 -10 -10 -10h-76q-10 0 -10 10v538q0 4 -4 4h-37q-10 0 -10 10v41q0 10 10 10h37q4 0 4 4v73q0 10 10 10h76
q10 0 10 -10v-73q0 -4 4 -4h112q10 0 10 -10v-41q0 -10 -10 -10h-112q-4 0 -4 -4v-76q0 -2 2 -2.5t4 2.5q36 44 101 44q63 0 96.5 -42.5z" />
    <glyph glyph-name="Itilde" unicode="&#x128;" horiz-adv-x="220" 
d="M62 10v680q0 10 10 10h76q10 0 10 -10v-680q0 -10 -10 -10h-76q-10 0 -10 10zM148.5 796q-11.5 5 -29.5 15q-5 3 -13.5 9t-15 8.5t-14.5 2.5q-13 0 -22.5 -5.5t-19.5 -20.5q-2 -4 -6 -5t-8 2l-28 20q-7 6 -3 13q13 30 34 45t46 15q16 0 30 -6t30 -17q4 -2 12 -8t16 -9
t16 -3q12 0 22 5.5t19 20.5q4 9 14 3l27 -18q4 -3 4 -9q0 -4 -3 -10q-15 -28 -38 -40.5t-45 -12.5q-13 0 -24.5 5z" />
    <glyph glyph-name="itilde" unicode="&#x129;" horiz-adv-x="176" 
d="M40 10v489q0 10 10 10h76q10 0 10 -10v-489q0 -10 -10 -10h-76q-10 0 -10 10zM126.5 605q-11.5 5 -29.5 15q-5 3 -13.5 9t-15 8.5t-14.5 2.5q-13 0 -22.5 -5.5t-19.5 -20.5q-2 -4 -6 -5t-8 2l-28 20q-7 6 -3 13q13 30 34 45t46 15q16 0 30 -6t30 -17q4 -2 12 -8t16 -9
t16 -3q12 0 22 5.5t19 20.5q4 9 14 3l27 -18q4 -3 4 -9q0 -4 -3 -10q-15 -28 -38 -40.5t-45 -12.5q-13 0 -24.5 5z" />
    <glyph glyph-name="Imacron" unicode="&#x12a;" horiz-adv-x="220" 
d="M62 10v680q0 10 10 10h76q10 0 10 -10v-680q0 -10 -10 -10h-76q-10 0 -10 10zM4 791v48q0 10 10 10h188q10 0 10 -10v-48q0 -10 -10 -10h-188q-10 0 -10 10z" />
    <glyph glyph-name="imacron" unicode="&#x12b;" horiz-adv-x="176" 
d="M40 10v489q0 10 10 10h76q10 0 10 -10v-489q0 -10 -10 -10h-76q-10 0 -10 10zM-18 600v48q0 10 10 10h188q10 0 10 -10v-48q0 -10 -10 -10h-188q-10 0 -10 10z" />
    <glyph glyph-name="ibreve" unicode="&#x12d;" horiz-adv-x="176" 
d="M40 10v489q0 10 10 10h76q10 0 10 -10v-489q0 -10 -10 -10h-76q-10 0 -10 10zM13 602q-31 28 -35 72q0 10 10 10h34q10 0 10 -10q4 -23 19.5 -38t37.5 -15t37 15t18 38q1 10 11 10h34q5 0 7.5 -3t1.5 -7q-3 -44 -33.5 -72t-75.5 -28t-76 28z" />
    <glyph glyph-name="Iogonek" unicode="&#x12e;" horiz-adv-x="198" 
d="M51 10v680q0 10 10 10h76q10 0 10 -10v-680q0 -10 -10 -10h-76q-10 0 -10 10zM156 -174q0 -6 -7 -9q-20 -4 -36 -4q-35 0 -59.5 18.5t-24.5 64.5q0 56 44 97l4 4q4 3 10 3h42q7 0 8.5 -3.5t-3.5 -8.5q-41 -43 -41 -79q0 -22 10.5 -32t26.5 -10q6 0 9 1h3q8 0 9 -7l5 -32
v-3z" />
    <glyph glyph-name="iogonek" unicode="&#x12f;" horiz-adv-x="224" 
d="M71 10v489q0 10 10 10h76q10 0 10 -10v-489q0 -10 -10 -10h-76q-10 0 -10 10zM73 607q-18 18 -18 46t18 46t46 18t46 -18t18 -46t-18 -46t-46 -18t-46 18zM176 -174q0 -6 -7 -9q-20 -4 -36 -4q-35 0 -59.5 18.5t-24.5 64.5q0 56 44 97l4 4q4 3 10 3h42q7 0 8.5 -3.5
t-3.5 -8.5q-41 -43 -41 -79q0 -22 10.5 -32t26.5 -10q6 0 9 1h3q8 0 9 -7l5 -32v-3z" />
    <glyph glyph-name="Idotaccent" unicode="&#x130;" horiz-adv-x="220" 
d="M62 10v680q0 10 10 10h76q10 0 10 -10v-680q0 -10 -10 -10h-76q-10 0 -10 10zM64 798q-18 18 -18 46t18 46t46 18t46 -18t18 -46t-18 -46t-46 -18t-46 18z" />
    <glyph glyph-name="dotlessi" unicode="&#x131;" horiz-adv-x="176" 
d="M40 10v489q0 10 10 10h76q10 0 10 -10v-489q0 -10 -10 -10h-76q-10 0 -10 10z" />
    <glyph glyph-name="ij" unicode="&#x133;" horiz-adv-x="417" 
d="M59 607q-18 18 -18 46t18 46t46 18q29 0 46.5 -17.5t17.5 -46.5q0 -28 -18 -46t-46 -18t-46 18zM58 10v489q0 10 10 10h76q10 0 10 -10v-489q0 -10 -10 -10h-76q-10 0 -10 10zM265 607q-18 18 -18 46t18 46t46 18q29 0 47 -18t18 -46t-18.5 -46t-46.5 -18t-46 18z
M172 -197v63q0 10 10 10q81 1 81 96v527q0 10 10 10h76q10 0 10 -10v-527q0 -62 -12.5 -99.5t-50.5 -58.5t-111 -21q-13 0 -13 10z" />
    <glyph glyph-name="Jcircumflex" unicode="&#x134;" horiz-adv-x="435" 
d="M67.5 40.5q-48.5 48.5 -48.5 127.5v79q0 10 10 10h76q10 0 10 -10v-81q0 -40 22.5 -65.5t58.5 -25.5t58.5 25.5t22.5 65.5v524q0 10 10 10h76q10 0 10 -10v-522q0 -79 -48.5 -127.5t-128.5 -48.5t-128.5 48.5zM199.5 772.5q-1.5 3.5 1.5 8.5l65 104q5 7 12 7h85
q7 0 12 -7l68 -104q2 -4 2 -6q0 -6 -8 -6h-61q-7 0 -12 7l-39 68q-1 2 -3 2t-3 -2l-39 -68q-5 -7 -12 -7h-61q-6 0 -7.5 3.5z" />
    <glyph glyph-name="jcircumflex" unicode="&#x135;" horiz-adv-x="206" 
d="M-39 -197v63q0 10 10 10q81 1 81 96v527q0 10 10 10h76q10 0 10 -10v-527q0 -62 -12.5 -99.5t-50.5 -58.5t-111 -21q-13 0 -13 10zM-22.5 580.5q-1.5 3.5 1.5 8.5l65 104q5 7 12 7h85q7 0 12 -7l68 -104q2 -4 2 -6q0 -6 -8 -6h-61q-7 0 -12 7l-39 68q-1 2 -3 2t-3 -2
l-39 -68q-5 -7 -12 -7h-61q-6 0 -7.5 3.5z" />
    <glyph glyph-name="uni0136" unicode="&#x136;" horiz-adv-x="466" 
d="M62 10v680q0 10 10 10h76q10 0 10 -10v-300q0 -3 2 -3.5t3 2.5l170 304q5 7 12 7h82q6 0 8 -3.5t-1 -8.5l-154 -278q-1 -3 0 -6l167 -392l1 -4q0 -8 -9 -8h-83q-8 0 -11 8l-130 312q-1 5 -5 1l-51 -81q-1 -1 -1 -5v-225q0 -10 -10 -10h-76q-10 0 -10 10zM191 -181.5
q-2 3.5 1 8.5l62 108q5 7 12 7h61q6 0 8 -3.5t-1 -8.5l-74 -109q-4 -6 -12 -6h-49q-6 0 -8 3.5z" />
    <glyph glyph-name="uni0137" unicode="&#x137;" horiz-adv-x="421" 
d="M52 10v680q0 10 10 10h76q10 0 10 -10v-379q0 -3 2 -4t3 2l129 194q5 6 12 6h78q6 0 8 -3.5t-1 -8.5l-103 -152q-3 -3 -1 -6l120 -328l1 -4q0 -7 -9 -7h-79q-9 0 -12 8l-80 251q-1 6 -6 1l-60 -87q-2 -2 -2 -5v-158q0 -10 -10 -10h-76q-10 0 -10 10zM157 -181.5
q-2 3.5 1 8.5l62 108q5 7 12 7h61q6 0 8 -3.5t-1 -8.5l-74 -109q-4 -6 -12 -6h-49q-6 0 -8 3.5z" />
    <glyph glyph-name="Lacute" unicode="&#x139;" horiz-adv-x="407" 
d="M62 10v680q0 10 10 10h76q10 0 10 -10v-603q0 -4 4 -4h224q10 0 10 -10v-63q0 -10 -10 -10h-314q-10 0 -10 10zM60 767.5q-2 3.5 1 8.5l62 108q5 7 12 7h61q6 0 8 -3.5t-1 -8.5l-74 -109q-4 -6 -12 -6h-49q-6 0 -8 3.5z" />
    <glyph glyph-name="lacute" unicode="&#x13a;" horiz-adv-x="191" 
d="M48 10v680q0 10 10 10h76q10 0 10 -10v-680q0 -10 -10 -10h-76q-10 0 -10 10zM46 767.5q-2 3.5 1 8.5l62 108q5 7 12 7h61q6 0 8 -3.5t-1 -8.5l-74 -109q-4 -6 -12 -6h-49q-6 0 -8 3.5z" />
    <glyph glyph-name="uni013B" unicode="&#x13b;" horiz-adv-x="407" 
d="M62 10v680q0 10 10 10h76q10 0 10 -10v-603q0 -4 4 -4h224q10 0 10 -10v-63q0 -10 -10 -10h-314q-10 0 -10 10zM137 -181.5q-2 3.5 1 8.5l62 108q5 7 12 7h61q6 0 8 -3.5t-1 -8.5l-74 -109q-4 -6 -12 -6h-49q-6 0 -8 3.5z" />
    <glyph glyph-name="uni013C" unicode="&#x13c;" horiz-adv-x="191" 
d="M48 10v680q0 10 10 10h76q10 0 10 -10v-680q0 -10 -10 -10h-76q-10 0 -10 10zM-20 -181.5q-2 3.5 1 8.5l62 108q5 7 12 7h61q6 0 8 -3.5t-1 -8.5l-74 -109q-4 -6 -12 -6h-49q-6 0 -8 3.5z" />
    <glyph glyph-name="Lcaron" unicode="&#x13d;" horiz-adv-x="408" 
d="M62 10v680q0 10 10 10h76q10 0 10 -10v-603q0 -4 4 -4h224q10 0 10 -10v-63q0 -10 -10 -10h-314q-10 0 -10 10zM202 576.5q-2 3.5 1 8.5l62 108q5 7 12 7h61q6 0 8 -3.5t-1 -8.5l-74 -109q-4 -6 -12 -6h-49q-6 0 -8 3.5z" />
    <glyph glyph-name="lcaron" unicode="&#x13e;" horiz-adv-x="357" 
d="M48 10v680q0 10 10 10h76q10 0 10 -10v-680q0 -10 -10 -10h-76q-10 0 -10 10zM178 576.5q-2 3.5 1 8.5l62 108q5 7 12 7h61q6 0 8 -3.5t-1 -8.5l-74 -109q-4 -6 -12 -6h-49q-6 0 -8 3.5z" />
    <glyph glyph-name="ldot" unicode="&#x140;" horiz-adv-x="224" 
d="M64 10v680q0 10 10 10h76q10 0 10 -10v-680q0 -10 -10 -10h-76q-10 0 -10 10zM67 798q-18 18 -18 46t18 46t46 18t46 -18t18 -46t-18 -46t-46 -18t-46 18z" />
    <glyph glyph-name="Lslash" unicode="&#x141;" horiz-adv-x="448" 
d="M203 83h224q10 0 10 -10v-63q0 -10 -10 -10h-314q-10 0 -10 10v213q0 2 -1.5 3t-3.5 -1l-60 -46q-2 -2 -6 -2q-5 0 -8 4l-34 41q-3 3 -3 7t4 7l110 85q2 2 2 5v364q0 10 10 10h76q10 0 10 -10v-287q0 -2 1.5 -3t3.5 1l143 110q2 2 6 2q5 0 8 -4l35 -42q3 -3 3 -7t-4 -7
l-194 -148q-2 -2 -2 -5v-213q0 -4 4 -4z" />
    <glyph glyph-name="lslash" unicode="&#x142;" horiz-adv-x="326" 
d="M307 388q0 -6 -5 -9l-94 -53q-3 -1 -3 -5v-311q0 -10 -10 -10h-76q-10 0 -10 10v254q0 2 -1.5 3t-3.5 0l-46 -26q-2 -1 -5 -1q-6 0 -9 5l-25 45q-1 2 -1 5q0 6 5 9l83 47q3 2 3 5v334q0 10 10 10h76q10 0 10 -10v-276q0 -2 1.5 -3t3.5 0l56 32q2 1 5 1q6 0 9 -5l26 -46
q1 -2 1 -5z" />
    <glyph glyph-name="Nacute" unicode="&#x143;" horiz-adv-x="501" 
d="M354 700h75q10 0 10 -10v-680q0 -10 -10 -10h-86q-8 0 -11 8l-170 457q-1 2 -3 1.5t-2 -2.5l1 -454q0 -10 -10 -10h-76q-10 0 -10 10v680q0 10 10 10h85q8 0 11 -8l171 -457q1 -3 3 -2.5t2 3.5v454q0 10 10 10zM199 773.5q-2 3.5 1 8.5l62 108q5 7 12 7h61q6 0 8 -3.5
t-1 -8.5l-74 -109q-4 -6 -12 -6h-49q-6 0 -8 3.5z" />
    <glyph glyph-name="nacute" unicode="&#x144;" 
d="M351.5 473.5q33.5 -42.5 33.5 -120.5v-343q0 -10 -10 -10h-76q-10 0 -10 10v335q0 42 -18 65t-50 23q-33 0 -51.5 -22.5t-20.5 -63.5q0 -6 -1 -6v-331q0 -10 -10 -10h-76q-10 0 -10 10v489q0 10 10 10h76q10 0 10 -10v-27q0 -2 2 -2.5t4 2.5q36 44 101 44
q63 0 96.5 -42.5zM169 576.5q-2 3.5 1 8.5l62 108q5 7 12 7h61q6 0 8 -3.5t-1 -8.5l-74 -109q-4 -6 -12 -6h-49q-6 0 -8 3.5z" />
    <glyph glyph-name="uni0145" unicode="&#x145;" horiz-adv-x="501" 
d="M354 700h75q10 0 10 -10v-680q0 -10 -10 -10h-86q-8 0 -11 8l-170 457q-1 2 -3 1.5t-2 -2.5l1 -454q0 -10 -10 -10h-76q-10 0 -10 10v680q0 10 10 10h85q8 0 11 -8l171 -457q1 -3 3 -2.5t2 3.5v454q0 10 10 10zM190 -181.5q-2 3.5 1 8.5l62 108q5 7 12 7h61q6 0 8 -3.5
t-1 -8.5l-74 -109q-4 -6 -12 -6h-49q-6 0 -8 3.5z" />
    <glyph glyph-name="uni0146" unicode="&#x146;" 
d="M351.5 473.5q33.5 -42.5 33.5 -120.5v-343q0 -10 -10 -10h-76q-10 0 -10 10v335q0 42 -18 65t-50 23q-33 0 -51.5 -22.5t-20.5 -63.5q0 -6 -1 -6v-331q0 -10 -10 -10h-76q-10 0 -10 10v489q0 10 10 10h76q10 0 10 -10v-27q0 -2 2 -2.5t4 2.5q36 44 101 44
q63 0 96.5 -42.5zM158 -181.5q-2 3.5 1 8.5l62 108q5 7 12 7h61q6 0 8 -3.5t-1 -8.5l-74 -109q-4 -6 -12 -6h-49q-6 0 -8 3.5z" />
    <glyph glyph-name="Ncaron" unicode="&#x147;" horiz-adv-x="501" 
d="M354 700h75q10 0 10 -10v-680q0 -10 -10 -10h-86q-8 0 -11 8l-170 457q-1 2 -3 1.5t-2 -2.5l1 -454q0 -10 -10 -10h-76q-10 0 -10 10v680q0 10 10 10h85q8 0 11 -8l171 -457q1 -3 3 -2.5t2 3.5v454q0 10 10 10zM130 891q0 6 8 6h61q7 0 12 -7l39 -68q1 -1 3 -1t3 1l39 68
q5 7 12 7h61q6 0 7.5 -3.5t-1.5 -8.5l-68 -104q-5 -7 -12 -7h-85q-7 0 -12 7l-65 104q-2 4 -2 6z" />
    <glyph glyph-name="ncaron" unicode="&#x148;" 
d="M351.5 473.5q33.5 -42.5 33.5 -120.5v-343q0 -10 -10 -10h-76q-10 0 -10 10v335q0 42 -18 65t-50 23q-33 0 -51.5 -22.5t-20.5 -63.5q0 -6 -1 -6v-331q0 -10 -10 -10h-76q-10 0 -10 10v489q0 10 10 10h76q10 0 10 -10v-27q0 -2 2 -2.5t4 2.5q36 44 101 44
q63 0 96.5 -42.5zM100 694q0 6 8 6h61q7 0 12 -7l39 -68q1 -1 3 -1t3 1l39 68q5 7 12 7h61q6 0 7.5 -3.5t-1.5 -8.5l-68 -104q-5 -7 -12 -7h-85q-7 0 -12 7l-65 104q-2 4 -2 6z" />
    <glyph glyph-name="Eng" unicode="&#x14a;" horiz-adv-x="501" 
d="M354 700h75q10 0 10 -10v-690q0 -62 -9 -95.5t-43 -53t-105 -19.5q-14 0 -14 10v63q0 10 10 10q27 0 39.5 9.5t15 25.5t2.5 47q0 4 -1 5l-172 463q-1 2 -3 1.5t-2 -2.5l1 -454q0 -10 -10 -10h-76q-10 0 -10 10v680q0 10 10 10h85q8 0 11 -8l162 -433q1 -3 3 -2.5t2 3.5
v144q0 10 5 10v0q4 0 4 4v272q0 10 10 10z" />
    <glyph glyph-name="eng" unicode="&#x14b;" 
d="M351.5 473.5q33.5 -42.5 33.5 -120.5v-346v-7l-1 -2q0 -57 -10 -92.5t-44.5 -57t-105.5 -21.5q-13 0 -13 10v61q0 10 10 10q40 1 53.5 24t13.5 68v231v4q1 1 1 5v105q0 42 -18 65t-50 23q-33 0 -51.5 -22.5t-20.5 -63.5q0 -6 -1 -6v-331q0 -10 -10 -10h-76q-10 0 -10 10
v489q0 10 10 10h76q10 0 10 -10v-27q0 -2 2 -2.5t4 2.5q36 44 101 44q63 0 96.5 -42.5z" />
    <glyph glyph-name="Omacron" unicode="&#x14c;" horiz-adv-x="462" 
d="M98 42q-50 50 -50 133v349q0 83 50 133.5t132 50.5q83 0 133.5 -50.5t50.5 -133.5v-349q0 -83 -50.5 -133t-133.5 -50q-82 0 -132 50zM294 101.5q24 26.5 24 69.5v358q0 43 -24 69.5t-64 26.5q-39 0 -62.5 -26.5t-23.5 -69.5v-358q0 -43 23.5 -69.5t62.5 -26.5
q40 0 64 26.5zM124 791v48q0 10 10 10h188q10 0 10 -10v-48q0 -10 -10 -10h-188q-10 0 -10 10z" />
    <glyph glyph-name="omacron" unicode="&#x14d;" horiz-adv-x="424" 
d="M88.5 35.5q-45.5 43.5 -45.5 115.5v207q0 71 46 115t123 44q78 0 124 -44t46 -115v-207q0 -72 -46 -115.5t-124 -43.5t-123.5 43.5zM265 98.5q21 22.5 21 59.5v194q0 36 -21 59t-53 23t-52.5 -23t-20.5 -59v-194q0 -37 20.5 -59.5t52.5 -22.5t53 22.5zM106 600v48
q0 10 10 10h188q10 0 10 -10v-48q0 -10 -10 -10h-188q-10 0 -10 10z" />
    <glyph glyph-name="obreve" unicode="&#x14f;" horiz-adv-x="424" 
d="M88.5 35.5q-45.5 43.5 -45.5 115.5v207q0 71 46 115t123 44q78 0 124 -44t46 -115v-207q0 -72 -46 -115.5t-124 -43.5t-123.5 43.5zM265 98.5q21 22.5 21 59.5v194q0 36 -21 59t-53 23t-52.5 -23t-20.5 -59v-194q0 -37 20.5 -59.5t52.5 -22.5t53 22.5zM137 602
q-31 28 -35 72q0 10 10 10h34q10 0 10 -10q4 -23 19.5 -38t37.5 -15t37 15t18 38q1 10 11 10h34q5 0 7.5 -3t1.5 -7q-3 -44 -33.5 -72t-75.5 -28t-76 28z" />
    <glyph glyph-name="Ohungarumlaut" unicode="&#x150;" horiz-adv-x="462" 
d="M98 42q-50 50 -50 133v349q0 83 50 133.5t132 50.5q83 0 133.5 -50.5t50.5 -133.5v-349q0 -83 -50.5 -133t-133.5 -50q-82 0 -132 50zM294 101.5q24 26.5 24 69.5v358q0 43 -24 69.5t-64 26.5q-39 0 -62.5 -26.5t-23.5 -69.5v-358q0 -43 23.5 -69.5t62.5 -26.5
q40 0 64 26.5zM129 767.5q-2 3.5 0 8.5l54 108q3 7 12 7h63q6 0 8.5 -3.5t-0.5 -8.5l-59 -108q-3 -7 -12 -7h-59q-5 0 -7 3.5zM265.5 767.5q-2.5 3.5 0.5 8.5l58 108q3 7 12 7h59q6 0 8.5 -3.5t-0.5 -8.5l-59 -108q-3 -7 -12 -7h-58q-6 0 -8.5 3.5z" />
    <glyph glyph-name="ohungarumlaut" unicode="&#x151;" horiz-adv-x="424" 
d="M88.5 35.5q-45.5 43.5 -45.5 115.5v207q0 71 46 115t123 44q78 0 124 -44t46 -115v-207q0 -72 -46 -115.5t-124 -43.5t-123.5 43.5zM265 98.5q21 22.5 21 59.5v194q0 36 -21 59t-53 23t-52.5 -23t-20.5 -59v-194q0 -37 20.5 -59.5t52.5 -22.5t53 22.5zM111 576.5
q-2 3.5 0 8.5l54 108q3 7 12 7h63q6 0 8.5 -3.5t-0.5 -8.5l-59 -108q-3 -7 -12 -7h-59q-5 0 -7 3.5zM247.5 576.5q-2.5 3.5 0.5 8.5l58 108q3 7 12 7h59q6 0 8.5 -3.5t-0.5 -8.5l-59 -108q-3 -7 -12 -7h-58q-6 0 -8.5 3.5z" />
    <glyph glyph-name="OE" unicode="&#x152;" horiz-adv-x="688" 
d="M643 617h-225q-4 0 -4 -4v-217q0 -4 4 -4h138q10 0 10 -10v-63q0 -10 -10 -10h-138q-4 0 -4 -4v-218q0 -4 4 -4h225q10 0 10 -10v-63q0 -10 -10 -10h-315q-10 0 -10 10v20q0 2 -1.5 3t-3.5 -1q-40 -40 -105 -40q-44 0 -80.5 23t-58 64.5t-21.5 95.5v349q0 54 21.5 96
t58 65t80.5 23q64 0 105 -41q2 -2 3.5 -1t1.5 3v21q0 10 10 10h315q10 0 10 -10v-63q0 -10 -10 -10zM294 101.5q24 26.5 24 69.5v358q0 43 -24 69.5t-64 26.5q-39 0 -62.5 -26.5t-23.5 -69.5v-358q0 -43 23.5 -69.5t62.5 -26.5q40 0 64 26.5z" />
    <glyph glyph-name="oe" unicode="&#x153;" horiz-adv-x="669" 
d="M622 225h-227q-4 0 -4 -4v-64q0 -36 20 -59t52 -23q28 0 47 17.5t24 44.5q3 8 11 8l75 -4q5 0 7.5 -3t1.5 -7q-8 -66 -50.5 -102.5t-115.5 -36.5q-79 0 -122 61q-3 3 -6 0q-43 -61 -123 -61q-78 0 -123.5 43.5t-45.5 115.5v207q0 71 46 115t123 44q79 0 123 -62q3 -3 6 0
q44 62 122 62q77 0 123 -44t46 -115v-123q0 -10 -10 -10zM265.5 411q-20.5 23 -53.5 23q-32 0 -52.5 -23t-20.5 -59v-195q0 -36 20.5 -59t52.5 -23q33 0 53.5 23t20.5 59v195q0 36 -20.5 59zM411 411q-20 -23 -20 -59v-58q0 -4 4 -4h137q4 0 4 4v58q0 36 -20 59t-53 23
q-32 0 -52 -23z" />
    <glyph glyph-name="Racute" unicode="&#x154;" horiz-adv-x="453" 
d="M328 8l-92 298q-1 3 -4 3h-70q-4 0 -4 -4v-295q0 -10 -10 -10h-76q-10 0 -10 10v680q0 10 10 10h179q51 0 90 -25t60.5 -70.5t21.5 -103.5q0 -63 -26 -109.5t-71 -67.5q-3 -3 -2 -6l102 -307l1 -4q0 -7 -9 -7h-78q-9 0 -12 8zM158 613v-224q0 -4 4 -4h74q41 0 66 31.5
t25 83.5q0 54 -25 85.5t-66 31.5h-74q-4 0 -4 -4zM175 767.5q-2 3.5 1 8.5l62 108q5 7 12 7h61q6 0 8 -3.5t-1 -8.5l-74 -109q-4 -6 -12 -6h-49q-6 0 -8 3.5z" />
    <glyph glyph-name="racute" unicode="&#x155;" horiz-adv-x="304" 
d="M288 503q7 -4 5 -13l-15 -76q-1 -9 -12 -6q-13 5 -28 5q-6 0 -18 -2q-31 -3 -51.5 -34t-20.5 -75v-292q0 -10 -10 -10h-76q-10 0 -10 10v489q0 10 10 10h76q10 0 10 -10v-58q0 -3 1.5 -3.5t2.5 2.5q29 74 93 74q25 0 43 -11zM125 576.5q-2 3.5 1 8.5l62 108q5 7 12 7h61
q6 0 8 -3.5t-1 -8.5l-74 -109q-4 -6 -12 -6h-49q-6 0 -8 3.5z" />
    <glyph glyph-name="uni0156" unicode="&#x156;" horiz-adv-x="453" 
d="M328 8l-92 298q-1 3 -4 3h-70q-4 0 -4 -4v-295q0 -10 -10 -10h-76q-10 0 -10 10v680q0 10 10 10h179q51 0 90 -25t60.5 -70.5t21.5 -103.5q0 -63 -26 -109.5t-71 -67.5q-3 -3 -2 -6l102 -307l1 -4q0 -7 -9 -7h-78q-9 0 -12 8zM158 613v-224q0 -4 4 -4h74q41 0 66 31.5
t25 83.5q0 54 -25 85.5t-66 31.5h-74q-4 0 -4 -4zM173 -181.5q-2 3.5 1 8.5l62 108q5 7 12 7h61q6 0 8 -3.5t-1 -8.5l-74 -109q-4 -6 -12 -6h-49q-6 0 -8 3.5z" />
    <glyph glyph-name="uni0157" unicode="&#x157;" horiz-adv-x="304" 
d="M288 503q7 -4 5 -13l-15 -76q-1 -9 -12 -6q-13 5 -28 5q-6 0 -18 -2q-31 -3 -51.5 -34t-20.5 -75v-292q0 -10 -10 -10h-76q-10 0 -10 10v489q0 10 10 10h76q10 0 10 -10v-58q0 -3 1.5 -3.5t2.5 2.5q29 74 93 74q25 0 43 -11zM-16 -181.5q-2 3.5 1 8.5l62 108q5 7 12 7h61
q6 0 8 -3.5t-1 -8.5l-74 -109q-4 -6 -12 -6h-49q-6 0 -8 3.5z" />
    <glyph glyph-name="Rcaron" unicode="&#x158;" horiz-adv-x="453" 
d="M328 8l-92 298q-1 3 -4 3h-70q-4 0 -4 -4v-295q0 -10 -10 -10h-76q-10 0 -10 10v680q0 10 10 10h179q51 0 90 -25t60.5 -70.5t21.5 -103.5q0 -63 -26 -109.5t-71 -67.5q-3 -3 -2 -6l102 -307l1 -4q0 -7 -9 -7h-78q-9 0 -12 8zM158 613v-224q0 -4 4 -4h74q41 0 66 31.5
t25 83.5q0 54 -25 85.5t-66 31.5h-74q-4 0 -4 -4zM106 885q0 6 8 6h61q7 0 12 -7l39 -68q1 -1 3 -1t3 1l39 68q5 7 12 7h61q6 0 7.5 -3.5t-1.5 -8.5l-68 -104q-5 -7 -12 -7h-85q-7 0 -12 7l-65 104q-2 4 -2 6z" />
    <glyph glyph-name="rcaron" unicode="&#x159;" horiz-adv-x="304" 
d="M288 503q7 -4 5 -13l-15 -76q-1 -9 -12 -6q-13 5 -28 5q-6 0 -18 -2q-31 -3 -51.5 -34t-20.5 -75v-292q0 -10 -10 -10h-76q-10 0 -10 10v489q0 10 10 10h76q10 0 10 -10v-58q0 -3 1.5 -3.5t2.5 2.5q29 74 93 74q25 0 43 -11zM55 694q0 6 8 6h61q7 0 12 -7l39 -68
q1 -1 3 -1t3 1l39 68q5 7 12 7h61q6 0 7.5 -3.5t-1.5 -8.5l-68 -104q-5 -7 -12 -7h-85q-7 0 -12 7l-65 104q-2 4 -2 6z" />
    <glyph glyph-name="Sacute" unicode="&#x15a;" horiz-adv-x="426" 
d="M86.5 41.5q-48.5 49.5 -48.5 129.5v26q0 10 10 10h74q10 0 10 -10v-21q0 -46 23 -73.5t59 -27.5t59.5 26.5t23.5 69.5q0 29 -12.5 51t-33 39.5t-66.5 51.5q-51 38 -80 65t-49 65t-20 89q0 81 48 128.5t125 47.5q80 0 128.5 -51t48.5 -134v-25q0 -10 -10 -10h-74
q-10 0 -10 10v27q0 45 -23 72.5t-60 27.5q-35 0 -57 -24.5t-22 -68.5q0 -40 22 -67.5t85 -73.5q60 -45 90.5 -73t47 -61.5t16.5 -79.5q0 -84 -49 -134.5t-128 -50.5t-127.5 49.5zM158 767.5q-2 3.5 1 8.5l62 108q5 7 12 7h61q6 0 8 -3.5t-1 -8.5l-74 -109q-4 -6 -12 -6h-49
q-6 0 -8 3.5z" />
    <glyph glyph-name="sacute" unicode="&#x15b;" horiz-adv-x="388" 
d="M78.5 30.5q-43.5 36.5 -43.5 98.5v9q0 10 10 10h71q10 0 10 -10v-7q0 -27 21 -45.5t52 -18.5q30 0 48.5 18t18.5 46q0 22 -13 37t-30.5 23.5t-53.5 23.5q-39 17 -64.5 33t-45.5 46t-20 76q0 68 42.5 106t114.5 38q74 0 116.5 -39t42.5 -106v-3q0 -10 -10 -10h-69
q-10 0 -10 10v7q0 27 -19 46t-49 19q-31 0 -49 -19t-18 -46q0 -21 12 -35t29 -22.5t54 -24.5q41 -18 68 -34.5t47.5 -46.5t20.5 -75q0 -65 -44.5 -103t-120.5 -38q-75 0 -118.5 36.5zM145 576.5q-2 3.5 1 8.5l62 108q5 7 12 7h61q6 0 8 -3.5t-1 -8.5l-74 -109q-4 -6 -12 -6
h-49q-6 0 -8 3.5z" />
    <glyph glyph-name="Scircumflex" unicode="&#x15c;" horiz-adv-x="426" 
d="M86.5 41.5q-48.5 49.5 -48.5 129.5v26q0 10 10 10h74q10 0 10 -10v-21q0 -46 23 -73.5t59 -27.5t59.5 26.5t23.5 69.5q0 29 -12.5 51t-33 39.5t-66.5 51.5q-51 38 -80 65t-49 65t-20 89q0 81 48 128.5t125 47.5q80 0 128.5 -51t48.5 -134v-25q0 -10 -10 -10h-74
q-10 0 -10 10v27q0 45 -23 72.5t-60 27.5q-35 0 -57 -24.5t-22 -68.5q0 -40 22 -67.5t85 -73.5q60 -45 90.5 -73t47 -61.5t16.5 -79.5q0 -84 -49 -134.5t-128 -50.5t-127.5 49.5zM85.5 771.5q-1.5 3.5 1.5 8.5l65 104q5 7 12 7h85q7 0 12 -7l68 -104q2 -4 2 -6q0 -6 -8 -6
h-61q-7 0 -12 7l-39 68q-1 2 -3 2t-3 -2l-39 -68q-5 -7 -12 -7h-61q-6 0 -7.5 3.5z" />
    <glyph glyph-name="scircumflex" unicode="&#x15d;" horiz-adv-x="388" 
d="M78.5 30.5q-43.5 36.5 -43.5 98.5v9q0 10 10 10h71q10 0 10 -10v-7q0 -27 21 -45.5t52 -18.5q30 0 48.5 18t18.5 46q0 22 -13 37t-30.5 23.5t-53.5 23.5q-39 17 -64.5 33t-45.5 46t-20 76q0 68 42.5 106t114.5 38q74 0 116.5 -39t42.5 -106v-3q0 -10 -10 -10h-69
q-10 0 -10 10v7q0 27 -19 46t-49 19q-31 0 -49 -19t-18 -46q0 -21 12 -35t29 -22.5t54 -24.5q41 -18 68 -34.5t47.5 -46.5t20.5 -75q0 -65 -44.5 -103t-120.5 -38q-75 0 -118.5 36.5zM72.5 580.5q-1.5 3.5 1.5 8.5l65 104q5 7 12 7h85q7 0 12 -7l68 -104q2 -4 2 -6
q0 -6 -8 -6h-61q-7 0 -12 7l-39 68q-1 2 -3 2t-3 -2l-39 -68q-5 -7 -12 -7h-61q-6 0 -7.5 3.5z" />
    <glyph glyph-name="Scedilla" unicode="&#x15e;" horiz-adv-x="426" 
d="M353.5 55.5q-37.5 -48.5 -101.5 -60.5q-6 -1 -2 -5q40 -40 40 -92q0 -7 -2 -23q-8 -32 -30 -46t-51 -14q-20 0 -37 5q-9 3 -8 12l5 32q1 9 12 7q4 -1 10 -1q16 0 26.5 10.5t10.5 31.5q0 39 -45 81q-1 2 -5 2q-63 11 -100.5 58.5t-37.5 117.5v26q0 10 10 10h74
q10 0 10 -10v-21q0 -46 23 -73.5t59 -27.5t59.5 26.5t23.5 69.5q0 29 -12.5 51t-33 39.5t-66.5 51.5q-51 38 -80 65t-49 65t-20 89q0 81 48 128.5t125 47.5q80 0 128.5 -51t48.5 -134v-25q0 -10 -10 -10h-74q-10 0 -10 10v27q0 45 -23 72.5t-60 27.5q-35 0 -57 -24.5
t-22 -68.5q0 -40 22 -67.5t85 -73.5q60 -45 90.5 -73t47 -61.5t16.5 -79.5q0 -73 -37.5 -121.5z" />
    <glyph glyph-name="scedilla" unicode="&#x15f;" horiz-adv-x="388" 
d="M329.5 44q-32.5 -36 -89.5 -46q-5 -2 -2 -5q39 -42 39 -91q0 -46 -24 -65.5t-59 -19.5q-19 0 -36 5q-9 3 -8 12l5 32q1 9 12 7q4 -1 10 -1q16 0 26 10.5t10 32.5q0 39 -42 78q-2 2 -5 2q-61 8 -96 43.5t-35 90.5v9q0 10 10 10h71q10 0 10 -10v-7q0 -27 21 -45.5t52 -18.5
q30 0 48.5 18t18.5 46q0 22 -13 37t-30.5 23.5t-53.5 23.5q-39 17 -64.5 33t-45.5 46t-20 76q0 68 42.5 106t114.5 38q74 0 116.5 -39t42.5 -106v-3q0 -10 -10 -10h-69q-10 0 -10 10v7q0 27 -19 46t-49 19q-31 0 -49 -19t-18 -46q0 -21 12 -35t29 -22.5t54 -24.5
q41 -18 68 -34.5t47.5 -46.5t20.5 -75q0 -55 -32.5 -91z" />
    <glyph glyph-name="Scaron" unicode="&#x160;" horiz-adv-x="426" 
d="M86.5 41.5q-48.5 49.5 -48.5 129.5v26q0 10 10 10h74q10 0 10 -10v-21q0 -46 23 -73.5t59 -27.5t59.5 26.5t23.5 69.5q0 29 -12.5 51t-33 39.5t-66.5 51.5q-51 38 -80 65t-49 65t-20 89q0 81 48 128.5t125 47.5q80 0 128.5 -51t48.5 -134v-25q0 -10 -10 -10h-74
q-10 0 -10 10v27q0 45 -23 72.5t-60 27.5q-35 0 -57 -24.5t-22 -68.5q0 -40 22 -67.5t85 -73.5q60 -45 90.5 -73t47 -61.5t16.5 -79.5q0 -84 -49 -134.5t-128 -50.5t-127.5 49.5zM89 885q0 6 8 6h61q7 0 12 -7l39 -68q1 -1 3 -1t3 1l39 68q5 7 12 7h61q6 0 7.5 -3.5
t-1.5 -8.5l-68 -104q-5 -7 -12 -7h-85q-7 0 -12 7l-65 104q-2 4 -2 6z" />
    <glyph glyph-name="scaron" unicode="&#x161;" horiz-adv-x="388" 
d="M78.5 30.5q-43.5 36.5 -43.5 98.5v9q0 10 10 10h71q10 0 10 -10v-7q0 -27 21 -45.5t52 -18.5q30 0 48.5 18t18.5 46q0 22 -13 37t-30.5 23.5t-53.5 23.5q-39 17 -64.5 33t-45.5 46t-20 76q0 68 42.5 106t114.5 38q74 0 116.5 -39t42.5 -106v-3q0 -10 -10 -10h-69
q-10 0 -10 10v7q0 27 -19 46t-49 19q-31 0 -49 -19t-18 -46q0 -21 12 -35t29 -22.5t54 -24.5q41 -18 68 -34.5t47.5 -46.5t20.5 -75q0 -65 -44.5 -103t-120.5 -38q-75 0 -118.5 36.5zM76 694q0 6 8 6h61q7 0 12 -7l39 -68q1 -1 3 -1t3 1l39 68q5 7 12 7h61q6 0 7.5 -3.5
t-1.5 -8.5l-68 -104q-5 -7 -12 -7h-85q-7 0 -12 7l-65 104q-2 4 -2 6z" />
    <glyph glyph-name="uni0162" unicode="&#x162;" horiz-adv-x="439" 
d="M409 690v-63q0 -10 -10 -10h-131q-4 0 -4 -4v-603q0 -10 -10 -10h-76q-10 0 -10 10v603q0 4 -4 4h-124q-10 0 -10 10v63q0 10 10 10h359q10 0 10 -10zM189 -171l4 31q2 10 13 8q3 -1 9 -1q14 0 23.5 8t12.5 24q1 3 1 10q0 37 -42 79q-3 3 -3 7q0 5 8 5h42q7 0 10 -3l4 -4
q46 -42 46 -96q0 -46 -24 -65t-58 -19q-21 0 -38 5q-9 2 -8 11z" />
    <glyph glyph-name="uni0163" unicode="&#x163;" horiz-adv-x="275" 
d="M241 439h-70q-4 0 -4 -4v-281q0 -40 14 -55.5t44 -14.5h9q10 0 10 -10v-64q0 -10 -10 -10h-21q-5 0 -2 -5q30 -39 30 -78q0 -13 -3 -25q-7 -32 -29 -46t-51 -14q-19 0 -37 5q-9 2 -8 11l5 32q1 9 12 7q4 -1 10 -1q16 0 26 10.5t10 31.5q0 39 -43 80q-1 2 -2 2t-2 1
q-27 11 -41 37t-14 72v315q0 4 -4 4h-39q-10 0 -10 10v50q0 10 10 10h39q4 0 4 4v113q0 10 10 10h73q10 0 10 -10v-113q0 -4 4 -4h70q10 0 10 -10v-50q0 -10 -10 -10z" />
    <glyph glyph-name="Tcaron" unicode="&#x164;" horiz-adv-x="439" 
d="M409 690v-63q0 -10 -10 -10h-131q-4 0 -4 -4v-603q0 -10 -10 -10h-76q-10 0 -10 10v603q0 4 -4 4h-124q-10 0 -10 10v63q0 10 10 10h359q10 0 10 -10zM97 883q0 6 8 6h61q7 0 12 -7l39 -68q1 -1 3 -1t3 1l39 68q5 7 12 7h61q6 0 7.5 -3.5t-1.5 -8.5l-68 -104
q-5 -7 -12 -7h-85q-7 0 -12 7l-65 104q-2 4 -2 6z" />
    <glyph glyph-name="tcaron" unicode="&#x165;" horiz-adv-x="275" 
d="M241 439h-70q-4 0 -4 -4v-281q0 -40 14 -55.5t44 -14.5h9q10 0 10 -10v-64q0 -10 -10 -10h-31q-64 0 -96.5 25t-32.5 95v315q0 4 -4 4h-39q-10 0 -10 10v50q0 10 10 10h39q4 0 4 4v113q0 10 10 10h73q10 0 10 -10v-113q0 -4 4 -4h70q10 0 10 -10v-50q0 -10 -10 -10z
M188 576.5q-2 3.5 1 8.5l62 108q5 7 12 7h61q6 0 8 -3.5t-1 -8.5l-74 -109q-4 -6 -12 -6h-49q-6 0 -8 3.5z" />
    <glyph glyph-name="Tbar" unicode="&#x166;" horiz-adv-x="439" 
d="M399 617h-131q-4 0 -4 -4v-194q0 -4 4 -4h69q10 0 10 -10v-41q0 -10 -10 -10h-69q-4 0 -4 -4v-340q0 -10 -10 -10h-76q-10 0 -10 10v340q0 4 -4 4h-80q-10 0 -10 10v41q0 10 10 10h80q4 0 4 4v194q0 4 -4 4h-124q-10 0 -10 10v63q0 10 10 10h359q10 0 10 -10v-63
q0 -10 -10 -10z" />
    <glyph glyph-name="tbar" unicode="&#x167;" horiz-adv-x="275" 
d="M241 439h-70q-4 0 -4 -4v-81q0 -4 4 -4h70q10 0 10 -10v-40q0 -10 -10 -10h-70q-4 0 -4 -4v-132q0 -40 14 -55.5t44 -14.5h9q10 0 10 -10v-64q0 -10 -10 -10h-31q-64 0 -96.5 25t-32.5 95v166q0 4 -4 4h-37q-10 0 -10 10v40q0 10 10 10h37q4 0 4 4v81q0 4 -4 4h-39
q-10 0 -10 10v50q0 10 10 10h39q4 0 4 4v113q0 10 10 10h73q10 0 10 -10v-113q0 -4 4 -4h70q10 0 10 -10v-50q0 -10 -10 -10z" />
    <glyph glyph-name="Utilde" unicode="&#x168;" horiz-adv-x="477" 
d="M106.5 46.5q-49.5 54.5 -49.5 143.5v500q0 10 10 10h76q10 0 10 -10v-510q0 -47 23.5 -76t61.5 -29q39 0 62.5 29t23.5 76v510q0 10 10 10h76q10 0 10 -10v-500q0 -89 -50 -143.5t-132 -54.5t-131.5 54.5zM276.5 796q-11.5 5 -29.5 15q-5 3 -13.5 9t-15 8.5t-14.5 2.5
q-13 0 -22.5 -5.5t-19.5 -20.5q-2 -4 -6 -5t-8 2l-28 20q-7 6 -3 13q13 30 34 45t46 15q16 0 30 -6t30 -17q4 -2 12 -8t16 -9t16 -3q12 0 22 5.5t19 20.5q4 9 14 3l27 -18q4 -3 4 -9q0 -4 -3 -10q-15 -28 -38 -40.5t-45 -12.5q-13 0 -24.5 5z" />
    <glyph glyph-name="utilde" unicode="&#x169;" 
d="M293 509h76q10 0 10 -10v-489q0 -10 -10 -10h-76q-10 0 -10 10v29q0 3 -1.5 3t-3.5 -2q-30 -47 -96 -47q-60 0 -97 36.5t-37 111.5v358q0 10 10 10h76q10 0 10 -10v-337q0 -86 68 -86q34 0 52.5 24.5t18.5 67.5v331q0 10 10 10zM251.5 605q-11.5 5 -29.5 15q-5 3 -13.5 9
t-15 8.5t-14.5 2.5q-13 0 -22.5 -5.5t-19.5 -20.5q-2 -4 -6 -5t-8 2l-28 20q-7 6 -3 13q13 30 34 45t46 15q16 0 30 -6t30 -17q4 -2 12 -8t16 -9t16 -3q12 0 22 5.5t19 20.5q4 9 14 3l27 -18q4 -3 4 -9q0 -4 -3 -10q-15 -28 -38 -40.5t-45 -12.5q-13 0 -24.5 5z" />
    <glyph glyph-name="Umacron" unicode="&#x16a;" horiz-adv-x="477" 
d="M106.5 46.5q-49.5 54.5 -49.5 143.5v500q0 10 10 10h76q10 0 10 -10v-510q0 -47 23.5 -76t61.5 -29q39 0 62.5 29t23.5 76v510q0 10 10 10h76q10 0 10 -10v-500q0 -89 -50 -143.5t-132 -54.5t-131.5 54.5zM132 791v48q0 10 10 10h188q10 0 10 -10v-48q0 -10 -10 -10h-188
q-10 0 -10 10z" />
    <glyph glyph-name="umacron" unicode="&#x16b;" 
d="M293 509h76q10 0 10 -10v-489q0 -10 -10 -10h-76q-10 0 -10 10v29q0 3 -1.5 3t-3.5 -2q-30 -47 -96 -47q-60 0 -97 36.5t-37 111.5v358q0 10 10 10h76q10 0 10 -10v-337q0 -86 68 -86q34 0 52.5 24.5t18.5 67.5v331q0 10 10 10zM107 600v48q0 10 10 10h188q10 0 10 -10
v-48q0 -10 -10 -10h-188q-10 0 -10 10z" />
    <glyph glyph-name="Ubreve" unicode="&#x16c;" horiz-adv-x="477" 
d="M106.5 46.5q-49.5 54.5 -49.5 143.5v500q0 10 10 10h76q10 0 10 -10v-510q0 -47 23.5 -76t61.5 -29q39 0 62.5 29t23.5 76v510q0 10 10 10h76q10 0 10 -10v-500q0 -89 -50 -143.5t-132 -54.5t-131.5 54.5zM163 793q-31 28 -35 72q0 10 10 10h34q10 0 10 -10
q4 -23 19.5 -38t37.5 -15t37 15t18 38q1 10 11 10h34q5 0 7.5 -3t1.5 -7q-3 -44 -33.5 -72t-75.5 -28t-76 28z" />
    <glyph glyph-name="ubreve" unicode="&#x16d;" 
d="M293 509h76q10 0 10 -10v-489q0 -10 -10 -10h-76q-10 0 -10 10v29q0 3 -1.5 3t-3.5 -2q-30 -47 -96 -47q-60 0 -97 36.5t-37 111.5v358q0 10 10 10h76q10 0 10 -10v-337q0 -86 68 -86q34 0 52.5 24.5t18.5 67.5v331q0 10 10 10zM138 602q-31 28 -35 72q0 10 10 10h34
q10 0 10 -10q4 -23 19.5 -38t37.5 -15t37 15t18 38q1 10 11 10h34q5 0 7.5 -3t1.5 -7q-3 -44 -33.5 -72t-75.5 -28t-76 28z" />
    <glyph glyph-name="Uring" unicode="&#x16e;" horiz-adv-x="477" 
d="M106.5 46.5q-49.5 54.5 -49.5 143.5v500q0 10 10 10h76q10 0 10 -10v-510q0 -47 23.5 -76t61.5 -29q39 0 62.5 29t23.5 76v510q0 10 10 10h76q10 0 10 -10v-500q0 -89 -50 -143.5t-132 -54.5t-131.5 54.5zM158.5 797q-32.5 33 -32.5 81t32.5 80.5t80.5 32.5
q47 0 79.5 -32.5t32.5 -80.5t-32.5 -81t-79.5 -33q-48 0 -80.5 33zM280 835.5q17 17.5 17 42.5t-17 42.5t-41 17.5t-41.5 -17.5t-17.5 -42.5t17.5 -42.5t41.5 -17.5t41 17.5z" />
    <glyph glyph-name="uring" unicode="&#x16f;" 
d="M293 509h76q10 0 10 -10v-489q0 -10 -10 -10h-76q-10 0 -10 10v29q0 3 -1.5 3t-3.5 -2q-30 -47 -96 -47q-60 0 -97 36.5t-37 111.5v358q0 10 10 10h76q10 0 10 -10v-337q0 -86 68 -86q34 0 52.5 24.5t18.5 67.5v331q0 10 10 10zM133.5 606q-32.5 33 -32.5 81t32.5 80.5
t80.5 32.5q47 0 79.5 -32.5t32.5 -80.5t-32.5 -81t-79.5 -33q-48 0 -80.5 33zM255 644.5q17 17.5 17 42.5t-17 42.5t-41 17.5t-41.5 -17.5t-17.5 -42.5t17.5 -42.5t41.5 -17.5t41 17.5z" />
    <glyph glyph-name="Uhungarumlaut" unicode="&#x170;" horiz-adv-x="477" 
d="M106.5 46.5q-49.5 54.5 -49.5 143.5v500q0 10 10 10h76q10 0 10 -10v-510q0 -47 23.5 -76t61.5 -29q39 0 62.5 29t23.5 76v510q0 10 10 10h76q10 0 10 -10v-500q0 -89 -50 -143.5t-132 -54.5t-131.5 54.5zM137 767.5q-2 3.5 0 8.5l54 108q3 7 12 7h63q6 0 8.5 -3.5
t-0.5 -8.5l-59 -108q-3 -7 -12 -7h-59q-5 0 -7 3.5zM273.5 767.5q-2.5 3.5 0.5 8.5l58 108q3 7 12 7h59q6 0 8.5 -3.5t-0.5 -8.5l-59 -108q-3 -7 -12 -7h-58q-6 0 -8.5 3.5z" />
    <glyph glyph-name="uhungarumlaut" unicode="&#x171;" 
d="M293 509h76q10 0 10 -10v-489q0 -10 -10 -10h-76q-10 0 -10 10v29q0 3 -1.5 3t-3.5 -2q-30 -47 -96 -47q-60 0 -97 36.5t-37 111.5v358q0 10 10 10h76q10 0 10 -10v-337q0 -86 68 -86q34 0 52.5 24.5t18.5 67.5v331q0 10 10 10zM112 576.5q-2 3.5 0 8.5l54 108q3 7 12 7
h63q6 0 8.5 -3.5t-0.5 -8.5l-59 -108q-3 -7 -12 -7h-59q-5 0 -7 3.5zM248.5 576.5q-2.5 3.5 0.5 8.5l58 108q3 7 12 7h59q6 0 8.5 -3.5t-0.5 -8.5l-59 -108q-3 -7 -12 -7h-58q-6 0 -8.5 3.5z" />
    <glyph glyph-name="Uogonek" unicode="&#x172;" horiz-adv-x="477" 
d="M334 700h76q10 0 10 -10v-500q0 -80 -40.5 -132.5t-109.5 -63.5q-3 0 -5 -2q-38 -40 -38 -76q0 -41 37 -41q7 0 10 1h2q7 0 9 -8l5 -32v-2q0 -7 -8 -10q-20 -4 -35 -4q-68 0 -82 60q-2 8 -2 24q0 48 35 87q3 3 -1 5q-64 13 -102 65t-38 129v500q0 10 10 10h76
q10 0 10 -10v-510q0 -47 23.5 -76t61.5 -29q39 0 62.5 29t23.5 76v510q0 10 10 10z" />
    <glyph glyph-name="uogonek" unicode="&#x173;" 
d="M375 -132q8 0 9 -7l5 -32v-2q0 -7 -8 -9q-17 -5 -37 -5q-34 0 -58.5 19.5t-24.5 65.5q0 53 47 97q3 5 -2 5h-13q-10 0 -10 10v29q0 3 -1.5 3t-3.5 -2q-30 -47 -96 -47q-60 0 -97 36.5t-37 111.5v358q0 10 10 10h76q10 0 10 -10v-337q0 -86 68 -86q34 0 52.5 24.5
t18.5 67.5v331q0 10 10 10h76q10 0 10 -10v-499l-5 -5q-48 -45 -48 -85q0 -7 1 -11q2 -16 11.5 -24t23.5 -8q7 0 10 1h3z" />
    <glyph glyph-name="Wcircumflex" unicode="&#x174;" horiz-adv-x="641" 
d="M159 9l-133 680v2q0 9 9 9h79q10 0 11 -9l81 -469q1 -2 2 -2t2 2l72 469q1 9 10 9h67q9 0 10 -9l77 -469q1 -2 2 -2t2 2l74 469q2 9 10 9h78q5 0 7.5 -3t1.5 -8l-126 -680q-1 -9 -11 -9h-71q-8 0 -10 9l-76 473q-1 2 -2.5 2t-1.5 -2l-72 -473q-1 -9 -10 -9h-71
q-9 0 -11 9zM196.5 771.5q-1.5 3.5 1.5 8.5l65 104q5 7 12 7h85q7 0 12 -7l68 -104q2 -4 2 -6q0 -6 -8 -6h-61q-7 0 -12 7l-39 68q-1 2 -3 2t-3 -2l-39 -68q-5 -7 -12 -7h-61q-6 0 -7.5 3.5z" />
    <glyph glyph-name="wcircumflex" unicode="&#x175;" horiz-adv-x="575" 
d="M128 9l-107 489v2q0 9 9 9h73q10 0 11 -9l62 -345q1 -2 2 -2t2 2l63 345q2 9 11 9h66q10 0 11 -9l65 -345q1 -2 2 -2t2 2l63 345q2 9 11 9l72 -1q5 0 7.5 -3t1.5 -8l-108 -488q-1 -9 -11 -9h-75q-9 0 -11 9l-63 328q-1 2 -2 2t-2 -2l-61 -328q-1 -9 -11 -9h-72
q-9 0 -11 9zM163.5 580.5q-1.5 3.5 1.5 8.5l65 104q5 7 12 7h85q7 0 12 -7l68 -104q2 -4 2 -6q0 -6 -8 -6h-61q-7 0 -12 7l-39 68q-1 2 -3 2t-3 -2l-39 -68q-5 -7 -12 -7h-61q-6 0 -7.5 3.5z" />
    <glyph glyph-name="Ycircumflex" unicode="&#x176;" horiz-adv-x="442" 
d="M173 11v286l-1 5l-139 387l-1 4q0 7 9 7h80q9 0 12 -8l85 -276q1 -2 3 -2t3 2l85 276q3 8 12 8h80q11 0 8 -11l-139 -387l-1 -5v-286q0 -10 -10 -10h-76q-10 0 -10 10zM97.5 771.5q-1.5 3.5 1.5 8.5l65 104q5 7 12 7h85q7 0 12 -7l68 -104q2 -4 2 -6q0 -6 -8 -6h-61
q-7 0 -12 7l-39 68q-1 2 -3 2t-3 -2l-39 -68q-5 -7 -12 -7h-61q-6 0 -7.5 3.5z" />
    <glyph glyph-name="ycircumflex" unicode="&#x177;" horiz-adv-x="387" 
d="M38 -196q-2 3 -2 7v59q0 10 10 10q32 1 50.5 10t30 34t19.5 73l-1 5l-128 496l-1 3q0 8 10 8h82q10 0 11 -9l73 -361q1 -3 2 -3t2 3l72 361q2 9 11 9l83 -1q5 0 7.5 -3t0.5 -8l-137 -532q-19 -69 -38 -102.5t-52.5 -47.5t-95.5 -14h-5q-2 0 -4 3zM70.5 580.5
q-1.5 3.5 1.5 8.5l65 104q5 7 12 7h85q7 0 12 -7l68 -104q2 -4 2 -6q0 -6 -8 -6h-61q-7 0 -12 7l-39 68q-1 2 -3 2t-3 -2l-39 -68q-5 -7 -12 -7h-61q-6 0 -7.5 3.5z" />
    <glyph glyph-name="Ydieresis" unicode="&#x178;" horiz-adv-x="442" 
d="M173 11v286l-1 5l-139 387l-1 4q0 7 9 7h80q9 0 12 -8l85 -276q1 -2 3 -2t3 2l85 276q3 8 12 8h80q11 0 8 -11l-139 -387l-1 -5v-286q0 -10 -10 -10h-76q-10 0 -10 10zM256 798q-18 18 -18 46t18 46t46 18t46 -18t18 -46t-18 -46t-46 -18t-46 18zM94 798q-18 18 -18 46
t18 46t46 18t46 -18t18 -46t-18 -46t-46 -18t-46 18z" />
    <glyph glyph-name="Zacute" unicode="&#x179;" horiz-adv-x="401" 
d="M29 10v67q0 5 3 12l232 523q1 2 0 3.5t-3 1.5h-222q-10 0 -10 10v63q0 10 10 10h319q10 0 10 -10v-67q0 -4 -3 -12l-233 -523q-1 -2 0 -3.5t3 -1.5h223q10 0 10 -10v-63q0 -10 -10 -10h-319q-10 0 -10 10zM149 767.5q-2 3.5 1 8.5l62 108q5 7 12 7h61q6 0 8 -3.5t-1 -8.5
l-74 -109q-4 -6 -12 -6h-49q-6 0 -8 3.5z" />
    <glyph glyph-name="zacute" unicode="&#x17a;" horiz-adv-x="365" 
d="M28 10v70q0 7 3 13l187 323q1 2 0 3.5t-3 1.5h-173q-10 0 -10 10v68q0 10 10 10h283q10 0 10 -10v-71q0 -7 -3 -13l-192 -323q-1 -2 0 -3.5t3 -1.5h185q10 0 10 -10v-67q0 -10 -10 -10h-290q-10 0 -10 10zM134 576.5q-2 3.5 1 8.5l62 108q5 7 12 7h61q6 0 8 -3.5t-1 -8.5
l-74 -109q-4 -6 -12 -6h-49q-6 0 -8 3.5z" />
    <glyph glyph-name="Zdotaccent" unicode="&#x17b;" horiz-adv-x="401" 
d="M29 10v67q0 5 3 12l232 523q1 2 0 3.5t-3 1.5h-222q-10 0 -10 10v63q0 10 10 10h319q10 0 10 -10v-67q0 -4 -3 -12l-233 -523q-1 -2 0 -3.5t3 -1.5h223q10 0 10 -10v-63q0 -10 -10 -10h-319q-10 0 -10 10zM154 798q-18 18 -18 46t18 46t46 18t46 -18t18 -46t-18 -46
t-46 -18t-46 18z" />
    <glyph glyph-name="zdotaccent" unicode="&#x17c;" horiz-adv-x="365" 
d="M28 10v70q0 7 3 13l187 323q1 2 0 3.5t-3 1.5h-173q-10 0 -10 10v68q0 10 10 10h283q10 0 10 -10v-71q0 -7 -3 -13l-192 -323q-1 -2 0 -3.5t3 -1.5h185q10 0 10 -10v-67q0 -10 -10 -10h-290q-10 0 -10 10zM139 607q-18 18 -18 46t18 46t46 18t46 -18t18 -46t-18 -46
t-46 -18t-46 18z" />
    <glyph glyph-name="Zcaron" unicode="&#x17d;" horiz-adv-x="401" 
d="M29 10v67q0 5 3 12l232 523q1 2 0 3.5t-3 1.5h-222q-10 0 -10 10v63q0 10 10 10h319q10 0 10 -10v-67q0 -4 -3 -12l-233 -523q-1 -2 0 -3.5t3 -1.5h223q10 0 10 -10v-63q0 -10 -10 -10h-319q-10 0 -10 10zM79 885q0 6 8 6h61q7 0 12 -7l39 -68q1 -1 3 -1t3 1l39 68
q5 7 12 7h61q6 0 7.5 -3.5t-1.5 -8.5l-68 -104q-5 -7 -12 -7h-85q-7 0 -12 7l-65 104q-2 4 -2 6z" />
    <glyph glyph-name="zcaron" unicode="&#x17e;" horiz-adv-x="365" 
d="M28 10v70q0 7 3 13l187 323q1 2 0 3.5t-3 1.5h-173q-10 0 -10 10v68q0 10 10 10h283q10 0 10 -10v-71q0 -7 -3 -13l-192 -323q-1 -2 0 -3.5t3 -1.5h185q10 0 10 -10v-67q0 -10 -10 -10h-290q-10 0 -10 10zM64 694q0 6 8 6h61q7 0 12 -7l39 -68q1 -1 3 -1t3 1l39 68
q5 7 12 7h61q6 0 7.5 -3.5t-1.5 -8.5l-68 -104q-5 -7 -12 -7h-85q-7 0 -12 7l-65 104q-2 4 -2 6z" />
    <glyph glyph-name="uni018F" unicode="&#x18f;" horiz-adv-x="528" 
d="M376 681.5q49 -26.5 76 -75t27 -111.5v-293q0 -62 -27 -110.5t-76.5 -75.5t-114.5 -27t-114.5 27t-76.5 75.5t-27 110.5v169q0 10 10 10h326q4 0 4 4v104q0 59 -34 97t-88 38q-45 0 -74 -28t-38 -75q-3 -9 -11 -9l-82 4q-5 0 -7.5 3t-1.5 8q10 84 66.5 132.5t147.5 48.5
q66 0 115 -26.5zM349 111q34 38 34 98v80q0 4 -4 4h-237q-4 0 -4 -4v-80q0 -59 34.5 -97.5t88.5 -38.5t88 38z" />
    <glyph glyph-name="florin" unicode="&#x192;" horiz-adv-x="472" 
d="M284 671.5q36 37.5 107 37.5q19 0 43 -3q5 -1 7.5 -3t2.5 -7l-2 -66q0 -10 -10 -10h-26q-35 0 -52.5 -23.5t-24.5 -70.5l-20 -125q0 -4 3 -4h67q10 0 10 -10v-50q0 -10 -10 -10h-79q-5 0 -5 -4l-61 -376q-13 -80 -49 -118t-108 -38q-20 0 -42 3q-5 1 -7.5 3t-2.5 7l2 66
q0 10 10 10h25q35 0 52.5 24t24.5 70l58 349q0 4 -3 4h-53q-10 0 -10 10v50q0 10 10 10h64q5 0 5 4l25 152q13 81 49 118.5z" />
    <glyph glyph-name="Ohorn" unicode="&#x1a0;" horiz-adv-x="462" 
d="M353 667q29 -24 45 -61t16 -82v-349q0 -83 -50.5 -133t-133.5 -50q-82 0 -132 50t-50 133v349q0 83 50 133.5t132 50.5q26 0 57 -7q1 -1 4 -1q24 2 40.5 19.5t19.5 51.5q0 10 10 10h34q10 0 10 -14q-6 -66 -52 -95q-3 -2 0 -5zM318 529q0 43 -24 69.5t-64 26.5
q-39 0 -62.5 -26.5t-23.5 -69.5v-358q0 -43 23.5 -69.5t62.5 -26.5q40 0 64 26.5t24 69.5v358z" />
    <glyph glyph-name="ohorn" unicode="&#x1a1;" horiz-adv-x="424" 
d="M334 475q23 -21 35.5 -51t12.5 -66v-207q0 -72 -46 -115.5t-124 -43.5t-123.5 43.5t-45.5 115.5v207q0 71 46 115t123 44q26 0 57 -7q1 -1 4 -1q24 2 40.5 19.5t19.5 51.5q0 10 10 10h34q5 0 7.5 -3.5t1.5 -10.5q-4 -66 -52 -96q-4 -2 0 -5zM265 411q-21 23 -53 23
t-52.5 -23t-20.5 -59v-194q0 -37 20.5 -59.5t52.5 -22.5t53 22.5t21 59.5v194q0 36 -21 59z" />
    <glyph glyph-name="Uhorn" unicode="&#x1af;" horiz-adv-x="477" 
d="M498 771q-2 -43 -22 -70.5t-53 -39.5q-3 -1 -3 -4v-467q0 -89 -50 -143.5t-132 -54.5t-131.5 54.5t-49.5 143.5v500q0 10 10 10h76q10 0 10 -10v-510q0 -47 23.5 -76t61.5 -29q39 0 62.5 29t23.5 76v510q0 10 10 10h45q25 0 43.5 17.5t21.5 53.5q0 10 10 10h34
q10 0 10 -10z" />
    <glyph glyph-name="uhorn" unicode="&#x1b0;" 
d="M455 580q-2 -42 -21.5 -70t-51.5 -39q-3 -1 -3 -4v-457q0 -10 -10 -10h-76q-10 0 -10 10v29q0 3 -1.5 3t-3.5 -2q-30 -47 -96 -47q-60 0 -97 36.5t-37 111.5v358q0 10 10 10h76q10 0 10 -10v-337q0 -86 68 -86q34 0 52.5 24.5t18.5 67.5v331q0 10 10 10h43
q25 0 43.5 17.5t21.5 53.5q0 10 10 10h34q10 0 10 -10z" />
    <glyph glyph-name="uni01CD" unicode="&#x1cd;" horiz-adv-x="436" 
d="M325 9l-22 115q0 2 -1.5 3t-3.5 1h-163q-2 0 -3.5 -1t-1.5 -3l-21 -115q-1 -9 -11 -9h-76q-5 0 -7.5 3t-1.5 8l149 680q2 9 11 9h89q10 0 11 -9l150 -680v-2q0 -9 -9 -9h-78q-9 0 -11 9zM150 204h133q3 0 3 4l-68 355q-1 2 -2 2t-2 -2l-67 -355q0 -4 3 -4zM96 883
q0 6 8 6h61q7 0 12 -7l39 -68q1 -1 3 -1t3 1l39 68q5 7 12 7h61q6 0 7.5 -3.5t-1.5 -8.5l-68 -104q-5 -7 -12 -7h-85q-7 0 -12 7l-65 104q-2 4 -2 6z" />
    <glyph glyph-name="uni01CE" unicode="&#x1ce;" horiz-adv-x="423" 
d="M335.5 471q46.5 -46 46.5 -121v-340q0 -10 -10 -10h-76q-10 0 -10 10v22q0 2 -1.5 3t-3.5 -1q-35 -42 -103 -42q-57 0 -100.5 32.5t-43.5 115.5q0 87 52.5 127.5t137.5 40.5h58q4 0 4 4v29q0 42 -20 67.5t-52 25.5q-25 0 -42 -17t-20 -44q0 -10 -10 -10h-81q-10 0 -10 10
q5 64 51 104t114 40q73 0 119.5 -46zM260 98q26 22 26 62v68q0 4 -4 4h-61q-40 0 -64 -21.5t-24 -62.5q0 -36 18 -54t48 -18q35 0 61 22zM90 692q0 6 8 6h61q7 0 12 -7l39 -68q1 -1 3 -1t3 1l39 68q5 7 12 7h61q6 0 7.5 -3.5t-1.5 -8.5l-68 -104q-5 -7 -12 -7h-85
q-7 0 -12 7l-65 104q-2 4 -2 6z" />
    <glyph glyph-name="uni01D4" unicode="&#x1d4;" 
d="M293 509h76q10 0 10 -10v-489q0 -10 -10 -10h-76q-10 0 -10 10v29q0 3 -1.5 3t-3.5 -2q-30 -47 -96 -47q-60 0 -97 36.5t-37 111.5v358q0 10 10 10h76q10 0 10 -10v-337q0 -86 68 -86q34 0 52.5 24.5t18.5 67.5v331q0 10 10 10zM91 692q0 6 8 6h61q7 0 12 -7l39 -68
q1 -1 3 -1t3 1l39 68q5 7 12 7h61q6 0 7.5 -3.5t-1.5 -8.5l-68 -104q-5 -7 -12 -7h-85q-7 0 -12 7l-65 104q-2 4 -2 6z" />
    <glyph glyph-name="uni01E5" unicode="&#x1e5;" 
d="M428 274v-41q0 -10 -10 -10h-36q-4 0 -4 -4v-204q0 -105 -48 -162.5t-165 -57.5l-27 1q-10 1 -10 11v64q0 10 11 10q82 -3 112.5 32.5t30.5 110.5v21q0 2 -1.5 2.5t-3.5 -1.5q-34 -46 -97 -46q-66 0 -101.5 42.5t-35.5 115.5v200q0 74 36 116.5t101 42.5t97 -46
q2 -2 3.5 -1t1.5 3v26q0 10 10 10h76q10 0 10 -10v-211q0 -4 4 -4h36q10 0 10 -10zM262.5 105.5q19.5 22.5 19.5 58.5v55q0 4 -4 4h-66q-10 0 -10 10v41q0 10 10 10h66q4 0 4 4v64q0 36 -19.5 59t-51.5 23t-52 -23t-20 -59v-188q0 -36 20 -58.5t52 -22.5t51.5 22.5z" />
    <glyph glyph-name="gcaron" unicode="&#x1e7;" horiz-adv-x="423" 
d="M292 509h76q10 0 10 -10v-484q0 -105 -48 -162.5t-165 -57.5l-27 1q-10 1 -10 11v64q0 10 11 10q82 -3 112.5 32.5t30.5 110.5v21q0 2 -1.5 2.5t-3.5 -1.5q-34 -46 -97 -46q-66 0 -101.5 42.5t-35.5 115.5v200q0 74 36 116.5t101 42.5t97 -46q2 -2 3.5 -1t1.5 3v26
q0 10 10 10zM262.5 105.5q19.5 22.5 19.5 58.5v188q0 36 -19.5 59t-51.5 23t-52 -23t-20 -59v-188q0 -36 20 -58.5t52 -22.5t51.5 22.5zM91 692q0 6 8 6h61q7 0 12 -7l39 -68q1 -1 3 -1t3 1l39 68q5 7 12 7h61q6 0 7.5 -3.5t-1.5 -8.5l-68 -104q-5 -7 -12 -7h-85q-7 0 -12 7
l-65 104q-2 4 -2 6z" />
    <glyph glyph-name="uni01E9" unicode="&#x1e9;" horiz-adv-x="421" 
d="M52 10v680q0 10 10 10h76q10 0 10 -10v-379q0 -3 2 -4t3 2l129 194q5 6 12 6h78q6 0 8 -3.5t-1 -8.5l-103 -152q-3 -3 -1 -6l120 -328l1 -4q0 -7 -9 -7h-79q-9 0 -12 8l-80 251q-1 6 -6 1l-60 -87q-2 -2 -2 -5v-158q0 -10 -10 -10h-76q-10 0 -10 10zM92 883q0 6 8 6h61
q7 0 12 -7l39 -68q1 -1 3 -1t3 1l39 68q5 7 12 7h61q6 0 7.5 -3.5t-1.5 -8.5l-68 -104q-5 -7 -12 -7h-85q-7 0 -12 7l-65 104q-2 4 -2 6z" />
    <glyph glyph-name="uni01EF" unicode="&#x1ef;" horiz-adv-x="431" 
d="M208 253q90 -16 138.5 -78t48.5 -147q0 -73 -34 -125.5t-91 -80t-123 -27.5q-44 0 -92 14q-8 3 -8 12l3 65q0 11 11 8q32 -12 76 -12q67 0 114.5 36.5t47.5 115.5q0 61 -34.5 102.5t-109.5 41.5q-26 0 -57 -6h-3q-6 0 -9 6l-20 48q-1 2 -1 5q0 5 4 9l170 176q3 5 -2 5
h-182q-10 0 -10 10v68q0 10 10 10h298q10 0 10 -10v-71q0 -7 -5 -12l-152 -158q-3 -3 2 -5zM91 692q0 6 8 6h61q7 0 12 -7l39 -68q1 -1 3 -1t3 1l39 68q5 7 12 7h61q6 0 7.5 -3.5t-1.5 -8.5l-68 -104q-5 -7 -12 -7h-85q-7 0 -12 7l-65 104q-2 4 -2 6z" />
    <glyph glyph-name="oslashacute" unicode="&#x1ff;" horiz-adv-x="424" 
d="M388 522q1 -4 -1 -8l-29 -59q-1 -2 1 -6q25 -39 25 -91v-207q0 -73 -45.5 -116t-123.5 -43q-38 0 -69 11q-5 2 -6 -2l-21 -46q-5 -10 -14 -4l-50 30q-4 2 -5 6t1 8l26 52q1 2 -1 6q-31 37 -31 98v207q0 71 46 115t124 44q45 0 75 -13q5 -2 6 2l23 49q2 4 6 5t8 -1l50 -31
q4 -2 5 -6zM142.5 190q1.5 0 3.5 2l108 227q1 4 -1 5q-16 10 -38 10q-33 0 -53.5 -23t-20.5 -59v-159q0 -3 1.5 -3zM286.5 300q-1.5 0 -3.5 -2l-101 -210q-2 -5 2 -6q14 -6 31 -6q32 0 52.5 22.5t20.5 59.5v139q0 3 -1.5 3zM161 576.5q-2 3.5 1 8.5l62 108q5 7 12 7h61
q6 0 8 -3.5t-1 -8.5l-74 -109q-4 -6 -12 -6h-49q-6 0 -8 3.5z" />
    <glyph glyph-name="uni0218" unicode="&#x218;" horiz-adv-x="426" 
d="M86.5 41.5q-48.5 49.5 -48.5 129.5v26q0 10 10 10h74q10 0 10 -10v-21q0 -46 23 -73.5t59 -27.5t59.5 26.5t23.5 69.5q0 29 -12.5 51t-33 39.5t-66.5 51.5q-51 38 -80 65t-49 65t-20 89q0 81 48 128.5t125 47.5q80 0 128.5 -51t48.5 -134v-25q0 -10 -10 -10h-74
q-10 0 -10 10v27q0 45 -23 72.5t-60 27.5q-35 0 -57 -24.5t-22 -68.5q0 -40 22 -67.5t85 -73.5q60 -45 90.5 -73t47 -61.5t16.5 -79.5q0 -84 -49 -134.5t-128 -50.5t-127.5 49.5zM151 -189.5q-2 3.5 1 8.5l62 108q5 7 12 7h61q6 0 8 -3.5t-1 -8.5l-74 -109q-4 -6 -12 -6h-49
q-6 0 -8 3.5z" />
    <glyph glyph-name="uni0219" unicode="&#x219;" horiz-adv-x="388" 
d="M78.5 30.5q-43.5 36.5 -43.5 98.5v9q0 10 10 10h71q10 0 10 -10v-7q0 -27 21 -45.5t52 -18.5q30 0 48.5 18t18.5 46q0 22 -13 37t-30.5 23.5t-53.5 23.5q-39 17 -64.5 33t-45.5 46t-20 76q0 68 42.5 106t114.5 38q74 0 116.5 -39t42.5 -106v-3q0 -10 -10 -10h-69
q-10 0 -10 10v7q0 27 -19 46t-49 19q-31 0 -49 -19t-18 -46q0 -21 12 -35t29 -22.5t54 -24.5q41 -18 68 -34.5t47.5 -46.5t20.5 -75q0 -65 -44.5 -103t-120.5 -38q-75 0 -118.5 36.5zM138 -187.5q-2 3.5 1 8.5l62 108q5 7 12 7h61q6 0 8 -3.5t-1 -8.5l-74 -109q-4 -6 -12 -6
h-49q-6 0 -8 3.5z" />
    <glyph glyph-name="uni021A" unicode="&#x21a;" horiz-adv-x="439" 
d="M409 690v-63q0 -10 -10 -10h-131q-4 0 -4 -4v-603q0 -10 -10 -10h-76q-10 0 -10 10v603q0 4 -4 4h-124q-10 0 -10 10v63q0 10 10 10h359q10 0 10 -10zM96 -183.5q-2 3.5 1 8.5l62 108q5 7 12 7h61q6 0 8 -3.5t-1 -8.5l-74 -109q-4 -6 -12 -6h-49q-6 0 -8 3.5z" />
    <glyph glyph-name="uni021B" unicode="&#x21b;" horiz-adv-x="275" 
d="M241 439h-70q-4 0 -4 -4v-281q0 -40 14 -55.5t44 -14.5h9q10 0 10 -10v-64q0 -10 -10 -10h-31q-64 0 -96.5 25t-32.5 95v315q0 4 -4 4h-39q-10 0 -10 10v50q0 10 10 10h39q4 0 4 4v113q0 10 10 10h73q10 0 10 -10v-113q0 -4 4 -4h70q10 0 10 -10v-50q0 -10 -10 -10z
M101 -172.5q-2 3.5 1 8.5l62 108q5 7 12 7h61q6 0 8 -3.5t-1 -8.5l-74 -109q-4 -6 -12 -6h-49q-6 0 -8 3.5z" />
    <glyph glyph-name="uni021F" unicode="&#x21f;" 
d="M351.5 473.5q33.5 -42.5 33.5 -120.5v-343q0 -10 -10 -10h-76q-10 0 -10 10v335q0 42 -18 65t-50 23q-33 0 -51.5 -22.5t-20.5 -63.5q0 -6 -1 -6v-331q0 -10 -10 -10h-76q-10 0 -10 10v680q0 10 10 10h76q10 0 10 -10v-218q0 -2 2 -2.5t4 2.5q36 44 101 44
q63 0 96.5 -42.5zM101 883q0 6 8 6h61q7 0 12 -7l39 -68q1 -1 3 -1t3 1l39 68q5 7 12 7h61q6 0 7.5 -3.5t-1.5 -8.5l-68 -104q-5 -7 -12 -7h-85q-7 0 -12 7l-65 104q-2 4 -2 6z" />
    <glyph glyph-name="uni0228" unicode="&#x228;" 
d="M387 617h-225q-4 0 -4 -4v-217q0 -4 4 -4h138q10 0 10 -10v-63q0 -10 -10 -10h-138q-4 0 -4 -4v-218q0 -4 4 -4h225q10 0 10 -10v-63q0 -10 -10 -10h-121q-2 0 -3 -1.5t1 -3.5q36 -40 36 -88q0 -46 -24 -65t-59 -19q-19 0 -36 5q-9 3 -8 12l5 32q1 9 12 7q4 -1 10 -1
q16 0 26 10.5t10 31.5q0 37 -41 78q-2 2 -5 2h-118q-10 0 -10 10v680q0 10 10 10h315q10 0 10 -10v-63q0 -10 -10 -10z" />
    <glyph glyph-name="uni0229" unicode="&#x229;" horiz-adv-x="418" 
d="M369 215h-226q-4 0 -4 -4v-54q0 -36 20 -59t52 -23q28 0 47 17t24 44q3 8 11 8l74 -4q5 0 7.5 -3t1.5 -7q-6 -55 -37 -90t-84 -44q-6 -1 -2 -5q32 -38 32 -83q0 -46 -24 -65.5t-59 -19.5q-19 0 -36 5q-9 3 -8 12l4 31q1 4 4 6.5t8 1.5q4 -1 10 -1q16 0 26.5 10t10.5 31
q0 35 -36 73q-2 2 -5 2q-63 8 -100 50t-37 106v208q0 71 45.5 115t122.5 44q78 0 123 -44t45 -115v-133q0 -10 -10 -10zM159 411q-20 -23 -20 -59v-53q0 -4 4 -4h137q4 0 4 4v53q0 36 -20 59t-53 23q-32 0 -52 -23z" />
    <glyph glyph-name="uni0237" unicode="&#x237;" horiz-adv-x="206" 
d="M-39 -197v63q0 10 10 10q81 1 81 96v527q0 10 10 10h76q10 0 10 -10v-527q0 -62 -12.5 -99.5t-50.5 -58.5t-111 -21q-13 0 -13 10z" />
    <glyph glyph-name="uni0259" unicode="&#x259;" horiz-adv-x="418" 
d="M329.5 474q45.5 -43 45.5 -115v-208q0 -71 -45.5 -115t-122.5 -44q-78 0 -123.5 44t-45.5 115v133q0 10 10 10h227q4 0 4 4v54q0 36 -20 59t-52 23q-28 0 -47 -17t-24 -44q-3 -8 -11 -8l-75 4q-10 0 -9 9q8 66 50.5 102.5t115.5 36.5q77 0 122.5 -43zM259 98q20 23 20 59
v53q0 4 -4 4h-138q-4 0 -4 -4v-53q0 -36 20.5 -59t53.5 -23q32 0 52 23z" />
    <glyph glyph-name="uni0292" unicode="&#x292;" horiz-adv-x="430" 
d="M208 253q90 -16 138.5 -78t48.5 -147q0 -73 -34 -125.5t-91 -80t-123 -27.5q-44 0 -92 14q-8 3 -8 12l3 65q0 11 11 8q32 -12 76 -12q67 0 114.5 36.5t47.5 115.5q0 61 -34.5 102.5t-109.5 41.5q-26 0 -57 -6h-3q-6 0 -9 6l-20 48q-1 2 -1 5q0 5 4 9l170 176q3 5 -2 5
h-182q-10 0 -10 10v68q0 10 10 10h298q10 0 10 -10v-71q0 -7 -5 -12l-152 -158q-3 -3 2 -5z" />
    <glyph glyph-name="uni02BB" unicode="&#x2bb;" horiz-adv-x="146" 
d="M3 693q0 7 9 7h77q9 0 11 -9l44 -192v-2q0 -9 -9 -9h-56q-9 0 -12 8l-63 193z" />
    <glyph glyph-name="uni02BC" unicode="&#x2bc;" horiz-adv-x="146" 
d="M142 689l-62 -193q-3 -8 -12 -8h-57q-5 0 -7.5 3t-0.5 8l44 192q2 9 11 9h76q11 0 8 -11z" />
    <glyph glyph-name="circumflex" unicode="&#x2c6;" horiz-adv-x="257" 
d="M24.5 580.5q-1.5 3.5 1.5 8.5l65 104q5 7 12 7h85q7 0 12 -7l68 -104q2 -4 2 -6q0 -6 -8 -6h-61q-7 0 -12 7l-39 68q-1 2 -3 2t-3 -2l-39 -68q-5 -7 -12 -7h-61q-6 0 -7.5 3.5z" />
    <glyph glyph-name="caron" unicode="&#x2c7;" horiz-adv-x="296" 
d="M25 694q0 6 8 6h61q7 0 12 -7l39 -68q1 -1 3 -1t3 1l39 68q5 7 12 7h61q6 0 7.5 -3.5t-1.5 -8.5l-68 -104q-5 -7 -12 -7h-85q-7 0 -12 7l-65 104q-2 4 -2 6z" />
    <glyph glyph-name="uni02C9" unicode="&#x2c9;" horiz-adv-x="209" 
d="M0 643v47q0 10 10 10h189q10 0 10 -10v-47q0 -10 -10 -10h-189q-10 0 -10 10z" />
    <glyph glyph-name="breve" unicode="&#x2d8;" horiz-adv-x="259" 
d="M53.5 583q-30.5 28 -34.5 72q0 10 10 10h34q10 0 11 -10q3 -24 18.5 -39t37.5 -15t37.5 15t17.5 39q1 10 11 10h34q10 0 10 -10q-4 -44 -34 -72t-76 -28t-76.5 28z" />
    <glyph glyph-name="dotaccent" unicode="&#x2d9;" horiz-adv-x="166" 
d="M37 607q-18 18 -18 46t18 46t46 18t46 -18t18 -46t-18 -46t-46 -18t-46 18z" />
    <glyph glyph-name="ring" unicode="&#x2da;" horiz-adv-x="263" 
d="M51.5 606q-32.5 33 -32.5 81t32.5 80.5t80.5 32.5q47 0 79.5 -32.5t32.5 -80.5t-32.5 -81t-79.5 -33q-48 0 -80.5 33zM173 644.5q17 17.5 17 42.5t-17 42.5t-41 17.5t-41.5 -17.5t-17.5 -42.5t17.5 -42.5t41.5 -17.5t41 17.5z" />
    <glyph glyph-name="ogonek" unicode="&#x2db;" horiz-adv-x="132" 
d="M127 -173q0 -7 -8 -10q-20 -4 -36 -4q-35 0 -59 18.5t-24 64.5q0 55 45 97l4 4q3 3 10 3h41q7 0 8.5 -3.5t-3.5 -8.5q-41 -41 -41 -78q0 -22 10 -32.5t26 -10.5q7 0 10 1h3q8 0 9 -7l5 -32v-2z" />
    <glyph glyph-name="tilde" unicode="&#x2dc;" horiz-adv-x="316" 
d="M182.5 605q-11.5 5 -29.5 15q-5 3 -13.5 9t-15 8.5t-14.5 2.5q-13 0 -22.5 -5.5t-19.5 -20.5q-2 -4 -6 -5t-8 2l-28 20q-7 6 -3 13q13 30 34 45t46 15q16 0 30 -6t30 -17q4 -2 12 -8t16 -9t16 -3q12 0 22 5.5t19 20.5q4 9 14 3l27 -18q4 -3 4 -9q0 -4 -3 -10
q-15 -28 -38 -40.5t-45 -12.5q-13 0 -24.5 5z" />
    <glyph glyph-name="hungarumlaut" unicode="&#x2dd;" horiz-adv-x="329" 
d="M25 584.5q-2 3.5 1 8.5l61 108q5 7 12 7h60q6 0 8 -3.5t-1 -8.5l-73 -109q-4 -6 -12 -6h-48q-6 0 -8 3.5zM162 584.5q-2 3.5 1 8.5l61 108q5 7 12 7h60q6 0 8 -3.5t-1 -8.5l-73 -109q-4 -6 -12 -6h-48q-6 0 -8 3.5z" />
    <glyph glyph-name="gravecomb" unicode="&#x300;" horiz-adv-x="0" 
d="M-9 579q0 -6 -9 -6h-49q-8 0 -12 6l-74 109l-2 5q0 7 9 7h61q7 0 12 -7l62 -108q2 -4 2 -6z" />
    <glyph glyph-name="acutecomb" unicode="&#x301;" horiz-adv-x="0" 
d="M-155 576.5q-2 3.5 1 8.5l62 108q5 7 12 7h61q6 0 8 -3.5t-1 -8.5l-74 -109q-4 -6 -12 -6h-49q-6 0 -8 3.5z" />
    <glyph glyph-name="uni0302" unicode="&#x302;" horiz-adv-x="0" 
d="M-270.5 580.5q-1.5 3.5 1.5 8.5l65 104q5 7 12 7h85q7 0 12 -7l68 -104q2 -4 2 -6q0 -6 -8 -6h-61q-7 0 -12 7l-39 68q-1 2 -3 2t-3 -2l-39 -68q-5 -7 -12 -7h-61q-6 0 -7.5 3.5z" />
    <glyph glyph-name="tildecomb" unicode="&#x303;" horiz-adv-x="0" 
d="M-114.5 605q-11.5 5 -29.5 15q-5 3 -13.5 9t-15 8.5t-14.5 2.5q-13 0 -22.5 -5.5t-19.5 -20.5q-2 -4 -6 -5t-8 2l-28 20q-7 6 -3 13q13 30 34 45t46 15q16 0 30 -6t30 -17q4 -2 12 -8t16 -9t16 -3q12 0 22 5.5t19 20.5q4 9 14 3l27 -18q4 -3 4 -9q0 -4 -3 -10
q-15 -28 -38 -40.5t-45 -12.5q-13 0 -24.5 5z" />
    <glyph glyph-name="uni0304" unicode="&#x304;" horiz-adv-x="0" 
d="M-209 621v47q0 10 10 10h189q10 0 10 -10v-47q0 -10 -10 -10h-189q-10 0 -10 10z" />
    <glyph glyph-name="uni0306" unicode="&#x306;" horiz-adv-x="0" 
d="M-205 602q-31 28 -35 72q0 10 10 10h34q10 0 10 -10q4 -23 19.5 -38t37.5 -15t37 15t18 38q1 10 11 10h34q5 0 7.5 -3t1.5 -7q-3 -44 -33.5 -72t-75.5 -28t-76 28z" />
    <glyph glyph-name="uni0307" unicode="&#x307;" horiz-adv-x="0" 
d="M-116 607q-18 18 -18 46t18 46t46 18t46 -18t18 -46t-18 -46t-46 -18t-46 18z" />
    <glyph glyph-name="uni0308" unicode="&#x308;" horiz-adv-x="0" 
d="M-110 607q-18 18 -18 46t18 46t46 18t46 -18t18 -46t-18 -46t-46 -18t-46 18zM-272 607q-18 18 -18 46t18 46t46 18t46 -18t18 -46t-18 -46t-46 -18t-46 18z" />
    <glyph glyph-name="hookabovecomb" unicode="&#x309;" horiz-adv-x="0" 
d="M-331 556.5q-2 3.5 0 8.5q11 26 34 49q12 13 17 21.5t5 22.5q0 13 -10.5 22.5t-25.5 9.5q-17 0 -27.5 -7.5t-24.5 -26.5q-6 -9 -14 -3l-24 17q-8 6 -2 14q20 30 40 43t54 13q40 0 64.5 -22.5t24.5 -59.5q0 -22 -9.5 -37.5t-28.5 -35.5q-20 -18 -27 -32q-4 -7 -13 -6
l-26 5q-5 1 -7 4.5z" />
    <glyph glyph-name="uni030A" unicode="&#x30a;" horiz-adv-x="0" 
d="M-181.5 606q-32.5 33 -32.5 81t32.5 80.5t80.5 32.5q47 0 79.5 -32.5t32.5 -80.5t-32.5 -81t-79.5 -33q-48 0 -80.5 33zM-60 644.5q17 17.5 17 42.5t-17 42.5t-41 17.5t-41.5 -17.5t-17.5 -42.5t17.5 -42.5t41.5 -17.5t41 17.5z" />
    <glyph glyph-name="uni030B" unicode="&#x30b;" horiz-adv-x="0" 
d="M-299 576.5q-2 3.5 0 8.5l54 108q3 7 12 7h63q6 0 8.5 -3.5t-0.5 -8.5l-59 -108q-3 -7 -12 -7h-59q-5 0 -7 3.5zM-162.5 576.5q-2.5 3.5 0.5 8.5l58 108q3 7 12 7h59q6 0 8.5 -3.5t-0.5 -8.5l-59 -108q-3 -7 -12 -7h-58q-6 0 -8.5 3.5z" />
    <glyph glyph-name="uni030C" unicode="&#x30c;" horiz-adv-x="0" 
d="M-271 694q0 6 8 6h61q7 0 12 -7l39 -68q1 -1 3 -1t3 1l39 68q5 7 12 7h61q6 0 7.5 -3.5t-1.5 -8.5l-68 -104q-5 -7 -12 -7h-85q-7 0 -12 7l-65 104q-2 4 -2 6z" />
    <glyph glyph-name="uni0312" unicode="&#x312;" horiz-adv-x="0" 
d="M-25 696.5q2 -3.5 -1 -8.5l-61 -108q-5 -7 -12 -7h-61q-6 0 -8 3.5t1 8.5l74 109q4 6 12 6h48q6 0 8 -3.5z" />
    <glyph glyph-name="uni0313" unicode="&#x313;" horiz-adv-x="0" 
d="M-155 576.5q-2 3.5 1 8.5l62 108q5 7 12 7h61q6 0 8 -3.5t-1 -8.5l-74 -109q-4 -6 -12 -6h-49q-6 0 -8 3.5z" />
    <glyph glyph-name="uni031B" unicode="&#x31b;" horiz-adv-x="0" 
d="M-129 473v26q0 10 9 11q22 3 37.5 20.5t18.5 49.5q0 10 10 10h34q5 0 7.5 -3.5t1.5 -9.5q-4 -52 -34 -81.5t-74 -32.5q-10 0 -10 10z" />
    <glyph glyph-name="dotbelowcomb" unicode="&#x323;" horiz-adv-x="0" 
d="M-113.5 -191.5q-17.5 17.5 -17.5 43.5q0 27 17.5 44t43.5 17t43.5 -17t17.5 -44q0 -26 -17.5 -43.5t-43.5 -17.5t-43.5 17.5z" />
    <glyph glyph-name="uni0326" unicode="&#x326;" horiz-adv-x="0" 
d="M-178 -181.5q-2 3.5 1 8.5l62 108q5 7 12 7h61q6 0 8 -3.5t-1 -8.5l-74 -109q-4 -6 -12 -6h-49q-6 0 -8 3.5z" />
    <glyph glyph-name="uni0327" unicode="&#x327;" horiz-adv-x="0" 
d="M-127 -171l4 31q2 10 13 8q3 -1 9 -1q14 0 23.5 8t12.5 24q1 3 1 10q0 37 -42 79q-3 3 -3 7q0 5 8 5h42q7 0 10 -3l4 -4q46 -42 46 -96q0 -46 -24 -65t-58 -19q-21 0 -38 5q-9 2 -8 11z" />
    <glyph glyph-name="uni0328" unicode="&#x328;" horiz-adv-x="0" 
d="M-5 -174q0 -6 -7 -9q-20 -4 -36 -4q-35 0 -59.5 18.5t-24.5 64.5q0 56 44 97l4 4q4 3 10 3h42q7 0 8.5 -3.5t-3.5 -8.5q-41 -43 -41 -79q0 -22 10.5 -32t26.5 -10q6 0 9 1h3q8 0 9 -7l5 -32v-3z" />
    <glyph glyph-name="uni0335" unicode="&#x335;" horiz-adv-x="0" 
d="M-269 624h253q10 0 10 -10v-41q0 -10 -10 -10h-253q-10 0 -10 10v41q0 10 10 10z" />
    <glyph glyph-name="uni0336" unicode="&#x336;" horiz-adv-x="0" 
d="M-446 523v48q0 10 10 10h426q10 0 10 -10v-48q0 -10 -10 -10h-426q-10 0 -10 10z" />
    <glyph glyph-name="uni0337" unicode="&#x337;" horiz-adv-x="0" 
d="M-305 132q-4 0 -7 4l-35 42q-3 3 -3 7t4 7l357 275q2 2 6 2q5 0 8 -4l35 -42q3 -3 3 -7t-4 -7l-357 -274q-3 -3 -7 -3z" />
    <glyph glyph-name="uni0338" unicode="&#x338;" horiz-adv-x="0" 
d="M-399.5 -39.5q-2.5 3.5 -0.5 8.5l329 771q3 8 11 8h47q5 0 7.5 -3.5t0.5 -8.5l-330 -771q-3 -8 -11 -8h-46q-5 0 -7.5 3.5z" />
    <glyph glyph-name="uni0394" unicode="&#x394;" horiz-adv-x="514" 
d="M11 10v67q0 4 2 12l205 603q3 8 12 8h53q9 0 12 -8l206 -604q2 -8 2 -12v-66q0 -10 -10 -10h-472q-10 0 -10 10zM106.5 84.5q1.5 -1.5 3.5 -1.5h294q2 0 3.5 1.5t0.5 3.5l-148 482q-1 2 -3 2t-3 -2l-148 -482q-1 -2 0.5 -3.5z" />
    <glyph glyph-name="uni03A9" unicode="&#x3a9;" horiz-adv-x="487" 
d="M48 10v63q0 10 10 10h49q5 0 2 5q-48 46 -48 123v313q0 83 50.5 133.5t132.5 50.5q83 0 133.5 -50.5t50.5 -133.5v-313q0 -77 -49 -123q-3 -5 2 -5h48q10 0 10 -10v-63q0 -10 -10 -10h-154q-10 0 -10 10v64q0 8 9 11q24 7 41 32.5t17 60.5v351q0 43 -24 69.5t-64 26.5
q-39 0 -63 -26.5t-24 -69.5v-351q0 -35 16.5 -60t40.5 -32q9 -3 9 -11v-65q0 -10 -10 -10h-155q-10 0 -10 10z" />
    <glyph glyph-name="uni03BC" unicode="&#x3bc;" horiz-adv-x="437" 
d="M298 509h76q10 0 10 -10v-489q0 -10 -10 -10h-76q-10 0 -10 10v29q0 3 -1.5 3t-3.5 -2q-30 -47 -96 -47q-18 0 -35 3q-1 1 -2.5 -0.5t-1.5 -3.5v-182q0 -10 -10 -10h-76q-10 0 -10 10v689q0 10 10 10h77q10 0 10 -10v-337q0 -86 68 -86q33 0 52 24.5t19 67.5v331
q0 10 10 10z" />
    <glyph glyph-name="pi" unicode="&#x3c0;" horiz-adv-x="519" 
d="M480 427h-47q-4 0 -4 -4v-291q0 -32 10.5 -40.5t32.5 -7.5q10 0 10 -10v-64q0 -10 -10 -10q-44 -1 -71.5 2.5t-48 22t-20.5 59.5v339q0 4 -4 4h-135q-4 0 -4 -4v-413q0 -10 -10 -10h-76q-10 0 -10 10v413q0 4 -4 4h-50q-10 0 -10 10v62q0 10 10 10h441q10 0 10 -10v-62
q0 -10 -10 -10z" />
    <glyph glyph-name="Wgrave" unicode="&#x1e80;" horiz-adv-x="641" 
d="M159 9l-133 680v2q0 9 9 9h79q10 0 11 -9l81 -469q1 -2 2 -2t2 2l72 469q1 9 10 9h67q9 0 10 -9l77 -469q1 -2 2 -2t2 2l74 469q2 9 10 9h78q5 0 7.5 -3t1.5 -8l-126 -680q-1 -9 -11 -9h-71q-8 0 -10 9l-76 473q-1 2 -2.5 2t-1.5 -2l-72 -473q-1 -9 -10 -9h-71
q-9 0 -11 9zM352 770q0 -6 -9 -6h-49q-8 0 -12 6l-74 109l-2 5q0 7 9 7h61q7 0 12 -7l62 -108q2 -4 2 -6z" />
    <glyph glyph-name="wgrave" unicode="&#x1e81;" horiz-adv-x="575" 
d="M128 9l-107 489v2q0 9 9 9h73q10 0 11 -9l62 -345q1 -2 2 -2t2 2l63 345q2 9 11 9h66q10 0 11 -9l65 -345q1 -2 2 -2t2 2l63 345q2 9 11 9l72 -1q5 0 7.5 -3t1.5 -8l-108 -488q-1 -9 -11 -9h-75q-9 0 -11 9l-63 328q-1 2 -2 2t-2 -2l-61 -328q-1 -9 -11 -9h-72
q-9 0 -11 9zM319 579q0 -6 -9 -6h-49q-8 0 -12 6l-74 109l-2 5q0 7 9 7h61q7 0 12 -7l62 -108q2 -4 2 -6z" />
    <glyph glyph-name="Wacute" unicode="&#x1e82;" horiz-adv-x="641" 
d="M159 9l-133 680v2q0 9 9 9h79q10 0 11 -9l81 -469q1 -2 2 -2t2 2l72 469q1 9 10 9h67q9 0 10 -9l77 -469q1 -2 2 -2t2 2l74 469q2 9 10 9h78q5 0 7.5 -3t1.5 -8l-126 -680q-1 -9 -11 -9h-71q-8 0 -10 9l-76 473q-1 2 -2.5 2t-1.5 -2l-72 -473q-1 -9 -10 -9h-71
q-9 0 -11 9zM269 767.5q-2 3.5 1 8.5l62 108q5 7 12 7h61q6 0 8 -3.5t-1 -8.5l-74 -109q-4 -6 -12 -6h-49q-6 0 -8 3.5z" />
    <glyph glyph-name="wacute" unicode="&#x1e83;" horiz-adv-x="575" 
d="M128 9l-107 489v2q0 9 9 9h73q10 0 11 -9l62 -345q1 -2 2 -2t2 2l63 345q2 9 11 9h66q10 0 11 -9l65 -345q1 -2 2 -2t2 2l63 345q2 9 11 9l72 -1q5 0 7.5 -3t1.5 -8l-108 -488q-1 -9 -11 -9h-75q-9 0 -11 9l-63 328q-1 2 -2 2t-2 -2l-61 -328q-1 -9 -11 -9h-72
q-9 0 -11 9zM236 576.5q-2 3.5 1 8.5l62 108q5 7 12 7h61q6 0 8 -3.5t-1 -8.5l-74 -109q-4 -6 -12 -6h-49q-6 0 -8 3.5z" />
    <glyph glyph-name="Wdieresis" unicode="&#x1e84;" horiz-adv-x="641" 
d="M159 9l-133 680v2q0 9 9 9h79q10 0 11 -9l81 -469q1 -2 2 -2t2 2l72 469q1 9 10 9h67q9 0 10 -9l77 -469q1 -2 2 -2t2 2l74 469q2 9 10 9h78q5 0 7.5 -3t1.5 -8l-126 -680q-1 -9 -11 -9h-71q-8 0 -10 9l-76 473q-1 2 -2.5 2t-1.5 -2l-72 -473q-1 -9 -10 -9h-71
q-9 0 -11 9zM355 798q-18 18 -18 46t18 46t46 18t46 -18t18 -46t-18 -46t-46 -18t-46 18zM193 798q-18 18 -18 46t18 46t46 18t46 -18t18 -46t-18 -46t-46 -18t-46 18z" />
    <glyph glyph-name="wdieresis" unicode="&#x1e85;" horiz-adv-x="575" 
d="M128 9l-107 489v2q0 9 9 9h73q10 0 11 -9l62 -345q1 -2 2 -2t2 2l63 345q2 9 11 9h66q10 0 11 -9l65 -345q1 -2 2 -2t2 2l63 345q2 9 11 9l72 -1q5 0 7.5 -3t1.5 -8l-108 -488q-1 -9 -11 -9h-75q-9 0 -11 9l-63 328q-1 2 -2 2t-2 -2l-61 -328q-1 -9 -11 -9h-72
q-9 0 -11 9zM322 607q-18 18 -18 46t18 46t46 18t46 -18t18 -46t-18 -46t-46 -18t-46 18zM160 607q-18 18 -18 46t18 46t46 18t46 -18t18 -46t-18 -46t-46 -18t-46 18z" />
    <glyph glyph-name="uni1EA0" unicode="&#x1ea0;" horiz-adv-x="436" 
d="M325 9l-22 115q0 2 -1.5 3t-3.5 1h-163q-2 0 -3.5 -1t-1.5 -3l-21 -115q-1 -9 -11 -9h-76q-5 0 -7.5 3t-1.5 8l149 680q2 9 11 9h89q10 0 11 -9l150 -680v-2q0 -9 -9 -9h-78q-9 0 -11 9zM150 204h133q3 0 3 4l-68 355q-1 2 -2 2t-2 -2l-67 -355q0 -4 3 -4zM174.5 -191.5
q-17.5 17.5 -17.5 43.5q0 27 17.5 44t43.5 17t43.5 -17t17.5 -44q0 -26 -17.5 -43.5t-43.5 -17.5t-43.5 17.5z" />
    <glyph glyph-name="uni1EA1" unicode="&#x1ea1;" horiz-adv-x="423" 
d="M335.5 471q46.5 -46 46.5 -121v-340q0 -10 -10 -10h-76q-10 0 -10 10v22q0 2 -1.5 3t-3.5 -1q-35 -42 -103 -42q-57 0 -100.5 32.5t-43.5 115.5q0 87 52.5 127.5t137.5 40.5h58q4 0 4 4v29q0 42 -20 67.5t-52 25.5q-25 0 -42 -17t-20 -44q0 -10 -10 -10h-81q-10 0 -10 10
q5 64 51 104t114 40q73 0 119.5 -46zM260 98q26 22 26 62v68q0 4 -4 4h-61q-40 0 -64 -21.5t-24 -62.5q0 -36 18 -54t48 -18q35 0 61 22zM168.5 -191.5q-17.5 17.5 -17.5 43.5q0 27 17.5 44t43.5 17t43.5 -17t17.5 -44q0 -26 -17.5 -43.5t-43.5 -17.5t-43.5 17.5z" />
    <glyph glyph-name="uni1EA2" unicode="&#x1ea2;" horiz-adv-x="436" 
d="M325 9l-22 115q0 2 -1.5 3t-3.5 1h-163q-2 0 -3.5 -1t-1.5 -3l-21 -115q-1 -9 -11 -9h-76q-5 0 -7.5 3t-1.5 8l149 680q2 9 11 9h89q10 0 11 -9l150 -680v-2q0 -9 -9 -9h-78q-9 0 -11 9zM150 204h133q3 0 3 4l-68 355q-1 2 -2 2t-2 -2l-67 -355q0 -4 3 -4zM201 747.5
q-2 3.5 0 8.5q11 26 34 49q12 13 17 21.5t5 22.5q0 13 -10.5 22.5t-25.5 9.5q-17 0 -27.5 -7.5t-24.5 -26.5q-6 -9 -14 -3l-24 17q-8 6 -2 14q20 30 40 43t54 13q40 0 64.5 -22.5t24.5 -59.5q0 -22 -9.5 -37.5t-28.5 -35.5q-20 -18 -27 -32q-4 -7 -13 -6l-26 5q-5 1 -7 4.5z
" />
    <glyph glyph-name="uni1EA3" unicode="&#x1ea3;" horiz-adv-x="423" 
d="M335.5 471q46.5 -46 46.5 -121v-340q0 -10 -10 -10h-76q-10 0 -10 10v22q0 2 -1.5 3t-3.5 -1q-35 -42 -103 -42q-57 0 -100.5 32.5t-43.5 115.5q0 87 52.5 127.5t137.5 40.5h58q4 0 4 4v29q0 42 -20 67.5t-52 25.5q-25 0 -42 -17t-20 -44q0 -10 -10 -10h-81q-10 0 -10 10
q5 64 51 104t114 40q73 0 119.5 -46zM260 98q26 22 26 62v68q0 4 -4 4h-61q-40 0 -64 -21.5t-24 -62.5q0 -36 18 -54t48 -18q35 0 61 22zM195 556.5q-2 3.5 0 8.5q11 26 34 49q12 13 17 21.5t5 22.5q0 13 -10.5 22.5t-25.5 9.5q-17 0 -27.5 -7.5t-24.5 -26.5q-6 -9 -14 -3
l-24 17q-8 6 -2 14q20 30 40 43t54 13q40 0 64.5 -22.5t24.5 -59.5q0 -22 -9.5 -37.5t-28.5 -35.5q-20 -18 -27 -32q-4 -7 -13 -6l-26 5q-5 1 -7 4.5z" />
    <glyph glyph-name="uni1EA4" unicode="&#x1ea4;" horiz-adv-x="436" 
d="M325 9l-22 115q0 2 -1.5 3t-3.5 1h-163q-2 0 -3.5 -1t-1.5 -3l-21 -115q-1 -9 -11 -9h-76q-5 0 -7.5 3t-1.5 8l149 680q2 9 11 9h89q10 0 11 -9l150 -680v-2q0 -9 -9 -9h-78q-9 0 -11 9zM150 204h133q3 0 3 4l-68 355q-1 2 -2 2t-2 -2l-67 -355q0 -4 3 -4zM94.5 771.5
q-1.5 3.5 1.5 8.5l65 104q5 7 12 7h85q7 0 12 -7l68 -104q2 -4 2 -6q0 -6 -8 -6h-61q-7 0 -12 7l-39 68q-1 2 -3 2t-3 -2l-39 -68q-5 -7 -12 -7h-61q-6 0 -7.5 3.5zM337 846.5q-2 3.5 1 8.5l62 108q5 7 12 7h61q6 0 8 -3.5t-1 -8.5l-74 -109q-4 -6 -12 -6h-49q-6 0 -8 3.5z
" />
    <glyph glyph-name="uni1EA5" unicode="&#x1ea5;" horiz-adv-x="423" 
d="M335.5 471q46.5 -46 46.5 -121v-340q0 -10 -10 -10h-76q-10 0 -10 10v22q0 2 -1.5 3t-3.5 -1q-35 -42 -103 -42q-57 0 -100.5 32.5t-43.5 115.5q0 87 52.5 127.5t137.5 40.5h58q4 0 4 4v29q0 42 -20 67.5t-52 25.5q-25 0 -42 -17t-20 -44q0 -10 -10 -10h-81q-10 0 -10 10
q5 64 51 104t114 40q73 0 119.5 -46zM260 98q26 22 26 62v68q0 4 -4 4h-61q-40 0 -64 -21.5t-24 -62.5q0 -36 18 -54t48 -18q35 0 61 22zM88.5 580.5q-1.5 3.5 1.5 8.5l65 104q5 7 12 7h85q7 0 12 -7l68 -104q2 -4 2 -6q0 -6 -8 -6h-61q-7 0 -12 7l-39 68q-1 2 -3 2t-3 -2
l-39 -68q-5 -7 -12 -7h-61q-6 0 -7.5 3.5zM331 655.5q-2 3.5 1 8.5l62 108q5 7 12 7h61q6 0 8 -3.5t-1 -8.5l-74 -109q-4 -6 -12 -6h-49q-6 0 -8 3.5z" />
    <glyph glyph-name="uni1EA6" unicode="&#x1ea6;" horiz-adv-x="436" 
d="M325 9l-22 115q0 2 -1.5 3t-3.5 1h-163q-2 0 -3.5 -1t-1.5 -3l-21 -115q-1 -9 -11 -9h-76q-5 0 -7.5 3t-1.5 8l149 680q2 9 11 9h89q10 0 11 -9l150 -680v-2q0 -9 -9 -9h-78q-9 0 -11 9zM150 204h133q3 0 3 4l-68 355q-1 2 -2 2t-2 -2l-67 -355q0 -4 3 -4zM94.5 771.5
q-1.5 3.5 1.5 8.5l65 104q5 7 12 7h85q7 0 12 -7l68 -104q2 -4 2 -6q0 -6 -8 -6h-61q-7 0 -12 7l-39 68q-1 2 -3 2t-3 -2l-39 -68q-5 -7 -12 -7h-61q-6 0 -7.5 3.5zM400 890q0 -6 -9 -6h-49q-8 0 -12 6l-74 109l-2 5q0 7 9 7h61q7 0 12 -7l62 -108q2 -4 2 -6z" />
    <glyph glyph-name="uni1EA7" unicode="&#x1ea7;" horiz-adv-x="423" 
d="M335.5 471q46.5 -46 46.5 -121v-340q0 -10 -10 -10h-76q-10 0 -10 10v22q0 2 -1.5 3t-3.5 -1q-35 -42 -103 -42q-57 0 -100.5 32.5t-43.5 115.5q0 87 52.5 127.5t137.5 40.5h58q4 0 4 4v29q0 42 -20 67.5t-52 25.5q-25 0 -42 -17t-20 -44q0 -10 -10 -10h-81q-10 0 -10 10
q5 64 51 104t114 40q73 0 119.5 -46zM260 98q26 22 26 62v68q0 4 -4 4h-61q-40 0 -64 -21.5t-24 -62.5q0 -36 18 -54t48 -18q35 0 61 22zM88.5 580.5q-1.5 3.5 1.5 8.5l65 104q5 7 12 7h85q7 0 12 -7l68 -104q2 -4 2 -6q0 -6 -8 -6h-61q-7 0 -12 7l-39 68q-1 2 -3 2t-3 -2
l-39 -68q-5 -7 -12 -7h-61q-6 0 -7.5 3.5zM394 699q0 -6 -9 -6h-49q-8 0 -12 6l-74 109l-2 5q0 7 9 7h61q7 0 12 -7l62 -108q2 -4 2 -6z" />
    <glyph glyph-name="uni1EA8" unicode="&#x1ea8;" horiz-adv-x="436" 
d="M325 9l-22 115q0 2 -1.5 3t-3.5 1h-163q-2 0 -3.5 -1t-1.5 -3l-21 -115q-1 -9 -11 -9h-76q-5 0 -7.5 3t-1.5 8l149 680q2 9 11 9h89q10 0 11 -9l150 -680v-2q0 -9 -9 -9h-78q-9 0 -11 9zM150 204h133q3 0 3 4l-68 355q-1 2 -2 2t-2 -2l-67 -355q0 -4 3 -4zM333 869.5
q-2 3.5 0 8.5q10 22 32 46q11 12 16.5 20.5t5.5 22.5q0 13 -10.5 21.5t-24.5 8.5q-16 0 -26 -6.5t-23 -25.5q-6 -9 -14 -3l-22 16q-8 6 -2 14q19 29 38 41t51 12q38 0 62 -21.5t24 -56.5q0 -22 -9.5 -37t-27.5 -33l-11.5 -11.5t-14.5 -19.5q-4 -7 -13 -6l-24 5q-5 1 -7 4.5z
M94.5 771.5q-1.5 3.5 1.5 8.5l65 104q5 7 12 7h85q7 0 12 -7l68 -104q2 -4 2 -6q0 -6 -8 -6h-61q-7 0 -12 7l-39 68q-1 2 -3 2t-3 -2l-39 -68q-5 -7 -12 -7h-61q-6 0 -7.5 3.5z" />
    <glyph glyph-name="uni1EA9" unicode="&#x1ea9;" horiz-adv-x="423" 
d="M335.5 471q46.5 -46 46.5 -121v-340q0 -10 -10 -10h-76q-10 0 -10 10v22q0 2 -1.5 3t-3.5 -1q-35 -42 -103 -42q-57 0 -100.5 32.5t-43.5 115.5q0 87 52.5 127.5t137.5 40.5h58q4 0 4 4v29q0 42 -20 67.5t-52 25.5q-25 0 -42 -17t-20 -44q0 -10 -10 -10h-81q-10 0 -10 10
q5 64 51 104t114 40q73 0 119.5 -46zM260 98q26 22 26 62v68q0 4 -4 4h-61q-40 0 -64 -21.5t-24 -62.5q0 -36 18 -54t48 -18q35 0 61 22zM327 678.5q-2 3.5 0 8.5q10 22 32 46q11 12 16.5 20.5t5.5 22.5q0 13 -10.5 21.5t-24.5 8.5q-16 0 -26 -6.5t-23 -25.5q-6 -9 -14 -3
l-22 16q-8 6 -2 14q19 29 38 41t51 12q38 0 62 -21.5t24 -56.5q0 -22 -9.5 -37t-27.5 -33l-11.5 -11.5t-14.5 -19.5q-4 -7 -13 -6l-24 5q-5 1 -7 4.5zM88.5 580.5q-1.5 3.5 1.5 8.5l65 104q5 7 12 7h85q7 0 12 -7l68 -104q2 -4 2 -6q0 -6 -8 -6h-61q-7 0 -12 7l-39 68
q-1 2 -3 2t-3 -2l-39 -68q-5 -7 -12 -7h-61q-6 0 -7.5 3.5z" />
    <glyph glyph-name="uni1EAA" unicode="&#x1eaa;" horiz-adv-x="436" 
d="M325 9l-22 115q0 2 -1.5 3t-3.5 1h-163q-2 0 -3.5 -1t-1.5 -3l-21 -115q-1 -9 -11 -9h-76q-5 0 -7.5 3t-1.5 8l149 680q2 9 11 9h89q10 0 11 -9l150 -680v-2q0 -9 -9 -9h-78q-9 0 -11 9zM150 204h133q3 0 3 4l-68 355q-1 2 -2 2t-2 -2l-67 -355q0 -4 3 -4zM94.5 771.5
q-1.5 3.5 1.5 8.5l65 104q5 7 12 7h85q7 0 12 -7l68 -104q2 -4 2 -6q0 -6 -8 -6h-61q-7 0 -12 7l-39 68q-1 2 -3 2t-3 -2l-39 -68q-5 -7 -12 -7h-61q-6 0 -7.5 3.5zM245.5 929q-11.5 5 -29.5 15q-5 3 -13.5 9t-15 8.5t-14.5 2.5q-13 0 -22.5 -5.5t-19.5 -20.5q-2 -4 -6 -5
t-8 2l-28 20q-7 6 -3 13q13 30 34 45t46 15q16 0 30 -6t30 -17q4 -2 12 -8t16 -9t16 -3q12 0 22 5.5t19 20.5q4 9 14 3l27 -18q4 -3 4 -9q0 -4 -3 -10q-15 -28 -38 -40.5t-45 -12.5q-13 0 -24.5 5z" />
    <glyph glyph-name="uni1EAB" unicode="&#x1eab;" horiz-adv-x="423" 
d="M335.5 471q46.5 -46 46.5 -121v-340q0 -10 -10 -10h-76q-10 0 -10 10v22q0 2 -1.5 3t-3.5 -1q-35 -42 -103 -42q-57 0 -100.5 32.5t-43.5 115.5q0 87 52.5 127.5t137.5 40.5h58q4 0 4 4v29q0 42 -20 67.5t-52 25.5q-25 0 -42 -17t-20 -44q0 -10 -10 -10h-81q-10 0 -10 10
q5 64 51 104t114 40q73 0 119.5 -46zM260 98q26 22 26 62v68q0 4 -4 4h-61q-40 0 -64 -21.5t-24 -62.5q0 -36 18 -54t48 -18q35 0 61 22zM88.5 580.5q-1.5 3.5 1.5 8.5l65 104q5 7 12 7h85q7 0 12 -7l68 -104q2 -4 2 -6q0 -6 -8 -6h-61q-7 0 -12 7l-39 68q-1 2 -3 2t-3 -2
l-39 -68q-5 -7 -12 -7h-61q-6 0 -7.5 3.5zM239.5 738q-11.5 5 -29.5 15q-5 3 -13.5 9t-15 8.5t-14.5 2.5q-13 0 -22.5 -5.5t-19.5 -20.5q-2 -4 -6 -5t-8 2l-28 20q-7 6 -3 13q13 30 34 45t46 15q16 0 30 -6t30 -17q4 -2 12 -8t16 -9t16 -3q12 0 22 5.5t19 20.5q4 9 14 3
l27 -18q4 -3 4 -9q0 -4 -3 -10q-15 -28 -38 -40.5t-45 -12.5q-13 0 -24.5 5z" />
    <glyph glyph-name="uni1EAC" unicode="&#x1eac;" horiz-adv-x="436" 
d="M325 9l-22 115q0 2 -1.5 3t-3.5 1h-163q-2 0 -3.5 -1t-1.5 -3l-21 -115q-1 -9 -11 -9h-76q-5 0 -7.5 3t-1.5 8l149 680q2 9 11 9h89q10 0 11 -9l150 -680v-2q0 -9 -9 -9h-78q-9 0 -11 9zM150 204h133q3 0 3 4l-68 355q-1 2 -2 2t-2 -2l-67 -355q0 -4 3 -4zM174.5 -191.5
q-17.5 17.5 -17.5 43.5q0 27 17.5 44t43.5 17t43.5 -17t17.5 -44q0 -26 -17.5 -43.5t-43.5 -17.5t-43.5 17.5zM94.5 771.5q-1.5 3.5 1.5 8.5l65 104q5 7 12 7h85q7 0 12 -7l68 -104q2 -4 2 -6q0 -6 -8 -6h-61q-7 0 -12 7l-39 68q-1 2 -3 2t-3 -2l-39 -68q-5 -7 -12 -7h-61
q-6 0 -7.5 3.5z" />
    <glyph glyph-name="uni1EAD" unicode="&#x1ead;" horiz-adv-x="423" 
d="M335.5 471q46.5 -46 46.5 -121v-340q0 -10 -10 -10h-76q-10 0 -10 10v22q0 2 -1.5 3t-3.5 -1q-35 -42 -103 -42q-57 0 -100.5 32.5t-43.5 115.5q0 87 52.5 127.5t137.5 40.5h58q4 0 4 4v29q0 42 -20 67.5t-52 25.5q-25 0 -42 -17t-20 -44q0 -10 -10 -10h-81q-10 0 -10 10
q5 64 51 104t114 40q73 0 119.5 -46zM260 98q26 22 26 62v68q0 4 -4 4h-61q-40 0 -64 -21.5t-24 -62.5q0 -36 18 -54t48 -18q35 0 61 22zM168.5 -191.5q-17.5 17.5 -17.5 43.5q0 27 17.5 44t43.5 17t43.5 -17t17.5 -44q0 -26 -17.5 -43.5t-43.5 -17.5t-43.5 17.5z
M88.5 580.5q-1.5 3.5 1.5 8.5l65 104q5 7 12 7h85q7 0 12 -7l68 -104q2 -4 2 -6q0 -6 -8 -6h-61q-7 0 -12 7l-39 68q-1 2 -3 2t-3 -2l-39 -68q-5 -7 -12 -7h-61q-6 0 -7.5 3.5z" />
    <glyph glyph-name="uni1EAE" unicode="&#x1eae;" horiz-adv-x="436" 
d="M325 9l-22 115q0 2 -1.5 3t-3.5 1h-163q-2 0 -3.5 -1t-1.5 -3l-21 -115q-1 -9 -11 -9h-76q-5 0 -7.5 3t-1.5 8l149 680q2 9 11 9h89q10 0 11 -9l150 -680v-2q0 -9 -9 -9h-78q-9 0 -11 9zM150 204h133q3 0 3 4l-68 355q-1 2 -2 2t-2 -2l-67 -355q0 -4 3 -4zM142 793
q-31 28 -35 72q0 10 10 10h34q10 0 10 -10q4 -23 19.5 -38t37.5 -15t37 15t18 38q1 10 11 10h34q5 0 7.5 -3t1.5 -7q-3 -44 -33.5 -72t-75.5 -28t-76 28zM166 926.5q-2 3.5 1 8.5l62 108q5 7 12 7h61q6 0 8 -3.5t-1 -8.5l-74 -109q-4 -6 -12 -6h-49q-6 0 -8 3.5z" />
    <glyph glyph-name="uni1EAF" unicode="&#x1eaf;" horiz-adv-x="423" 
d="M335.5 471q46.5 -46 46.5 -121v-340q0 -10 -10 -10h-76q-10 0 -10 10v22q0 2 -1.5 3t-3.5 -1q-35 -42 -103 -42q-57 0 -100.5 32.5t-43.5 115.5q0 87 52.5 127.5t137.5 40.5h58q4 0 4 4v29q0 42 -20 67.5t-52 25.5q-25 0 -42 -17t-20 -44q0 -10 -10 -10h-81q-10 0 -10 10
q5 64 51 104t114 40q73 0 119.5 -46zM260 98q26 22 26 62v68q0 4 -4 4h-61q-40 0 -64 -21.5t-24 -62.5q0 -36 18 -54t48 -18q35 0 61 22zM136 602q-31 28 -35 72q0 10 10 10h34q10 0 10 -10q4 -23 19.5 -38t37.5 -15t37 15t18 38q1 10 11 10h34q5 0 7.5 -3t1.5 -7
q-3 -44 -33.5 -72t-75.5 -28t-76 28zM160 735.5q-2 3.5 1 8.5l62 108q5 7 12 7h61q6 0 8 -3.5t-1 -8.5l-74 -109q-4 -6 -12 -6h-49q-6 0 -8 3.5z" />
    <glyph glyph-name="uni1EB0" unicode="&#x1eb0;" horiz-adv-x="436" 
d="M325 9l-22 115q0 2 -1.5 3t-3.5 1h-163q-2 0 -3.5 -1t-1.5 -3l-21 -115q-1 -9 -11 -9h-76q-5 0 -7.5 3t-1.5 8l149 680q2 9 11 9h89q10 0 11 -9l150 -680v-2q0 -9 -9 -9h-78q-9 0 -11 9zM150 204h133q3 0 3 4l-68 355q-1 2 -2 2t-2 -2l-67 -355q0 -4 3 -4zM142 793
q-31 28 -35 72q0 10 10 10h34q10 0 10 -10q4 -23 19.5 -38t37.5 -15t37 15t18 38q1 10 11 10h34q5 0 7.5 -3t1.5 -7q-3 -44 -33.5 -72t-75.5 -28t-76 28zM249 929q0 -6 -9 -6h-49q-8 0 -12 6l-74 109l-2 5q0 7 9 7h61q7 0 12 -7l62 -108q2 -4 2 -6z" />
    <glyph glyph-name="uni1EB1" unicode="&#x1eb1;" horiz-adv-x="423" 
d="M335.5 471q46.5 -46 46.5 -121v-340q0 -10 -10 -10h-76q-10 0 -10 10v22q0 2 -1.5 3t-3.5 -1q-35 -42 -103 -42q-57 0 -100.5 32.5t-43.5 115.5q0 87 52.5 127.5t137.5 40.5h58q4 0 4 4v29q0 42 -20 67.5t-52 25.5q-25 0 -42 -17t-20 -44q0 -10 -10 -10h-81q-10 0 -10 10
q5 64 51 104t114 40q73 0 119.5 -46zM260 98q26 22 26 62v68q0 4 -4 4h-61q-40 0 -64 -21.5t-24 -62.5q0 -36 18 -54t48 -18q35 0 61 22zM136 602q-31 28 -35 72q0 10 10 10h34q10 0 10 -10q4 -23 19.5 -38t37.5 -15t37 15t18 38q1 10 11 10h34q5 0 7.5 -3t1.5 -7
q-3 -44 -33.5 -72t-75.5 -28t-76 28zM243 738q0 -6 -9 -6h-49q-8 0 -12 6l-74 109l-2 5q0 7 9 7h61q7 0 12 -7l62 -108q2 -4 2 -6z" />
    <glyph glyph-name="uni1EB2" unicode="&#x1eb2;" horiz-adv-x="436" 
d="M325 9l-22 115q0 2 -1.5 3t-3.5 1h-163q-2 0 -3.5 -1t-1.5 -3l-21 -115q-1 -9 -11 -9h-76q-5 0 -7.5 3t-1.5 8l149 680q2 9 11 9h89q10 0 11 -9l150 -680v-2q0 -9 -9 -9h-78q-9 0 -11 9zM150 204h133q3 0 3 4l-68 355q-1 2 -2 2t-2 -2l-67 -355q0 -4 3 -4zM203 913
q9 21 31 43q12 13 16.5 21t4.5 21q0 12 -10 20.5t-24 8.5q-15 0 -25 -6.5t-23 -24.5q-6 -8 -14 -2l-20 14q-8 6 -2 14q18 28 36.5 39.5t49.5 11.5q37 0 59.5 -20.5t22.5 -54.5q0 -21 -8.5 -34.5t-26.5 -32.5q-17 -15 -25 -30q-4 -7 -13 -6l-22 5q-11 3 -7 13zM142 793
q-31 28 -35 72q0 10 10 10h34q10 0 11 -10q3 -23 18.5 -38t37.5 -15t37 15t18 38q1 10 11 10h34q10 0 10 -10q-4 -44 -34.5 -72t-75.5 -28t-76 28z" />
    <glyph glyph-name="uni1EB3" unicode="&#x1eb3;" horiz-adv-x="423" 
d="M335.5 471q46.5 -46 46.5 -121v-340q0 -10 -10 -10h-76q-10 0 -10 10v22q0 2 -1.5 3t-3.5 -1q-35 -42 -103 -42q-57 0 -100.5 32.5t-43.5 115.5q0 87 52.5 127.5t137.5 40.5h58q4 0 4 4v29q0 42 -20 67.5t-52 25.5q-25 0 -42 -17t-20 -44q0 -10 -10 -10h-81q-10 0 -10 10
q5 64 51 104t114 40q73 0 119.5 -46zM260 98q26 22 26 62v68q0 4 -4 4h-61q-40 0 -64 -21.5t-24 -62.5q0 -36 18 -54t48 -18q35 0 61 22zM197 722q9 21 31 43q12 13 16.5 21t4.5 21q0 12 -10 20.5t-24 8.5q-15 0 -25 -6.5t-23 -24.5q-6 -8 -14 -2l-20 14q-8 6 -2 14
q18 28 36.5 39.5t49.5 11.5q37 0 59.5 -20.5t22.5 -54.5q0 -21 -8.5 -34.5t-26.5 -32.5q-17 -15 -25 -30q-4 -7 -13 -6l-22 5q-11 3 -7 13zM136 602q-31 28 -35 72q0 10 10 10h34q10 0 11 -10q3 -23 18.5 -38t37.5 -15t37 15t18 38q1 10 11 10h34q10 0 10 -10
q-4 -44 -34.5 -72t-75.5 -28t-76 28z" />
    <glyph glyph-name="uni1EB4" unicode="&#x1eb4;" horiz-adv-x="436" 
d="M325 9l-22 115q0 2 -1.5 3t-3.5 1h-163q-2 0 -3.5 -1t-1.5 -3l-21 -115q-1 -9 -11 -9h-76q-5 0 -7.5 3t-1.5 8l149 680q2 9 11 9h89q10 0 11 -9l150 -680v-2q0 -9 -9 -9h-78q-9 0 -11 9zM150 204h133q3 0 3 4l-68 355q-1 2 -2 2t-2 -2l-67 -355q0 -4 3 -4zM142 793
q-31 28 -35 72q0 10 10 10h34q10 0 10 -10q4 -23 19.5 -38t37.5 -15t37 15t18 38q1 10 11 10h34q5 0 7.5 -3t1.5 -7q-3 -44 -33.5 -72t-75.5 -28t-76 28zM248.5 925q-11.5 5 -29.5 15q-5 3 -13.5 9t-15 8.5t-14.5 2.5q-13 0 -22.5 -5.5t-19.5 -20.5q-2 -4 -6 -5t-8 2l-28 20
q-7 6 -3 13q13 30 34 45t46 15q16 0 30 -6t30 -17q4 -2 12 -8t16 -9t16 -3q12 0 22 5.5t19 20.5q4 9 14 3l27 -18q4 -3 4 -9q0 -4 -3 -10q-15 -28 -38 -40.5t-45 -12.5q-13 0 -24.5 5z" />
    <glyph glyph-name="uni1EB5" unicode="&#x1eb5;" horiz-adv-x="423" 
d="M335.5 471q46.5 -46 46.5 -121v-340q0 -10 -10 -10h-76q-10 0 -10 10v22q0 2 -1.5 3t-3.5 -1q-35 -42 -103 -42q-57 0 -100.5 32.5t-43.5 115.5q0 87 52.5 127.5t137.5 40.5h58q4 0 4 4v29q0 42 -20 67.5t-52 25.5q-25 0 -42 -17t-20 -44q0 -10 -10 -10h-81q-10 0 -10 10
q5 64 51 104t114 40q73 0 119.5 -46zM260 98q26 22 26 62v68q0 4 -4 4h-61q-40 0 -64 -21.5t-24 -62.5q0 -36 18 -54t48 -18q35 0 61 22zM136 602q-31 28 -35 72q0 10 10 10h34q10 0 10 -10q4 -23 19.5 -38t37.5 -15t37 15t18 38q1 10 11 10h34q5 0 7.5 -3t1.5 -7
q-3 -44 -33.5 -72t-75.5 -28t-76 28zM242.5 734q-11.5 5 -29.5 15q-5 3 -13.5 9t-15 8.5t-14.5 2.5q-13 0 -22.5 -5.5t-19.5 -20.5q-2 -4 -6 -5t-8 2l-28 20q-7 6 -3 13q13 30 34 45t46 15q16 0 30 -6t30 -17q4 -2 12 -8t16 -9t16 -3q12 0 22 5.5t19 20.5q4 9 14 3l27 -18
q4 -3 4 -9q0 -4 -3 -10q-15 -28 -38 -40.5t-45 -12.5q-13 0 -24.5 5z" />
    <glyph glyph-name="uni1EB6" unicode="&#x1eb6;" horiz-adv-x="436" 
d="M325 9l-22 115q0 2 -1.5 3t-3.5 1h-163q-2 0 -3.5 -1t-1.5 -3l-21 -115q-1 -9 -11 -9h-76q-5 0 -7.5 3t-1.5 8l149 680q2 9 11 9h89q10 0 11 -9l150 -680v-2q0 -9 -9 -9h-78q-9 0 -11 9zM150 204h133q3 0 3 4l-68 355q-1 2 -2 2t-2 -2l-67 -355q0 -4 3 -4zM174.5 -191.5
q-17.5 17.5 -17.5 43.5q0 27 17.5 44t43.5 17t43.5 -17t17.5 -44q0 -26 -17.5 -43.5t-43.5 -17.5t-43.5 17.5zM142 793q-31 28 -35 72q0 10 10 10h34q10 0 10 -10q4 -23 19.5 -38t37.5 -15t37 15t18 38q1 10 11 10h34q5 0 7.5 -3t1.5 -7q-3 -44 -33.5 -72t-75.5 -28t-76 28z
" />
    <glyph glyph-name="uni1EB7" unicode="&#x1eb7;" horiz-adv-x="423" 
d="M335.5 471q46.5 -46 46.5 -121v-340q0 -10 -10 -10h-76q-10 0 -10 10v22q0 2 -1.5 3t-3.5 -1q-35 -42 -103 -42q-57 0 -100.5 32.5t-43.5 115.5q0 87 52.5 127.5t137.5 40.5h58q4 0 4 4v29q0 42 -20 67.5t-52 25.5q-25 0 -42 -17t-20 -44q0 -10 -10 -10h-81q-10 0 -10 10
q5 64 51 104t114 40q73 0 119.5 -46zM260 98q26 22 26 62v68q0 4 -4 4h-61q-40 0 -64 -21.5t-24 -62.5q0 -36 18 -54t48 -18q35 0 61 22zM168.5 -191.5q-17.5 17.5 -17.5 43.5q0 27 17.5 44t43.5 17t43.5 -17t17.5 -44q0 -26 -17.5 -43.5t-43.5 -17.5t-43.5 17.5zM136 602
q-31 28 -35 72q0 10 10 10h34q10 0 10 -10q4 -23 19.5 -38t37.5 -15t37 15t18 38q1 10 11 10h34q5 0 7.5 -3t1.5 -7q-3 -44 -33.5 -72t-75.5 -28t-76 28z" />
    <glyph glyph-name="uni1EB8" unicode="&#x1eb8;" 
d="M387 617h-225q-4 0 -4 -4v-217q0 -4 4 -4h138q10 0 10 -10v-63q0 -10 -10 -10h-138q-4 0 -4 -4v-218q0 -4 4 -4h225q10 0 10 -10v-63q0 -10 -10 -10h-315q-10 0 -10 10v680q0 10 10 10h315q10 0 10 -10v-63q0 -10 -10 -10zM181.5 -191.5q-17.5 17.5 -17.5 43.5
q0 27 17.5 44t43.5 17t43.5 -17t17.5 -44q0 -26 -17.5 -43.5t-43.5 -17.5t-43.5 17.5z" />
    <glyph glyph-name="uni1EB9" unicode="&#x1eb9;" horiz-adv-x="418" 
d="M369 215h-226q-4 0 -4 -4v-54q0 -36 20 -59t52 -23q28 0 47 17t24 44q3 8 11 8l74 -4q5 0 7.5 -3t1.5 -7q-7 -65 -49.5 -101.5t-115.5 -36.5q-77 0 -122.5 43t-45.5 115v208q0 71 45.5 115t122.5 44q78 0 123 -44t45 -115v-133q0 -10 -10 -10zM159 411q-20 -23 -20 -59
v-53q0 -4 4 -4h137q4 0 4 4v53q0 36 -20 59t-53 23q-32 0 -52 -23zM165.5 -191.5q-17.5 17.5 -17.5 43.5q0 27 17.5 44t43.5 17t43.5 -17t17.5 -44q0 -26 -17.5 -43.5t-43.5 -17.5t-43.5 17.5z" />
    <glyph glyph-name="uni1EBA" unicode="&#x1eba;" 
d="M387 617h-225q-4 0 -4 -4v-217q0 -4 4 -4h138q10 0 10 -10v-63q0 -10 -10 -10h-138q-4 0 -4 -4v-218q0 -4 4 -4h225q10 0 10 -10v-63q0 -10 -10 -10h-315q-10 0 -10 10v680q0 10 10 10h315q10 0 10 -10v-63q0 -10 -10 -10zM213 747.5q-2 3.5 0 8.5q11 26 34 49
q12 13 17 21.5t5 22.5q0 13 -10.5 22.5t-25.5 9.5q-17 0 -27.5 -7.5t-24.5 -26.5q-6 -9 -14 -3l-24 17q-8 6 -2 14q20 30 40 43t54 13q40 0 64.5 -22.5t24.5 -59.5q0 -22 -9.5 -37.5t-28.5 -35.5q-20 -18 -27 -32q-4 -7 -13 -6l-26 5q-5 1 -7 4.5z" />
    <glyph glyph-name="uni1EBB" unicode="&#x1ebb;" horiz-adv-x="418" 
d="M369 215h-226q-4 0 -4 -4v-54q0 -36 20 -59t52 -23q28 0 47 17t24 44q3 8 11 8l74 -4q5 0 7.5 -3t1.5 -7q-7 -65 -49.5 -101.5t-115.5 -36.5q-77 0 -122.5 43t-45.5 115v208q0 71 45.5 115t122.5 44q78 0 123 -44t45 -115v-133q0 -10 -10 -10zM159 411q-20 -23 -20 -59
v-53q0 -4 4 -4h137q4 0 4 4v53q0 36 -20 59t-53 23q-32 0 -52 -23zM192 556.5q-2 3.5 0 8.5q11 26 34 49q12 13 17 21.5t5 22.5q0 13 -10.5 22.5t-25.5 9.5q-17 0 -27.5 -7.5t-24.5 -26.5q-6 -9 -14 -3l-24 17q-8 6 -2 14q20 30 40 43t54 13q40 0 64.5 -22.5t24.5 -59.5
q0 -22 -9.5 -37.5t-28.5 -35.5q-20 -18 -27 -32q-4 -7 -13 -6l-26 5q-5 1 -7 4.5z" />
    <glyph glyph-name="uni1EBC" unicode="&#x1ebc;" 
d="M387 617h-225q-4 0 -4 -4v-217q0 -4 4 -4h138q10 0 10 -10v-63q0 -10 -10 -10h-138q-4 0 -4 -4v-218q0 -4 4 -4h225q10 0 10 -10v-63q0 -10 -10 -10h-315q-10 0 -10 10v680q0 10 10 10h315q10 0 10 -10v-63q0 -10 -10 -10zM268.5 796q-11.5 5 -29.5 15q-5 3 -13.5 9
t-15 8.5t-14.5 2.5q-13 0 -22.5 -5.5t-19.5 -20.5q-2 -4 -6 -5t-8 2l-28 20q-7 6 -3 13q13 30 34 45t46 15q16 0 30 -6t30 -17q4 -2 12 -8t16 -9t16 -3q12 0 22 5.5t19 20.5q4 9 14 3l27 -18q4 -3 4 -9q0 -4 -3 -10q-15 -28 -38 -40.5t-45 -12.5q-13 0 -24.5 5z" />
    <glyph glyph-name="uni1EBD" unicode="&#x1ebd;" horiz-adv-x="418" 
d="M369 215h-226q-4 0 -4 -4v-54q0 -36 20 -59t52 -23q28 0 47 17t24 44q3 8 11 8l74 -4q5 0 7.5 -3t1.5 -7q-7 -65 -49.5 -101.5t-115.5 -36.5q-77 0 -122.5 43t-45.5 115v208q0 71 45.5 115t122.5 44q78 0 123 -44t45 -115v-133q0 -10 -10 -10zM159 411q-20 -23 -20 -59
v-53q0 -4 4 -4h137q4 0 4 4v53q0 36 -20 59t-53 23q-32 0 -52 -23zM247.5 605q-11.5 5 -29.5 15q-5 3 -13.5 9t-15 8.5t-14.5 2.5q-13 0 -22.5 -5.5t-19.5 -20.5q-2 -4 -6 -5t-8 2l-28 20q-7 6 -3 13q13 30 34 45t46 15q16 0 30 -6t30 -17q4 -2 12 -8t16 -9t16 -3
q12 0 22 5.5t19 20.5q4 9 14 3l27 -18q4 -3 4 -9q0 -4 -3 -10q-15 -28 -38 -40.5t-45 -12.5q-13 0 -24.5 5z" />
    <glyph glyph-name="uni1EBE" unicode="&#x1ebe;" 
d="M387 617h-225q-4 0 -4 -4v-217q0 -4 4 -4h138q10 0 10 -10v-63q0 -10 -10 -10h-138q-4 0 -4 -4v-218q0 -4 4 -4h225q10 0 10 -10v-63q0 -10 -10 -10h-315q-10 0 -10 10v680q0 10 10 10h315q10 0 10 -10v-63q0 -10 -10 -10zM106.5 771.5q-1.5 3.5 1.5 8.5l65 104q5 7 12 7
h85q7 0 12 -7l68 -104q2 -4 2 -6q0 -6 -8 -6h-61q-7 0 -12 7l-39 68q-1 2 -3 2t-3 -2l-39 -68q-5 -7 -12 -7h-61q-6 0 -7.5 3.5zM349 846.5q-2 3.5 1 8.5l62 108q5 7 12 7h61q6 0 8 -3.5t-1 -8.5l-74 -109q-4 -6 -12 -6h-49q-6 0 -8 3.5z" />
    <glyph glyph-name="uni1EBF" unicode="&#x1ebf;" horiz-adv-x="418" 
d="M369 215h-226q-4 0 -4 -4v-54q0 -36 20 -59t52 -23q28 0 47 17t24 44q3 8 11 8l74 -4q5 0 7.5 -3t1.5 -7q-7 -65 -49.5 -101.5t-115.5 -36.5q-77 0 -122.5 43t-45.5 115v208q0 71 45.5 115t122.5 44q78 0 123 -44t45 -115v-133q0 -10 -10 -10zM159 411q-20 -23 -20 -59
v-53q0 -4 4 -4h137q4 0 4 4v53q0 36 -20 59t-53 23q-32 0 -52 -23zM85.5 580.5q-1.5 3.5 1.5 8.5l65 104q5 7 12 7h85q7 0 12 -7l68 -104q2 -4 2 -6q0 -6 -8 -6h-61q-7 0 -12 7l-39 68q-1 2 -3 2t-3 -2l-39 -68q-5 -7 -12 -7h-61q-6 0 -7.5 3.5zM328 655.5q-2 3.5 1 8.5
l62 108q5 7 12 7h61q6 0 8 -3.5t-1 -8.5l-74 -109q-4 -6 -12 -6h-49q-6 0 -8 3.5z" />
    <glyph glyph-name="uni1EC0" unicode="&#x1ec0;" 
d="M387 617h-225q-4 0 -4 -4v-217q0 -4 4 -4h138q10 0 10 -10v-63q0 -10 -10 -10h-138q-4 0 -4 -4v-218q0 -4 4 -4h225q10 0 10 -10v-63q0 -10 -10 -10h-315q-10 0 -10 10v680q0 10 10 10h315q10 0 10 -10v-63q0 -10 -10 -10zM106.5 771.5q-1.5 3.5 1.5 8.5l65 104q5 7 12 7
h85q7 0 12 -7l68 -104q2 -4 2 -6q0 -6 -8 -6h-61q-7 0 -12 7l-39 68q-1 2 -3 2t-3 -2l-39 -68q-5 -7 -12 -7h-61q-6 0 -7.5 3.5zM412 890q0 -6 -9 -6h-49q-8 0 -12 6l-74 109l-2 5q0 7 9 7h61q7 0 12 -7l62 -108q2 -4 2 -6z" />
    <glyph glyph-name="uni1EC1" unicode="&#x1ec1;" horiz-adv-x="418" 
d="M369 215h-226q-4 0 -4 -4v-54q0 -36 20 -59t52 -23q28 0 47 17t24 44q3 8 11 8l74 -4q5 0 7.5 -3t1.5 -7q-7 -65 -49.5 -101.5t-115.5 -36.5q-77 0 -122.5 43t-45.5 115v208q0 71 45.5 115t122.5 44q78 0 123 -44t45 -115v-133q0 -10 -10 -10zM159 411q-20 -23 -20 -59
v-53q0 -4 4 -4h137q4 0 4 4v53q0 36 -20 59t-53 23q-32 0 -52 -23zM85.5 580.5q-1.5 3.5 1.5 8.5l65 104q5 7 12 7h85q7 0 12 -7l68 -104q2 -4 2 -6q0 -6 -8 -6h-61q-7 0 -12 7l-39 68q-1 2 -3 2t-3 -2l-39 -68q-5 -7 -12 -7h-61q-6 0 -7.5 3.5zM391 699q0 -6 -9 -6h-49
q-8 0 -12 6l-74 109l-2 5q0 7 9 7h61q7 0 12 -7l62 -108q2 -4 2 -6z" />
    <glyph glyph-name="uni1EC2" unicode="&#x1ec2;" 
d="M387 617h-225q-4 0 -4 -4v-217q0 -4 4 -4h138q10 0 10 -10v-63q0 -10 -10 -10h-138q-4 0 -4 -4v-218q0 -4 4 -4h225q10 0 10 -10v-63q0 -10 -10 -10h-315q-10 0 -10 10v680q0 10 10 10h315q10 0 10 -10v-63q0 -10 -10 -10zM345 869.5q-2 3.5 0 8.5q10 22 32 46
q11 12 16.5 20.5t5.5 22.5q0 13 -10.5 21.5t-24.5 8.5q-16 0 -26 -6.5t-23 -25.5q-6 -9 -14 -3l-22 16q-8 6 -2 14q19 29 38 41t51 12q38 0 62 -21.5t24 -56.5q0 -22 -9.5 -37t-27.5 -33l-11.5 -11.5t-14.5 -19.5q-4 -7 -13 -6l-24 5q-5 1 -7 4.5zM106.5 771.5
q-1.5 3.5 1.5 8.5l65 104q5 7 12 7h85q7 0 12 -7l68 -104q2 -4 2 -6q0 -6 -8 -6h-61q-7 0 -12 7l-39 68q-1 2 -3 2t-3 -2l-39 -68q-5 -7 -12 -7h-61q-6 0 -7.5 3.5z" />
    <glyph glyph-name="uni1EC3" unicode="&#x1ec3;" horiz-adv-x="418" 
d="M369 215h-226q-4 0 -4 -4v-54q0 -36 20 -59t52 -23q28 0 47 17t24 44q3 8 11 8l74 -4q5 0 7.5 -3t1.5 -7q-7 -65 -49.5 -101.5t-115.5 -36.5q-77 0 -122.5 43t-45.5 115v208q0 71 45.5 115t122.5 44q78 0 123 -44t45 -115v-133q0 -10 -10 -10zM159 411q-20 -23 -20 -59
v-53q0 -4 4 -4h137q4 0 4 4v53q0 36 -20 59t-53 23q-32 0 -52 -23zM324 678.5q-2 3.5 0 8.5q10 22 32 46q11 12 16.5 20.5t5.5 22.5q0 13 -10.5 21.5t-24.5 8.5q-16 0 -26 -6.5t-23 -25.5q-6 -9 -14 -3l-22 16q-8 6 -2 14q19 29 38 41t51 12q38 0 62 -21.5t24 -56.5
q0 -22 -9.5 -37t-27.5 -33l-11.5 -11.5t-14.5 -19.5q-4 -7 -13 -6l-24 5q-5 1 -7 4.5zM85.5 580.5q-1.5 3.5 1.5 8.5l65 104q5 7 12 7h85q7 0 12 -7l68 -104q2 -4 2 -6q0 -6 -8 -6h-61q-7 0 -12 7l-39 68q-1 2 -3 2t-3 -2l-39 -68q-5 -7 -12 -7h-61q-6 0 -7.5 3.5z" />
    <glyph glyph-name="uni1EC4" unicode="&#x1ec4;" 
d="M387 617h-225q-4 0 -4 -4v-217q0 -4 4 -4h138q10 0 10 -10v-63q0 -10 -10 -10h-138q-4 0 -4 -4v-218q0 -4 4 -4h225q10 0 10 -10v-63q0 -10 -10 -10h-315q-10 0 -10 10v680q0 10 10 10h315q10 0 10 -10v-63q0 -10 -10 -10zM106.5 771.5q-1.5 3.5 1.5 8.5l65 104q5 7 12 7
h85q7 0 12 -7l68 -104q2 -4 2 -6q0 -6 -8 -6h-61q-7 0 -12 7l-39 68q-1 2 -3 2t-3 -2l-39 -68q-5 -7 -12 -7h-61q-6 0 -7.5 3.5zM257.5 929q-11.5 5 -29.5 15q-5 3 -13.5 9t-15 8.5t-14.5 2.5q-13 0 -22.5 -5.5t-19.5 -20.5q-2 -4 -6 -5t-8 2l-28 20q-7 6 -3 13q13 30 34 45
t46 15q16 0 30 -6t30 -17q4 -2 12 -8t16 -9t16 -3q12 0 22 5.5t19 20.5q4 9 14 3l27 -18q4 -3 4 -9q0 -4 -3 -10q-15 -28 -38 -40.5t-45 -12.5q-13 0 -24.5 5z" />
    <glyph glyph-name="uni1EC5" unicode="&#x1ec5;" horiz-adv-x="418" 
d="M369 215h-226q-4 0 -4 -4v-54q0 -36 20 -59t52 -23q28 0 47 17t24 44q3 8 11 8l74 -4q5 0 7.5 -3t1.5 -7q-7 -65 -49.5 -101.5t-115.5 -36.5q-77 0 -122.5 43t-45.5 115v208q0 71 45.5 115t122.5 44q78 0 123 -44t45 -115v-133q0 -10 -10 -10zM159 411q-20 -23 -20 -59
v-53q0 -4 4 -4h137q4 0 4 4v53q0 36 -20 59t-53 23q-32 0 -52 -23zM85.5 580.5q-1.5 3.5 1.5 8.5l65 104q5 7 12 7h85q7 0 12 -7l68 -104q2 -4 2 -6q0 -6 -8 -6h-61q-7 0 -12 7l-39 68q-1 2 -3 2t-3 -2l-39 -68q-5 -7 -12 -7h-61q-6 0 -7.5 3.5zM236.5 738q-11.5 5 -29.5 15
q-5 3 -13.5 9t-15 8.5t-14.5 2.5q-13 0 -22.5 -5.5t-19.5 -20.5q-2 -4 -6 -5t-8 2l-28 20q-7 6 -3 13q13 30 34 45t46 15q16 0 30 -6t30 -17q4 -2 12 -8t16 -9t16 -3q12 0 22 5.5t19 20.5q4 9 14 3l27 -18q4 -3 4 -9q0 -4 -3 -10q-15 -28 -38 -40.5t-45 -12.5q-13 0 -24.5 5
z" />
    <glyph glyph-name="uni1EC6" unicode="&#x1ec6;" 
d="M387 617h-225q-4 0 -4 -4v-217q0 -4 4 -4h138q10 0 10 -10v-63q0 -10 -10 -10h-138q-4 0 -4 -4v-218q0 -4 4 -4h225q10 0 10 -10v-63q0 -10 -10 -10h-315q-10 0 -10 10v680q0 10 10 10h315q10 0 10 -10v-63q0 -10 -10 -10zM181.5 -191.5q-17.5 17.5 -17.5 43.5
q0 27 17.5 44t43.5 17t43.5 -17t17.5 -44q0 -26 -17.5 -43.5t-43.5 -17.5t-43.5 17.5zM106.5 771.5q-1.5 3.5 1.5 8.5l65 104q5 7 12 7h85q7 0 12 -7l68 -104q2 -4 2 -6q0 -6 -8 -6h-61q-7 0 -12 7l-39 68q-1 2 -3 2t-3 -2l-39 -68q-5 -7 -12 -7h-61q-6 0 -7.5 3.5z" />
    <glyph glyph-name="uni1EC7" unicode="&#x1ec7;" horiz-adv-x="418" 
d="M369 215h-226q-4 0 -4 -4v-54q0 -36 20 -59t52 -23q28 0 47 17t24 44q3 8 11 8l74 -4q5 0 7.5 -3t1.5 -7q-7 -65 -49.5 -101.5t-115.5 -36.5q-77 0 -122.5 43t-45.5 115v208q0 71 45.5 115t122.5 44q78 0 123 -44t45 -115v-133q0 -10 -10 -10zM159 411q-20 -23 -20 -59
v-53q0 -4 4 -4h137q4 0 4 4v53q0 36 -20 59t-53 23q-32 0 -52 -23zM165.5 -191.5q-17.5 17.5 -17.5 43.5q0 27 17.5 44t43.5 17t43.5 -17t17.5 -44q0 -26 -17.5 -43.5t-43.5 -17.5t-43.5 17.5zM85.5 580.5q-1.5 3.5 1.5 8.5l65 104q5 7 12 7h85q7 0 12 -7l68 -104q2 -4 2 -6
q0 -6 -8 -6h-61q-7 0 -12 7l-39 68q-1 2 -3 2t-3 -2l-39 -68q-5 -7 -12 -7h-61q-6 0 -7.5 3.5z" />
    <glyph glyph-name="uni1EC8" unicode="&#x1ec8;" horiz-adv-x="220" 
d="M62 10v680q0 10 10 10h76q10 0 10 -10v-680q0 -10 -10 -10h-76q-10 0 -10 10zM93 747.5q-2 3.5 0 8.5q11 26 34 49q12 13 17 21.5t5 22.5q0 13 -10.5 22.5t-25.5 9.5q-17 0 -27.5 -7.5t-24.5 -26.5q-6 -9 -14 -3l-24 17q-8 6 -2 14q20 30 40 43t54 13q40 0 64.5 -22.5
t24.5 -59.5q0 -22 -9.5 -37.5t-28.5 -35.5q-20 -18 -27 -32q-4 -7 -13 -6l-26 5q-5 1 -7 4.5z" />
    <glyph glyph-name="uni1EC9" unicode="&#x1ec9;" horiz-adv-x="176" 
d="M40 10v489q0 10 10 10h76q10 0 10 -10v-489q0 -10 -10 -10h-76q-10 0 -10 10zM71 556.5q-2 3.5 0 8.5q11 26 34 49q12 13 17 21.5t5 22.5q0 13 -10.5 22.5t-25.5 9.5q-17 0 -27.5 -7.5t-24.5 -26.5q-6 -9 -14 -3l-24 17q-8 6 -2 14q20 30 40 43t54 13q40 0 64.5 -22.5
t24.5 -59.5q0 -22 -9.5 -37.5t-28.5 -35.5q-20 -18 -27 -32q-4 -7 -13 -6l-26 5q-5 1 -7 4.5z" />
    <glyph glyph-name="uni1ECA" unicode="&#x1eca;" horiz-adv-x="220" 
d="M62 10v680q0 10 10 10h76q10 0 10 -10v-680q0 -10 -10 -10h-76q-10 0 -10 10zM66.5 -191.5q-17.5 17.5 -17.5 43.5q0 27 17.5 44t43.5 17t43.5 -17t17.5 -44q0 -26 -17.5 -43.5t-43.5 -17.5t-43.5 17.5z" />
    <glyph glyph-name="uni1ECB" unicode="&#x1ecb;" horiz-adv-x="212" 
d="M59 607q-18 18 -18 46t18 46t46 18q29 0 46.5 -17.5t17.5 -46.5q0 -28 -18 -46t-46 -18t-46 18zM58 10v489q0 10 10 10h76q10 0 10 -10v-489q0 -10 -10 -10h-76q-10 0 -10 10zM62.5 -191.5q-17.5 17.5 -17.5 43.5q0 27 17.5 44t43.5 17t43.5 -17t17.5 -44
q0 -26 -17.5 -43.5t-43.5 -17.5t-43.5 17.5z" />
    <glyph glyph-name="uni1ECC" unicode="&#x1ecc;" horiz-adv-x="462" 
d="M98 42q-50 50 -50 133v349q0 83 50 133.5t132 50.5q83 0 133.5 -50.5t50.5 -133.5v-349q0 -83 -50.5 -133t-133.5 -50q-82 0 -132 50zM294 101.5q24 26.5 24 69.5v358q0 43 -24 69.5t-64 26.5q-39 0 -62.5 -26.5t-23.5 -69.5v-358q0 -43 23.5 -69.5t62.5 -26.5
q40 0 64 26.5zM187.5 -191.5q-17.5 17.5 -17.5 43.5q0 27 17.5 44t43.5 17t43.5 -17t17.5 -44q0 -26 -17.5 -43.5t-43.5 -17.5t-43.5 17.5z" />
    <glyph glyph-name="uni1ECD" unicode="&#x1ecd;" horiz-adv-x="424" 
d="M88.5 35.5q-45.5 43.5 -45.5 115.5v207q0 71 46 115t123 44q78 0 124 -44t46 -115v-207q0 -72 -46 -115.5t-124 -43.5t-123.5 43.5zM265 98.5q21 22.5 21 59.5v194q0 36 -21 59t-53 23t-52.5 -23t-20.5 -59v-194q0 -37 20.5 -59.5t52.5 -22.5t53 22.5zM169.5 -191.5
q-17.5 17.5 -17.5 43.5q0 27 17.5 44t43.5 17t43.5 -17t17.5 -44q0 -26 -17.5 -43.5t-43.5 -17.5t-43.5 17.5z" />
    <glyph glyph-name="uni1ECE" unicode="&#x1ece;" horiz-adv-x="462" 
d="M98 42q-50 50 -50 133v349q0 83 50 133.5t132 50.5q83 0 133.5 -50.5t50.5 -133.5v-349q0 -83 -50.5 -133t-133.5 -50q-82 0 -132 50zM294 101.5q24 26.5 24 69.5v358q0 43 -24 69.5t-64 26.5q-39 0 -62.5 -26.5t-23.5 -69.5v-358q0 -43 23.5 -69.5t62.5 -26.5
q40 0 64 26.5zM213 747.5q-2 3.5 0 8.5q11 26 34 49q12 13 17 21.5t5 22.5q0 13 -10.5 22.5t-25.5 9.5q-17 0 -27.5 -7.5t-24.5 -26.5q-6 -9 -14 -3l-24 17q-8 6 -2 14q20 30 40 43t54 13q40 0 64.5 -22.5t24.5 -59.5q0 -22 -9.5 -37.5t-28.5 -35.5q-20 -18 -27 -32
q-4 -7 -13 -6l-26 5q-5 1 -7 4.5z" />
    <glyph glyph-name="uni1ECF" unicode="&#x1ecf;" horiz-adv-x="424" 
d="M88.5 35.5q-45.5 43.5 -45.5 115.5v207q0 71 46 115t123 44q78 0 124 -44t46 -115v-207q0 -72 -46 -115.5t-124 -43.5t-123.5 43.5zM265 98.5q21 22.5 21 59.5v194q0 36 -21 59t-53 23t-52.5 -23t-20.5 -59v-194q0 -37 20.5 -59.5t52.5 -22.5t53 22.5zM195 556.5
q-2 3.5 0 8.5q11 26 34 49q12 13 17 21.5t5 22.5q0 13 -10.5 22.5t-25.5 9.5q-17 0 -27.5 -7.5t-24.5 -26.5q-6 -9 -14 -3l-24 17q-8 6 -2 14q20 30 40 43t54 13q40 0 64.5 -22.5t24.5 -59.5q0 -22 -9.5 -37.5t-28.5 -35.5q-20 -18 -27 -32q-4 -7 -13 -6l-26 5q-5 1 -7 4.5z
" />
    <glyph glyph-name="uni1ED0" unicode="&#x1ed0;" horiz-adv-x="462" 
d="M98 42q-50 50 -50 133v349q0 83 50 133.5t132 50.5q83 0 133.5 -50.5t50.5 -133.5v-349q0 -83 -50.5 -133t-133.5 -50q-82 0 -132 50zM294 101.5q24 26.5 24 69.5v358q0 43 -24 69.5t-64 26.5q-39 0 -62.5 -26.5t-23.5 -69.5v-358q0 -43 23.5 -69.5t62.5 -26.5
q40 0 64 26.5zM106.5 771.5q-1.5 3.5 1.5 8.5l65 104q5 7 12 7h85q7 0 12 -7l68 -104q2 -4 2 -6q0 -6 -8 -6h-61q-7 0 -12 7l-39 68q-1 2 -3 2t-3 -2l-39 -68q-5 -7 -12 -7h-61q-6 0 -7.5 3.5zM349 846.5q-2 3.5 1 8.5l62 108q5 7 12 7h61q6 0 8 -3.5t-1 -8.5l-74 -109
q-4 -6 -12 -6h-49q-6 0 -8 3.5z" />
    <glyph glyph-name="uni1ED1" unicode="&#x1ed1;" horiz-adv-x="424" 
d="M88.5 35.5q-45.5 43.5 -45.5 115.5v207q0 71 46 115t123 44q78 0 124 -44t46 -115v-207q0 -72 -46 -115.5t-124 -43.5t-123.5 43.5zM265 98.5q21 22.5 21 59.5v194q0 36 -21 59t-53 23t-52.5 -23t-20.5 -59v-194q0 -37 20.5 -59.5t52.5 -22.5t53 22.5zM88.5 580.5
q-1.5 3.5 1.5 8.5l65 104q5 7 12 7h85q7 0 12 -7l68 -104q2 -4 2 -6q0 -6 -8 -6h-61q-7 0 -12 7l-39 68q-1 2 -3 2t-3 -2l-39 -68q-5 -7 -12 -7h-61q-6 0 -7.5 3.5zM331 655.5q-2 3.5 1 8.5l62 108q5 7 12 7h61q6 0 8 -3.5t-1 -8.5l-74 -109q-4 -6 -12 -6h-49q-6 0 -8 3.5z
" />
    <glyph glyph-name="uni1ED2" unicode="&#x1ed2;" horiz-adv-x="462" 
d="M98 42q-50 50 -50 133v349q0 83 50 133.5t132 50.5q83 0 133.5 -50.5t50.5 -133.5v-349q0 -83 -50.5 -133t-133.5 -50q-82 0 -132 50zM294 101.5q24 26.5 24 69.5v358q0 43 -24 69.5t-64 26.5q-39 0 -62.5 -26.5t-23.5 -69.5v-358q0 -43 23.5 -69.5t62.5 -26.5
q40 0 64 26.5zM106.5 771.5q-1.5 3.5 1.5 8.5l65 104q5 7 12 7h85q7 0 12 -7l68 -104q2 -4 2 -6q0 -6 -8 -6h-61q-7 0 -12 7l-39 68q-1 2 -3 2t-3 -2l-39 -68q-5 -7 -12 -7h-61q-6 0 -7.5 3.5zM412 890q0 -6 -9 -6h-49q-8 0 -12 6l-74 109l-2 5q0 7 9 7h61q7 0 12 -7
l62 -108q2 -4 2 -6z" />
    <glyph glyph-name="uni1ED3" unicode="&#x1ed3;" horiz-adv-x="424" 
d="M88.5 35.5q-45.5 43.5 -45.5 115.5v207q0 71 46 115t123 44q78 0 124 -44t46 -115v-207q0 -72 -46 -115.5t-124 -43.5t-123.5 43.5zM265 98.5q21 22.5 21 59.5v194q0 36 -21 59t-53 23t-52.5 -23t-20.5 -59v-194q0 -37 20.5 -59.5t52.5 -22.5t53 22.5zM88.5 580.5
q-1.5 3.5 1.5 8.5l65 104q5 7 12 7h85q7 0 12 -7l68 -104q2 -4 2 -6q0 -6 -8 -6h-61q-7 0 -12 7l-39 68q-1 2 -3 2t-3 -2l-39 -68q-5 -7 -12 -7h-61q-6 0 -7.5 3.5zM394 699q0 -6 -9 -6h-49q-8 0 -12 6l-74 109l-2 5q0 7 9 7h61q7 0 12 -7l62 -108q2 -4 2 -6z" />
    <glyph glyph-name="uni1ED4" unicode="&#x1ed4;" horiz-adv-x="462" 
d="M98 42q-50 50 -50 133v349q0 83 50 133.5t132 50.5q83 0 133.5 -50.5t50.5 -133.5v-349q0 -83 -50.5 -133t-133.5 -50q-82 0 -132 50zM294 101.5q24 26.5 24 69.5v358q0 43 -24 69.5t-64 26.5q-39 0 -62.5 -26.5t-23.5 -69.5v-358q0 -43 23.5 -69.5t62.5 -26.5
q40 0 64 26.5zM345 869.5q-2 3.5 0 8.5q10 22 32 46q11 12 16.5 20.5t5.5 22.5q0 13 -10.5 21.5t-24.5 8.5q-16 0 -26 -6.5t-23 -25.5q-6 -9 -14 -3l-22 16q-8 6 -2 14q19 29 38 41t51 12q38 0 62 -21.5t24 -56.5q0 -22 -9.5 -37t-27.5 -33l-11.5 -11.5t-14.5 -19.5
q-4 -7 -13 -6l-24 5q-5 1 -7 4.5zM106.5 771.5q-1.5 3.5 1.5 8.5l65 104q5 7 12 7h85q7 0 12 -7l68 -104q2 -4 2 -6q0 -6 -8 -6h-61q-7 0 -12 7l-39 68q-1 2 -3 2t-3 -2l-39 -68q-5 -7 -12 -7h-61q-6 0 -7.5 3.5z" />
    <glyph glyph-name="uni1ED5" unicode="&#x1ed5;" horiz-adv-x="424" 
d="M88.5 35.5q-45.5 43.5 -45.5 115.5v207q0 71 46 115t123 44q78 0 124 -44t46 -115v-207q0 -72 -46 -115.5t-124 -43.5t-123.5 43.5zM265 98.5q21 22.5 21 59.5v194q0 36 -21 59t-53 23t-52.5 -23t-20.5 -59v-194q0 -37 20.5 -59.5t52.5 -22.5t53 22.5zM327 678.5
q-2 3.5 0 8.5q10 22 32 46q11 12 16.5 20.5t5.5 22.5q0 13 -10.5 21.5t-24.5 8.5q-16 0 -26 -6.5t-23 -25.5q-6 -9 -14 -3l-22 16q-8 6 -2 14q19 29 38 41t51 12q38 0 62 -21.5t24 -56.5q0 -22 -9.5 -37t-27.5 -33l-11.5 -11.5t-14.5 -19.5q-4 -7 -13 -6l-24 5q-5 1 -7 4.5z
M88.5 580.5q-1.5 3.5 1.5 8.5l65 104q5 7 12 7h85q7 0 12 -7l68 -104q2 -4 2 -6q0 -6 -8 -6h-61q-7 0 -12 7l-39 68q-1 2 -3 2t-3 -2l-39 -68q-5 -7 -12 -7h-61q-6 0 -7.5 3.5z" />
    <glyph glyph-name="uni1ED6" unicode="&#x1ed6;" horiz-adv-x="462" 
d="M98 42q-50 50 -50 133v349q0 83 50 133.5t132 50.5q83 0 133.5 -50.5t50.5 -133.5v-349q0 -83 -50.5 -133t-133.5 -50q-82 0 -132 50zM294 101.5q24 26.5 24 69.5v358q0 43 -24 69.5t-64 26.5q-39 0 -62.5 -26.5t-23.5 -69.5v-358q0 -43 23.5 -69.5t62.5 -26.5
q40 0 64 26.5zM106.5 771.5q-1.5 3.5 1.5 8.5l65 104q5 7 12 7h85q7 0 12 -7l68 -104q2 -4 2 -6q0 -6 -8 -6h-61q-7 0 -12 7l-39 68q-1 2 -3 2t-3 -2l-39 -68q-5 -7 -12 -7h-61q-6 0 -7.5 3.5zM257.5 929q-11.5 5 -29.5 15q-5 3 -13.5 9t-15 8.5t-14.5 2.5q-13 0 -22.5 -5.5
t-19.5 -20.5q-2 -4 -6 -5t-8 2l-28 20q-7 6 -3 13q13 30 34 45t46 15q16 0 30 -6t30 -17q4 -2 12 -8t16 -9t16 -3q12 0 22 5.5t19 20.5q4 9 14 3l27 -18q4 -3 4 -9q0 -4 -3 -10q-15 -28 -38 -40.5t-45 -12.5q-13 0 -24.5 5z" />
    <glyph glyph-name="uni1ED7" unicode="&#x1ed7;" horiz-adv-x="424" 
d="M88.5 35.5q-45.5 43.5 -45.5 115.5v207q0 71 46 115t123 44q78 0 124 -44t46 -115v-207q0 -72 -46 -115.5t-124 -43.5t-123.5 43.5zM265 98.5q21 22.5 21 59.5v194q0 36 -21 59t-53 23t-52.5 -23t-20.5 -59v-194q0 -37 20.5 -59.5t52.5 -22.5t53 22.5zM88.5 580.5
q-1.5 3.5 1.5 8.5l65 104q5 7 12 7h85q7 0 12 -7l68 -104q2 -4 2 -6q0 -6 -8 -6h-61q-7 0 -12 7l-39 68q-1 2 -3 2t-3 -2l-39 -68q-5 -7 -12 -7h-61q-6 0 -7.5 3.5zM239.5 738q-11.5 5 -29.5 15q-5 3 -13.5 9t-15 8.5t-14.5 2.5q-13 0 -22.5 -5.5t-19.5 -20.5q-2 -4 -6 -5
t-8 2l-28 20q-7 6 -3 13q13 30 34 45t46 15q16 0 30 -6t30 -17q4 -2 12 -8t16 -9t16 -3q12 0 22 5.5t19 20.5q4 9 14 3l27 -18q4 -3 4 -9q0 -4 -3 -10q-15 -28 -38 -40.5t-45 -12.5q-13 0 -24.5 5z" />
    <glyph glyph-name="uni1ED8" unicode="&#x1ed8;" horiz-adv-x="462" 
d="M98 42q-50 50 -50 133v349q0 83 50 133.5t132 50.5q83 0 133.5 -50.5t50.5 -133.5v-349q0 -83 -50.5 -133t-133.5 -50q-82 0 -132 50zM294 101.5q24 26.5 24 69.5v358q0 43 -24 69.5t-64 26.5q-39 0 -62.5 -26.5t-23.5 -69.5v-358q0 -43 23.5 -69.5t62.5 -26.5
q40 0 64 26.5zM187.5 -191.5q-17.5 17.5 -17.5 43.5q0 27 17.5 44t43.5 17t43.5 -17t17.5 -44q0 -26 -17.5 -43.5t-43.5 -17.5t-43.5 17.5zM106.5 771.5q-1.5 3.5 1.5 8.5l65 104q5 7 12 7h85q7 0 12 -7l68 -104q2 -4 2 -6q0 -6 -8 -6h-61q-7 0 -12 7l-39 68q-1 2 -3 2
t-3 -2l-39 -68q-5 -7 -12 -7h-61q-6 0 -7.5 3.5z" />
    <glyph glyph-name="uni1ED9" unicode="&#x1ed9;" horiz-adv-x="424" 
d="M88.5 35.5q-45.5 43.5 -45.5 115.5v207q0 71 46 115t123 44q78 0 124 -44t46 -115v-207q0 -72 -46 -115.5t-124 -43.5t-123.5 43.5zM265 98.5q21 22.5 21 59.5v194q0 36 -21 59t-53 23t-52.5 -23t-20.5 -59v-194q0 -37 20.5 -59.5t52.5 -22.5t53 22.5zM169.5 -191.5
q-17.5 17.5 -17.5 43.5q0 27 17.5 44t43.5 17t43.5 -17t17.5 -44q0 -26 -17.5 -43.5t-43.5 -17.5t-43.5 17.5zM88.5 580.5q-1.5 3.5 1.5 8.5l65 104q5 7 12 7h85q7 0 12 -7l68 -104q2 -4 2 -6q0 -6 -8 -6h-61q-7 0 -12 7l-39 68q-1 2 -3 2t-3 -2l-39 -68q-5 -7 -12 -7h-61
q-6 0 -7.5 3.5z" />
    <glyph glyph-name="uni1EDA" unicode="&#x1eda;" horiz-adv-x="462" 
d="M353 667q29 -24 45 -61t16 -82v-349q0 -83 -50.5 -133t-133.5 -50q-82 0 -132 50t-50 133v349q0 83 50 133.5t132 50.5q26 0 57 -7q1 -1 4 -1q24 2 40.5 19.5t19.5 51.5q0 10 10 10h34q10 0 10 -14q-6 -66 -52 -95q-3 -2 0 -5zM318 529q0 43 -24 69.5t-64 26.5
q-39 0 -62.5 -26.5t-23.5 -69.5v-358q0 -43 23.5 -69.5t62.5 -26.5q40 0 64 26.5t24 69.5v358zM179 767.5q-2 3.5 1 8.5l62 108q5 7 12 7h61q6 0 8 -3.5t-1 -8.5l-74 -109q-4 -6 -12 -6h-49q-6 0 -8 3.5z" />
    <glyph glyph-name="uni1EDB" unicode="&#x1edb;" horiz-adv-x="424" 
d="M334 475q23 -21 35.5 -51t12.5 -66v-207q0 -72 -46 -115.5t-124 -43.5t-123.5 43.5t-45.5 115.5v207q0 71 46 115t123 44q26 0 57 -7q1 -1 4 -1q24 2 40.5 19.5t19.5 51.5q0 10 10 10h34q5 0 7.5 -3.5t1.5 -10.5q-4 -66 -52 -96q-4 -2 0 -5zM265 411q-21 23 -53 23
t-52.5 -23t-20.5 -59v-194q0 -37 20.5 -59.5t52.5 -22.5t53 22.5t21 59.5v194q0 36 -21 59zM161 576.5q-2 3.5 1 8.5l62 108q5 7 12 7h61q6 0 8 -3.5t-1 -8.5l-74 -109q-4 -6 -12 -6h-49q-6 0 -8 3.5z" />
    <glyph glyph-name="uni1EDC" unicode="&#x1edc;" horiz-adv-x="462" 
d="M353 667q29 -24 45 -61t16 -82v-349q0 -83 -50.5 -133t-133.5 -50q-82 0 -132 50t-50 133v349q0 83 50 133.5t132 50.5q26 0 57 -7q1 -1 4 -1q24 2 40.5 19.5t19.5 51.5q0 10 10 10h34q10 0 10 -14q-6 -66 -52 -95q-3 -2 0 -5zM318 529q0 43 -24 69.5t-64 26.5
q-39 0 -62.5 -26.5t-23.5 -69.5v-358q0 -43 23.5 -69.5t62.5 -26.5q40 0 64 26.5t24 69.5v358zM262 770q0 -6 -9 -6h-49q-8 0 -12 6l-74 109l-2 5q0 7 9 7h61q7 0 12 -7l62 -108q2 -4 2 -6z" />
    <glyph glyph-name="uni1EDD" unicode="&#x1edd;" horiz-adv-x="424" 
d="M334 475q23 -21 35.5 -51t12.5 -66v-207q0 -72 -46 -115.5t-124 -43.5t-123.5 43.5t-45.5 115.5v207q0 71 46 115t123 44q26 0 57 -7q1 -1 4 -1q24 2 40.5 19.5t19.5 51.5q0 10 10 10h34q5 0 7.5 -3.5t1.5 -10.5q-4 -66 -52 -96q-4 -2 0 -5zM265 411q-21 23 -53 23
t-52.5 -23t-20.5 -59v-194q0 -37 20.5 -59.5t52.5 -22.5t53 22.5t21 59.5v194q0 36 -21 59zM244 579q0 -6 -9 -6h-49q-8 0 -12 6l-74 109l-2 5q0 7 9 7h61q7 0 12 -7l62 -108q2 -4 2 -6z" />
    <glyph glyph-name="uni1EDE" unicode="&#x1ede;" horiz-adv-x="462" 
d="M353 667q29 -24 45 -61t16 -82v-349q0 -83 -50.5 -133t-133.5 -50q-82 0 -132 50t-50 133v349q0 83 50 133.5t132 50.5q26 0 57 -7q1 -1 4 -1q24 2 40.5 19.5t19.5 51.5q0 10 10 10h34q10 0 10 -14q-6 -66 -52 -95q-3 -2 0 -5zM318 529q0 43 -24 69.5t-64 26.5
q-39 0 -62.5 -26.5t-23.5 -69.5v-358q0 -43 23.5 -69.5t62.5 -26.5q40 0 64 26.5t24 69.5v358zM213 747.5q-2 3.5 0 8.5q11 26 34 49q12 13 17 21.5t5 22.5q0 13 -10.5 22.5t-25.5 9.5q-17 0 -27.5 -7.5t-24.5 -26.5q-6 -9 -14 -3l-24 17q-8 6 -2 14q20 30 40 43t54 13
q40 0 64.5 -22.5t24.5 -59.5q0 -22 -9.5 -37.5t-28.5 -35.5q-20 -18 -27 -32q-4 -7 -13 -6l-26 5q-5 1 -7 4.5z" />
    <glyph glyph-name="uni1EDF" unicode="&#x1edf;" horiz-adv-x="424" 
d="M334 475q23 -21 35.5 -51t12.5 -66v-207q0 -72 -46 -115.5t-124 -43.5t-123.5 43.5t-45.5 115.5v207q0 71 46 115t123 44q26 0 57 -7q1 -1 4 -1q24 2 40.5 19.5t19.5 51.5q0 10 10 10h34q5 0 7.5 -3.5t1.5 -10.5q-4 -66 -52 -96q-4 -2 0 -5zM265 411q-21 23 -53 23
t-52.5 -23t-20.5 -59v-194q0 -37 20.5 -59.5t52.5 -22.5t53 22.5t21 59.5v194q0 36 -21 59zM195 556.5q-2 3.5 0 8.5q11 26 34 49q12 13 17 21.5t5 22.5q0 13 -10.5 22.5t-25.5 9.5q-17 0 -27.5 -7.5t-24.5 -26.5q-6 -9 -14 -3l-24 17q-8 6 -2 14q20 30 40 43t54 13
q40 0 64.5 -22.5t24.5 -59.5q0 -22 -9.5 -37.5t-28.5 -35.5q-20 -18 -27 -32q-4 -7 -13 -6l-26 5q-5 1 -7 4.5z" />
    <glyph glyph-name="uni1EE0" unicode="&#x1ee0;" horiz-adv-x="462" 
d="M353 667q29 -24 45 -61t16 -82v-349q0 -83 -50.5 -133t-133.5 -50q-82 0 -132 50t-50 133v349q0 83 50 133.5t132 50.5q26 0 57 -7q1 -1 4 -1q24 2 40.5 19.5t19.5 51.5q0 10 10 10h34q10 0 10 -14q-6 -66 -52 -95q-3 -2 0 -5zM318 529q0 43 -24 69.5t-64 26.5
q-39 0 -62.5 -26.5t-23.5 -69.5v-358q0 -43 23.5 -69.5t62.5 -26.5q40 0 64 26.5t24 69.5v358zM268.5 796q-11.5 5 -29.5 15q-5 3 -13.5 9t-15 8.5t-14.5 2.5q-13 0 -22.5 -5.5t-19.5 -20.5q-2 -4 -6 -5t-8 2l-28 20q-7 6 -3 13q13 30 34 45t46 15q16 0 30 -6t30 -17
q4 -2 12 -8t16 -9t16 -3q12 0 22 5.5t19 20.5q4 9 14 3l27 -18q4 -3 4 -9q0 -4 -3 -10q-15 -28 -38 -40.5t-45 -12.5q-13 0 -24.5 5z" />
    <glyph glyph-name="uni1EE1" unicode="&#x1ee1;" horiz-adv-x="424" 
d="M334 475q23 -21 35.5 -51t12.5 -66v-207q0 -72 -46 -115.5t-124 -43.5t-123.5 43.5t-45.5 115.5v207q0 71 46 115t123 44q26 0 57 -7q1 -1 4 -1q24 2 40.5 19.5t19.5 51.5q0 10 10 10h34q5 0 7.5 -3.5t1.5 -10.5q-4 -66 -52 -96q-4 -2 0 -5zM265 411q-21 23 -53 23
t-52.5 -23t-20.5 -59v-194q0 -37 20.5 -59.5t52.5 -22.5t53 22.5t21 59.5v194q0 36 -21 59zM233.5 611q-11.5 5 -29.5 15q-5 3 -13.5 9t-15 8.5t-14.5 2.5q-13 0 -22.5 -5.5t-19.5 -20.5q-2 -4 -6 -5t-8 2l-28 20q-7 6 -3 13q13 30 34 45t46 15q16 0 30 -6t30 -17
q4 -2 12 -8t16 -9t16 -3q12 0 22 5.5t19 20.5q4 9 14 3l27 -18q4 -3 4 -9q0 -4 -3 -10q-15 -28 -38 -40.5t-45 -12.5q-13 0 -24.5 5z" />
    <glyph glyph-name="uni1EE2" unicode="&#x1ee2;" horiz-adv-x="462" 
d="M353 667q29 -24 45 -61t16 -82v-349q0 -83 -50.5 -133t-133.5 -50q-82 0 -132 50t-50 133v349q0 83 50 133.5t132 50.5q26 0 57 -7q1 -1 4 -1q24 2 40.5 19.5t19.5 51.5q0 10 10 10h34q10 0 10 -14q-6 -66 -52 -95q-3 -2 0 -5zM318 529q0 43 -24 69.5t-64 26.5
q-39 0 -62.5 -26.5t-23.5 -69.5v-358q0 -43 23.5 -69.5t62.5 -26.5q40 0 64 26.5t24 69.5v358zM187.5 -191.5q-17.5 17.5 -17.5 43.5q0 27 17.5 44t43.5 17t43.5 -17t17.5 -44q0 -26 -17.5 -43.5t-43.5 -17.5t-43.5 17.5z" />
    <glyph glyph-name="uni1EE3" unicode="&#x1ee3;" horiz-adv-x="424" 
d="M334 475q23 -21 35.5 -51t12.5 -66v-207q0 -72 -46 -115.5t-124 -43.5t-123.5 43.5t-45.5 115.5v207q0 71 46 115t123 44q26 0 57 -7q1 -1 4 -1q24 2 40.5 19.5t19.5 51.5q0 10 10 10h34q5 0 7.5 -3.5t1.5 -10.5q-4 -66 -52 -96q-4 -2 0 -5zM265 411q-21 23 -53 23
t-52.5 -23t-20.5 -59v-194q0 -37 20.5 -59.5t52.5 -22.5t53 22.5t21 59.5v194q0 36 -21 59zM169.5 -191.5q-17.5 17.5 -17.5 43.5q0 27 17.5 44t43.5 17t43.5 -17t17.5 -44q0 -26 -17.5 -43.5t-43.5 -17.5t-43.5 17.5z" />
    <glyph glyph-name="uni1EE4" unicode="&#x1ee4;" horiz-adv-x="477" 
d="M106.5 46.5q-49.5 54.5 -49.5 143.5v500q0 10 10 10h76q10 0 10 -10v-510q0 -47 23.5 -76t61.5 -29q39 0 62.5 29t23.5 76v510q0 10 10 10h76q10 0 10 -10v-500q0 -89 -50 -143.5t-132 -54.5t-131.5 54.5zM195.5 -191.5q-17.5 17.5 -17.5 43.5q0 27 17.5 44t43.5 17
t43.5 -17t17.5 -44q0 -26 -17.5 -43.5t-43.5 -17.5t-43.5 17.5z" />
    <glyph glyph-name="uni1EE5" unicode="&#x1ee5;" 
d="M293 509h76q10 0 10 -10v-489q0 -10 -10 -10h-76q-10 0 -10 10v29q0 3 -1.5 3t-3.5 -2q-30 -47 -96 -47q-60 0 -97 36.5t-37 111.5v358q0 10 10 10h76q10 0 10 -10v-337q0 -86 68 -86q34 0 52.5 24.5t18.5 67.5v331q0 10 10 10zM168.5 -191.5q-17.5 17.5 -17.5 43.5
q0 27 17.5 44t43.5 17t43.5 -17t17.5 -44q0 -26 -17.5 -43.5t-43.5 -17.5t-43.5 17.5z" />
    <glyph glyph-name="uni1EE6" unicode="&#x1ee6;" horiz-adv-x="477" 
d="M106.5 46.5q-49.5 54.5 -49.5 143.5v500q0 10 10 10h76q10 0 10 -10v-510q0 -47 23.5 -76t61.5 -29q39 0 62.5 29t23.5 76v510q0 10 10 10h76q10 0 10 -10v-500q0 -89 -50 -143.5t-132 -54.5t-131.5 54.5zM221 747.5q-2 3.5 0 8.5q11 26 34 49q12 13 17 21.5t5 22.5
q0 13 -10.5 22.5t-25.5 9.5q-17 0 -27.5 -7.5t-24.5 -26.5q-6 -9 -14 -3l-24 17q-8 6 -2 14q20 30 40 43t54 13q40 0 64.5 -22.5t24.5 -59.5q0 -22 -9.5 -37.5t-28.5 -35.5q-20 -18 -27 -32q-4 -7 -13 -6l-26 5q-5 1 -7 4.5z" />
    <glyph glyph-name="uni1EE7" unicode="&#x1ee7;" 
d="M293 509h76q10 0 10 -10v-489q0 -10 -10 -10h-76q-10 0 -10 10v29q0 3 -1.5 3t-3.5 -2q-30 -47 -96 -47q-60 0 -97 36.5t-37 111.5v358q0 10 10 10h76q10 0 10 -10v-337q0 -86 68 -86q34 0 52.5 24.5t18.5 67.5v331q0 10 10 10zM196 556.5q-2 3.5 0 8.5q11 26 34 49
q12 13 17 21.5t5 22.5q0 13 -10.5 22.5t-25.5 9.5q-17 0 -27.5 -7.5t-24.5 -26.5q-6 -9 -14 -3l-24 17q-8 6 -2 14q20 30 40 43t54 13q40 0 64.5 -22.5t24.5 -59.5q0 -22 -9.5 -37.5t-28.5 -35.5q-20 -18 -27 -32q-4 -7 -13 -6l-26 5q-5 1 -7 4.5z" />
    <glyph glyph-name="uni1EE8" unicode="&#x1ee8;" horiz-adv-x="477" 
d="M498 771q-2 -43 -22 -70.5t-53 -39.5q-3 -1 -3 -4v-467q0 -89 -50 -143.5t-132 -54.5t-131.5 54.5t-49.5 143.5v500q0 10 10 10h76q10 0 10 -10v-510q0 -47 23.5 -76t61.5 -29q39 0 62.5 29t23.5 76v510q0 10 10 10h45q25 0 43.5 17.5t21.5 53.5q0 10 10 10h34
q10 0 10 -10zM187 767.5q-2 3.5 1 8.5l62 108q5 7 12 7h61q6 0 8 -3.5t-1 -8.5l-74 -109q-4 -6 -12 -6h-49q-6 0 -8 3.5z" />
    <glyph glyph-name="uni1EE9" unicode="&#x1ee9;" 
d="M455 580q-2 -42 -21.5 -70t-51.5 -39q-3 -1 -3 -4v-457q0 -10 -10 -10h-76q-10 0 -10 10v29q0 3 -1.5 3t-3.5 -2q-30 -47 -96 -47q-60 0 -97 36.5t-37 111.5v358q0 10 10 10h76q10 0 10 -10v-337q0 -86 68 -86q34 0 52.5 24.5t18.5 67.5v331q0 10 10 10h43
q25 0 43.5 17.5t21.5 53.5q0 10 10 10h34q10 0 10 -10zM162 576.5q-2 3.5 1 8.5l62 108q5 7 12 7h61q6 0 8 -3.5t-1 -8.5l-74 -109q-4 -6 -12 -6h-49q-6 0 -8 3.5z" />
    <glyph glyph-name="uni1EEA" unicode="&#x1eea;" horiz-adv-x="477" 
d="M498 771q-2 -43 -22 -70.5t-53 -39.5q-3 -1 -3 -4v-467q0 -89 -50 -143.5t-132 -54.5t-131.5 54.5t-49.5 143.5v500q0 10 10 10h76q10 0 10 -10v-510q0 -47 23.5 -76t61.5 -29q39 0 62.5 29t23.5 76v510q0 10 10 10h45q25 0 43.5 17.5t21.5 53.5q0 10 10 10h34
q10 0 10 -10zM270 770q0 -6 -9 -6h-49q-8 0 -12 6l-74 109l-2 5q0 7 9 7h61q7 0 12 -7l62 -108q2 -4 2 -6z" />
    <glyph glyph-name="uni1EEB" unicode="&#x1eeb;" 
d="M455 580q-2 -42 -21.5 -70t-51.5 -39q-3 -1 -3 -4v-457q0 -10 -10 -10h-76q-10 0 -10 10v29q0 3 -1.5 3t-3.5 -2q-30 -47 -96 -47q-60 0 -97 36.5t-37 111.5v358q0 10 10 10h76q10 0 10 -10v-337q0 -86 68 -86q34 0 52.5 24.5t18.5 67.5v331q0 10 10 10h43
q25 0 43.5 17.5t21.5 53.5q0 10 10 10h34q10 0 10 -10zM245 579q0 -6 -9 -6h-49q-8 0 -12 6l-74 109l-2 5q0 7 9 7h61q7 0 12 -7l62 -108q2 -4 2 -6z" />
    <glyph glyph-name="uni1EEC" unicode="&#x1eec;" horiz-adv-x="477" 
d="M498 771q-2 -43 -22 -70.5t-53 -39.5q-3 -1 -3 -4v-467q0 -89 -50 -143.5t-132 -54.5t-131.5 54.5t-49.5 143.5v500q0 10 10 10h76q10 0 10 -10v-510q0 -47 23.5 -76t61.5 -29q39 0 62.5 29t23.5 76v510q0 10 10 10h45q25 0 43.5 17.5t21.5 53.5q0 10 10 10h34
q10 0 10 -10zM221 747.5q-2 3.5 0 8.5q11 26 34 49q12 13 17 21.5t5 22.5q0 13 -10.5 22.5t-25.5 9.5q-17 0 -27.5 -7.5t-24.5 -26.5q-6 -9 -14 -3l-24 17q-8 6 -2 14q20 30 40 43t54 13q40 0 64.5 -22.5t24.5 -59.5q0 -22 -9.5 -37.5t-28.5 -35.5q-20 -18 -27 -32
q-4 -7 -13 -6l-26 5q-5 1 -7 4.5z" />
    <glyph glyph-name="uni1EED" unicode="&#x1eed;" 
d="M455 580q-2 -42 -21.5 -70t-51.5 -39q-3 -1 -3 -4v-457q0 -10 -10 -10h-76q-10 0 -10 10v29q0 3 -1.5 3t-3.5 -2q-30 -47 -96 -47q-60 0 -97 36.5t-37 111.5v358q0 10 10 10h76q10 0 10 -10v-337q0 -86 68 -86q34 0 52.5 24.5t18.5 67.5v331q0 10 10 10h43
q25 0 43.5 17.5t21.5 53.5q0 10 10 10h34q10 0 10 -10zM196 556.5q-2 3.5 0 8.5q11 26 34 49q12 13 17 21.5t5 22.5q0 13 -10.5 22.5t-25.5 9.5q-17 0 -27.5 -7.5t-24.5 -26.5q-6 -9 -14 -3l-24 17q-8 6 -2 14q20 30 40 43t54 13q40 0 64.5 -22.5t24.5 -59.5
q0 -22 -9.5 -37.5t-28.5 -35.5q-20 -18 -27 -32q-4 -7 -13 -6l-26 5q-5 1 -7 4.5z" />
    <glyph glyph-name="uni1EEE" unicode="&#x1eee;" horiz-adv-x="477" 
d="M498 771q-2 -43 -22 -70.5t-53 -39.5q-3 -1 -3 -4v-467q0 -89 -50 -143.5t-132 -54.5t-131.5 54.5t-49.5 143.5v500q0 10 10 10h76q10 0 10 -10v-510q0 -47 23.5 -76t61.5 -29q39 0 62.5 29t23.5 76v510q0 10 10 10h45q25 0 43.5 17.5t21.5 53.5q0 10 10 10h34
q10 0 10 -10zM276.5 796q-11.5 5 -29.5 15q-5 3 -13.5 9t-15 8.5t-14.5 2.5q-13 0 -22.5 -5.5t-19.5 -20.5q-2 -4 -6 -5t-8 2l-28 20q-7 6 -3 13q13 30 34 45t46 15q16 0 30 -6t30 -17q4 -2 12 -8t16 -9t16 -3q12 0 22 5.5t19 20.5q4 9 14 3l27 -18q4 -3 4 -9q0 -4 -3 -10
q-15 -28 -38 -40.5t-45 -12.5q-13 0 -24.5 5z" />
    </font>
</defs>
</svg>
