<?xml version="1.0" standalone="no"?>
<!DOCTYPE svg PUBLIC "-//W3C//DTD SVG 1.1//EN" "http://www.w3.org/Graphics/SVG/1.1/DTD/svg11.dtd" >
<svg xmlns="http://www.w3.org/2000/svg" xmlns:xlink="http://www.w3.org/1999/xlink" version="1.1">
<metadata>
Created by FontForge 20201107 at Wed Nov  7 06:08:57 2018
 By 
Copyright 2017 The Barlow Project Authors (https://github.com/jpt/barlow)
</metadata>
<defs>
<font id="BarlowCondensed-LightItalic" horiz-adv-x="0" >
  <font-face 
    font-family="Barlow Condensed Light"
    font-weight="300"
    font-style="italic"
    font-stretch="condensed"
    units-per-em="1000"
    panose-1="0 0 4 6 0 0 0 0 0 0"
    ascent="800"
    descent="-200"
    x-height="504"
    cap-height="700"
    bbox="-509.769 -211 966 1074"
    underline-thickness="50"
    underline-position="-100"
    slope="-7"
    unicode-range="U+000D-FB02"
  />
<missing-glyph horiz-adv-x="315" 
d="M-18 1q1 -1 2 -1h308q4 0 4 4l85 692q1 1 0 2.5t-3 1.5h-308q-4 0 -4 -4l-85 -692q0 -2 1 -3zM143 238l5 44q3 29 16 47.5t39 43.5q27 26 41 46.5t18 54.5q1 6 1 18q0 32 -13.5 50.5t-38.5 18.5q-29 0 -50 -24t-25 -63l-3 -22q-2 -10 -11 -10l-17 1q-9 0 -9 10l3 21
q7 55 39.5 88.5t77.5 33.5q40 0 62.5 -26.5t22.5 -72.5q0 -16 -1 -24q-5 -44 -22 -70t-47 -53q-21 -20 -31.5 -34.5t-13.5 -35.5l-5 -42q-1 -4 -4 -7t-7 -3h-19q-10 0 -8 10zM122.5 99.5q-8.5 8.5 -8.5 21.5q0 18 11 30t28 12q14 0 22 -8t8 -22q0 -17 -11.5 -29.5
t-27.5 -12.5q-13 0 -21.5 8.5z" />
    <glyph glyph-name="fi" unicode="fi" horiz-adv-x="462" 
d="M209 633.5q-19 -28.5 -27 -89.5l-4 -36q0 -4 3 -4h80q10 0 8 -10l-2 -22q-1 -4 -4 -7t-7 -3h-80q-4 0 -4 -4l-55 -448q-2 -10 -11 -10h-32q-9 0 -9 10l55 448q1 1 0 2.5t-3 1.5h-41q-10 0 -8 10l2 22q2 10 11 10h41q4 0 4 4l5 37q10 84 43 123.5t100 39.5h15q10 0 8 -10
l-4 -26q-1 -10 -11 -10h-13q-41 0 -60 -28.5zM386 617q-12 12 -12 32q0 24 16 40t39 16q19 0 31 -11.5t12 -30.5q0 -25 -16 -41.5t-39 -16.5q-19 0 -31 12zM319 10l59 484q2 10 11 10h32q10 0 8 -10l-59 -484q-2 -10 -11 -10h-32q-10 0 -8 10z" />
    <glyph glyph-name="fl" unicode="fl" horiz-adv-x="432" 
d="M209 633.5q-19 -28.5 -27 -89.5l-4 -36q0 -4 3 -4h80q10 0 8 -10l-2 -22q-1 -4 -4 -7t-7 -3h-80q-4 0 -4 -4l-55 -448q-2 -10 -11 -10h-32q-9 0 -9 10l55 448q1 1 0 2.5t-3 1.5h-41q-10 0 -8 10l2 22q2 10 11 10h41q4 0 4 4l5 37q10 84 43 123.5t100 39.5h15q10 0 8 -10
l-4 -26q-1 -10 -11 -10h-13q-41 0 -60 -28.5zM305.5 3q-2.5 3 -1.5 7l83 680q1 4 4 7t7 3h32q5 0 7.5 -3t1.5 -7l-84 -680q0 -4 -3 -7t-8 -3h-32q-4 0 -6.5 3z" />
    <glyph glyph-name="I_J.liga" unicode="IJ" horiz-adv-x="611" 
d="M58 10l84 680q2 10 11 10h32q10 0 8 -10l-83 -680q-2 -10 -11 -10h-32q-9 0 -9 10zM261.5 29q-36.5 37 -36.5 100q0 9 2 27l11 88q2 10 11 10h32q10 0 8 -10l-11 -89q-1 -7 -1 -19q0 -44 24 -70.5t65 -26.5q46 0 78 32t38 84l66 535q0 4 3 7t8 3h32q4 0 6.5 -3t1.5 -7
l-65 -534q-10 -74 -58 -119t-116 -45q-62 0 -98.5 37z" />
    <glyph glyph-name="f_f_i.liga" unicode="ffi" horiz-adv-x="713" 
d="M178 508q0 -4 3 -4h97q9 0 9 -10l-3 -22q-2 -10 -11 -10h-97q-4 0 -4 -4l-55 -448q-2 -10 -11 -10h-32q-9 0 -9 10l55 448q1 1 0 2.5t-3 1.5h-41q-10 0 -8 10l2 22q2 10 11 10h41q4 0 4 4l6 43q10 81 43 119.5t99 37.5h12q10 0 8 -10l-2 -20q-2 -10 -11 -10h-11
q-42 -1 -61 -30t-26 -90zM430 670.5q33 38.5 99 37.5h12q10 0 8 -10l-2 -20q-2 -10 -11 -10h-11q-42 -1 -61 -30t-26 -90l-5 -40q0 -4 3 -4h80q10 0 8 -10l-2 -22q-2 -10 -11 -10h-80q-4 0 -4 -4l-55 -448q-2 -10 -11 -10h-32q-9 0 -9 10l55 448q1 1 0 2.5t-3 1.5h-59
q-9 0 -9 10l3 22q2 10 11 10h59q3 0 5 4l5 43q10 81 43 119.5zM711 693q12 -12 12 -32q0 -24 -16 -40t-39 -16q-19 0 -31 11.5t-12 30.5q0 25 16 41.5t39 16.5q19 0 31 -12zM570 10l59 484q2 10 11 10h32q10 0 8 -10l-59 -484q-2 -10 -11 -10h-32q-10 0 -8 10z" />
    <glyph glyph-name="f_f_l.liga" unicode="ffl" horiz-adv-x="688" 
d="M178 508q0 -4 3 -4h97q9 0 9 -10l-3 -22q-2 -10 -11 -10h-97q-4 0 -4 -4l-55 -448q-2 -10 -11 -10h-32q-9 0 -9 10l55 448q1 1 0 2.5t-3 1.5h-41q-10 0 -8 10l2 22q2 10 11 10h41q4 0 4 4l6 43q10 81 43 119.5t99 37.5h12q10 0 8 -10l-2 -20q-2 -10 -11 -10h-11
q-42 -1 -61 -30t-26 -90zM431 670.5q33 38.5 99 37.5h12q10 0 8 -10l-2 -20q-2 -10 -11 -10h-11q-42 -1 -61 -30t-26 -90l-5 -40q0 -4 3 -4h80q10 0 8 -10l-2 -22q-1 -4 -4 -7t-7 -3h-80q-4 0 -4 -4l-55 -448q-2 -10 -11 -10h-32q-9 0 -9 10l55 448q1 1 0 2.5t-3 1.5h-59
q-9 0 -9 10l3 22q2 10 11 10h59q4 0 4 4l6 43q10 81 43 119.5zM647 697q3 3 7 3h32q5 0 7.5 -3t1.5 -7l-84 -680q0 -4 -3 -7t-8 -3h-32q-4 0 -6.5 3t-1.5 7l83 680q1 4 4 7z" />
    <glyph glyph-name="g_j.liga" unicode="gj" horiz-adv-x="583" 
d="M582 693q12 -12 12 -32q0 -24 -16 -40t-39 -16q-19 0 -31 11.5t-12 30.5q0 25 16 41.5t39 16.5q19 0 31 -12zM323.5 456q1.5 0 1.5 3l4 35q2 10 11 10h33q9 0 9 -10l-60 -488q-13 -103 -65 -157t-153 -50q-10 0 -8 10l3 27q1 10 14 10q74 0 110.5 41t46.5 123l5 38
q0 3 -2 3.5t-3 -2.5q-20 -27 -47.5 -40.5t-58.5 -13.5q-53 0 -83.5 33.5t-30.5 89.5q0 9 2 27l26 217q8 67 49 108.5t101 41.5q31 0 55.5 -14t36.5 -40q2 -2 3.5 -2zM499 494q2 10 11 10h32q9 0 9 -10l-68 -549q-9 -74 -43 -113.5t-99 -40.5q-10 0 -8 10l4 27q1 10 9 10
q35 1 57.5 29.5t28.5 77.5zM252.5 71q28.5 29 34.5 76l26 212q1 6 1 19q0 39 -21 63t-57 24q-41 0 -71 -29.5t-36 -76.5l-26 -212q-1 -6 -1 -16q0 -40 22.5 -64.5t59.5 -24.5q40 0 68.5 29z" />
    <glyph glyph-name="i_j.liga" unicode="ij" horiz-adv-x="385" 
d="M123 617q-12 12 -12 32q0 24 16 40t39 16q19 0 31 -11.5t12 -30.5q0 -25 -16 -41.5t-39 -16.5q-19 0 -31 12zM309 616.5q-12 11.5 -12 30.5q0 25 16 41.5t39 16.5q19 0 31 -12t12 -32q0 -24 -16 -40t-39 -16q-19 0 -31 11.5zM56 10l59 484q2 10 11 10h32q10 0 8 -10
l-59 -484q-2 -10 -11 -10h-32q-10 0 -8 10zM129 -199l3 27q2 10 11 10q38 2 61 30.5t29 76.5l67 549q2 10 11 10h32q9 0 9 -10l-68 -549q-9 -75 -42.5 -114t-104.5 -40q-10 0 -8 10z" />
    <glyph glyph-name="hyphen_hyphen.liga" unicode="&#x2d;&#x2d;" horiz-adv-x="574" 
d="M50 293l3 27q2 10 11 10h489q10 0 8 -10l-3 -27q-2 -10 -11 -10h-489q-10 0 -8 10z" />
    <glyph glyph-name=".notdef" horiz-adv-x="315" 
d="M-18 1q1 -1 2 -1h308q4 0 4 4l85 692q1 1 0 2.5t-3 1.5h-308q-4 0 -4 -4l-85 -692q0 -2 1 -3zM143 238l5 44q3 29 16 47.5t39 43.5q27 26 41 46.5t18 54.5q1 6 1 18q0 32 -13.5 50.5t-38.5 18.5q-29 0 -50 -24t-25 -63l-3 -22q-2 -10 -11 -10l-17 1q-9 0 -9 10l3 21
q7 55 39.5 88.5t77.5 33.5q40 0 62.5 -26.5t22.5 -72.5q0 -16 -1 -24q-5 -44 -22 -70t-47 -53q-21 -20 -31.5 -34.5t-13.5 -35.5l-5 -42q-1 -4 -4 -7t-7 -3h-19q-10 0 -8 10zM122.5 99.5q-8.5 8.5 -8.5 21.5q0 18 11 30t28 12q14 0 22 -8t8 -22q0 -17 -11.5 -29.5
t-27.5 -12.5q-13 0 -21.5 8.5z" />
    <glyph glyph-name=".null" 
 />
    <glyph glyph-name="nonmarkingreturn" unicode="&#xd;" horiz-adv-x="194" 
 />
    <glyph glyph-name="NULL" 
 />
    <glyph glyph-name="NULL" 
 />
    <glyph glyph-name="space" unicode=" " horiz-adv-x="194" 
 />
    <glyph glyph-name="exclam" unicode="!" horiz-adv-x="237" 
d="M107 235l52 455q1 4 4 7t7 3h32q5 0 7.5 -3t1.5 -7l-61 -455q-1 -10 -11 -10h-23q-9 0 -9 10zM68.5 16q-11.5 12 -11.5 32q0 24 16 40t39 16q19 0 31 -11.5t12 -30.5q0 -25 -16 -41.5t-40 -16.5q-19 0 -30.5 12z" />
    <glyph glyph-name="quotedbl" unicode="&#x22;" horiz-adv-x="200" 
d="M71 503l17 180q0 4 3 7t8 3h33q4 0 6.5 -3t1.5 -7l-28 -180q-1 -10 -11 -10h-21q-9 0 -9 10zM170 503l18 180q0 4 3 7t8 3h32q4 0 6.5 -3t1.5 -7l-28 -180q-1 -10 -11 -10h-21q-9 0 -9 10z" />
    <glyph glyph-name="numbersign" unicode="#" horiz-adv-x="564" 
d="M530 436h-60q-5 0 -6 -4l-46 -175q-1 -1 0 -2.5t2 -1.5h56q5 0 7.5 -3t1.5 -7l-4 -27q0 -4 -3 -7t-7 -3h-63q-1 0 -3 -1t-2 -3l-48 -179q-3 -9 -11 -9l-32 1q-4 0 -6.5 3t-0.5 8l46 176q0 4 -3 4h-156q-5 0 -5 -4l-48 -179q-3 -9 -11 -9l-32 1q-4 0 -6.5 3t-0.5 8l45 176
q1 1 0 2.5t-2 1.5h-57q-9 0 -9 10l4 27q0 4 3 7t8 3h64q1 0 3 1t2 3l46 175q0 4 -3 4h-59q-10 0 -8 10l3 27q2 10 11 10h66q5 0 5 4l48 180q3 9 11 9l32 -2q5 0 6.5 -3t0.5 -7l-46 -177q0 -4 3 -4h156q5 0 5 4l49 180q3 9 11 9l31 -2q10 0 8 -10l-46 -177q0 -4 2 -4h54
q4 0 6.5 -3t1.5 -7l-3 -27q-2 -10 -11 -10zM366 257l46 175q0 4 -2 4h-157q-5 0 -5 -4l-47 -175q0 -4 3 -4h157q5 0 5 4z" />
    <glyph glyph-name="dollar" unicode="$" horiz-adv-x="397" 
d="M306.5 53q-39.5 -47 -96.5 -58q-3 -1 -5 -5l-8 -72q-1 -4 -4 -7t-7 -3h-22q-10 0 -8 10l9 70q2 4 -3 4q-55 5 -87 44.5t-32 100.5q0 10 2 30l2 21q2 10 11 10h31q5 0 7.5 -3t1.5 -7l-3 -19q-1 -8 -1 -23q0 -50 24 -79t64 -29q33 0 61 18.5t44.5 52.5t16.5 76
q0 30 -12 53.5t-30 41t-59 53.5q-41 35 -63.5 58t-37 53.5t-14.5 69.5q0 84 45 136t113 58q4 0 4 4l9 76q0 4 3 7t8 3h21q10 0 8 -10l-9 -79q0 -4 3 -5q49 -9 76 -47t27 -97q0 -8 -2 -30l-3 -25q-2 -10 -11 -10h-32q-9 0 -9 10l3 25q2 18 2 26q0 48 -24 77t-66 29
q-43 0 -75 -31.5t-39 -88.5q-1 -7 -1 -20q0 -40 21 -68.5t77 -75.5q47 -40 70.5 -64.5t36.5 -51.5t13 -63q0 -8 -2 -28q-9 -71 -48.5 -118z" />
    <glyph glyph-name="percent" unicode="%" horiz-adv-x="762" 
d="M159 468q-33 35 -33 87q0 41 21 76.5t55.5 57t73.5 21.5q50 0 82.5 -34t32.5 -85q0 -42 -20.5 -78t-55 -58t-73.5 -22q-50 0 -83 35zM163.5 3.5q-2.5 3.5 0.5 8.5l440 681q4 7 13 7h20q6 0 8 -3.5t-2 -8.5l-439 -681q-4 -7 -13 -7h-20q-5 0 -7.5 3.5zM300 483.5
q25 16.5 40.5 44t15.5 58.5q0 38 -24 63.5t-60 25.5q-29 0 -54.5 -16t-41 -43t-15.5 -58q0 -39 24 -65t61 -26q29 0 54 16.5zM450.5 24.5q-32.5 34.5 -32.5 86.5q0 42 21 77.5t55.5 57t73.5 21.5q49 0 81.5 -34t32.5 -85q0 -42 -20.5 -78t-55 -58t-72.5 -22
q-51 0 -83.5 34.5zM592 41.5q25 16.5 40.5 43.5t15.5 58q0 39 -23.5 64.5t-60.5 25.5q-29 0 -55 -16t-41.5 -43t-15.5 -59q0 -39 24.5 -64.5t62.5 -25.5q28 0 53 16.5z" />
    <glyph glyph-name="ampersand" unicode="&#x26;" horiz-adv-x="511" 
d="M443 8q0 -3 -2.5 -5.5t-6.5 -2.5h-33q-7 0 -12 6l-37 70q-3 5 -6 0q-42 -44 -82 -64t-87 -20q-65 0 -101 33.5t-36 97.5q0 80 39 135.5t109 112.5q2 1 2 5q-35 68 -47 99.5t-12 58.5q0 51 19.5 91t54 61.5t77.5 21.5q53 0 85 -33t32 -88q0 -49 -19.5 -88t-49 -69
t-74.5 -67q-2 -1 -2 -5l52 -97l52 -96q2 -3 5 0q18 24 58 83q3 4 7 5t7 -1l22 -14q7 -5 1 -14q-39 -60 -72 -102q-3 -3 -1 -6l57 -104q1 -1 1 -4zM209 625.5q-27 -33.5 -27 -87.5q0 -21 10 -48t37 -82q0 -4 5 -1q55 46 84 84.5t29 87.5q0 37 -19 58.5t-51 21.5
q-41 0 -68 -33.5zM256.5 57.5q32.5 18.5 69.5 60.5q1 2 1 6l-14 25q-17 28 -27 49l-69 128q-1 5 -5 1q-52 -44 -82 -84t-37 -90q-1 -7 -1 -19q0 -45 25 -70t70 -25q37 0 69.5 18.5z" />
    <glyph glyph-name="quotesingle" unicode="'" horiz-adv-x="102" 
d="M72 508l16 180q2 10 11 10h35q9 0 9 -10l-29 -180q-1 -10 -11 -10h-22q-10 0 -9 10z" />
    <glyph glyph-name="parenleft" unicode="(" horiz-adv-x="193" 
d="M44 -100q-17 50 -27 120t-10 149q0 75 9 154q15 125 52.5 241.5t83.5 192.5q6 7 13 7h29q5 0 7 -3.5t-1 -7.5q-41 -79 -75.5 -194t-48.5 -234q-10 -80 -10 -165q0 -74 8 -140t22 -116l1 -3q0 -8 -10 -8h-32q-8 0 -11 7z" />
    <glyph glyph-name="parenright" unicode=")" horiz-adv-x="193" 
d="M190 757q18 -50 27.5 -120t9.5 -150q0 -75 -9 -153q-15 -125 -52 -241.5t-83 -192.5q-6 -7 -13 -7h-30q-5 0 -7 3.5t1 7.5q41 78 76 193t49 235q10 80 10 163q0 75 -8 142t-23 115l-1 3q0 9 10 9h32q8 0 11 -7z" />
    <glyph glyph-name="asterisk" unicode="*" horiz-adv-x="350" 
d="M187 404l16 128q0 5 -4 3l-111 -66q-4 -2 -6 -2q-5 0 -7 6l-6 14l-2 5q0 5 6 9l113 66q2 1 2 3t-1 3l-97 66q-7 6 -1 14l9 14q7 9 14 4l95 -66q2 -1 3.5 0t1.5 3l16 129q2 10 11 10h17q4 0 6.5 -3t1.5 -7l-16 -129q0 -2 2 -3t3 0l110 66l5 2q6 0 8 -6l6 -14q1 -2 1 -5
q0 -5 -6 -9l-112 -66q-1 -1 -1 -3t1 -3l95 -66q4 -3 4 -7q0 -2 -3 -7l-9 -14q-7 -9 -14 -4l-94 66q-1 1 -3 0t-2 -3l-16 -128q-2 -10 -11 -10h-16q-9 0 -9 10z" />
    <glyph glyph-name="plus" unicode="+" horiz-adv-x="429" 
d="M415.5 339q2.5 -3 1.5 -7l-3 -23q0 -4 -3 -7t-8 -3h-147q-4 0 -4 -4l-19 -151q-2 -10 -11 -10h-21q-9 0 -9 10l19 151q0 4 -4 4h-147q-10 0 -8 10l2 23q2 10 11 10h148q4 0 4 4l19 152q0 4 3 7t8 3h21q10 0 8 -10l-18 -152q0 -4 3 -4h148q4 0 6.5 -3z" />
    <glyph glyph-name="comma" unicode="," horiz-adv-x="164" 
d="M13.5 -71q-2.5 3 -0.5 8l58 208q3 9 11 9h27q5 0 7 -3t0 -8l-66 -208q-1 -9 -12 -9h-18q-4 0 -6.5 3z" />
    <glyph glyph-name="hyphen" unicode="-" horiz-adv-x="300" 
d="M51 301l3 27q2 10 11 10h214q9 0 9 -10l-4 -27q0 -4 -3 -7t-8 -3h-214q-10 0 -8 10z" />
    <glyph glyph-name="period" unicode="." horiz-adv-x="176" 
d="M38 15.5q-12 11.5 -12 30.5q0 25 16 41.5t40 16.5q19 0 30.5 -12t11.5 -32q0 -24 -16 -40t-39 -16q-19 0 -31 11.5z" />
    <glyph glyph-name="slash" unicode="/" horiz-adv-x="304" 
d="M8 11l249 680q2 9 11 9h32q12 0 7 -11l-249 -680q-1 -9 -11 -9h-32q-12 0 -7 11z" />
    <glyph glyph-name="zero" unicode="0" horiz-adv-x="429" 
d="M91.5 29.5q-37.5 39.5 -37.5 105.5q0 9 2 29l46 372q9 78 58.5 126t120.5 48q64 0 102 -39.5t38 -105.5q0 -9 -2 -29l-46 -372q-10 -78 -59.5 -126t-120.5 -48q-64 0 -101.5 39.5zM281 71.5q33 33.5 40 88.5l47 380q1 7 1 21q0 47 -25 74t-69 27q-47 0 -80.5 -33.5
t-40.5 -88.5l-47 -380q-1 -7 -1 -21q0 -46 25 -73.5t68 -27.5q49 0 82 33.5z" />
    <glyph glyph-name="one" unicode="1" horiz-adv-x="241" 
d="M200 700h35q5 0 7.5 -3t1.5 -7l-84 -680q0 -4 -3 -7t-8 -3h-32q-4 0 -6.5 3t-1.5 7l76 623q1 2 -0.5 3t-3.5 0l-99 -39l-4 -1q-7 0 -7 8l-2 23q0 9 8 13l110 57q7 3 13 3z" />
    <glyph glyph-name="two" unicode="2" horiz-adv-x="380" 
d="M92 48.5q1 -1.5 3 -1.5h233q10 0 8 -10l-3 -27q-2 -10 -11 -10h-290q-10 0 -8 10l3 30q2 9 5 13l29 41q131 186 175 250q79 120 88 193q2 18 2 25q0 46 -21.5 72.5t-58.5 26.5q-41 0 -70 -34t-35 -89l-5 -36q0 -4 -3 -7t-8 -3h-34q-4 0 -6.5 3t-1.5 7l5 38
q11 75 56 121.5t109 46.5q58 0 91.5 -38t33.5 -102q0 -9 -2 -31q-10 -91 -96 -216l-96 -138l-91 -131q-2 -2 -1 -3.5z" />
    <glyph glyph-name="three" unicode="3" horiz-adv-x="389" 
d="M343 270q0 -32 -4 -61q-7 -56 -23 -100q-44 -117 -150 -117q-57 0 -89 32.5t-35 92.5q-1 8 -1 26q0 27 3 55q0 4 3 7t8 3h32q9 0 8 -10q-3 -25 -3 -47q0 -55 20 -83.5t60 -28.5q32 0 57 20t40 59q12 36 20 95q5 38 5 63t-5 50q-14 69 -74 69q-12 0 -21 -4
q-4 -2 -7.5 -1.5t-5.5 3.5l-13 17q-5 6 0 14l159 224q1 2 0.5 3.5t-2.5 1.5h-212q-10 0 -8 10l3 27q2 10 11 10h269q4 0 6.5 -3t1.5 -7l-4 -30q0 -5 -4 -13l-150 -211q-2 -5 1 -5q39 -2 64.5 -28t33.5 -70q6 -27 6 -63z" />
    <glyph glyph-name="four" unicode="4" horiz-adv-x="386" 
d="M369.5 240q2.5 -3 1.5 -7l-3 -28q-1 -4 -4 -7t-7 -3h-29q-2 0 -3.5 -1t-1.5 -3l-22 -181q-2 -10 -11 -10h-32q-10 0 -8 10l22 181q0 4 -4 4h-230q-5 0 -7.5 3t-1.5 7l3 26q2 8 4 12l204 449q5 8 13 8h35q5 0 6.5 -3t-0.5 -8l-200 -441q-1 -2 0 -3.5t3 -1.5h177q3 0 5 4
l20 166q2 10 11 10h32q10 0 8 -10l-20 -166q0 -2 1 -3t2 -1h30q4 0 6.5 -3z" />
    <glyph glyph-name="five" unicode="5" horiz-adv-x="389" 
d="M361 272q0 -31 -4 -60q-6 -49 -18 -88q-19 -64 -59 -98t-98 -34t-90 34t-35 101v30q2 10 11 10h32q9 0 9 -10q-1 -6 -0.5 -14t0.5 -12q6 -92 79 -92q68 0 99 87q11 31 18 86q4 28 4 59q0 15 -2 37q-12 76 -77 76q-37 0 -62.5 -19.5t-39.5 -57.5q-4 -9 -12 -9h-33
q-10 0 -8 10l47 382q0 4 3 7t8 3h256q4 0 6.5 -3t1.5 -7l-3 -27q-2 -10 -11 -10h-211q-4 0 -4 -4l-33 -268q0 -6 4 -1q40 51 109 51q49 0 77 -29t33 -85q3 -21 3 -45z" />
    <glyph glyph-name="six" unicode="6" horiz-adv-x="390" 
d="M362 274q0 -18 -4 -62q-6 -42 -15 -78q-18 -70 -59 -106t-101 -36q-56 0 -87.5 33.5t-34.5 99.5q-1 8 -1 26q0 31 4 59l39 329q10 76 56 122.5t112 46.5q53 0 85.5 -37t32.5 -100q0 -10 -2 -32l-1 -11q-2 -10 -11 -10h-32q-9 0 -9 10l2 11q2 16 2 24q0 44 -20 70.5
t-53 26.5q-42 0 -72.5 -33.5t-37.5 -87.5l-18 -154q-1 -3 0.5 -3t3.5 2q18 25 43.5 38.5t55.5 13.5q54 0 84.5 -33t35.5 -94q2 -22 2 -35zM307 215q3 27 3 52q0 15 -2 41q-9 81 -76 81q-68 0 -98 -86q-13 -40 -18 -88q-5 -37 -5 -82q3 -46 23 -70t55 -24q74 0 104 100
q10 48 14 76z" />
    <glyph glyph-name="seven" unicode="7" horiz-adv-x="345" 
d="M86 11l246 638q1 1 -0.5 2.5t-3.5 1.5h-194q-2 0 -3.5 -1t-1.5 -3l-5 -42q-2 -10 -11 -10h-24q-9 0 -9 10l11 83q0 4 3 7t7 3h283q10 0 8 -10l-4 -31q0 -4 -3 -12l-245 -638q-4 -9 -12 -9h-35q-12 0 -7 11z" />
    <glyph glyph-name="eight" unicode="8" horiz-adv-x="405" 
d="M301 370q33 -19 45 -57q11 -31 11 -70q0 -26 -4 -50q-5 -50 -24 -96q-23 -50 -61 -77.5t-87 -27.5q-47 0 -78 27.5t-42 77.5q-4 20 -4 50q0 22 3 47q7 64 33 111q21 44 62 65q4 3 1 6q-31 19 -44 52q-13 34 -13 73q0 10 2 32q7 61 35 104q22 35 56.5 53.5t76.5 18.5
t71.5 -18t43.5 -52q13 -29 13 -70q0 -24 -2 -37q-8 -62 -34 -102q-24 -37 -60 -54q-5 -3 0 -6zM150 497q0 -29 9 -52q18 -49 72 -49q56 0 88 54q27 49 27 108q0 32 -11 56q-17 48 -71 48q-56 0 -85 -51q-21 -33 -27 -83q-2 -22 -2 -31zM302 195q3 23 3 42q0 32 -6 54
q-16 60 -74 60q-28 0 -51 -16.5t-38 -48.5q-17 -33 -25 -90q-3 -25 -3 -46q0 -17 3 -34q6 -37 25.5 -57t50.5 -20q32 0 57 21t40 60q13 31 18 75z" />
    <glyph glyph-name="nine" unicode="9" horiz-adv-x="383" 
d="M370 543q0 -24 -3 -53l-41 -329q-9 -76 -55 -122.5t-112 -46.5q-54 0 -86.5 38t-32.5 102q0 9 2 29l1 11q1 4 4 7t7 3h32q5 0 7.5 -3t1.5 -7l-2 -11q-1 -7 -1 -22q0 -45 20.5 -72t52.5 -27q42 0 72.5 33.5t37.5 87.5l19 154q0 3 -1.5 3t-3.5 -2q-18 -25 -43.5 -38.5
t-54.5 -13.5q-60 0 -91.5 40.5t-31.5 113.5q0 28 5 70q5 47 14 78q17 69 58.5 105.5t101.5 36.5q57 0 88.5 -33.5t33.5 -99.5q1 -10 1 -32zM296 397q12 37 19 88q5 52 4 82q-8 94 -78 94q-74 0 -103 -100q-10 -41 -14 -76q-4 -27 -4 -56q0 -25 2 -37q9 -81 76 -81
q68 0 98 86z" />
    <glyph glyph-name="colon" unicode=":" horiz-adv-x="189" 
d="M86 355.5q-12 11.5 -12 30.5q0 25 16 41.5t40 16.5q19 0 30.5 -12t11.5 -32q0 -24 -16 -40t-39 -16q-19 0 -31 11.5zM45 16.5q-12 11.5 -12 30.5q0 25 16 41.5t40 16.5q19 0 30.5 -12t11.5 -32q0 -24 -16 -40t-39 -16q-19 0 -31 11.5z" />
    <glyph glyph-name="semicolon" unicode=";" horiz-adv-x="178" 
d="M84 368q-11 13 -11 33q0 24 16.5 41.5t36.5 17.5q17 0 28.5 -13.5t11.5 -32.5q0 -24 -16 -41.5t-37 -17.5q-18 0 -29 13zM20 -66.5q-2 3.5 -1 7.5l45 199q3 9 11 9h29q4 0 6 -3.5t1 -7.5l-54 -199q-3 -9 -11 -9h-19q-5 0 -7 3.5z" />
    <glyph glyph-name="less" unicode="&#x3c;" horiz-adv-x="429" 
d="M380.5 65.5q-3.5 -2.5 -7.5 0.5l-323 178q-7 3 -5 12l4 33q2 10 8 12l367 178l5 2q3 0 4.5 -2.5t0.5 -6.5l-4 -32q0 -7 -8 -12l-320 -152q-5 -3 -1 -6l283 -153q6 -5 5 -12l-4 -32q-1 -5 -4.5 -7.5z" />
    <glyph glyph-name="equal" unicode="=" horiz-adv-x="429" 
d="M66 427l3 23q2 10 11 10h343q5 0 7.5 -3t1.5 -7l-3 -23q-2 -10 -11 -10h-343q-9 0 -9 10zM40 216l3 23q2 10 11 10h343q5 0 7.5 -3t1.5 -7l-3 -23q-2 -10 -11 -10h-343q-9 0 -9 10z" />
    <glyph glyph-name="greater" unicode="&#x3e;" horiz-adv-x="429" 
d="M28 64q-3 0 -4.5 2.5t-0.5 6.5l3 32q1 7 9 12l321 153q5 3 1 6l-284 152q-7 4 -5 12l4 32q0 5 4 7.5t8 -0.5l323 -178q5 -2 5 -12l-4 -33q-2 -10 -8 -12l-367 -178z" />
    <glyph glyph-name="question" unicode="?" horiz-adv-x="342" 
d="M137 205l8 65q5 41 23 67.5t54 59.5q37 35 57 64.5t26 77.5q2 18 2 25q0 44 -20 70t-54 26q-41 0 -70 -33.5t-36 -88.5l-4 -34q-2 -10 -11 -10l-32 2q-10 0 -8 10l4 32q9 76 54.5 123.5t108.5 47.5q56 0 87.5 -37t31.5 -100q0 -10 -2 -34q-7 -62 -31 -98.5t-65 -75.5
q-30 -28 -45 -48t-18 -49l-8 -62q-2 -10 -11 -10h-33q-10 0 -8 10zM108 14.5q-12 11.5 -12 30.5q0 25 16 41.5t39 16.5q19 0 31 -12t12 -32q0 -24 -16 -40t-39 -16q-19 0 -31 11.5z" />
    <glyph glyph-name="at" unicode="@" horiz-adv-x="740" 
d="M644 543.5q66 -62.5 66 -170.5q0 -47 -13 -98q-22 -93 -73 -145t-117 -52q-64 0 -84 48q-3 5 -6 0q-17 -25 -40.5 -37.5t-49.5 -12.5q-38 0 -60 21.5t-22 58.5q0 13 3 26l10 40q2 6 10 38l18 75q12 48 43.5 76.5t75.5 28.5q18 0 34 -7.5t25 -22.5q1 -2 2.5 -2t2.5 3l3 15
q3 9 11 9h20q5 0 7.5 -3.5t1.5 -7.5l-52 -211q-4 -15 -4 -32q0 -30 16.5 -47.5t46.5 -17.5q45 0 81 41.5t55 116.5q12 48 12 91q0 94 -57 148.5t-155 54.5q-76 0 -147.5 -39.5t-124.5 -111t-75 -163.5q-12 -49 -12 -92q0 -98 56.5 -155t147.5 -57q49 0 92.5 13.5t71.5 33.5
q5 3 7 3q4 0 7 -5l8 -14q1 -2 1 -5q0 -4 -5 -9q-34 -24 -85.5 -40t-108.5 -16q-106 0 -169.5 64.5t-63.5 175.5q0 52 13 105q25 102 85.5 181.5t142.5 124t169 44.5q113 0 179 -62.5zM383 132.5q21 19.5 31 52.5l3 14q2 6 2 9l33 135q1 4 1 12q0 23 -12.5 36t-34.5 13
q-28 0 -50.5 -19.5t-30.5 -51.5q-14 -52 -18 -75q-5 -22 -19 -73q-2 -14 -2 -20q0 -25 13 -38.5t36 -13.5q27 0 48 19.5z" />
    <glyph glyph-name="A" unicode="A" horiz-adv-x="379" 
d="M297 9l-10 131q0 2 -1.5 3t-3.5 1h-190q-2 0 -3.5 -1t-1.5 -3l-42 -131q-3 -9 -12 -9h-32q-5 0 -7 3t0 8l231 680q2 9 11 9h39q9 0 10 -9l65 -680q0 -5 -3 -8t-7 -3h-33q-10 0 -10 9zM107 188h171q2 0 4 4l-35 423q0 3 -1 3t-3 -3l-139 -423q0 -4 3 -4z" />
    <glyph glyph-name="B" unicode="B" horiz-adv-x="430" 
d="M336 50q-52 -50 -130 -50h-139q-9 0 -9 10l84 680q2 10 11 10h133q72 0 111.5 -37.5t39.5 -108.5q0 -23 -2 -35q-13 -115 -102 -155q-2 -1 -2.5 -2t0.5 -2q69 -39 69 -136q0 -11 -2 -35q-10 -89 -62 -139zM188 649l-32 -262q0 -4 4 -4h88q63 0 100.5 43t37.5 118
q0 52 -27.5 80.5t-77.5 28.5h-88q-3 0 -5 -4zM301.5 86q36.5 38 45.5 107q2 22 2 30q0 56 -27 87t-77 31h-91q-4 0 -4 -4l-35 -285q0 -4 3 -4h91q56 0 92.5 38z" />
    <glyph glyph-name="C" unicode="C" horiz-adv-x="428" 
d="M94.5 30q-37.5 38 -37.5 102q0 9 2 27l47 384q10 75 58.5 120t119.5 45q64 0 102 -37.5t38 -101.5q0 -8 -2 -26l-3 -19q0 -4 -3 -7.5t-8 -3.5l-32 -2q-10 0 -8 10l3 25q1 6 1 18q0 44 -25.5 70.5t-68.5 26.5q-48 0 -80.5 -31.5t-39.5 -83.5l-48 -391q-1 -6 -1 -19
q0 -44 25 -70.5t68 -26.5q48 0 81 32t40 84l2 23q1 4 4 7t7 3l32 -2q9 0 9 -10l-2 -17q-10 -76 -59 -121.5t-120 -45.5q-64 0 -101.5 38z" />
    <glyph glyph-name="D" unicode="D" horiz-adv-x="449" 
d="M58 10l84 680q2 10 11 10h142q64 0 99.5 -39.5t35.5 -108.5q0 -24 -2 -36l-41 -332q-10 -85 -58 -134.5t-119 -49.5h-143q-9 0 -9 10zM118 47h97q48 1 80.5 38t39.5 100l40 329q2 22 2 32q0 51 -23 79t-65 28h-96q-3 0 -5 -4l-73 -598q0 -4 3 -4z" />
    <glyph glyph-name="E" unicode="E" horiz-adv-x="414" 
d="M430 656q-3 -3 -7 -3h-230q-3 0 -5 -4l-33 -271q0 -2 1 -3t2 -1h148q10 0 8 -10l-3 -27q-2 -10 -11 -10h-147q-3 0 -5 -4l-33 -272q0 -4 3 -4h230q9 0 9 -10l-4 -27q0 -4 -3 -7t-8 -3h-275q-9 0 -9 10l84 680q2 10 11 10h275q5 0 7.5 -3t1.5 -7l-3 -27q-1 -4 -4 -7z" />
    <glyph glyph-name="F" unicode="F" horiz-adv-x="387" 
d="M428 656q-3 -3 -7 -3h-228q-3 0 -5 -4l-33 -271q0 -2 1 -3t2 -1h147q10 0 8 -10l-3 -27q-2 -10 -11 -10h-146q-3 0 -5 -4l-38 -313q-2 -10 -11 -10h-32q-9 0 -9 10l84 680q2 10 11 10h273q5 0 7.5 -3t1.5 -7l-3 -27q-1 -4 -4 -7z" />
    <glyph glyph-name="G" unicode="G" horiz-adv-x="433" 
d="M94.5 29q-37.5 37 -37.5 99q0 8 2 26l48 392q9 73 57.5 117.5t119.5 44.5q64 0 102 -37t38 -99q0 -8 -2 -26l-5 -44q-2 -10 -11 -10h-32q-9 0 -9 10l6 45q1 6 1 18q0 44 -25.5 70t-68.5 26q-48 0 -81 -31t-40 -83l-48 -394q-1 -6 -1 -18q0 -44 25.5 -70t68.5 -26
q48 0 81 31t39 83l18 141q0 4 -4 4h-91q-10 0 -8 10l3 27q2 10 11 10h137q10 0 8 -10l-22 -181q-9 -73 -58 -117.5t-120 -44.5q-64 0 -101.5 37z" />
    <glyph glyph-name="H" unicode="H" horiz-adv-x="456" 
d="M404 700h32q9 0 9 -10l-84 -680q-2 -10 -11 -10h-32q-10 0 -8 10l38 313q0 4 -3 4h-192q-3 0 -5 -4l-38 -313q-2 -10 -11 -10h-32q-9 0 -9 10l84 680q2 10 11 10h32q10 0 8 -10l-38 -312q0 -2 1 -3t2 -1h193q1 0 2.5 1t1.5 3l38 312q2 10 11 10z" />
    <glyph glyph-name="I" unicode="I" horiz-adv-x="204" 
d="M58 10l84 680q2 10 11 10h32q10 0 8 -10l-83 -680q-2 -10 -11 -10h-32q-9 0 -9 10z" />
    <glyph glyph-name="J" unicode="J" horiz-adv-x="406" 
d="M57.5 29q-36.5 37 -36.5 100q0 9 2 27l11 88q2 10 11 10h32q10 0 8 -10l-11 -89q-1 -7 -1 -19q0 -44 24 -70.5t65 -26.5q46 0 78 32t38 84l66 535q0 4 3 7t8 3h32q4 0 6.5 -3t1.5 -7l-65 -534q-10 -74 -58 -119t-116 -45q-62 0 -98.5 37z" />
    <glyph glyph-name="K" unicode="K" horiz-adv-x="429" 
d="M58 10l84 680q2 10 11 10h32q10 0 8 -10l-42 -343q0 -3 2 -3.5t3 2.5l245 347q7 7 13 7h37q5 0 7 -3.5t-2 -8.5l-186 -266q-2 -2 -2 -6l121 -404v-3q0 -4 -3 -6.5t-7 -2.5h-37q-8 0 -9 8l-105 360q-1 4 -5 0l-81 -107q-2 -2 -2 -5l-30 -246q-2 -10 -11 -10h-32
q-9 0 -9 10z" />
    <glyph glyph-name="L" unicode="L" horiz-adv-x="377" 
d="M58 10l84 680q2 10 11 10h32q10 0 8 -10l-78 -639q0 -4 3 -4h227q9 0 9 -10l-4 -27q0 -4 -3 -7t-7 -3h-273q-9 0 -9 10z" />
    <glyph glyph-name="M" unicode="M" horiz-adv-x="499" 
d="M447 700h33q10 0 8 -10l-83 -680q-2 -10 -11 -10h-32q-9 0 -9 10l70 567q0 3 -1.5 3t-3.5 -2l-136 -244q-4 -8 -11 -8q-9 0 -10 7l-78 243q-1 2 -2.5 2t-2.5 -3l-69 -565q-2 -10 -11 -10h-32q-9 0 -9 10l84 680q2 10 11 10h33q7 0 10 -7l86 -262q0 -2 2.5 -2t3.5 2
l148 262q4 7 12 7z" />
    <glyph glyph-name="N" unicode="N" horiz-adv-x="473" 
d="M415 697q3 3 8 3h31q4 0 6.5 -3t1.5 -7l-83 -680q-1 -4 -4 -7t-7 -3h-38q-9 0 -10 8l-138 560q0 3 -2 2.5t-3 -3.5l-67 -557q-2 -10 -11 -10h-32q-9 0 -9 10l84 680q2 10 11 10h37q8 0 9 -8l140 -557q0 -3 2 -2.5t3 3.5l68 554q0 4 3 7z" />
    <glyph glyph-name="O" unicode="O" horiz-adv-x="438" 
d="M95.5 30.5q-38.5 38.5 -38.5 103.5q0 8 2 26l47 379q9 76 59 122.5t121 46.5q65 0 103.5 -39t38.5 -104q0 -8 -2 -26l-46 -379q-10 -75 -60.5 -121.5t-121.5 -46.5q-64 0 -102.5 38.5zM287 72q34 33 41 86l47 383q1 7 1 20q0 45 -26 72.5t-70 27.5q-48 0 -82 -33.5
t-40 -86.5l-47 -383q-1 -7 -1 -20q0 -45 25.5 -72t68.5 -27q49 0 83 33z" />
    <glyph glyph-name="P" unicode="P" horiz-adv-x="423" 
d="M398 660q35 -42 35 -112q0 -24 -2 -36q-10 -84 -57.5 -135.5t-114.5 -51.5h-108q-1 0 -2.5 -1t-1.5 -3l-38 -311q-2 -10 -11 -10h-32q-9 0 -9 10l84 682q2 10 11 10h151q60 0 95 -42zM338 408q34 39 42 103q2 20 2 30q0 52 -24.5 82.5t-65.5 30.5h-100q-3 0 -5 -4
l-34 -277q0 -4 4 -4h100q47 0 81 39z" />
    <glyph glyph-name="Q" unicode="Q" horiz-adv-x="426" 
d="M378.5 669.5q36.5 -38.5 36.5 -103.5q0 -9 -2 -29l-46 -374q-8 -68 -47.5 -113.5t-97.5 -54.5q-4 -1 -4 -5l-12 -100q-2 -10 -11 -10h-33q-9 0 -9 10l13 100q0 3 -3 5q-49 9 -77 46t-28 94q0 8 2 28l46 374q9 76 58 123.5t117 47.5q61 0 97.5 -38.5zM362 542q1 7 1 21
q0 44 -24 71t-64 27q-46 0 -78.5 -33t-38.5 -86l-47 -384q-1 -7 -1 -21q0 -45 24 -71.5t65 -26.5q45 0 77.5 33.5t38.5 85.5z" />
    <glyph glyph-name="R" unicode="R" horiz-adv-x="423" 
d="M324 2q-3 2 -4 6l-68 317q0 3 -3 3h-96q-3 0 -5 -4l-38 -314q-2 -10 -11 -10h-32q-9 0 -9 10l84 680q2 10 11 10h150q60 0 95 -41.5t35 -110.5q0 -24 -2 -36q-8 -67 -42 -114t-84 -64q-4 -1 -4 -5l71 -318v-2q0 -9 -9 -9h-32q-4 0 -7 2zM188 649l-33 -273q0 -4 3 -4h99
q35 0 63.5 21t45 59.5t16.5 87.5q0 52 -24 82.5t-66 30.5h-99q-3 0 -5 -4z" />
    <glyph glyph-name="S" unicode="S" horiz-adv-x="397" 
d="M79.5 31.5q-36.5 39.5 -36.5 105.5q0 10 2 30l2 21q2 10 11 10h31q5 0 7.5 -3t1.5 -7l-3 -19q-1 -8 -1 -23q0 -50 24 -79t64 -29q33 0 61 18.5t44.5 52.5t16.5 76q0 30 -12 53.5t-30 41t-59 53.5q-41 35 -63.5 58t-37 53.5t-14.5 69.5q0 9 2 29q10 77 57 121t113 44
q63 0 99.5 -39.5t36.5 -107.5q0 -9 -2 -31l-3 -25q-2 -10 -11 -10h-32q-9 0 -9 10l3 25q2 18 2 26q0 48 -24 77t-66 29q-43 0 -75 -31.5t-39 -88.5q-1 -7 -1 -20q0 -40 21 -68.5t77 -75.5q47 -40 70.5 -64.5t36.5 -51.5t13 -63q0 -8 -2 -28q-10 -82 -59 -130.5t-119 -48.5
q-61 0 -97.5 39.5z" />
    <glyph glyph-name="T" unicode="T" horiz-adv-x="399" 
d="M427.5 697q2.5 -3 1.5 -7l-3 -27q-2 -10 -11 -10h-129q-3 0 -5 -4l-78 -639q-2 -10 -11 -10h-32q-10 0 -8 10l78 639q0 4 -3 4h-122q-4 0 -6.5 3t-1.5 7l3 27q2 10 11 10h310q4 0 6.5 -3z" />
    <glyph glyph-name="U" unicode="U" horiz-adv-x="461" 
d="M108.5 33.5q-36.5 41.5 -36.5 112.5q0 11 2 35l62 509q2 10 11 10h32q9 0 9 -10l-64 -515q-2 -18 -2 -26q0 -51 25 -80.5t68 -29.5q49 0 84.5 37.5t42.5 98.5l63 515q2 10 11 10h32q10 0 8 -10l-62 -509q-10 -85 -61 -137t-123 -52q-65 0 -101.5 41.5z" />
    <glyph glyph-name="V" unicode="V" horiz-adv-x="414" 
d="M160 9l-58 680q0 11 10 11h36q9 0 10 -9l42 -588q0 -3 1.5 -3t2.5 3l184 588q3 9 12 9h34q10 0 8 -11l-225 -680q-1 -9 -11 -9h-36q-10 0 -10 9z" />
    <glyph glyph-name="W" unicode="W" horiz-adv-x="588" 
d="M139 9l-44 680q0 5 3 8t7 3h34q10 0 10 -9l30 -567q1 -2 2 -2t2 2l154 567q3 9 11 9h30q8 0 9 -9l19 -567q1 -2 2 -2t2 2l161 567q3 9 11 9h34q4 0 6.5 -3t0.5 -8l-204 -680q-3 -9 -12 -9h-31q-8 0 -8 9l-18 566q-1 2 -2 2t-2 -2l-156 -566q-1 -9 -11 -9h-31q-9 0 -9 9z
" />
    <glyph glyph-name="X" unicode="X" horiz-adv-x="411" 
d="M21 3.5q-2 3.5 1 8.5l179 335q2 3 0 6l-96 335l-1 3q0 9 10 9h35q7 0 10 -8l74 -285q1 -3 3 -3t3 3l145 285q3 8 11 8h34q5 0 7 -3.5t0 -8.5l-179 -336q-3 -3 -1 -6l97 -334v-3q0 -4 -3 -6.5t-7 -2.5h-34q-8 0 -9 8l-75 284q0 3 -2 2.5t-4 -2.5l-145 -284q-4 -8 -12 -8
h-34q-5 0 -7 3.5z" />
    <glyph glyph-name="Y" unicode="Y" horiz-adv-x="399" 
d="M155 10l39 310q0 4 -1 5l-89 363l-1 3q0 9 10 9h34q10 0 11 -8l67 -306q1 -2 3 -2t3 2l141 306q4 8 13 8h34q5 0 7 -3.5t-1 -8.5l-178 -363q-2 -1 -2 -5l-38 -310q-2 -10 -11 -10h-32q-9 0 -9 10z" />
    <glyph glyph-name="Z" unicode="Z" horiz-adv-x="379" 
d="M17 10l4 31q0 7 3 12l317 595q2 2 1 3.5t-3 1.5h-234q-4 0 -6.5 3t-1.5 7l3 27q2 10 11 10h283q5 0 7.5 -3t1.5 -7l-4 -31q0 -4 -3 -12l-317 -595q-1 -2 0 -3.5t2 -1.5h233q9 0 9 -10l-4 -27q0 -4 -3 -7t-8 -3h-283q-10 0 -8 10z" />
    <glyph glyph-name="bracketleft" unicode="[" horiz-adv-x="283" 
d="M-6.5 -111q-2.5 3 -1.5 7l106 862q2 10 11 10h138q4 0 6.5 -3t1.5 -7l-3 -28q-2 -10 -11 -10h-92q-2 0 -3.5 -1t-1.5 -3l-95 -779q-1 -1 0 -2.5t3 -1.5h93q9 0 9 -10l-4 -27q-2 -10 -11 -10h-138q-5 0 -7.5 3z" />
    <glyph glyph-name="backslash" unicode="\" horiz-adv-x="304" 
d="M259 9q0 -9 -9 -9h-32q-9 0 -9 9l-82 680v2q0 9 9 9h32q10 0 10 -9l81 -680v-2z" />
    <glyph glyph-name="bracketright" unicode="]" horiz-adv-x="283" 
d="M216 -114h-139q-10 0 -8 10l3 27q2 10 11 10h93q4 0 4 4l96 779q0 4 -3 4h-93q-5 0 -7.5 3t-1.5 7l4 28q0 4 3 7t7 3h139q9 0 9 -10l-106 -862q-2 -10 -11 -10z" />
    <glyph glyph-name="asciicircum" unicode="^" horiz-adv-x="378" 
d="M57 321l171 371q3 8 12 8h30q4 0 7 -2t4 -6l79 -371l1 -3q0 -8 -10 -8h-25q-8 0 -11 8l-64 319q-1 2 -3 2t-3 -2l-144 -319q-1 -4 -5 -6t-7 -2h-26q-11 0 -6 11z" />
    <glyph glyph-name="underscore" unicode="_" horiz-adv-x="354" 
d="M6.5 3q-2.5 3 -1.5 7l3 24q2 10 11 10h288q9 0 9 -10l-3 -24q-1 -4 -4 -7t-7 -3h-288q-5 0 -7.5 3z" />
    <glyph glyph-name="grave" unicode="`" horiz-adv-x="165" 
d="M189 579q0 -8 -10 -8h-20q-6 0 -11 7l-52 110q-1 2 -1 5q0 7 9 7h26q7 0 11 -7l47 -110z" />
    <glyph glyph-name="a" unicode="a" horiz-adv-x="404" 
d="M340 504h32q9 0 9 -10l-60 -484q0 -4 -3 -7t-8 -3h-32q-4 0 -6.5 3t-1.5 7l5 39q0 3 -2 3.5t-3 -2.5q-19 -28 -47 -43t-60 -15q-54 0 -84 33t-30 89q0 8 2 28l27 220q8 67 48.5 108.5t100.5 41.5q32 0 56 -15t37 -43q1 -3 2.5 -2.5t2.5 3.5l4 39q2 10 11 10zM252 68
q29 29 34 76l27 215q1 6 1 19q0 39 -21 63t-57 24q-42 0 -71.5 -29.5t-35.5 -76.5l-26 -215q-1 -6 -1 -18q0 -39 22 -63t59 -24q40 0 69 29z" />
    <glyph glyph-name="b" unicode="b" horiz-adv-x="404" 
d="M346.5 478q31.5 -34 31.5 -90q0 -8 -2 -26l-27 -221q-8 -66 -49.5 -107.5t-101.5 -41.5q-29 0 -53 12t-38 35q-2 2 -3.5 1.5t-1.5 -2.5l-4 -28q-2 -10 -11 -10h-32q-10 0 -8 10l83 680q2 10 11 10h32q9 0 9 -10l-28 -224q0 -2 2 -2.5t3 1.5q20 23 47 35t56 12
q53 0 84.5 -34zM326 377q0 40 -22.5 64t-59.5 24q-40 0 -68.5 -29.5t-34.5 -76.5l-26 -215q-1 -6 -1 -18q0 -39 21 -63t57 -24q41 0 71 29.5t36 75.5l26 215q1 6 1 18z" />
    <glyph glyph-name="c" unicode="c" horiz-adv-x="382" 
d="M83.5 26.5q-34.5 34.5 -34.5 91.5q0 8 2 24l27 220q8 66 53 108t109 42q59 0 94 -33.5t35 -83.5q0 -11 -1 -17v-6q-2 -10 -11 -10l-32 -2q-5 0 -7.5 3t-1.5 7l1 6q4 36 -19 62.5t-63 26.5q-41 0 -70.5 -29.5t-35.5 -76.5l-26 -215q-1 -6 -1 -18q0 -39 21.5 -63t58.5 -24
q41 0 70.5 26.5t33.5 62.5l1 5q2 10 11 10h32q10 0 8 -10l-1 -8q-4 -36 -25.5 -66.5t-57 -48.5t-77.5 -18q-59 0 -93.5 34.5z" />
    <glyph glyph-name="d" unicode="d" horiz-adv-x="404" 
d="M357 697q3 3 7 3h32q5 0 7.5 -3t1.5 -7l-84 -680q0 -4 -3 -7t-8 -3h-32q-4 0 -6.5 3t-1.5 7l3 28q1 2 -0.5 2.5t-3.5 -1.5q-20 -23 -47 -35t-56 -12q-54 0 -85 34.5t-31 90.5q0 16 1 24l27 221q8 67 50 108.5t102 41.5q29 0 52.5 -12t38.5 -35q1 -2 3 -1.5t2 2.5l27 224
q1 4 4 7zM252 68q29 29 34 76l27 215q1 6 1 19q0 39 -21 63t-57 24q-42 0 -72 -29.5t-36 -76.5l-26 -215q-1 -6 -1 -18q0 -39 22.5 -63t59.5 -24q40 0 69 29z" />
    <glyph glyph-name="e" unicode="e" horiz-adv-x="388" 
d="M341 233h-223q-3 0 -5 -4l-10 -85q-1 -6 -1 -18q0 -39 21.5 -63t58.5 -24q34 0 61 21t39 55q5 9 12 9l30 -2q4 0 6.5 -2t1.5 -6q0 -3 -1 -4q-16 -55 -57 -86.5t-97 -31.5q-59 0 -93.5 34t-34.5 91q0 8 2 24l27 221q8 66 53 108t109 42q59 0 93.5 -34.5t34.5 -91.5
q0 -8 -2 -24l-14 -119q-2 -10 -11 -10zM164.5 435.5q-29.5 -29.5 -35.5 -76.5l-9 -76q0 -2 1 -3t2 -1h178q4 0 4 4l10 76q1 6 1 17q0 41 -22 65t-59 24q-41 0 -70.5 -29.5z" />
    <glyph glyph-name="f" unicode="f" horiz-adv-x="263" 
d="M209 633.5q-19 -28.5 -27 -89.5l-4 -36q0 -4 3 -4h80q10 0 8 -10l-2 -22q-1 -4 -4 -7t-7 -3h-80q-4 0 -4 -4l-55 -448q-2 -10 -11 -10h-32q-9 0 -9 10l55 448q1 1 0 2.5t-3 1.5h-41q-10 0 -8 10l2 22q2 10 11 10h41q4 0 4 4l5 37q10 84 43 123.5t100 39.5h15q10 0 8 -10
l-4 -26q-1 -10 -11 -10h-13q-41 0 -60 -28.5z" />
    <glyph glyph-name="g" unicode="g" horiz-adv-x="394" 
d="M340 504h33q9 0 9 -10l-60 -488q-13 -103 -65 -157t-153 -50q-10 0 -8 10l3 27q1 10 14 10q74 0 110.5 41t46.5 123l5 38q0 3 -2 3.5t-3 -2.5q-20 -27 -47.5 -40.5t-58.5 -13.5q-53 0 -83.5 33.5t-30.5 89.5q0 9 2 27l26 217q8 67 49 108.5t101 41.5q31 0 55.5 -14
t36.5 -40q2 -2 3.5 -2t1.5 3l4 35q2 10 11 10zM252.5 71q28.5 29 34.5 76l26 212q1 6 1 19q0 39 -21 63t-57 24q-41 0 -71 -29.5t-36 -76.5l-26 -212q-1 -6 -1 -16q0 -40 22.5 -64.5t59.5 -24.5q40 0 68.5 29z" />
    <glyph glyph-name="h" unicode="h" horiz-adv-x="406" 
d="M345.5 479q27.5 -32 27.5 -90q0 -10 -2 -34l-42 -345q-2 -10 -11 -10h-32q-10 0 -8 10l41 340q2 18 2 26q0 42 -19.5 65t-56.5 23q-42 0 -70.5 -32t-35.5 -88l-41 -334q-2 -10 -11 -10h-32q-10 0 -8 10l83 680q2 10 11 10h32q9 0 9 -10l-29 -234q-1 -3 1 -3t4 2
q40 56 109 56q51 0 78.5 -32z" />
    <glyph glyph-name="i" unicode="i" horiz-adv-x="199" 
d="M123 617q-12 12 -12 32q0 24 16 40t39 16q19 0 31 -11.5t12 -30.5q0 -25 -16 -41.5t-39 -16.5q-19 0 -31 12zM56 10l59 484q2 10 11 10h32q10 0 8 -10l-59 -484q-2 -10 -11 -10h-32q-10 0 -8 10z" />
    <glyph glyph-name="j" unicode="j" horiz-adv-x="190" 
d="M114 616.5q-12 11.5 -12 30.5q0 25 16 41.5t39 16.5q20 0 31.5 -12t11.5 -32q0 -24 -16 -40t-39 -16q-19 0 -31 11.5zM-64.5 -206q-2.5 3 -1.5 7l3 27q2 10 11 10q39 2 62 30t29 77l67 549q2 10 11 10h32q9 0 9 -10l-68 -549q-9 -75 -42.5 -114t-105.5 -40q-4 0 -6.5 3z
" />
    <glyph glyph-name="k" unicode="k" horiz-adv-x="382" 
d="M47 10l83 680q2 10 11 10h32q9 0 9 -10l-52 -420q0 -2 2 -2.5t3 1.5l188 229q5 6 12 6h34q6 0 7.5 -3.5t-2.5 -8.5l-111 -136q-2 -2 -2 -5l72 -340v-2q0 -9 -9 -9h-34q-8 0 -11 8l-55 297q-1 6 -6 1l-96 -116q-2 -2 -2 -5l-22 -175q-2 -10 -11 -10h-32q-10 0 -8 10z" />
    <glyph glyph-name="l" unicode="l" horiz-adv-x="169" 
d="M42.5 3q-2.5 3 -1.5 7l83 680q1 4 4 7t7 3h32q5 0 7.5 -3t1.5 -7l-84 -680q0 -4 -3 -7t-8 -3h-32q-4 0 -6.5 3z" />
    <glyph glyph-name="m" unicode="m" horiz-adv-x="622" 
d="M561.5 476.5q26.5 -34.5 26.5 -94.5q0 -11 -2 -35l-42 -337q0 -4 -3 -7t-7 -3h-33q-4 0 -6.5 3t-1.5 7l41 332q2 18 2 27q0 45 -19 70t-52 25q-41 0 -68.5 -32t-34.5 -88l-41 -334q0 -4 -3 -7t-8 -3h-32q-4 0 -6.5 3t-1.5 7l41 332q2 18 2 26q0 45 -19 70.5t-52 25.5
q-41 0 -69 -32t-35 -88l-41 -334q0 -4 -3 -7t-8 -3h-31q-10 0 -8 10l59 484q2 10 11 10h31q9 0 9 -10l-5 -37q0 -3 1.5 -3.5t3.5 2.5q21 27 49 41t58 14q36 0 60.5 -20t35.5 -57q0 -5 5 2q21 37 53.5 56t68.5 19q48 0 74.5 -34.5z" />
    <glyph glyph-name="n" unicode="n" horiz-adv-x="406" 
d="M345.5 479q27.5 -32 27.5 -90q0 -10 -2 -34l-42 -345q-2 -10 -11 -10h-32q-10 0 -8 10l41 340q2 18 2 26q0 42 -19.5 65t-56.5 23q-42 0 -70.5 -32t-35.5 -88l-41 -334q-2 -10 -11 -10h-32q-10 0 -8 10l59 484q2 10 11 10h32q9 0 9 -10l-5 -38q-1 -3 1 -3t4 2
q40 56 109 56q51 0 78.5 -32z" />
    <glyph glyph-name="o" unicode="o" horiz-adv-x="395" 
d="M83.5 26.5q-34.5 34.5 -34.5 91.5q0 8 2 24l27 220q8 66 53 108t109 42q60 0 94.5 -34.5t34.5 -91.5q0 -8 -2 -24l-27 -220q-8 -67 -52.5 -108.5t-110.5 -41.5q-59 0 -93.5 34.5zM254 68.5q30 29.5 35 75.5l27 215q1 6 1 16q0 41 -22.5 65.5t-59.5 24.5
q-41 0 -70.5 -29.5t-35.5 -76.5l-26 -215q-1 -6 -1 -18q0 -39 21.5 -63t58.5 -24q42 0 72 29.5z" />
    <glyph glyph-name="p" unicode="p" horiz-adv-x="410" 
d="M353 478q31 -34 31 -90q0 -8 -2 -26l-27 -220q-8 -67 -50 -108.5t-101 -41.5q-29 0 -53 12t-39 35q-3 5 -5 -1l-27 -224q-2 -10 -11 -10h-32q-10 0 -8 10l83 680q2 10 11 10h32q10 0 8 -10l-3 -28q0 -2 1.5 -2.5t3.5 1.5q20 23 46.5 35t56.5 12q54 0 85 -34zM332 378
q0 39 -22.5 63t-59.5 24q-40 0 -68.5 -29t-34.5 -76l-26 -216q-1 -6 -1 -19q0 -39 21 -62.5t57 -23.5q41 0 71 29.5t36 75.5l26 216q1 6 1 18z" />
    <glyph glyph-name="q" unicode="q" horiz-adv-x="410" 
d="M340 504h32q9 0 9 -10l-84 -680q0 -4 -3 -7t-8 -3h-32q-4 0 -6.5 3t-1.5 7l27 224q1 2 -0.5 2.5t-3.5 -1.5q-20 -23 -47 -35t-56 -12q-54 0 -85.5 34t-31.5 90q0 8 2 26l27 220q8 67 50 108.5t102 41.5q29 0 52.5 -12t38.5 -35q1 -2 3 -1.5t2 2.5l3 28q2 10 11 10z
M252 68q29 29 34 76l27 216q1 6 1 18q0 39 -21 63t-57 24q-42 0 -72 -29.5t-35 -75.5l-27 -216q-1 -6 -1 -18q0 -39 22.5 -63t59.5 -24q40 0 69 29z" />
    <glyph glyph-name="r" unicode="r" horiz-adv-x="276" 
d="M299 498q6 -5 3 -13l-12 -34q-4 -9 -13 -5q-14 6 -37 5q-39 -1 -68 -40t-36 -96l-38 -305q-2 -10 -11 -10h-32q-10 0 -8 10l59 484q2 10 11 10h32q9 0 9 -10l-8 -62q0 -7 5 0q18 36 44 56t59 20q24 0 41 -10z" />
    <glyph glyph-name="s" unicode="s" horiz-adv-x="353" 
d="M72.5 25.5q-33.5 30.5 -33.5 79.5q0 11 1 17l1 6q2 10 11 10h30q10 0 8 -10v-6l-1 -11q0 -32 22 -52.5t59 -20.5q39 0 65.5 24.5t31.5 63.5l1 12q0 25 -12 41.5t-29.5 26.5t-49.5 25q-50 22 -77 47.5t-27 75.5q0 69 43 111.5t109 42.5q57 0 89 -31t32 -83q0 -12 -1 -19
l-1 -3q0 -4 -3 -7t-7 -3h-30q-4 0 -6.5 3t-1.5 7l1 5q4 37 -17.5 62t-59.5 25q-42 0 -69.5 -28.5t-27.5 -71.5q0 -33 20.5 -50.5t64.5 -38.5q35 -16 57 -29.5t38 -37.5t16 -59q0 -69 -43 -111.5t-112 -42.5q-58 0 -91.5 30.5z" />
    <glyph glyph-name="t" unicode="t" horiz-adv-x="253" 
d="M251 462h-78q-4 0 -4 -4l-40 -322q-2 -20 -2 -26q0 -35 14.5 -49t45.5 -14h10q10 0 8 -10l-3 -27q-2 -10 -11 -10h-19q-48 0 -72.5 19.5t-24.5 71.5q0 8 2 32l41 335q1 1 0 2.5t-3 1.5h-40q-10 0 -8 10l2 22q2 10 11 10h40q4 0 4 4l14 112q2 10 11 10h31q9 0 9 -10
l-14 -112q0 -4 3 -4h78q10 0 8 -10l-2 -22q-2 -10 -11 -10z" />
    <glyph glyph-name="u" unicode="u" horiz-adv-x="405" 
d="M341 504h32q9 0 9 -10l-60 -484q0 -4 -3 -7t-8 -3h-32q-4 0 -6.5 3t-1.5 7l4 36q1 3 -0.5 3.5t-3.5 -1.5q-38 -55 -106 -55q-52 0 -81 29t-29 86q0 9 2 31l43 355q1 4 4 7t7 3h32q5 0 7.5 -3t1.5 -7l-42 -343q-2 -18 -2 -26q0 -42 19.5 -63.5t55.5 -21.5q43 0 71 32
t35 88l41 334q2 10 11 10z" />
    <glyph glyph-name="v" unicode="v" horiz-adv-x="353" 
d="M129 9l-62 484v2q0 4 3 6.5t7 2.5h37q8 0 10 -9l42 -405q1 -3 2 -3t2 3l142 405q3 9 12 9l37 -1q5 0 7 -3t0 -8l-179 -483q-1 -9 -11 -9h-39q-10 0 -10 9z" />
    <glyph glyph-name="w" unicode="w" horiz-adv-x="523" 
d="M109 9l-43 484q0 11 10 11h31q10 0 10 -9l28 -408q0 -3 1 -3t2 3l129 408q3 9 12 9h28q9 0 10 -9l29 -408q0 -3 1.5 -3t2.5 3l130 408q2 9 11 9l30 -1q10 0 8 -11l-163 -483q-3 -9 -12 -9h-32q-10 0 -10 9l-30 393q-1 3 -2 3t-2 -3l-125 -393q-3 -9 -12 -9h-33q-9 0 -9 9
z" />
    <glyph glyph-name="x" unicode="x" horiz-adv-x="348" 
d="M4.5 3.5q-1.5 3.5 0.5 8.5l150 237q2 3 0 6l-91 237l-1 3q0 9 10 9h36q10 0 11 -7l69 -194q1 -2 3 -2t3 2l117 194q4 7 13 7h36q5 0 6.5 -3.5t-1.5 -8.5l-148 -237q-3 -3 -1 -6l90 -237l1 -4q0 -8 -9 -8h-36q-10 0 -11 7l-69 194q-1 2 -3 2t-3 -2l-117 -194q-4 -7 -12 -7
h-37q-5 0 -6.5 3.5z" />
    <glyph glyph-name="y" unicode="y" horiz-adv-x="343" 
d="M-4 -197q-2 3 -1 7l3 26q2 10 11 10h1q29 1 46.5 13t32.5 42.5t36 95.5q1 2 0.5 3.5t-0.5 2.5l-63 490v3q0 8 10 8h34q4 0 6.5 -2.5t2.5 -6.5l45 -417q0 -3 1.5 -3t2.5 3l146 417q3 9 12 9l35 -1q5 0 6.5 -3.5t-0.5 -7.5l-203 -543q-25 -65 -44.5 -96t-44 -42t-66.5 -11
h-5q-2 0 -4 3z" />
    <glyph glyph-name="z" unicode="z" horiz-adv-x="347" 
d="M18 10l4 32q0 3 4 13l259 395q3 5 -1 5h-199q-9 0 -9 10l4 29q2 10 11 10h254q9 0 9 -10l-4 -32q-2 -10 -5 -13l-260 -395q-1 -2 -0.5 -3.5t2.5 -1.5h202q9 0 9 -10l-4 -29q-2 -10 -11 -10h-257q-10 0 -8 10z" />
    <glyph glyph-name="braceleft" unicode="{" horiz-adv-x="247" 
d="M78 -94.5q-19 19.5 -19 60.5q0 9 2 31l27 219q2 20 2 27q0 29 -9.5 44t-29.5 20q-8 2 -7 10l3 26q1 9 10 10q25 5 39.5 26.5t19.5 63.5l26 213q7 58 32.5 85t72.5 27h40q5 0 7.5 -3t1.5 -7l-4 -28q0 -4 -3 -7t-8 -3h-26q-28 0 -43.5 -18.5t-20.5 -58.5l-24 -201
q-6 -45 -20 -71t-38 -38q-5 -1 -1 -5q34 -20 34 -76q0 -14 -3 -34l-25 -208q-2 -18 -2 -23q0 -28 11.5 -41t35.5 -13h26q10 0 8 -10l-3 -27q-2 -10 -11 -10h-41q-41 0 -60 19.5z" />
    <glyph glyph-name="bar" unicode="|" horiz-adv-x="129" 
d="M11 -70l100 820q1 4 4 7t7 3h32q5 0 7.5 -3t1.5 -7l-101 -820q-2 -10 -11 -10h-32q-10 0 -8 10z" />
    <glyph glyph-name="braceright" unicode="}" horiz-adv-x="247" 
d="M1 -114q-5 0 -7.5 3t-1.5 7l3 27q1 4 4 7t7 3h27q28 0 44 18.5t20 58.5l26 208q5 44 19 70.5t38 39.5q5 3 1 5q-33 20 -33 75q0 10 2 34l25 201q2 18 2 23q0 28 -11.5 41t-35.5 13h-27q-9 0 -9 10l4 28q2 10 11 10h42q41 0 60 -19.5t19 -61.5q0 -9 -2 -31l-26 -213
q-2 -22 -2 -29q0 -27 9 -41.5t28 -19.5q9 -2 8 -10l-3 -26q-1 -9 -11 -10q-24 -5 -38 -27t-19 -64l-27 -219q-7 -58 -32.5 -84.5t-72.5 -26.5h-41z" />
    <glyph glyph-name="asciitilde" unicode="~" horiz-adv-x="440" 
d="M272 248.5q-19 8.5 -47 26.5q-18 12 -33 18.5t-33 6.5q-46 0 -76 -42q-7 -10 -14 -4l-15 11q-7 6 -3 13q18 32 47.5 51t63.5 19q23 0 40.5 -7t35.5 -20q26 -17 43 -25t42 -8q19 0 34 10t32 30q9 9 14 3l15 -12q7 -5 2 -13q-46 -66 -101 -66q-28 0 -47 8.5z" />
    <glyph glyph-name="uni00A0" unicode="&#xa0;" horiz-adv-x="194" 
 />
    <glyph glyph-name="exclamdown" unicode="&#xa1;" horiz-adv-x="237" 
d="M217 696.5q12 -11.5 12 -30.5q0 -25 -16 -41.5t-39 -16.5q-20 0 -31.5 12t-11.5 32q0 24 16 40t39 16q19 0 31 -11.5zM148 487h23q10 0 9 -10l-51 -455q-2 -10 -11 -10h-32q-9 0 -9 10l60 455q1 10 11 10z" />
    <glyph glyph-name="cent" unicode="&#xa2;" horiz-adv-x="382" 
d="M368 452l-32 -2q-5 0 -7.5 3t-1.5 7l1 6q4 36 -19 62.5t-63 26.5q-41 0 -70.5 -29.5t-35.5 -76.5l-26 -215q-1 -6 -1 -18q0 -39 21.5 -63t58.5 -24q41 0 70.5 26.5t33.5 62.5l1 5q2 10 11 10h32q10 0 8 -10l-1 -8q-6 -50 -43 -87t-92 -45q-4 0 -4 -4l-8 -69
q-2 -10 -11 -10h-26q-9 0 -9 10l11 69q0 4 -3 5q-48 7 -75 41t-27 85q0 14 1 22l27 220q8 59 45 99.5t92 48.5q4 1 4 5l7 68q2 10 11 10h26q10 0 8 -10l-9 -68q0 -3 3 -5q48 -7 76.5 -40t28.5 -77q0 -10 -1 -15l-1 -8q-2 -8 -11 -8z" />
    <glyph glyph-name="sterling" unicode="&#xa3;" horiz-adv-x="484" 
d="M151 46h275q4 0 6.5 -3t1.5 -7l-3 -26q-2 -10 -11 -10h-329q-10 0 -8 10l3 28q2 8 8 12q21 16 36 50t20 78l16 132q0 4 -3 4h-58q-4 0 -6.5 3t-1.5 7l3 24q2 10 11 10h57q4 0 4 4l20 155q10 90 57.5 140.5t119.5 50.5q107 0 122 -128q0 -10 -9 -12l-31 -5h-2q-8 0 -8 9
q-10 90 -81 90q-48 0 -79.5 -37.5t-39.5 -105.5l-19 -157q0 -4 3 -4h143q10 0 8 -10l-3 -24q0 -4 -3 -7t-7 -3h-143q-4 0 -4 -4l-16 -130q-5 -41 -18.5 -74.5t-31.5 -54.5q-3 -5 1 -5z" />
    <glyph glyph-name="currency" unicode="&#xa4;" horiz-adv-x="482" 
d="M390 186q-2 -4 1 -6l55 -64q2 -4 2 -5q0 -5 -5 -9l-22 -18q-3 -3 -7 -3t-7 4l-53 61q-3 3 -6 1q-54 -38 -116 -38q-60 0 -105 35q-3 2 -6 -1l-65 -58q-7 -7 -14 -1l-17 18q-3 3 -3 6q0 4 4 8l65 60q2 1 2.5 2.5t-0.5 3.5q-27 43 -27 96q0 77 54 138q2 4 0 6l-55 65
q-2 2 -2 5q0 5 4 9l23 18q8 7 13 -1l53 -63q2 -2 5 -1q55 39 118 39q32 0 60.5 -11t49.5 -31q3 -2 6 1l72 66q3 3 7 3.5t7 -2.5l17 -18q3 -3 3 -7t-4 -7l-74 -68q-2 -2 -2 -6q23 -37 23 -85q0 -82 -54 -142zM148 192q35 -36 89 -36q41 0 78 22t59.5 60t22.5 81
q0 54 -35.5 91t-88.5 37q-41 0 -78 -22.5t-59.5 -60.5t-22.5 -82q0 -54 35 -90z" />
    <glyph glyph-name="yen" unicode="&#xa5;" horiz-adv-x="506" 
d="M440 310q-3 -3 -8 -3h-134q-3 0 -5 -4l-9 -74q0 -4 4 -4h134q5 0 7.5 -3t1.5 -7l-2 -16q-2 -10 -11 -10h-135q-4 0 -4 -4l-22 -175q0 -4 -3 -7t-8 -3h-32q-4 0 -6.5 3t-1.5 7l21 175q1 1 0 2.5t-3 1.5h-130q-10 0 -8 10l2 16q0 4 3 7t7 3h130q2 0 3.5 1t1.5 3l9 74
q0 4 -4 4h-129q-5 0 -7.5 3t-1.5 7l2 15q2 10 11 10h122q4 0 4 5l-85 341v3q0 4 3 6.5t7 2.5h33q9 0 10 -8l67 -306q1 -2 3 -2t3 2l143 306q3 8 12 8h33q5 0 6.5 -3.5t-0.5 -8.5l-167 -341q-1 -2 0 -3.5t3 -1.5h127q10 0 8 -10l-2 -15q0 -4 -3 -7z" />
    <glyph glyph-name="brokenbar" unicode="&#xa6;" horiz-adv-x="129" 
d="M69.5 388q-2.5 3 -1.5 7l43 355q1 4 4 7t7 3h32q5 0 7.5 -3t1.5 -7l-44 -355q0 -4 -3 -7t-8 -3h-32q-4 0 -6.5 3zM11 -70l42 347q1 4 4 7t7 3h32q5 0 7.5 -3t1.5 -7l-43 -347q-2 -10 -11 -10h-32q-10 0 -8 10z" />
    <glyph glyph-name="section" unicode="&#xa7;" horiz-adv-x="364" 
d="M53 -172.5q-31 34.5 -31 92.5q0 8 2 28l1 14q1 4 4 7t7 3h32q5 0 7.5 -3t1.5 -7l-2 -11q-1 -7 -1 -20q0 -41 18.5 -66t49.5 -25q40 0 68 37t28 88q0 32 -14 53t-31.5 32.5t-46.5 25.5q-36 17 -56.5 34.5t-30.5 49.5q-6 23 -6 56q0 37 8.5 66t27.5 58q29 45 70 59q5 2 0 5
q-29 16 -47 49t-18 76q0 50 20 91t55.5 64.5t78.5 23.5q53 0 83 -36t30 -96q0 -16 -1 -25l-2 -12q-2 -10 -11 -10h-33q-10 0 -8 10l1 10q1 8 1 23q0 40 -18 64.5t-49 24.5q-40 0 -67.5 -38.5t-27.5 -93.5q0 -40 21.5 -64.5t65.5 -44.5q33 -16 52 -29.5t33 -40.5
q16 -32 16 -72q0 -65 -33 -121q-30 -49 -74 -62q-5 -1 -1 -5q29 -16 46.5 -46.5t17.5 -72.5q0 -49 -20 -89.5t-55 -64.5t-78 -24q-53 0 -84 34.5zM223.5 139.5q19.5 12.5 34.5 38.5q24 43 24 93q0 35 -14 58q-8 18 -25 28.5t-38 10.5q-25 0 -45 -15.5t-32 -37.5
q-16 -30 -21 -68q-1 -8 -1 -27q0 -25 5 -43q16 -50 67 -50q26 0 45.5 12.5z" />
    <glyph glyph-name="dieresis" unicode="&#xa8;" horiz-adv-x="281" 
d="M233 616.5q-12 11.5 -12 30.5q0 25 16 41.5t40 16.5q19 0 30.5 -12t11.5 -32q0 -24 -16 -40t-39 -16q-19 0 -31 11.5zM96 616.5q-12 11.5 -12 30.5q0 25 16 41.5t40 16.5q19 0 30.5 -12t11.5 -32q0 -24 -16 -40t-39 -16q-19 0 -31 11.5z" />
    <glyph glyph-name="copyright" unicode="&#xa9;" horiz-adv-x="820" 
d="M228.5 32.5q-70.5 40.5 -109.5 111t-39 157.5q0 24 3 48q12 99 68 181.5t142 130t184 47.5q91 0 161.5 -40.5t110 -111.5t39.5 -159q0 -24 -3 -48q-12 -98 -68.5 -180t-142.5 -129.5t-185 -47.5q-90 0 -160.5 40.5zM558.5 70.5q77.5 42.5 128 116.5t61.5 162q3 23 3 43
q0 79 -35 143t-98.5 100.5t-145.5 36.5q-88 0 -165 -43t-127 -117t-61 -163q-3 -21 -3 -42q0 -79 35 -142.5t98 -100t144 -36.5q88 0 165.5 42.5zM361 199q-19 18 -19 47q0 8 1 12l22 178q5 35 28.5 55.5t60.5 20.5q33 0 53 -17.5t20 -47.5q0 -7 -1 -11l-1 -7
q-2 -10 -11 -10l-16 -1q-4 0 -6.5 3t-1.5 7l1 10q2 19 -9 30.5t-32 11.5t-35.5 -11.5t-16.5 -30.5l-22 -182q-2 -20 9 -31.5t32 -11.5t35.5 12t16.5 31l1 10q2 10 11 10l15 -1q5 0 7.5 -3t1.5 -7l-1 -7q-5 -35 -29.5 -56t-61.5 -21q-33 0 -52 18z" />
    <glyph glyph-name="ordfeminine" unicode="&#xaa;" horiz-adv-x="263" 
d="M230 561q4 0 4 4l4 31q1 6 1 17q0 28 -13 44t-37 16q-20 0 -37 -12.5t-24 -33.5q-1 -4 -4 -7t-7 -2l-21 2q-10 2 -7 11q9 34 38.5 55.5t66.5 21.5q41 0 62.5 -23.5t21.5 -65.5q0 -13 -1 -20l-27 -219q0 -4 -3 -7t-8 -3h-19q-10 0 -8 10l2 17q0 2 -1.5 3t-3.5 -1
q-27 -34 -73 -34q-32 0 -54.5 16.5t-22.5 59.5q0 11 1 18q13 102 121 102h49zM195.5 416.5q22.5 17.5 26.5 51.5l7 56q0 4 -3 4h-48q-34 0 -56.5 -21t-22.5 -60q0 -48 47 -48q27 0 49.5 17.5zM44 314q3 3 8 3h195q4 0 6.5 -3t1.5 -7l-2 -19q-2 -10 -11 -10h-195q-9 0 -9 10
l3 19q0 4 3 7z" />
    <glyph glyph-name="guillemotleft" unicode="&#xab;" horiz-adv-x="461" 
d="M232 114q0 -3 -2.5 -5t-6.5 -2h-28q-9 0 -11 6l-91 161q-1 2 -1 6t3 8l130 161q4 6 12 6h28q6 0 7.5 -3.5t-2.5 -8.5l-128 -159q-3 -3 -1 -6l89 -159q2 -4 2 -5zM374 114q0 -7 -10 -7h-28q-7 0 -11 6l-91 161q-1 2 -1 5q0 5 3 9l131 161q4 6 12 6h28q6 0 7.5 -3.5
t-3.5 -8.5l-129 -159q-1 -2 -1 -6l91 -159q2 -4 2 -5z" />
    <glyph glyph-name="logicalnot" unicode="&#xac;" horiz-adv-x="429" 
d="M415.5 337q2.5 -3 1.5 -7l-3 -27l-1 -6l-1 -2l-13 -105q-2 -10 -11 -10h-23q-5 0 -7.5 3t-1.5 7l13 103q0 4 -4 4h-305q-9 0 -9 10l3 23q2 10 11 10h343q5 0 7.5 -3z" />
    <glyph glyph-name="uni00AD" unicode="&#xad;" horiz-adv-x="300" 
d="M51 301l3 27q2 10 11 10h214q9 0 9 -10l-4 -27q0 -4 -3 -7t-8 -3h-214q-10 0 -8 10z" />
    <glyph glyph-name="registered" unicode="&#xae;" horiz-adv-x="425" 
d="M367 693q38 -22 59.5 -60.5t21.5 -85.5q0 -58 -30 -108.5t-79.5 -80t-105.5 -29.5q-47 0 -85 22t-59.5 60.5t-21.5 86.5q0 58 30 108t79 79.5t105 29.5q48 0 86 -22zM325 384q42 25 67 67.5t25 91.5q0 60 -40 100.5t-100 40.5q-47 0 -88 -25t-66 -67.5t-25 -90.5
q0 -60 39.5 -101t99.5 -41q46 0 88 25zM313.5 532.5q-8.5 -13.5 -23.5 -19.5q-3 -2 -3 -6l18 -63v-3q0 -4 -2.5 -6.5t-6.5 -2.5h-8q-9 0 -10 8l-18 65q-1 3 -4 3h-18q-4 0 -4 -4l-8 -62q-2 -10 -11 -10h-7q-10 0 -8 10l19 158q2 10 11 10h49q20 0 31.5 -13t11.5 -33
q0 -18 -8.5 -31.5zM244.5 585q-1.5 -1 -1.5 -3l-6 -49q0 -4 4 -4h25q13 0 21.5 9.5t8.5 24.5q0 10 -6.5 16.5t-16.5 6.5h-25q-2 0 -3.5 -1z" />
    <glyph glyph-name="macron" unicode="&#xaf;" horiz-adv-x="515" 
d="M215 609l3 20q2 10 11 10h173q5 0 7.5 -3t1.5 -7l-3 -20q0 -4 -3 -7t-7 -3h-174q-9 0 -9 10z" />
    <glyph glyph-name="degree" unicode="&#xb0;" horiz-adv-x="347" 
d="M120 532.5q-37 38.5 -37 97.5q0 48 24 89t63 65t83 24q58 0 95.5 -39t37.5 -98q0 -48 -24 -88.5t-63.5 -64.5t-83.5 -24q-58 0 -95 38.5zM282.5 551q29.5 18 47 49t17.5 67q0 44 -27.5 73t-70.5 29q-33 0 -62.5 -18t-47 -49t-17.5 -67q0 -44 27.5 -73t70.5 -29
q33 0 62.5 18z" />
    <glyph glyph-name="plusminus" unicode="&#xb1;" horiz-adv-x="429" 
d="M417.5 359q2.5 -3 1.5 -7l-3 -23q0 -4 -3 -7t-8 -3h-147q-4 0 -4 -4l-19 -151q-2 -10 -11 -10h-21q-9 0 -9 10l19 151q0 4 -4 4h-147q-10 0 -8 10l2 23q2 10 11 10h148q4 0 4 4l19 152q0 4 3 7t8 3h21q10 0 8 -10l-18 -152q0 -4 3 -4h148q4 0 6.5 -3zM18 42l3 23
q2 10 11 10h343q5 0 7.5 -3t1.5 -7l-3 -23q-2 -10 -11 -10h-343q-9 0 -9 10z" />
    <glyph glyph-name="uni00B2" unicode="&#xb2;" horiz-adv-x="232" 
d="M61.5 452q-2.5 3 -1.5 7l2 18q2 9 5 13l46 63l76 105q51 74 51 125q0 26 -12 40.5t-32 14.5q-23 0 -39 -18.5t-20 -49.5l-2 -19q-2 -10 -11 -10h-21q-4 0 -6.5 3t-1.5 7l2 20q7 47 35 75t69 28q36 0 57 -22t21 -63q0 -65 -53 -145q-38 -59 -108 -155q-3 -5 2 -5h126
q4 0 6.5 -3t1.5 -7l-2 -15q-2 -10 -11 -10h-172q-5 0 -7.5 3z" />
    <glyph glyph-name="uni00B3" unicode="&#xb3;" horiz-adv-x="251" 
d="M264 610q0 -22 -2 -35q-5 -39 -18 -66q-11 -31 -35 -48t-57 -17q-37 0 -59 24t-22 63q0 14 2 34q1 10 11 10h19q9 0 9 -8l-1 -22q0 -65 46 -65q34 0 53 39q12 30 16 60q2 26 2 35q0 32 -12.5 49.5t-34.5 17.5q-3 0 -11 -2q-4 -1 -7.5 -0.5t-5.5 3.5l-7 10q-5 6 0 14
l93 123q2 2 1 3.5t-3 1.5h-123q-5 0 -7.5 3t-1.5 7l2 15q2 10 11 10h164q10 0 8 -10l-2 -18q0 -3 -5 -13l-84 -113q-2 -5 1 -5q26 -3 41.5 -23.5t17.5 -51.5q1 -8 1 -25z" />
    <glyph glyph-name="acute" unicode="&#xb4;" horiz-adv-x="165" 
d="M80.5 574.5q-1.5 3.5 2.5 8.5l74 110q5 7 12 7h26q6 0 7.5 -3.5t-1.5 -8.5l-81 -110q-5 -7 -12 -7h-20q-6 0 -7.5 3.5z" />
    <glyph glyph-name="uni00B5" unicode="&#xb5;" horiz-adv-x="411" 
d="M347 504h32q9 0 9 -10l-60 -484q-2 -10 -11 -10h-32q-10 0 -8 10l4 36q1 3 -0.5 3t-3.5 -2q-39 -54 -106 -54q-41 0 -68 18q-1 1 -3 0t-2 -3l-24 -198q-2 -10 -11 -10h-32q-9 0 -9 10l84 684q2 10 11 10h32q9 0 9 -10l-42 -343q-2 -20 -2 -28q0 -41 19.5 -62t55.5 -21
q42 0 70.5 32t35.5 88l41 334q2 10 11 10z" />
    <glyph glyph-name="paragraph" unicode="&#xb6;" horiz-adv-x="445" 
d="M425 700q5 0 7.5 -3t1.5 -7l-108 -880q-2 -10 -11 -10h-25q-9 0 -9 10l104 841q0 4 -4 4h-83q-3 0 -5 -4l-103 -841q-2 -10 -11 -10h-26q-9 0 -9 10l54 436q0 4 -3 4q-58 6 -91 56t-33 125q0 22 3 44q7 63 33.5 114.5t67 81t87.5 29.5h163z" />
    <glyph glyph-name="periodcentered" unicode="&#xb7;" horiz-adv-x="183" 
d="M69 237.5q-12 11.5 -12 30.5q0 25 16 41.5t40 16.5q19 0 30.5 -12t11.5 -32q0 -24 -16 -40t-39 -16q-19 0 -31 11.5z" />
    <glyph glyph-name="cedilla" unicode="&#xb8;" horiz-adv-x="109" 
d="M-37 -169l4 13q3 10 13 7q4 -1 11 -1q16 0 28.5 9.5t18.5 29.5q3 10 3 22q0 39 -31 77q-2 2 -2 5q0 7 8 7h16q6 0 9 -3l4 -4q33 -36 33 -82q0 -16 -5 -36q-9 -32 -30.5 -45.5t-48.5 -13.5q-14 0 -26 3q-8 1 -5 12z" />
    <glyph glyph-name="uni00B9" unicode="&#xb9;" horiz-adv-x="138" 
d="M160 869h23q9 0 9 -10l-49 -400q-1 -4 -4 -7t-7 -3h-21q-10 0 -8 10l45 365q0 2 -1.5 3.5t-3.5 0.5l-30 -10l-3 -1q-4 0 -6 3t-1 7l2 11q0 9 8 12l34 16q6 3 13 3z" />
    <glyph glyph-name="ordmasculine" unicode="&#xba;" horiz-adv-x="268" 
d="M96 387.5q-23 22.5 -23 60.5q0 11 1 17l17 143q5 45 35 72.5t75 27.5q41 0 64 -23t23 -61q0 -11 -1 -16l-17 -143q-6 -45 -36 -72.5t-75 -27.5q-40 0 -63 22.5zM208.5 418.5q18.5 18.5 22.5 47.5l17 139l1 11q0 26 -14 41.5t-38 15.5q-26 0 -45 -19t-22 -49l-17 -139
l-1 -11q0 -25 14 -40t38 -15q26 0 44.5 18.5zM44.5 281q-2.5 3 -1.5 7l2 19q1 4 4 7t7 3h195q5 0 7.5 -3t1.5 -7l-3 -19q0 -4 -3 -7t-7 -3h-195q-5 0 -7.5 3z" />
    <glyph glyph-name="guillemotright" unicode="&#xbb;" horiz-adv-x="461" 
d="M78 111q-1 4 3 8l128 159q2 3 0 6l-89 159q-2 4 -2 5q0 7 10 7h28q7 0 11 -6l90 -161q1 -2 1 -5q0 -4 -3 -9l-130 -161q-4 -6 -12 -6h-28q-6 0 -7 4zM219 111q-1 4 3 8l128 159q2 3 0 6l-89 159q-2 4 -2 5q0 7 10 7h28q7 0 11 -6l90 -161q1 -2 1 -5q0 -4 -3 -9l-130 -161
q-4 -6 -12 -6h-28q-6 0 -7 4z" />
    <glyph glyph-name="onequarter" unicode="&#xbc;" horiz-adv-x="629" 
d="M139 700h23q9 0 9 -10l-49 -400q-1 -4 -4 -7t-7 -3h-21q-10 0 -8 10l45 365q0 2 -1.5 3.5t-3.5 0.5l-30 -10l-3 -1q-4 0 -6 3t-1 7l2 11q0 9 8 12l34 16q6 3 13 3zM48 3.5q-1 3.5 3 8.5l506 681q7 7 13 7h20q6 0 7 -3.5t-3 -8.5l-506 -681q-7 -7 -13 -7h-20q-6 0 -7 3.5z
M614 142l-2 -17q-2 -10 -11 -10h-12q-3 0 -5 -4l-12 -101q-2 -10 -11 -10h-19q-5 0 -7.5 3t-1.5 7l12 101q1 1 0 2.5t-3 1.5h-126q-10 0 -8 10l1 16q2 8 4 12l117 259q5 8 13 8h21q11 0 6 -11l-112 -252q-1 -2 -0.5 -3.5t2.5 -1.5h87q4 0 4 4l11 88q2 10 11 10h19q9 0 9 -10
l-11 -88q0 -4 3 -4h13q10 0 8 -10z" />
    <glyph glyph-name="onehalf" unicode="&#xbd;" horiz-adv-x="638" 
d="M139 700h23q9 0 9 -10l-49 -400q-1 -4 -4 -7t-7 -3h-21q-10 0 -8 10l45 365q0 2 -1.5 3.5t-3.5 0.5l-30 -10l-3 -1q-4 0 -6 3t-1 7l2 11q0 9 8 12l34 16q6 3 13 3zM48 3.5q-1 3.5 3 8.5l506 681q7 7 13 7h20q6 0 7 -3.5t-3 -8.5l-506 -681q-7 -7 -13 -7h-20q-6 0 -7 3.5z
M412.5 3q-2.5 3 -1.5 7l2 18q2 9 5 13l46 63l76 105q51 74 51 125q0 26 -12 40.5t-32 14.5q-23 0 -39 -18.5t-20 -49.5l-2 -19q-2 -10 -11 -10h-21q-4 0 -6.5 3t-1.5 7l2 20q7 47 35 75t69 28q36 0 57 -22t21 -63q0 -65 -53 -145q-38 -59 -108 -155q-3 -5 2 -5h126
q4 0 6.5 -3t1.5 -7l-2 -15q-2 -10 -11 -10h-172q-5 0 -7.5 3z" />
    <glyph glyph-name="threequarters" unicode="&#xbe;" horiz-adv-x="695" 
d="M243 439q0 -22 -2 -35q-5 -39 -18 -66q-11 -31 -35 -48t-57 -17q-37 0 -59 24t-22 63q0 14 2 34q1 10 11 10h19q9 0 9 -8l-1 -22q0 -65 46 -65q34 0 53 39q12 30 16 60q2 26 2 35q0 32 -12.5 49.5t-34.5 17.5q-3 0 -11 -2q-4 -1 -7.5 -0.5t-5.5 3.5l-7 10q-5 6 0 14
l93 123q2 2 1 3.5t-3 1.5h-123q-5 0 -7.5 3t-1.5 7l2 15q2 10 11 10h164q10 0 8 -10l-2 -18q0 -3 -5 -13l-84 -113q-2 -5 1 -5q26 -3 41.5 -23.5t17.5 -51.5q1 -8 1 -25zM114 3.5q-1 3.5 3 8.5l506 681q7 7 13 7h20q6 0 7 -3.5t-3 -8.5l-506 -681q-7 -7 -13 -7h-20
q-6 0 -7 3.5zM679 142l-2 -17q-2 -10 -11 -10h-12q-3 0 -5 -4l-12 -101q-2 -10 -11 -10h-19q-5 0 -7.5 3t-1.5 7l12 101q1 1 0 2.5t-3 1.5h-126q-10 0 -8 10l1 16q2 8 4 12l117 259q5 8 13 8h21q11 0 6 -11l-112 -252q-1 -2 -0.5 -3.5t2.5 -1.5h87q4 0 4 4l11 88q2 10 11 10
h19q9 0 9 -10l-11 -88q0 -4 3 -4h13q10 0 8 -10z" />
    <glyph glyph-name="questiondown" unicode="&#xbf;" horiz-adv-x="342" 
d="M256 485.5q12 -11.5 12 -30.5q0 -25 -16 -41.5t-39 -16.5q-19 0 -31 12t-12 32q0 24 16 40t39 16q19 0 31 -11.5zM227 295l-8 -65q-5 -41 -23 -67.5t-54 -59.5q-37 -35 -57 -64.5t-26 -77.5q-2 -18 -2 -25q0 -44 20 -70t55 -26q40 0 69 33.5t36 88.5l4 34q2 10 11 10
l32 -2q10 0 8 -10l-4 -32q-9 -76 -54.5 -123.5t-108.5 -47.5q-56 0 -87.5 37t-31.5 100q0 10 2 34q7 62 31 98.5t65 75.5q30 28 45 48t18 49l8 62q2 10 11 10h33q10 0 8 -10z" />
    <glyph glyph-name="Agrave" unicode="&#xc0;" horiz-adv-x="379" 
d="M297 9l-10 131q0 2 -1.5 3t-3.5 1h-190q-2 0 -3.5 -1t-1.5 -3l-42 -131q-3 -9 -12 -9h-32q-5 0 -7 3t0 8l231 680q2 9 11 9h39q9 0 10 -9l65 -680q0 -5 -3 -8t-7 -3h-33q-10 0 -10 9zM107 188h171q2 0 4 4l-35 423q0 3 -1 3t-3 -3l-139 -423q0 -4 3 -4zM282 775
q0 -8 -10 -8h-20q-6 0 -11 7l-52 110q-1 2 -1 5q0 7 9 7h26q7 0 11 -7l47 -110z" />
    <glyph glyph-name="Aacute" unicode="&#xc1;" horiz-adv-x="379" 
d="M297 9l-10 131q0 2 -1.5 3t-3.5 1h-190q-2 0 -3.5 -1t-1.5 -3l-42 -131q-3 -9 -12 -9h-32q-5 0 -7 3t0 8l231 680q2 9 11 9h39q9 0 10 -9l65 -680q0 -5 -3 -8t-7 -3h-33q-10 0 -10 9zM107 188h171q2 0 4 4l-35 423q0 3 -1 3t-3 -3l-139 -423q0 -4 3 -4zM228.5 770.5
q-1.5 3.5 2.5 8.5l74 110q5 7 12 7h26q6 0 7.5 -3.5t-1.5 -8.5l-81 -110q-5 -7 -12 -7h-20q-6 0 -7.5 3.5z" />
    <glyph glyph-name="Acircumflex" unicode="&#xc2;" horiz-adv-x="379" 
d="M297 9l-10 131q0 2 -1.5 3t-3.5 1h-190q-2 0 -3.5 -1t-1.5 -3l-42 -131q-3 -9 -12 -9h-32q-5 0 -7 3t0 8l231 680q2 9 11 9h39q9 0 10 -9l65 -680q0 -5 -3 -8t-7 -3h-33q-10 0 -10 9zM107 188h171q2 0 4 4l-35 423q0 3 -1 3t-3 -3l-139 -423q0 -4 3 -4zM167.5 778.5
q-1.5 3.5 2.5 8.5l76 102q5 7 12 7h41q6 0 11 -7l52 -102q1 -2 1 -6q0 -6 -8 -6h-30q-6 0 -11 7l-36 76q-1 2 -3 2t-3 -2l-55 -76q-5 -7 -12 -7h-30q-6 0 -7.5 3.5z" />
    <glyph glyph-name="Atilde" unicode="&#xc3;" horiz-adv-x="379" 
d="M297 9l-10 131q0 2 -1.5 3t-3.5 1h-190q-2 0 -3.5 -1t-1.5 -3l-42 -131q-3 -9 -12 -9h-32q-5 0 -7 3t0 8l231 680q2 9 11 9h39q9 0 10 -9l65 -680q0 -5 -3 -8t-7 -3h-33q-10 0 -10 9zM107 188h171q2 0 4 4l-35 423q0 3 -1 3t-3 -3l-139 -423q0 -4 3 -4zM303.5 815.5
q-10.5 5.5 -24.5 16.5q-2 2 -10.5 8.5t-15.5 9.5t-15 3q-14 0 -25 -5.5t-23 -21.5q-8 -9 -14 -3l-11 9q-7 5 -1 13q32 48 76 48q15 0 26 -6t25 -17q5 -3 13 -9.5t15 -9.5t15 -3q13 0 24 6.5t23 23.5q5 10 14 4l10 -7q4 -2 4 -7t-6 -13q-16 -23 -36.5 -34t-38.5 -11
q-14 0 -24.5 5.5z" />
    <glyph glyph-name="Adieresis" unicode="&#xc4;" horiz-adv-x="379" 
d="M297 9l-10 131q0 2 -1.5 3t-3.5 1h-190q-2 0 -3.5 -1t-1.5 -3l-42 -131q-3 -9 -12 -9h-32q-5 0 -7 3t0 8l231 680q2 9 11 9h39q9 0 10 -9l65 -680q0 -5 -3 -8t-7 -3h-33q-10 0 -10 9zM107 188h171q2 0 4 4l-35 423q0 3 -1 3t-3 -3l-139 -423q0 -4 3 -4zM305 812.5
q-12 11.5 -12 30.5q0 25 16 41.5t40 16.5q19 0 30.5 -12t11.5 -32q0 -24 -16 -40t-39 -16q-19 0 -31 11.5zM168 812.5q-12 11.5 -12 30.5q0 25 16 41.5t40 16.5q19 0 30.5 -12t11.5 -32q0 -24 -16 -40t-39 -16q-19 0 -31 11.5z" />
    <glyph glyph-name="Aring" unicode="&#xc5;" horiz-adv-x="379" 
d="M297 9l-10 131q0 2 -1.5 3t-3.5 1h-190q-2 0 -3.5 -1t-1.5 -3l-42 -131q-3 -9 -12 -9h-32q-5 0 -7 3t0 8l231 680q2 9 11 9h39q9 0 10 -9l65 -680q0 -5 -3 -8t-7 -3h-33q-10 0 -10 9zM107 188h171q2 0 4 4l-35 423q0 3 -1 3t-3 -3l-139 -423q0 -4 3 -4zM203.5 805
q-24.5 26 -24.5 64q0 32 15.5 59t41.5 43t55 16q38 0 62.5 -25.5t24.5 -64.5q0 -49 -33.5 -83.5t-79.5 -34.5q-37 0 -61.5 26zM321.5 837.5q22.5 23.5 22.5 55.5q0 25 -16.5 42t-40.5 17q-29 0 -52 -23t-23 -55q0 -26 17 -43t41 -17q29 0 51.5 23.5z" />
    <glyph glyph-name="AE" unicode="&#xc6;" horiz-adv-x="664" 
d="M673 653h-230q-4 0 -4 -4l-34 -271q0 -4 4 -4h147q9 0 9 -10l-4 -27q0 -4 -3 -7t-8 -3h-147q-4 0 -4 -4l-34 -272q0 -4 4 -4h229q5 0 7.5 -3t1.5 -7l-3 -27q-1 -4 -4 -7t-7 -3h-277q-10 0 -8 10l16 130q0 4 -4 4h-195q-2 0 -4 -3l-73 -133q-4 -8 -12 -8h-33q-5 0 -7 3.5
t1 8.5l376 680q4 8 12 8h294q4 0 6.5 -3t1.5 -7l-3 -27q-2 -10 -11 -10zM148.5 189.5q0.5 -1.5 2.5 -1.5h175q4 0 4 4l53 420q0 3 -2 3t-3 -2l-229 -420q-1 -2 -0.5 -3.5z" />
    <glyph glyph-name="Ccedilla" unicode="&#xc7;" horiz-adv-x="428" 
d="M416 516.5q-3 -3.5 -8 -3.5l-32 -2q-10 0 -8 10l3 25q1 6 1 18q0 44 -25.5 70.5t-68.5 26.5q-48 0 -80.5 -31.5t-39.5 -83.5l-48 -391q-1 -6 -1 -19q0 -44 25 -70.5t68 -26.5q48 0 81 32t40 84l2 23q1 4 4 7t7 3l32 -2q9 0 9 -10l-2 -17q-9 -69 -50.5 -113t-103.5 -52
q-5 -2 -2 -5q31 -37 31 -79q0 -18 -6 -36q-9 -32 -30.5 -45.5t-48.5 -13.5q-13 0 -25 3q-9 1 -6 12l4 14q3 10 13 7q4 -1 12 -1q35 0 46 39q3 10 3 21q0 39 -35 81q0 2 -4 2q-54 7 -85 44t-31 95q0 9 2 27l47 384q10 75 58.5 120t119.5 45q64 0 102 -37.5t38 -101.5
q0 -8 -2 -26l-3 -19q0 -4 -3 -7.5z" />
    <glyph glyph-name="Egrave" unicode="&#xc8;" horiz-adv-x="414" 
d="M430 656q-3 -3 -7 -3h-230q-3 0 -5 -4l-33 -271q0 -2 1 -3t2 -1h148q10 0 8 -10l-3 -27q-2 -10 -11 -10h-147q-3 0 -5 -4l-33 -272q0 -4 3 -4h230q9 0 9 -10l-4 -27q0 -4 -3 -7t-8 -3h-275q-9 0 -9 10l84 680q2 10 11 10h275q5 0 7.5 -3t1.5 -7l-3 -27q-1 -4 -4 -7z
M317 775q0 -8 -10 -8h-20q-6 0 -11 7l-52 110q-1 2 -1 5q0 7 9 7h26q7 0 11 -7l47 -110z" />
    <glyph glyph-name="Eacute" unicode="&#xc9;" horiz-adv-x="414" 
d="M430 656q-3 -3 -7 -3h-230q-3 0 -5 -4l-33 -271q0 -2 1 -3t2 -1h148q10 0 8 -10l-3 -27q-2 -10 -11 -10h-147q-3 0 -5 -4l-33 -272q0 -4 3 -4h230q9 0 9 -10l-4 -27q0 -4 -3 -7t-8 -3h-275q-9 0 -9 10l84 680q2 10 11 10h275q5 0 7.5 -3t1.5 -7l-3 -27q-1 -4 -4 -7z
M263.5 770.5q-1.5 3.5 2.5 8.5l74 110q5 7 12 7h26q6 0 7.5 -3.5t-1.5 -8.5l-81 -110q-5 -7 -12 -7h-20q-6 0 -7.5 3.5z" />
    <glyph glyph-name="Ecircumflex" unicode="&#xca;" horiz-adv-x="414" 
d="M430 656q-3 -3 -7 -3h-230q-3 0 -5 -4l-33 -271q0 -2 1 -3t2 -1h148q10 0 8 -10l-3 -27q-2 -10 -11 -10h-147q-3 0 -5 -4l-33 -272q0 -4 3 -4h230q9 0 9 -10l-4 -27q0 -4 -3 -7t-8 -3h-275q-9 0 -9 10l84 680q2 10 11 10h275q5 0 7.5 -3t1.5 -7l-3 -27q-1 -4 -4 -7z
M202.5 778.5q-1.5 3.5 2.5 8.5l76 102q5 7 12 7h41q6 0 11 -7l52 -102q1 -2 1 -6q0 -6 -8 -6h-30q-6 0 -11 7l-36 76q-1 2 -3 2t-3 -2l-55 -76q-5 -7 -12 -7h-30q-6 0 -7.5 3.5z" />
    <glyph glyph-name="Edieresis" unicode="&#xcb;" horiz-adv-x="414" 
d="M430 656q-3 -3 -7 -3h-230q-3 0 -5 -4l-33 -271q0 -2 1 -3t2 -1h148q10 0 8 -10l-3 -27q-2 -10 -11 -10h-147q-3 0 -5 -4l-33 -272q0 -4 3 -4h230q9 0 9 -10l-4 -27q0 -4 -3 -7t-8 -3h-275q-9 0 -9 10l84 680q2 10 11 10h275q5 0 7.5 -3t1.5 -7l-3 -27q-1 -4 -4 -7z
M340 812.5q-12 11.5 -12 30.5q0 25 16 41.5t40 16.5q19 0 30.5 -12t11.5 -32q0 -24 -16 -40t-39 -16q-19 0 -31 11.5zM203 812.5q-12 11.5 -12 30.5q0 25 16 41.5t40 16.5q19 0 30.5 -12t11.5 -32q0 -24 -16 -40t-39 -16q-19 0 -31 11.5z" />
    <glyph glyph-name="Igrave" unicode="&#xcc;" horiz-adv-x="204" 
d="M58 10l84 680q2 10 11 10h32q10 0 8 -10l-83 -680q-2 -10 -11 -10h-32q-9 0 -9 10zM195 775q0 -8 -10 -8h-20q-6 0 -11 7l-52 110q-1 2 -1 5q0 7 9 7h26q7 0 11 -7l47 -110z" />
    <glyph glyph-name="Iacute" unicode="&#xcd;" horiz-adv-x="204" 
d="M58 10l84 680q2 10 11 10h32q10 0 8 -10l-83 -680q-2 -10 -11 -10h-32q-9 0 -9 10zM141.5 770.5q-1.5 3.5 2.5 8.5l74 110q5 7 12 7h26q6 0 7.5 -3.5t-1.5 -8.5l-81 -110q-5 -7 -12 -7h-20q-6 0 -7.5 3.5z" />
    <glyph glyph-name="Icircumflex" unicode="&#xce;" horiz-adv-x="204" 
d="M58 10l84 680q2 10 11 10h32q10 0 8 -10l-83 -680q-2 -10 -11 -10h-32q-9 0 -9 10zM80.5 778.5q-1.5 3.5 2.5 8.5l76 102q5 7 12 7h41q6 0 11 -7l52 -102q1 -2 1 -6q0 -6 -8 -6h-30q-6 0 -11 7l-36 76q-1 2 -3 2t-3 -2l-55 -76q-5 -7 -12 -7h-30q-6 0 -7.5 3.5z" />
    <glyph glyph-name="Idieresis" unicode="&#xcf;" horiz-adv-x="204" 
d="M58 10l84 680q2 10 11 10h32q10 0 8 -10l-83 -680q-2 -10 -11 -10h-32q-9 0 -9 10zM218 812.5q-12 11.5 -12 30.5q0 25 16 41.5t40 16.5q19 0 30.5 -12t11.5 -32q0 -24 -16 -40t-39 -16q-19 0 -31 11.5zM81 812.5q-12 11.5 -12 30.5q0 25 16 41.5t40 16.5q19 0 30.5 -12
t11.5 -32q0 -24 -16 -40t-39 -16q-19 0 -31 11.5z" />
    <glyph glyph-name="Eth" unicode="&#xd0;" horiz-adv-x="494" 
d="M439.5 660.5q35.5 -39.5 35.5 -109.5q0 -23 -2 -35l-41 -332q-10 -85 -58.5 -134.5t-119.5 -49.5h-142q-5 0 -7.5 3t-1.5 7l41 333q0 4 -3 4h-31q-5 0 -7.5 3t-1.5 7l2 17q2 10 11 10h31q4 0 4 4l38 302q0 4 3 7t7 3h143q64 0 99.5 -39.5zM421 514q2 22 2 31
q0 50 -23.5 79t-65.5 29h-97q-4 0 -4 -4l-32 -261q0 -4 3 -4h83q10 0 8 -10l-2 -17q-2 -10 -11 -10h-82q-3 0 -5 -4l-35 -292q-1 -1 0 -2.5t3 -1.5h97q47 1 79.5 37.5t41.5 100.5z" />
    <glyph glyph-name="Ntilde" unicode="&#xd1;" horiz-adv-x="474" 
d="M415 697q3 3 8 3h31q4 0 6.5 -3t1.5 -7l-83 -680q-1 -4 -4 -7t-7 -3h-38q-9 0 -10 8l-138 560q0 3 -2 2.5t-3 -3.5l-67 -557q-2 -10 -11 -10h-32q-9 0 -9 10l84 680q2 10 11 10h37q8 0 9 -8l140 -557q0 -3 2 -2.5t3 3.5l68 554q0 4 3 7zM351.5 823.5
q-10.5 5.5 -24.5 16.5q-2 2 -10.5 8.5t-15.5 9.5t-15 3q-14 0 -25 -5.5t-23 -21.5q-8 -9 -14 -3l-11 9q-7 5 -1 13q32 48 76 48q15 0 26 -6t25 -17q5 -3 13 -9.5t15 -9.5t15 -3q13 0 24 6.5t23 23.5q5 10 14 4l10 -7q4 -2 4 -7t-6 -13q-16 -23 -36.5 -34t-38.5 -11
q-14 0 -24.5 5.5z" />
    <glyph glyph-name="Ograve" unicode="&#xd2;" horiz-adv-x="438" 
d="M95.5 30.5q-38.5 38.5 -38.5 103.5q0 8 2 26l47 379q9 76 59 122.5t121 46.5q65 0 103.5 -39t38.5 -104q0 -8 -2 -26l-46 -379q-10 -75 -60.5 -121.5t-121.5 -46.5q-64 0 -102.5 38.5zM287 72q34 33 41 86l47 383q1 7 1 20q0 45 -26 72.5t-70 27.5q-48 0 -82 -33.5
t-40 -86.5l-47 -383q-1 -7 -1 -20q0 -45 25.5 -72t68.5 -27q49 0 83 33zM311 774q0 -8 -10 -8h-20q-6 0 -11 7l-52 110q-1 2 -1 5q0 7 9 7h26q7 0 11 -7l47 -110z" />
    <glyph glyph-name="Oacute" unicode="&#xd3;" horiz-adv-x="438" 
d="M95.5 30.5q-38.5 38.5 -38.5 103.5q0 8 2 26l47 379q9 76 59 122.5t121 46.5q65 0 103.5 -39t38.5 -104q0 -8 -2 -26l-46 -379q-10 -75 -60.5 -121.5t-121.5 -46.5q-64 0 -102.5 38.5zM287 72q34 33 41 86l47 383q1 7 1 20q0 45 -26 72.5t-70 27.5q-48 0 -82 -33.5
t-40 -86.5l-47 -383q-1 -7 -1 -20q0 -45 25.5 -72t68.5 -27q49 0 83 33zM257.5 769.5q-1.5 3.5 2.5 8.5l74 110q5 7 12 7h26q6 0 7.5 -3.5t-1.5 -8.5l-81 -110q-5 -7 -12 -7h-20q-6 0 -7.5 3.5z" />
    <glyph glyph-name="Ocircumflex" unicode="&#xd4;" horiz-adv-x="438" 
d="M95.5 30.5q-38.5 38.5 -38.5 103.5q0 8 2 26l47 379q9 76 59 122.5t121 46.5q65 0 103.5 -39t38.5 -104q0 -8 -2 -26l-46 -379q-10 -75 -60.5 -121.5t-121.5 -46.5q-64 0 -102.5 38.5zM287 72q34 33 41 86l47 383q1 7 1 20q0 45 -26 72.5t-70 27.5q-48 0 -82 -33.5
t-40 -86.5l-47 -383q-1 -7 -1 -20q0 -45 25.5 -72t68.5 -27q49 0 83 33zM196.5 777.5q-1.5 3.5 2.5 8.5l76 102q5 7 12 7h41q6 0 11 -7l52 -102q1 -2 1 -6q0 -6 -8 -6h-30q-6 0 -11 7l-36 76q-1 2 -3 2t-3 -2l-55 -76q-5 -7 -12 -7h-30q-6 0 -7.5 3.5z" />
    <glyph glyph-name="Otilde" unicode="&#xd5;" horiz-adv-x="438" 
d="M95.5 30.5q-38.5 38.5 -38.5 103.5q0 8 2 26l47 379q9 76 59 122.5t121 46.5q65 0 103.5 -39t38.5 -104q0 -8 -2 -26l-46 -379q-10 -75 -60.5 -121.5t-121.5 -46.5q-64 0 -102.5 38.5zM287 72q34 33 41 86l47 383q1 7 1 20q0 45 -26 72.5t-70 27.5q-48 0 -82 -33.5
t-40 -86.5l-47 -383q-1 -7 -1 -20q0 -45 25.5 -72t68.5 -27q49 0 83 33zM332.5 814.5q-10.5 5.5 -24.5 16.5q-2 2 -10.5 8.5t-15.5 9.5t-15 3q-14 0 -25 -5.5t-23 -21.5q-8 -9 -14 -3l-11 9q-7 5 -1 13q32 48 76 48q15 0 26 -6t25 -17q5 -3 13 -9.5t15 -9.5t15 -3
q13 0 24 6.5t23 23.5q5 10 14 4l10 -7q4 -2 4 -7t-6 -13q-16 -23 -36.5 -34t-38.5 -11q-14 0 -24.5 5.5z" />
    <glyph glyph-name="Odieresis" unicode="&#xd6;" horiz-adv-x="438" 
d="M95.5 30.5q-38.5 38.5 -38.5 103.5q0 8 2 26l47 379q9 76 59 122.5t121 46.5q65 0 103.5 -39t38.5 -104q0 -8 -2 -26l-46 -379q-10 -75 -60.5 -121.5t-121.5 -46.5q-64 0 -102.5 38.5zM287 72q34 33 41 86l47 383q1 7 1 20q0 45 -26 72.5t-70 27.5q-48 0 -82 -33.5
t-40 -86.5l-47 -383q-1 -7 -1 -20q0 -45 25.5 -72t68.5 -27q49 0 83 33zM334 811.5q-12 11.5 -12 30.5q0 25 16 41.5t40 16.5q19 0 30.5 -12t11.5 -32q0 -24 -16 -40t-39 -16q-19 0 -31 11.5zM197 811.5q-12 11.5 -12 30.5q0 25 16 41.5t40 16.5q19 0 30.5 -12t11.5 -32
q0 -24 -16 -40t-39 -16q-19 0 -31 11.5z" />
    <glyph glyph-name="multiply" unicode="&#xd7;" horiz-adv-x="352" 
d="M348 431q0 -5 -4 -9l-117 -107q-3 -3 -1 -6l91 -108q2 -4 2 -5q0 -5 -4 -9l-18 -16q-3 -3 -7 -3t-6 3l-91 107q-1 3 -6 0l-117 -107q-3 -3 -7 -3t-6 3l-14 16q-2 4 -2 5q0 5 4 9l117 108q4 4 1 6l-91 107q-2 4 -2 5q0 5 4 9l17 16q4 3 8 3t6 -3l91 -107q2 -3 5 0l117 107
q4 3 8 3t6 -3l14 -16q2 -4 2 -5z" />
    <glyph glyph-name="Oslash" unicode="&#xd8;" horiz-adv-x="480" 
d="M449 703l-34 -65q-1 -3 0 -6q14 -30 14 -67q0 -8 -2 -26l-47 -379q-9 -75 -59.5 -121.5t-121.5 -46.5q-61 0 -98 34q-4 3 -6 -1l-25 -49q-5 -10 -13 -5l-19 10q-7 5 -3 13l36 68q2 3 0 6q-13 27 -13 66q0 17 1 26l47 379q9 76 59.5 122.5t121.5 46.5q61 0 98 -35
q4 -3 6 1l26 49q2 5 5.5 6.5t7.5 -1.5l17 -11q7 -5 2 -14zM110 146q0 -3 1.5 -3t3.5 2l246 471q1 1 0.5 3l-0.5 2q-13 19 -33.5 29.5t-46.5 10.5q-48 0 -82.5 -33.5t-40.5 -86.5l-47 -383q-1 -4 -1 -12zM376.5 547q0.5 4 -0.5 7q1 3 -1 3t-3 -2l-246 -471q-2 -3 0 -5
q12 -19 32.5 -29.5t46.5 -10.5q48 0 82.5 33t41.5 86l47 383q0 2 0.5 6z" />
    <glyph glyph-name="Ugrave" unicode="&#xd9;" horiz-adv-x="461" 
d="M108.5 33.5q-36.5 41.5 -36.5 112.5q0 11 2 35l62 509q2 10 11 10h32q9 0 9 -10l-64 -515q-2 -18 -2 -26q0 -51 25 -80.5t68 -29.5q49 0 84.5 37.5t42.5 98.5l63 515q2 10 11 10h32q10 0 8 -10l-62 -509q-10 -85 -61 -137t-123 -52q-65 0 -101.5 41.5zM323 775
q0 -8 -10 -8h-20q-6 0 -11 7l-52 110q-1 2 -1 5q0 7 9 7h26q7 0 11 -7l47 -110z" />
    <glyph glyph-name="Uacute" unicode="&#xda;" horiz-adv-x="461" 
d="M108.5 33.5q-36.5 41.5 -36.5 112.5q0 11 2 35l62 509q2 10 11 10h32q9 0 9 -10l-64 -515q-2 -18 -2 -26q0 -51 25 -80.5t68 -29.5q49 0 84.5 37.5t42.5 98.5l63 515q2 10 11 10h32q10 0 8 -10l-62 -509q-10 -85 -61 -137t-123 -52q-65 0 -101.5 41.5zM269.5 770.5
q-1.5 3.5 2.5 8.5l74 110q5 7 12 7h26q6 0 7.5 -3.5t-1.5 -8.5l-81 -110q-5 -7 -12 -7h-20q-6 0 -7.5 3.5z" />
    <glyph glyph-name="Ucircumflex" unicode="&#xdb;" horiz-adv-x="461" 
d="M108.5 33.5q-36.5 41.5 -36.5 112.5q0 11 2 35l62 509q2 10 11 10h32q9 0 9 -10l-64 -515q-2 -18 -2 -26q0 -51 25 -80.5t68 -29.5q49 0 84.5 37.5t42.5 98.5l63 515q2 10 11 10h32q10 0 8 -10l-62 -509q-10 -85 -61 -137t-123 -52q-65 0 -101.5 41.5zM207.5 778.5
q-1.5 3.5 2.5 8.5l76 102q5 7 12 7h41q6 0 11 -7l52 -102q1 -2 1 -6q0 -6 -8 -6h-30q-6 0 -11 7l-36 76q-1 2 -3 2t-3 -2l-55 -76q-5 -7 -12 -7h-30q-6 0 -7.5 3.5z" />
    <glyph glyph-name="Udieresis" unicode="&#xdc;" horiz-adv-x="461" 
d="M108.5 33.5q-36.5 41.5 -36.5 112.5q0 11 2 35l62 509q2 10 11 10h32q9 0 9 -10l-64 -515q-2 -18 -2 -26q0 -51 25 -80.5t68 -29.5q49 0 84.5 37.5t42.5 98.5l63 515q2 10 11 10h32q10 0 8 -10l-62 -509q-10 -85 -61 -137t-123 -52q-65 0 -101.5 41.5zM346 812.5
q-12 11.5 -12 30.5q0 25 16 41.5t40 16.5q19 0 30.5 -12t11.5 -32q0 -24 -16 -40t-39 -16q-19 0 -31 11.5zM209 812.5q-12 11.5 -12 30.5q0 25 16 41.5t40 16.5q19 0 30.5 -12t11.5 -32q0 -24 -16 -40t-39 -16q-19 0 -31 11.5z" />
    <glyph glyph-name="Yacute" unicode="&#xdd;" horiz-adv-x="399" 
d="M155 10l39 310q0 4 -1 5l-89 363l-1 3q0 9 10 9h34q10 0 11 -8l67 -306q1 -2 3 -2t3 2l141 306q4 8 13 8h34q5 0 7 -3.5t-1 -8.5l-178 -363q-2 -1 -2 -5l-38 -310q-2 -10 -11 -10h-32q-9 0 -9 10zM239.5 770.5q-1.5 3.5 2.5 8.5l74 110q5 7 12 7h26q6 0 7.5 -3.5
t-1.5 -8.5l-81 -110q-5 -7 -12 -7h-20q-6 0 -7.5 3.5z" />
    <glyph glyph-name="Thorn" unicode="&#xde;" horiz-adv-x="423" 
d="M379 498.5q35 -41.5 35 -112.5q0 -24 -2 -36q-10 -84 -58 -135.5t-116 -51.5h-106q-2 0 -3.5 -1t-1.5 -3l-18 -149q-2 -10 -11 -10h-32q-9 0 -9 10l84 680q2 10 11 10h32q10 0 8 -10l-18 -146q0 -4 4 -4h105q61 0 96 -41.5zM318.5 246.5q34.5 38.5 41.5 102.5q2 22 2 30
q0 53 -24.5 83.5t-66.5 30.5h-99q-4 0 -4 -4l-34 -277q-1 -1 0 -2.5t3 -1.5h99q48 0 82.5 38.5z" />
    <glyph glyph-name="germandbls" unicode="&#xdf;" horiz-adv-x="410" 
d="M47 10l62 507q11 90 54 141t108 51q60 0 93.5 -39.5t33.5 -109.5q0 -10 -2 -34q-6 -58 -28.5 -98t-57.5 -57q-5 -2 0 -5q26 -16 40 -49.5t14 -80.5q0 -21 -3 -44q-11 -90 -59 -141t-123 -51h-33q-5 0 -7.5 3t-1.5 7l3 26q2 10 11 10l35 1q51 1 84 39.5t41 109.5
q3 23 3 41q0 51 -20 79.5t-56 30.5h-35q-5 0 -7.5 3t-1.5 7l3 24q2 10 11 10h35q42 0 69 34t34 98q1 10 1 28q0 53 -20.5 82t-59.5 29q-42 0 -70 -36.5t-36 -103.5l-63 -512q-2 -10 -11 -10h-32q-10 0 -8 10z" />
    <glyph glyph-name="agrave" unicode="&#xe0;" horiz-adv-x="391" 
d="M340 504h32q9 0 9 -10l-60 -484q0 -4 -3 -7t-8 -3h-32q-4 0 -6.5 3t-1.5 7l5 39q0 3 -2 3.5t-3 -2.5q-19 -28 -47 -43t-60 -15q-54 0 -84 33t-30 89q0 8 2 28l27 220q8 67 48.5 108.5t100.5 41.5q32 0 56 -15t37 -43q1 -3 2.5 -2.5t2.5 3.5l4 39q2 10 11 10zM252 68
q29 29 34 76l27 215q1 6 1 19q0 39 -21 63t-57 24q-42 0 -71.5 -29.5t-35.5 -76.5l-26 -215q-1 -6 -1 -18q0 -39 22 -63t59 -24q40 0 69 29zM264 579q0 -8 -10 -8h-20q-6 0 -11 7l-52 110q-1 2 -1 5q0 7 9 7h26q7 0 11 -7l47 -110z" />
    <glyph glyph-name="aacute" unicode="&#xe1;" horiz-adv-x="391" 
d="M340 504h32q9 0 9 -10l-60 -484q0 -4 -3 -7t-8 -3h-32q-4 0 -6.5 3t-1.5 7l5 39q0 3 -2 3.5t-3 -2.5q-19 -28 -47 -43t-60 -15q-54 0 -84 33t-30 89q0 8 2 28l27 220q8 67 48.5 108.5t100.5 41.5q32 0 56 -15t37 -43q1 -3 2.5 -2.5t2.5 3.5l4 39q2 10 11 10zM252 68
q29 29 34 76l27 215q1 6 1 19q0 39 -21 63t-57 24q-42 0 -71.5 -29.5t-35.5 -76.5l-26 -215q-1 -6 -1 -18q0 -39 22 -63t59 -24q40 0 69 29zM210.5 574.5q-1.5 3.5 2.5 8.5l74 110q5 7 12 7h26q6 0 7.5 -3.5t-1.5 -8.5l-81 -110q-5 -7 -12 -7h-20q-6 0 -7.5 3.5z" />
    <glyph glyph-name="acircumflex" unicode="&#xe2;" horiz-adv-x="391" 
d="M340 504h32q9 0 9 -10l-60 -484q0 -4 -3 -7t-8 -3h-32q-4 0 -6.5 3t-1.5 7l5 39q0 3 -2 3.5t-3 -2.5q-19 -28 -47 -43t-60 -15q-54 0 -84 33t-30 89q0 8 2 28l27 220q8 67 48.5 108.5t100.5 41.5q32 0 56 -15t37 -43q1 -3 2.5 -2.5t2.5 3.5l4 39q2 10 11 10zM252 68
q29 29 34 76l27 215q1 6 1 19q0 39 -21 63t-57 24q-42 0 -71.5 -29.5t-35.5 -76.5l-26 -215q-1 -6 -1 -18q0 -39 22 -63t59 -24q40 0 69 29zM149.5 582.5q-1.5 3.5 2.5 8.5l76 102q5 7 12 7h41q6 0 11 -7l52 -102q1 -2 1 -6q0 -6 -8 -6h-30q-6 0 -11 7l-36 76q-1 2 -3 2
t-3 -2l-55 -76q-5 -7 -12 -7h-30q-6 0 -7.5 3.5z" />
    <glyph glyph-name="atilde" unicode="&#xe3;" horiz-adv-x="391" 
d="M340 504h32q9 0 9 -10l-60 -484q0 -4 -3 -7t-8 -3h-32q-4 0 -6.5 3t-1.5 7l5 39q0 3 -2 3.5t-3 -2.5q-19 -28 -47 -43t-60 -15q-54 0 -84 33t-30 89q0 8 2 28l27 220q8 67 48.5 108.5t100.5 41.5q32 0 56 -15t37 -43q1 -3 2.5 -2.5t2.5 3.5l4 39q2 10 11 10zM252 68
q29 29 34 76l27 215q1 6 1 19q0 39 -21 63t-57 24q-42 0 -71.5 -29.5t-35.5 -76.5l-26 -215q-1 -6 -1 -18q0 -39 22 -63t59 -24q40 0 69 29zM285.5 619.5q-10.5 5.5 -24.5 16.5q-2 2 -10.5 8.5t-15.5 9.5t-15 3q-14 0 -25 -5.5t-23 -21.5q-8 -9 -14 -3l-11 9q-7 5 -1 13
q32 48 76 48q15 0 26 -6t25 -17q5 -3 13 -9.5t15 -9.5t15 -3q13 0 24 6.5t23 23.5q5 10 14 4l10 -7q4 -2 4 -7t-6 -13q-16 -23 -36.5 -34t-38.5 -11q-14 0 -24.5 5.5z" />
    <glyph glyph-name="adieresis" unicode="&#xe4;" horiz-adv-x="391" 
d="M340 504h32q9 0 9 -10l-60 -484q0 -4 -3 -7t-8 -3h-32q-4 0 -6.5 3t-1.5 7l5 39q0 3 -2 3.5t-3 -2.5q-19 -28 -47 -43t-60 -15q-54 0 -84 33t-30 89q0 8 2 28l27 220q8 67 48.5 108.5t100.5 41.5q32 0 56 -15t37 -43q1 -3 2.5 -2.5t2.5 3.5l4 39q2 10 11 10zM252 68
q29 29 34 76l27 215q1 6 1 19q0 39 -21 63t-57 24q-42 0 -71.5 -29.5t-35.5 -76.5l-26 -215q-1 -6 -1 -18q0 -39 22 -63t59 -24q40 0 69 29zM287 616.5q-12 11.5 -12 30.5q0 25 16 41.5t40 16.5q19 0 30.5 -12t11.5 -32q0 -24 -16 -40t-39 -16q-19 0 -31 11.5zM150 616.5
q-12 11.5 -12 30.5q0 25 16 41.5t40 16.5q19 0 30.5 -12t11.5 -32q0 -24 -16 -40t-39 -16q-19 0 -31 11.5z" />
    <glyph glyph-name="aring" unicode="&#xe5;" horiz-adv-x="391" 
d="M340 504h32q9 0 9 -10l-60 -484q0 -4 -3 -7t-8 -3h-32q-4 0 -6.5 3t-1.5 7l5 39q0 3 -2 3.5t-3 -2.5q-19 -28 -47 -43t-60 -15q-54 0 -84 33t-30 89q0 8 2 28l27 220q8 67 48.5 108.5t100.5 41.5q32 0 56 -15t37 -43q1 -3 2.5 -2.5t2.5 3.5l4 39q2 10 11 10zM252 68
q29 29 34 76l27 215q1 6 1 19q0 39 -21 63t-57 24q-42 0 -71.5 -29.5t-35.5 -76.5l-26 -215q-1 -6 -1 -18q0 -39 22 -63t59 -24q40 0 69 29zM185.5 609q-24.5 26 -24.5 64q0 32 15.5 59t41.5 43t55 16q38 0 62.5 -25.5t24.5 -64.5q0 -49 -33.5 -83.5t-79.5 -34.5
q-37 0 -61.5 26zM303.5 641.5q22.5 23.5 22.5 55.5q0 25 -16.5 42t-40.5 17q-29 0 -52 -23t-23 -55q0 -26 17 -43t41 -17q29 0 51.5 23.5z" />
    <glyph glyph-name="ae" unicode="&#xe6;" horiz-adv-x="624" 
d="M69 16q-32 24 -32 86q0 7 2 29q19 153 179 153h80q4 0 4 4l7 55q2 20 2 28q0 44 -20 69t-58 25q-35 0 -64 -22t-36 -57q-3 -9 -12 -9l-32 2q-10 0 -8 10q12 56 56.5 89.5t100.5 33.5q80 0 105 -73q3 -4 5 0q21 34 55.5 53.5t74.5 19.5q57 0 91 -35t34 -92q0 -15 -1 -23
l-14 -114q-2 -10 -11 -10h-223q-4 0 -4 -4l-11 -90q-1 -5 -1 -16q0 -39 22 -62.5t58 -23.5q34 0 61 20.5t39 53.5q3 9 11 8l32 -2q4 0 6.5 -3t0.5 -8q-16 -55 -56.5 -87t-96.5 -32q-45 0 -75.5 22.5t-38.5 57.5q-1 2 -2 2.5t-2 -1.5q-19 -38 -59.5 -59.5t-89.5 -21.5
q-47 0 -79 24zM360 283h177q3 0 5 4l8 72q1 6 1 19q0 39 -22 63t-59 24q-41 0 -70 -29.5t-35 -76.5l-9 -72q0 -4 4 -4zM243 64q35 28 41 80l11 89q1 1 0 2.5t-3 1.5h-76q-52 0 -85 -25.5t-39 -78.5q-1 -7 -1 -19q0 -39 20.5 -58.5t53.5 -19.5q43 0 78 28z" />
    <glyph glyph-name="ccedilla" unicode="&#xe7;" horiz-adv-x="382" 
d="M357 362l-32 -2q-5 0 -7.5 3t-1.5 7l1 6q4 36 -19 62.5t-63 26.5q-41 0 -70.5 -29.5t-35.5 -76.5l-26 -215q-1 -6 -1 -18q0 -39 21.5 -63t58.5 -24q41 0 70.5 26.5t33.5 62.5l1 5q2 10 11 10h32q10 0 8 -10l-1 -8q-6 -50 -43 -87t-92 -44q-5 -2 -2 -5q30 -34 30 -78
q0 -17 -5 -37q-10 -32 -31.5 -45.5t-48.5 -13.5q-13 0 -25 3q-8 2 -5 12l4 14q1 4 4.5 6.5t7.5 0.5q4 -1 13 -1q20 0 34 14.5t14 46.5q0 39 -34 80l-4 2q-49 7 -76.5 40.5t-27.5 84.5q0 16 1 24l27 220q8 66 53 108t109 42q59 0 94 -33.5t35 -83.5q0 -11 -1 -17l-1 -8
q0 -8 -10 -8z" />
    <glyph glyph-name="egrave" unicode="&#xe8;" horiz-adv-x="388" 
d="M341 233h-223q-3 0 -5 -4l-10 -85q-1 -6 -1 -18q0 -39 21.5 -63t58.5 -24q34 0 61 21t39 55q5 9 12 9l30 -2q4 0 6.5 -2t1.5 -6q0 -3 -1 -4q-16 -55 -57 -86.5t-97 -31.5q-59 0 -93.5 34t-34.5 91q0 8 2 24l27 221q8 66 53 108t109 42q59 0 93.5 -34.5t34.5 -91.5
q0 -8 -2 -24l-14 -119q-2 -10 -11 -10zM164.5 435.5q-29.5 -29.5 -35.5 -76.5l-9 -76q0 -2 1 -3t2 -1h178q4 0 4 4l10 76q1 6 1 17q0 41 -22 65t-59 24q-41 0 -70.5 -29.5zM263 579q0 -8 -10 -8h-20q-6 0 -11 7l-52 110q-1 2 -1 5q0 7 9 7h26q7 0 11 -7l47 -110z" />
    <glyph glyph-name="eacute" unicode="&#xe9;" horiz-adv-x="388" 
d="M341 233h-223q-3 0 -5 -4l-10 -85q-1 -6 -1 -18q0 -39 21.5 -63t58.5 -24q34 0 61 21t39 55q5 9 12 9l30 -2q4 0 6.5 -2t1.5 -6q0 -3 -1 -4q-16 -55 -57 -86.5t-97 -31.5q-59 0 -93.5 34t-34.5 91q0 8 2 24l27 221q8 66 53 108t109 42q59 0 93.5 -34.5t34.5 -91.5
q0 -8 -2 -24l-14 -119q-2 -10 -11 -10zM164.5 435.5q-29.5 -29.5 -35.5 -76.5l-9 -76q0 -2 1 -3t2 -1h178q4 0 4 4l10 76q1 6 1 17q0 41 -22 65t-59 24q-41 0 -70.5 -29.5zM209.5 574.5q-1.5 3.5 2.5 8.5l74 110q5 7 12 7h26q6 0 7.5 -3.5t-1.5 -8.5l-81 -110q-5 -7 -12 -7
h-20q-6 0 -7.5 3.5z" />
    <glyph glyph-name="ecircumflex" unicode="&#xea;" horiz-adv-x="388" 
d="M341 233h-223q-3 0 -5 -4l-10 -85q-1 -6 -1 -18q0 -39 21.5 -63t58.5 -24q34 0 61 21t39 55q5 9 12 9l30 -2q4 0 6.5 -2t1.5 -6q0 -3 -1 -4q-16 -55 -57 -86.5t-97 -31.5q-59 0 -93.5 34t-34.5 91q0 8 2 24l27 221q8 66 53 108t109 42q59 0 93.5 -34.5t34.5 -91.5
q0 -8 -2 -24l-14 -119q-2 -10 -11 -10zM164.5 435.5q-29.5 -29.5 -35.5 -76.5l-9 -76q0 -2 1 -3t2 -1h178q4 0 4 4l10 76q1 6 1 17q0 41 -22 65t-59 24q-41 0 -70.5 -29.5zM148.5 582.5q-1.5 3.5 2.5 8.5l76 102q5 7 12 7h41q6 0 11 -7l52 -102q1 -2 1 -6q0 -6 -8 -6h-30
q-6 0 -11 7l-36 76q-1 2 -3 2t-3 -2l-55 -76q-5 -7 -12 -7h-30q-6 0 -7.5 3.5z" />
    <glyph glyph-name="edieresis" unicode="&#xeb;" horiz-adv-x="388" 
d="M341 233h-223q-3 0 -5 -4l-10 -85q-1 -6 -1 -18q0 -39 21.5 -63t58.5 -24q34 0 61 21t39 55q5 9 12 9l30 -2q4 0 6.5 -2t1.5 -6q0 -3 -1 -4q-16 -55 -57 -86.5t-97 -31.5q-59 0 -93.5 34t-34.5 91q0 8 2 24l27 221q8 66 53 108t109 42q59 0 93.5 -34.5t34.5 -91.5
q0 -8 -2 -24l-14 -119q-2 -10 -11 -10zM164.5 435.5q-29.5 -29.5 -35.5 -76.5l-9 -76q0 -2 1 -3t2 -1h178q4 0 4 4l10 76q1 6 1 17q0 41 -22 65t-59 24q-41 0 -70.5 -29.5zM286 616.5q-12 11.5 -12 30.5q0 25 16 41.5t40 16.5q19 0 30.5 -12t11.5 -32q0 -24 -16 -40t-39 -16
q-19 0 -31 11.5zM149 616.5q-12 11.5 -12 30.5q0 25 16 41.5t40 16.5q19 0 30.5 -12t11.5 -32q0 -24 -16 -40t-39 -16q-19 0 -31 11.5z" />
    <glyph glyph-name="igrave" unicode="&#xec;" horiz-adv-x="158" 
d="M36.5 3q-2.5 3 -1.5 7l60 484q0 4 3 7t8 3h32q4 0 6.5 -3t1.5 -7l-59 -484q-1 -4 -4 -7t-7 -3h-32q-5 0 -7.5 3zM148 579q0 -8 -10 -8h-20q-6 0 -11 7l-52 110q-1 2 -1 5q0 7 9 7h26q7 0 11 -7l47 -110z" />
    <glyph glyph-name="iacute" unicode="&#xed;" horiz-adv-x="158" 
d="M36.5 3q-2.5 3 -1.5 7l60 484q0 4 3 7t8 3h32q4 0 6.5 -3t1.5 -7l-59 -484q-1 -4 -4 -7t-7 -3h-32q-5 0 -7.5 3zM94.5 574.5q-1.5 3.5 2.5 8.5l74 110q5 7 12 7h26q6 0 7.5 -3.5t-1.5 -8.5l-81 -110q-5 -7 -12 -7h-20q-6 0 -7.5 3.5z" />
    <glyph glyph-name="icircumflex" unicode="&#xee;" horiz-adv-x="158" 
d="M36.5 3q-2.5 3 -1.5 7l60 484q0 4 3 7t8 3h32q4 0 6.5 -3t1.5 -7l-59 -484q-1 -4 -4 -7t-7 -3h-32q-5 0 -7.5 3zM33.5 582.5q-1.5 3.5 2.5 8.5l76 102q5 7 12 7h41q6 0 11 -7l52 -102q1 -2 1 -6q0 -6 -8 -6h-30q-6 0 -11 7l-36 76q-1 2 -3 2t-3 -2l-55 -76q-5 -7 -12 -7
h-30q-6 0 -7.5 3.5z" />
    <glyph glyph-name="idieresis" unicode="&#xef;" horiz-adv-x="158" 
d="M36.5 3q-2.5 3 -1.5 7l60 484q0 4 3 7t8 3h32q4 0 6.5 -3t1.5 -7l-59 -484q-1 -4 -4 -7t-7 -3h-32q-5 0 -7.5 3zM171 616.5q-12 11.5 -12 30.5q0 25 16 41.5t40 16.5q19 0 30.5 -12t11.5 -32q0 -24 -16 -40t-39 -16q-19 0 -31 11.5zM34 616.5q-12 11.5 -12 30.5
q0 25 16 41.5t40 16.5q19 0 30.5 -12t11.5 -32q0 -24 -16 -40t-39 -16q-19 0 -31 11.5z" />
    <glyph glyph-name="eth" unicode="&#xf0;" horiz-adv-x="415" 
d="M336 598q34 -75 34 -179q0 -29 -3 -64q-4 -37 -14 -107l-13 -106q-8 -67 -52.5 -108.5t-110.5 -41.5q-59 0 -93.5 34.5t-34.5 91.5q0 8 2 24l27 213q7 65 51 107t105 42q55 0 84 -39q1 -1 2.5 -1t1.5 1q0 58 -28 121q-2 3 -5 2l-73 -23l-4 -1q-6 0 -8 8l-1 11v2q0 7 8 10
l62 20q5 2 3 5q-19 34 -48 68q-2 2 -2 6q0 2 2 4t6 2h29q7 0 11 -5q27 -32 44 -63q2 -4 5 -2l82 25l4 1q6 0 8 -8l2 -11q0 -9 -9 -12l-72 -22q-3 -2 -2 -5zM316 368q0 40 -22.5 64.5t-59.5 24.5q-41 0 -70.5 -29.5t-34.5 -75.5l-26 -208q-1 -6 -1 -18q0 -39 21.5 -63
t58.5 -24q42 0 72 29.5t35 75.5l26 208q1 6 1 16z" />
    <glyph glyph-name="ntilde" unicode="&#xf1;" horiz-adv-x="406" 
d="M215 652q-9 -5 -20 -21q-8 -10 -14 -3l-7 7q-6 8 -2 14q29 48 67 48q12 0 21 -5.5t23 -17.5q2 -2 9 -8.5t13.5 -10t13.5 -3.5q11 0 20 6t19 23q8 10 14 4l8 -6q6 -5 2 -14q-14 -27 -33.5 -39t-35.5 -12q-20 0 -42 22q-12 12 -18.5 16.5t-16.5 4.5q-12 0 -21 -5z
M345.5 479q27.5 -32 27.5 -90q0 -10 -2 -34l-42 -345q-2 -10 -11 -10h-32q-10 0 -8 10l41 340q2 18 2 26q0 42 -19.5 65t-56.5 23q-42 0 -70.5 -32t-35.5 -88l-41 -334q-2 -10 -11 -10h-32q-10 0 -8 10l59 484q2 10 11 10h32q9 0 9 -10l-5 -38q-1 -3 1 -3t4 2q40 56 109 56
q51 0 78.5 -32z" />
    <glyph glyph-name="ograve" unicode="&#xf2;" horiz-adv-x="395" 
d="M83.5 26.5q-34.5 34.5 -34.5 91.5q0 8 2 24l27 220q8 66 53 108t109 42q60 0 94.5 -34.5t34.5 -91.5q0 -8 -2 -24l-27 -220q-8 -67 -52.5 -108.5t-110.5 -41.5q-59 0 -93.5 34.5zM254 68.5q30 29.5 35 75.5l27 215q1 6 1 16q0 41 -22.5 65.5t-59.5 24.5
q-41 0 -70.5 -29.5t-35.5 -76.5l-26 -215q-1 -6 -1 -18q0 -39 21.5 -63t58.5 -24q42 0 72 29.5zM266 579q0 -8 -10 -8h-20q-6 0 -11 7l-52 110q-1 2 -1 5q0 7 9 7h26q7 0 11 -7l47 -110z" />
    <glyph glyph-name="oacute" unicode="&#xf3;" horiz-adv-x="395" 
d="M83.5 26.5q-34.5 34.5 -34.5 91.5q0 8 2 24l27 220q8 66 53 108t109 42q60 0 94.5 -34.5t34.5 -91.5q0 -8 -2 -24l-27 -220q-8 -67 -52.5 -108.5t-110.5 -41.5q-59 0 -93.5 34.5zM254 68.5q30 29.5 35 75.5l27 215q1 6 1 16q0 41 -22.5 65.5t-59.5 24.5
q-41 0 -70.5 -29.5t-35.5 -76.5l-26 -215q-1 -6 -1 -18q0 -39 21.5 -63t58.5 -24q42 0 72 29.5zM212.5 574.5q-1.5 3.5 2.5 8.5l74 110q5 7 12 7h26q6 0 7.5 -3.5t-1.5 -8.5l-81 -110q-5 -7 -12 -7h-20q-6 0 -7.5 3.5z" />
    <glyph glyph-name="ocircumflex" unicode="&#xf4;" horiz-adv-x="395" 
d="M83.5 26.5q-34.5 34.5 -34.5 91.5q0 8 2 24l27 220q8 66 53 108t109 42q60 0 94.5 -34.5t34.5 -91.5q0 -8 -2 -24l-27 -220q-8 -67 -52.5 -108.5t-110.5 -41.5q-59 0 -93.5 34.5zM254 68.5q30 29.5 35 75.5l27 215q1 6 1 16q0 41 -22.5 65.5t-59.5 24.5
q-41 0 -70.5 -29.5t-35.5 -76.5l-26 -215q-1 -6 -1 -18q0 -39 21.5 -63t58.5 -24q42 0 72 29.5zM151.5 582.5q-1.5 3.5 2.5 8.5l76 102q5 7 12 7h41q6 0 11 -7l52 -102q1 -2 1 -6q0 -6 -8 -6h-30q-6 0 -11 7l-36 76q-1 2 -3 2t-3 -2l-55 -76q-5 -7 -12 -7h-30q-6 0 -7.5 3.5
z" />
    <glyph glyph-name="otilde" unicode="&#xf5;" horiz-adv-x="395" 
d="M83.5 26.5q-34.5 34.5 -34.5 91.5q0 8 2 24l27 220q8 66 53 108t109 42q60 0 94.5 -34.5t34.5 -91.5q0 -8 -2 -24l-27 -220q-8 -67 -52.5 -108.5t-110.5 -41.5q-59 0 -93.5 34.5zM254 68.5q30 29.5 35 75.5l27 215q1 6 1 16q0 41 -22.5 65.5t-59.5 24.5
q-41 0 -70.5 -29.5t-35.5 -76.5l-26 -215q-1 -6 -1 -18q0 -39 21.5 -63t58.5 -24q42 0 72 29.5zM287.5 619.5q-10.5 5.5 -24.5 16.5q-2 2 -10.5 8.5t-15.5 9.5t-15 3q-14 0 -25 -5.5t-23 -21.5q-8 -9 -14 -3l-11 9q-7 5 -1 13q32 48 76 48q15 0 26 -6t25 -17q5 -3 13 -9.5
t15 -9.5t15 -3q13 0 24 6.5t23 23.5q5 10 14 4l10 -7q4 -2 4 -7t-6 -13q-16 -23 -36.5 -34t-38.5 -11q-14 0 -24.5 5.5z" />
    <glyph glyph-name="odieresis" unicode="&#xf6;" horiz-adv-x="395" 
d="M83.5 26.5q-34.5 34.5 -34.5 91.5q0 8 2 24l27 220q8 66 53 108t109 42q60 0 94.5 -34.5t34.5 -91.5q0 -8 -2 -24l-27 -220q-8 -67 -52.5 -108.5t-110.5 -41.5q-59 0 -93.5 34.5zM254 68.5q30 29.5 35 75.5l27 215q1 6 1 16q0 41 -22.5 65.5t-59.5 24.5
q-41 0 -70.5 -29.5t-35.5 -76.5l-26 -215q-1 -6 -1 -18q0 -39 21.5 -63t58.5 -24q42 0 72 29.5zM289 616.5q-12 11.5 -12 30.5q0 25 16 41.5t40 16.5q19 0 30.5 -12t11.5 -32q0 -24 -16 -40t-39 -16q-19 0 -31 11.5zM152 616.5q-12 11.5 -12 30.5q0 25 16 41.5t40 16.5
q19 0 30.5 -12t11.5 -32q0 -24 -16 -40t-39 -16q-19 0 -31 11.5z" />
    <glyph glyph-name="divide" unicode="&#xf7;" horiz-adv-x="429" 
d="M218 442q-12 12 -12 30q0 21 16 37t37 16q18 0 30 -12t12 -30q0 -21 -16 -37t-37 -16q-18 0 -30 12zM53 318l2 22q2 10 11 10h344q4 0 6.5 -3t1.5 -7l-3 -22q0 -4 -3 -7t-8 -3h-343q-10 0 -8 10zM181.5 146q-11.5 12 -11.5 30q0 22 16.5 38t36.5 16q17 0 29.5 -12.5
t12.5 -30.5q0 -21 -16.5 -37t-37.5 -16q-18 0 -29.5 12z" />
    <glyph glyph-name="oslash" unicode="&#xf8;" horiz-adv-x="405" 
d="M350 459q20 -31 20 -73q0 -8 -2 -24l-27 -220q-8 -67 -53 -108.5t-111 -41.5q-38 0 -67 15q-3 2 -6 -2l-25 -47q-2 -5 -5.5 -6.5t-7.5 1.5l-20 12q-7 5 -2 14l30 56q2 3 0 5q-23 32 -23 79q0 15 1 23l27 220q8 66 53 108t109 42q43 0 73 -18q5 -2 6 2l28 53q1 4 5 5.5
t8 -0.5l21 -12q7 -5 2 -14l-34 -64q-2 -3 0 -5zM103 128q0 -10 2 -24q1 -3 3 -2.5t3 2.5l179 337q1 3 -1 5q-22 19 -53 19q-41 0 -70.5 -29.5t-35.5 -76.5l-26 -215q-1 -5 -1 -16zM318 376q0 11 -1 15q-1 3 -2.5 3t-2.5 -2l-179 -333q-1 -3 2 -5q20 -15 48 -15q42 0 72 29.5
t35 75.5l27 215q1 6 1 17z" />
    <glyph glyph-name="ugrave" unicode="&#xf9;" horiz-adv-x="406" 
d="M341 504h32q9 0 9 -10l-60 -484q0 -4 -3 -7t-8 -3h-32q-4 0 -6.5 3t-1.5 7l4 36q1 3 -0.5 3.5t-3.5 -1.5q-38 -55 -106 -55q-52 0 -81 29t-29 86q0 9 2 31l43 355q1 4 4 7t7 3h32q5 0 7.5 -3t1.5 -7l-42 -343q-2 -18 -2 -26q0 -42 19.5 -63.5t55.5 -21.5q43 0 71 32
t35 88l41 334q2 10 11 10zM268 579q0 -8 -10 -8h-20q-6 0 -11 7l-52 110q-1 2 -1 5q0 7 9 7h26q7 0 11 -7l47 -110z" />
    <glyph glyph-name="uacute" unicode="&#xfa;" horiz-adv-x="406" 
d="M341 504h32q9 0 9 -10l-60 -484q0 -4 -3 -7t-8 -3h-32q-4 0 -6.5 3t-1.5 7l4 36q1 3 -0.5 3.5t-3.5 -1.5q-38 -55 -106 -55q-52 0 -81 29t-29 86q0 9 2 31l43 355q1 4 4 7t7 3h32q5 0 7.5 -3t1.5 -7l-42 -343q-2 -18 -2 -26q0 -42 19.5 -63.5t55.5 -21.5q43 0 71 32
t35 88l41 334q2 10 11 10zM214.5 574.5q-1.5 3.5 2.5 8.5l74 110q5 7 12 7h26q6 0 7.5 -3.5t-1.5 -8.5l-81 -110q-5 -7 -12 -7h-20q-6 0 -7.5 3.5z" />
    <glyph glyph-name="ucircumflex" unicode="&#xfb;" horiz-adv-x="406" 
d="M341 504h32q9 0 9 -10l-60 -484q0 -4 -3 -7t-8 -3h-32q-4 0 -6.5 3t-1.5 7l4 36q1 3 -0.5 3.5t-3.5 -1.5q-38 -55 -106 -55q-52 0 -81 29t-29 86q0 9 2 31l43 355q1 4 4 7t7 3h32q5 0 7.5 -3t1.5 -7l-42 -343q-2 -18 -2 -26q0 -42 19.5 -63.5t55.5 -21.5q43 0 71 32
t35 88l41 334q2 10 11 10zM153.5 582.5q-1.5 3.5 2.5 8.5l76 102q5 7 12 7h41q6 0 11 -7l52 -102q1 -2 1 -6q0 -6 -8 -6h-30q-6 0 -11 7l-36 76q-1 2 -3 2t-3 -2l-55 -76q-5 -7 -12 -7h-30q-6 0 -7.5 3.5z" />
    <glyph glyph-name="udieresis" unicode="&#xfc;" horiz-adv-x="406" 
d="M341 504h32q9 0 9 -10l-60 -484q0 -4 -3 -7t-8 -3h-32q-4 0 -6.5 3t-1.5 7l4 36q1 3 -0.5 3.5t-3.5 -1.5q-38 -55 -106 -55q-52 0 -81 29t-29 86q0 9 2 31l43 355q1 4 4 7t7 3h32q5 0 7.5 -3t1.5 -7l-42 -343q-2 -18 -2 -26q0 -42 19.5 -63.5t55.5 -21.5q43 0 71 32
t35 88l41 334q2 10 11 10zM291 616.5q-12 11.5 -12 30.5q0 25 16 41.5t40 16.5q19 0 30.5 -12t11.5 -32q0 -24 -16 -40t-39 -16q-19 0 -31 11.5zM154 616.5q-12 11.5 -12 30.5q0 25 16 41.5t40 16.5q19 0 30.5 -12t11.5 -32q0 -24 -16 -40t-39 -16q-19 0 -31 11.5z" />
    <glyph glyph-name="yacute" unicode="&#xfd;" horiz-adv-x="343" 
d="M-4 -197q-2 3 -1 7l3 26q2 10 11 10h1q29 1 46.5 13t32.5 42.5t36 95.5q1 2 0.5 3.5t-0.5 2.5l-63 490v3q0 8 10 8h34q4 0 6.5 -2.5t2.5 -6.5l45 -417q0 -3 1.5 -3t2.5 3l146 417q3 9 12 9l35 -1q5 0 6.5 -3.5t-0.5 -7.5l-203 -543q-25 -65 -44.5 -96t-44 -42t-66.5 -11
h-5q-2 0 -4 3zM186.5 574.5q-1.5 3.5 2.5 8.5l74 110q5 7 12 7h26q6 0 7.5 -3.5t-1.5 -8.5l-81 -110q-5 -7 -12 -7h-20q-6 0 -7.5 3.5z" />
    <glyph glyph-name="thorn" unicode="&#xfe;" horiz-adv-x="399" 
d="M342 478.5q30 -33.5 30 -89.5q0 -9 -2 -27l-27 -220q-8 -68 -48 -109t-100 -41q-32 0 -56 15t-37 43q-1 3 -2.5 2.5t-2.5 -3.5l-29 -239q-2 -10 -11 -10h-32q-9 0 -9 10l108 880q1 4 4 7t7 3h32q5 0 7.5 -3t1.5 -7l-29 -235q0 -3 1.5 -3.5t3.5 2.5q19 28 47 43t60 15
q53 0 83 -33.5zM320 376q0 40 -22 64.5t-60 24.5q-40 0 -68.5 -29.5t-34.5 -76.5l-26 -215q-1 -6 -1 -18q0 -39 21 -63t57 -24q41 0 71 29.5t35 75.5l27 215q1 6 1 17z" />
    <glyph glyph-name="ydieresis" unicode="&#xff;" horiz-adv-x="343" 
d="M-4 -197q-2 3 -1 7l3 26q2 10 11 10h1q29 1 46.5 13t32.5 42.5t36 95.5q1 2 0.5 3.5t-0.5 2.5l-63 490v3q0 8 10 8h34q4 0 6.5 -2.5t2.5 -6.5l45 -417q0 -3 1.5 -3t2.5 3l146 417q3 9 12 9l35 -1q5 0 6.5 -3.5t-0.5 -7.5l-203 -543q-25 -65 -44.5 -96t-44 -42t-66.5 -11
h-5q-2 0 -4 3zM264 616.5q-12 11.5 -12 30.5q0 25 16 41.5t40 16.5q19 0 30.5 -12t11.5 -32q0 -24 -16 -40t-39 -16q-19 0 -31 11.5zM127 616.5q-12 11.5 -12 30.5q0 25 16 41.5t40 16.5q19 0 30.5 -12t11.5 -32q0 -24 -16 -40t-39 -16q-19 0 -31 11.5z" />
    <glyph glyph-name="Amacron" unicode="&#x100;" horiz-adv-x="379" 
d="M297 9l-10 131q0 2 -1.5 3t-3.5 1h-190q-2 0 -3.5 -1t-1.5 -3l-42 -131q-3 -9 -12 -9h-32q-5 0 -7 3t0 8l231 680q2 9 11 9h39q9 0 10 -9l65 -680q0 -5 -3 -8t-7 -3h-33q-10 0 -10 9zM107 188h171q2 0 4 4l-35 423q0 3 -1 3t-3 -3l-139 -423q0 -4 3 -4zM171 805l3 20
q2 10 11 10h173q5 0 7.5 -3t1.5 -7l-3 -20q0 -4 -3 -7t-7 -3h-174q-9 0 -9 10z" />
    <glyph glyph-name="amacron" unicode="&#x101;" horiz-adv-x="391" 
d="M340 504h32q9 0 9 -10l-60 -484q0 -4 -3 -7t-8 -3h-32q-4 0 -6.5 3t-1.5 7l5 39q0 3 -2 3.5t-3 -2.5q-19 -28 -47 -43t-60 -15q-54 0 -84 33t-30 89q0 8 2 28l27 220q8 67 48.5 108.5t100.5 41.5q32 0 56 -15t37 -43q1 -3 2.5 -2.5t2.5 3.5l4 39q2 10 11 10zM252 68
q29 29 34 76l27 215q1 6 1 19q0 39 -21 63t-57 24q-42 0 -71.5 -29.5t-35.5 -76.5l-26 -215q-1 -6 -1 -18q0 -39 22 -63t59 -24q40 0 69 29zM153 609l3 20q2 10 11 10h173q5 0 7.5 -3t1.5 -7l-3 -20q0 -4 -3 -7t-7 -3h-174q-9 0 -9 10z" />
    <glyph glyph-name="Abreve" unicode="&#x102;" horiz-adv-x="379" 
d="M297 9l-10 131q0 2 -1.5 3t-3.5 1h-190q-2 0 -3.5 -1t-1.5 -3l-42 -131q-3 -9 -12 -9h-32q-5 0 -7 3t0 8l231 680q2 9 11 9h39q9 0 10 -9l65 -680q0 -5 -3 -8t-7 -3h-33q-10 0 -10 9zM107 188h171q2 0 4 4l-35 423q0 3 -1 3t-3 -3l-139 -423q0 -4 3 -4zM199.5 782
q-24.5 26 -23.5 66q2 10 11 10h14q10 0 10 -12q0 -25 16 -41.5t40 -16.5t44 17t26 43q3 10 12 10h14q5 0 7 -3t1 -7q-8 -40 -38.5 -66t-69.5 -26t-63.5 26z" />
    <glyph glyph-name="abreve" unicode="&#x103;" horiz-adv-x="391" 
d="M340 504h32q9 0 9 -10l-60 -484q0 -4 -3 -7t-8 -3h-32q-4 0 -6.5 3t-1.5 7l5 39q0 3 -2 3.5t-3 -2.5q-19 -28 -47 -43t-60 -15q-54 0 -84 33t-30 89q0 8 2 28l27 220q8 67 48.5 108.5t100.5 41.5q32 0 56 -15t37 -43q1 -3 2.5 -2.5t2.5 3.5l4 39q2 10 11 10zM252 68
q29 29 34 76l27 215q1 6 1 19q0 39 -21 63t-57 24q-42 0 -71.5 -29.5t-35.5 -76.5l-26 -215q-1 -6 -1 -18q0 -39 22 -63t59 -24q40 0 69 29zM181.5 586q-24.5 26 -23.5 66q2 10 11 10h14q10 0 10 -12q0 -25 16 -41.5t40 -16.5t44 17t26 43q3 10 12 10h14q5 0 7 -3t1 -7
q-8 -40 -38.5 -66t-69.5 -26t-63.5 26z" />
    <glyph glyph-name="Aogonek" unicode="&#x104;" horiz-adv-x="379" 
d="M297 9l-10 131q0 2 -1.5 3t-3.5 1h-190q-2 0 -3.5 -1t-1.5 -3l-42 -131q-3 -9 -12 -9h-32q-5 0 -7 3t0 8l231 680q2 9 11 9h39q9 0 10 -9l65 -680q0 -5 -3 -8t-7 -3h-33q-10 0 -10 9zM107 188h171q2 0 4 4l-35 423q0 3 -1 3t-3 -3l-139 -423q0 -4 3 -4zM344 -172
q0 -7 -8 -9q-12 -3 -26 -3q-28 0 -46.5 15t-18.5 50q0 62 57 112q4 3 4 4q5 3 11 3h16q8 0 8 -5q0 -2 -5 -7q-23 -22 -37 -47t-14 -50q0 -45 47 -40l4 1q8 0 8 -8v-14v-2z" />
    <glyph glyph-name="aogonek" unicode="&#x105;" horiz-adv-x="423" 
d="M319 -148q7 0 7 -8v-14q0 -10 -8 -11q-12 -3 -26 -3q-28 0 -46 15t-18 51q0 62 59 113q5 5 3 5q-10 0 -8 10l4 38q1 3 -0.5 3t-3.5 -2q-20 -28 -48 -42.5t-59 -14.5q-53 0 -83.5 33.5t-30.5 89.5q0 9 2 27l27 220q8 67 48.5 108.5t99.5 41.5q32 0 56 -15t37 -43
q1 -3 3 -2.5t2 3.5l5 39q2 10 11 10h32q10 0 8 -10l-59 -487q-1 -6 -7 -12q-26 -23 -42.5 -50t-16.5 -54q0 -41 37 -41q7 0 11 1zM263.5 68q28.5 29 34.5 76l26 215q1 7 1 19q0 40 -21 63.5t-57 23.5q-41 0 -70.5 -29.5t-35.5 -76.5l-26 -215q-1 -6 -1 -18q0 -39 22 -63
t59 -24q40 0 68.5 29z" />
    <glyph glyph-name="Cacute" unicode="&#x106;" horiz-adv-x="428" 
d="M94.5 30q-37.5 38 -37.5 102q0 9 2 27l47 384q10 75 58.5 120t119.5 45q64 0 102 -37.5t38 -101.5q0 -8 -2 -26l-3 -19q0 -4 -3 -7.5t-8 -3.5l-32 -2q-10 0 -8 10l3 25q1 6 1 18q0 44 -25.5 70.5t-68.5 26.5q-48 0 -80.5 -31.5t-39.5 -83.5l-48 -391q-1 -6 -1 -19
q0 -44 25 -70.5t68 -26.5q48 0 81 32t40 84l2 23q1 4 4 7t7 3l32 -2q9 0 9 -10l-2 -17q-10 -76 -59 -121.5t-120 -45.5q-64 0 -101.5 38zM255.5 770.5q-1.5 3.5 2.5 8.5l74 110q5 7 12 7h26q6 0 7.5 -3.5t-1.5 -8.5l-81 -110q-5 -7 -12 -7h-20q-6 0 -7.5 3.5z" />
    <glyph glyph-name="cacute" unicode="&#x107;" horiz-adv-x="382" 
d="M83.5 26.5q-34.5 34.5 -34.5 91.5q0 8 2 24l27 220q8 66 53 108t109 42q59 0 94 -33.5t35 -83.5q0 -11 -1 -17v-6q-2 -10 -11 -10l-32 -2q-5 0 -7.5 3t-1.5 7l1 6q4 36 -19 62.5t-63 26.5q-41 0 -70.5 -29.5t-35.5 -76.5l-26 -215q-1 -6 -1 -18q0 -39 21.5 -63t58.5 -24
q41 0 70.5 26.5t33.5 62.5l1 5q2 10 11 10h32q10 0 8 -10l-1 -8q-4 -36 -25.5 -66.5t-57 -48.5t-77.5 -18q-59 0 -93.5 34.5zM211.5 574.5q-1.5 3.5 2.5 8.5l74 110q5 7 12 7h26q6 0 7.5 -3.5t-1.5 -8.5l-81 -110q-5 -7 -12 -7h-20q-6 0 -7.5 3.5z" />
    <glyph glyph-name="Ccircumflex" unicode="&#x108;" horiz-adv-x="428" 
d="M94.5 30q-37.5 38 -37.5 102q0 9 2 27l47 384q10 75 58.5 120t119.5 45q64 0 102 -37.5t38 -101.5q0 -8 -2 -26l-3 -19q0 -4 -3 -7.5t-8 -3.5l-32 -2q-10 0 -8 10l3 25q1 6 1 18q0 44 -25.5 70.5t-68.5 26.5q-48 0 -80.5 -31.5t-39.5 -83.5l-48 -391q-1 -6 -1 -19
q0 -44 25 -70.5t68 -26.5q48 0 81 32t40 84l2 23q1 4 4 7t7 3l32 -2q9 0 9 -10l-2 -17q-10 -76 -59 -121.5t-120 -45.5q-64 0 -101.5 38zM194.5 778.5q-1.5 3.5 2.5 8.5l76 102q5 7 12 7h41q6 0 11 -7l52 -102q1 -2 1 -6q0 -6 -8 -6h-30q-6 0 -11 7l-36 76q-1 2 -3 2t-3 -2
l-55 -76q-5 -7 -12 -7h-30q-6 0 -7.5 3.5z" />
    <glyph glyph-name="ccircumflex" unicode="&#x109;" horiz-adv-x="382" 
d="M83.5 26.5q-34.5 34.5 -34.5 91.5q0 8 2 24l27 220q8 66 53 108t109 42q59 0 94 -33.5t35 -83.5q0 -11 -1 -17v-6q-2 -10 -11 -10l-32 -2q-5 0 -7.5 3t-1.5 7l1 6q4 36 -19 62.5t-63 26.5q-41 0 -70.5 -29.5t-35.5 -76.5l-26 -215q-1 -6 -1 -18q0 -39 21.5 -63t58.5 -24
q41 0 70.5 26.5t33.5 62.5l1 5q2 10 11 10h32q10 0 8 -10l-1 -8q-4 -36 -25.5 -66.5t-57 -48.5t-77.5 -18q-59 0 -93.5 34.5zM150.5 582.5q-1.5 3.5 2.5 8.5l76 102q5 7 12 7h41q6 0 11 -7l52 -102q1 -2 1 -6q0 -6 -8 -6h-30q-6 0 -11 7l-36 76q-1 2 -3 2t-3 -2l-55 -76
q-5 -7 -12 -7h-30q-6 0 -7.5 3.5z" />
    <glyph glyph-name="Cdotaccent" unicode="&#x10a;" horiz-adv-x="428" 
d="M94.5 30q-37.5 38 -37.5 102q0 9 2 27l47 384q10 75 58.5 120t119.5 45q64 0 102 -37.5t38 -101.5q0 -8 -2 -26l-3 -19q0 -4 -3 -7.5t-8 -3.5l-32 -2q-10 0 -8 10l3 25q1 6 1 18q0 44 -25.5 70.5t-68.5 26.5q-48 0 -80.5 -31.5t-39.5 -83.5l-48 -391q-1 -6 -1 -19
q0 -44 25 -70.5t68 -26.5q48 0 81 32t40 84l2 23q1 4 4 7t7 3l32 -2q9 0 9 -10l-2 -17q-10 -76 -59 -121.5t-120 -45.5q-64 0 -101.5 38zM264 812.5q-12 11.5 -12 30.5q0 25 16 41.5t40 16.5q19 0 30.5 -12t11.5 -32q0 -24 -16 -40t-39 -16q-19 0 -31 11.5z" />
    <glyph glyph-name="cdotaccent" unicode="&#x10b;" horiz-adv-x="382" 
d="M83.5 26.5q-34.5 34.5 -34.5 91.5q0 8 2 24l27 220q8 66 53 108t109 42q59 0 94 -33.5t35 -83.5q0 -11 -1 -17v-6q-2 -10 -11 -10l-32 -2q-5 0 -7.5 3t-1.5 7l1 6q4 36 -19 62.5t-63 26.5q-41 0 -70.5 -29.5t-35.5 -76.5l-26 -215q-1 -6 -1 -18q0 -39 21.5 -63t58.5 -24
q41 0 70.5 26.5t33.5 62.5l1 5q2 10 11 10h32q10 0 8 -10l-1 -8q-4 -36 -25.5 -66.5t-57 -48.5t-77.5 -18q-59 0 -93.5 34.5zM221 616.5q-12 11.5 -12 30.5q0 25 16 41.5t40 16.5q19 0 30.5 -12t11.5 -32q0 -24 -16 -40t-39 -16q-19 0 -31 11.5z" />
    <glyph glyph-name="Ccaron" unicode="&#x10c;" horiz-adv-x="428" 
d="M94.5 30q-37.5 38 -37.5 102q0 9 2 27l47 384q10 75 58.5 120t119.5 45q64 0 102 -37.5t38 -101.5q0 -8 -2 -26l-3 -19q0 -4 -3 -7.5t-8 -3.5l-32 -2q-10 0 -8 10l3 25q1 6 1 18q0 44 -25.5 70.5t-68.5 26.5q-48 0 -80.5 -31.5t-39.5 -83.5l-48 -391q-1 -6 -1 -19
q0 -44 25 -70.5t68 -26.5q48 0 81 32t40 84l2 23q1 4 4 7t7 3l32 -2q9 0 9 -10l-2 -17q-10 -76 -59 -121.5t-120 -45.5q-64 0 -101.5 38zM210 889q0 7 8 7h30q8 0 11 -7l37 -76q0 -1 2 -1t3 1l55 76q7 7 13 7h30q6 0 7 -3.5t-3 -8.5l-77 -102q-7 -7 -13 -7h-41q-6 0 -10 7
l-51 102q-1 2 -1 5z" />
    <glyph glyph-name="ccaron" unicode="&#x10d;" horiz-adv-x="382" 
d="M83.5 26.5q-34.5 34.5 -34.5 91.5q0 8 2 24l27 220q8 66 53 108t109 42q59 0 94 -33.5t35 -83.5q0 -11 -1 -17v-6q-2 -10 -11 -10l-32 -2q-5 0 -7.5 3t-1.5 7l1 6q4 36 -19 62.5t-63 26.5q-41 0 -70.5 -29.5t-35.5 -76.5l-26 -215q-1 -6 -1 -18q0 -39 21.5 -63t58.5 -24
q41 0 70.5 26.5t33.5 62.5l1 5q2 10 11 10h32q10 0 8 -10l-1 -8q-4 -36 -25.5 -66.5t-57 -48.5t-77.5 -18q-59 0 -93.5 34.5zM166 693q0 7 8 7h30q8 0 11 -7l37 -76q0 -1 2 -1t3 1l55 76q7 7 13 7h30q6 0 7 -3.5t-3 -8.5l-77 -102q-7 -7 -13 -7h-41q-6 0 -10 7l-51 102
q-1 2 -1 5z" />
    <glyph glyph-name="Dcaron" unicode="&#x10e;" horiz-adv-x="449" 
d="M58 10l84 680q2 10 11 10h142q64 0 99.5 -39.5t35.5 -108.5q0 -24 -2 -36l-41 -332q-10 -85 -58 -134.5t-119 -49.5h-143q-9 0 -9 10zM118 47h97q48 1 80.5 38t39.5 100l40 329q2 22 2 32q0 51 -23 79t-65 28h-96q-3 0 -5 -4l-73 -598q0 -4 3 -4zM215 887q0 7 8 7h30
q8 0 11 -7l37 -76q0 -1 2 -1t3 1l55 76q7 7 13 7h30q6 0 7 -3.5t-3 -8.5l-77 -102q-7 -7 -13 -7h-41q-6 0 -10 7l-51 102q-1 2 -1 5z" />
    <glyph glyph-name="dcaron" unicode="&#x10f;" horiz-adv-x="404" 
d="M357 697q3 3 7 3h32q5 0 7.5 -3t1.5 -7l-84 -680q0 -4 -3 -7t-8 -3h-32q-4 0 -6.5 3t-1.5 7l3 28q1 2 -0.5 2.5t-3.5 -1.5q-20 -23 -47 -35t-56 -12q-54 0 -85 34.5t-31 90.5q0 16 1 24l27 221q8 67 50 108.5t102 41.5q29 0 52.5 -12t38.5 -35q1 -2 3 -1.5t2 2.5l27 224
q1 4 4 7zM252 68q29 29 34 76l27 215q1 6 1 19q0 39 -21 63t-57 24q-42 0 -72 -29.5t-36 -76.5l-26 -215q-1 -6 -1 -18q0 -39 22.5 -63t59.5 -24q40 0 69 29zM455.5 574.5q-1.5 3.5 2.5 8.5l74 110q5 7 12 7h26q6 0 7.5 -3.5t-1.5 -8.5l-81 -110q-5 -7 -12 -7h-20
q-6 0 -7.5 3.5z" />
    <glyph glyph-name="Dcroat" unicode="&#x110;" horiz-adv-x="494" 
d="M439.5 660.5q35.5 -39.5 35.5 -109.5q0 -23 -2 -35l-41 -332q-10 -85 -58.5 -134.5t-119.5 -49.5h-142q-5 0 -7.5 3t-1.5 7l41 333q0 4 -3 4h-31q-5 0 -7.5 3t-1.5 7l2 17q2 10 11 10h31q4 0 4 4l38 302q0 4 3 7t7 3h143q64 0 99.5 -39.5zM421 514q2 22 2 31
q0 50 -23.5 79t-65.5 29h-97q-4 0 -4 -4l-32 -261q0 -4 3 -4h83q10 0 8 -10l-2 -17q-2 -10 -11 -10h-82q-3 0 -5 -4l-35 -292q-1 -1 0 -2.5t3 -1.5h97q47 1 79.5 37.5t41.5 100.5z" />
    <glyph glyph-name="dcroat" unicode="&#x111;" horiz-adv-x="404" 
d="M440.5 605q2.5 -3 1.5 -7l-2 -17q-2 -10 -11 -10h-35q-4 0 -4 -4l-69 -557q0 -4 -3 -7t-8 -3h-32q-4 0 -6.5 3t-1.5 7l3 28q1 2 -0.5 2.5t-3.5 -1.5q-20 -23 -47 -35t-56 -12q-54 0 -85 34.5t-31 90.5q0 16 1 24l27 221q8 67 50 108.5t102 41.5q29 0 52.5 -12t38.5 -35
q1 -2 3 -1.5t2 2.5l12 101q1 1 0 2.5t-3 1.5h-141q-10 0 -8 10l2 17q2 10 11 10h140q2 0 3.5 1t1.5 3l9 78q1 4 4 7t7 3h32q5 0 7.5 -3t1.5 -7l-10 -78q0 -4 4 -4h35q4 0 6.5 -3zM252 68q29 29 34 76l27 215q1 6 1 19q0 39 -21 63t-57 24q-42 0 -72 -29.5t-36 -76.5
l-26 -215q-1 -6 -1 -18q0 -39 22.5 -63t59.5 -24q40 0 69 29z" />
    <glyph glyph-name="Emacron" unicode="&#x112;" horiz-adv-x="414" 
d="M430 656q-3 -3 -7 -3h-230q-3 0 -5 -4l-33 -271q0 -2 1 -3t2 -1h148q10 0 8 -10l-3 -27q-2 -10 -11 -10h-147q-3 0 -5 -4l-33 -272q0 -4 3 -4h230q9 0 9 -10l-4 -27q0 -4 -3 -7t-8 -3h-275q-9 0 -9 10l84 680q2 10 11 10h275q5 0 7.5 -3t1.5 -7l-3 -27q-1 -4 -4 -7z
M206 805l3 20q2 10 11 10h173q5 0 7.5 -3t1.5 -7l-3 -20q0 -4 -3 -7t-7 -3h-174q-9 0 -9 10z" />
    <glyph glyph-name="emacron" unicode="&#x113;" horiz-adv-x="388" 
d="M341 233h-223q-3 0 -5 -4l-10 -85q-1 -6 -1 -18q0 -39 21.5 -63t58.5 -24q34 0 61 21t39 55q5 9 12 9l30 -2q4 0 6.5 -2t1.5 -6q0 -3 -1 -4q-16 -55 -57 -86.5t-97 -31.5q-59 0 -93.5 34t-34.5 91q0 8 2 24l27 221q8 66 53 108t109 42q59 0 93.5 -34.5t34.5 -91.5
q0 -8 -2 -24l-14 -119q-2 -10 -11 -10zM164.5 435.5q-29.5 -29.5 -35.5 -76.5l-9 -76q0 -2 1 -3t2 -1h178q4 0 4 4l10 76q1 6 1 17q0 41 -22 65t-59 24q-41 0 -70.5 -29.5zM157.5 631q-2.5 3 -1.5 7l2 20q1 4 4 7t7 3h173q10 0 8 -10l-2 -20q-2 -10 -11 -10h-173
q-4 0 -6.5 3z" />
    <glyph glyph-name="Edotaccent" unicode="&#x116;" horiz-adv-x="414" 
d="M430 656q-3 -3 -7 -3h-230q-3 0 -5 -4l-33 -271q0 -2 1 -3t2 -1h148q10 0 8 -10l-3 -27q-2 -10 -11 -10h-147q-3 0 -5 -4l-33 -272q0 -4 3 -4h230q9 0 9 -10l-4 -27q0 -4 -3 -7t-8 -3h-275q-9 0 -9 10l84 680q2 10 11 10h275q5 0 7.5 -3t1.5 -7l-3 -27q-1 -4 -4 -7z
M272 812.5q-12 11.5 -12 30.5q0 25 16 41.5t40 16.5q19 0 30.5 -12t11.5 -32q0 -24 -16 -40t-39 -16q-19 0 -31 11.5z" />
    <glyph glyph-name="edotaccent" unicode="&#x117;" horiz-adv-x="388" 
d="M341 233h-223q-3 0 -5 -4l-10 -85q-1 -6 -1 -18q0 -39 21.5 -63t58.5 -24q34 0 61 21t39 55q5 9 12 9l30 -2q4 0 6.5 -2t1.5 -6q0 -3 -1 -4q-16 -55 -57 -86.5t-97 -31.5q-59 0 -93.5 34t-34.5 91q0 8 2 24l27 221q8 66 53 108t109 42q59 0 93.5 -34.5t34.5 -91.5
q0 -8 -2 -24l-14 -119q-2 -10 -11 -10zM164.5 435.5q-29.5 -29.5 -35.5 -76.5l-9 -76q0 -2 1 -3t2 -1h178q4 0 4 4l10 76q1 6 1 17q0 41 -22 65t-59 24q-41 0 -70.5 -29.5zM218 616.5q-12 11.5 -12 30.5q0 25 16 41.5t40 16.5q19 0 30.5 -12t11.5 -32q0 -24 -16 -40t-39 -16
q-19 0 -31 11.5z" />
    <glyph glyph-name="Eogonek" unicode="&#x118;" horiz-adv-x="414" 
d="M430 656q-3 -3 -7 -3h-230q-3 0 -5 -4l-33 -271q0 -2 1 -3t2 -1h148q10 0 8 -10l-3 -27q-2 -10 -11 -10h-147q-3 0 -5 -4l-33 -272q0 -4 3 -4h230q9 0 9 -10l-4 -27q0 -4 -3 -7t-8 -3h-117q-3 0 -5 -2q-26 -23 -41.5 -50t-14.5 -53q0 -39 36 -39q8 0 12 1l4 1q7 0 7 -8
v-14q0 -10 -8 -11q-14 -3 -28 -3q-27 0 -45 15t-18 51q0 59 52 107q3 5 -1 5h-108q-9 0 -9 10l84 680q2 10 11 10h275q5 0 7.5 -3t1.5 -7l-3 -27q-1 -4 -4 -7z" />
    <glyph glyph-name="eogonek" unicode="&#x119;" horiz-adv-x="388" 
d="M341 233h-223q-3 0 -5 -4l-10 -85q-1 -6 -1 -18q0 -39 21.5 -63t58.5 -24q34 0 61 21t39 55q5 9 12 9l30 -2q4 0 6.5 -2t1.5 -6q0 -3 -1 -4q-15 -51 -52.5 -82.5t-89.5 -35.5q-3 0 -5 -2q-48 -48 -48 -95q1 -39 38 -39q7 0 11 1l4 1q7 0 7 -8v-14q0 -10 -8 -11
q-14 -3 -28 -3q-27 0 -44.5 14.5t-17.5 49.5q0 59 45 104q4 4 -1 5q-43 10 -67.5 42.5t-24.5 80.5q0 15 1 23l27 221q8 66 53 108t109 42q59 0 93.5 -34.5t34.5 -91.5q0 -8 -2 -24l-14 -119q-2 -10 -11 -10zM164.5 435.5q-29.5 -29.5 -35.5 -76.5l-9 -76q0 -2 1 -3t2 -1h178
q4 0 4 4l10 76q1 6 1 17q0 41 -22 65t-59 24q-41 0 -70.5 -29.5z" />
    <glyph glyph-name="Ecaron" unicode="&#x11a;" horiz-adv-x="414" 
d="M430 656q-3 -3 -7 -3h-230q-3 0 -5 -4l-33 -271q0 -2 1 -3t2 -1h148q10 0 8 -10l-3 -27q-2 -10 -11 -10h-147q-3 0 -5 -4l-33 -272q0 -4 3 -4h230q9 0 9 -10l-4 -27q0 -4 -3 -7t-8 -3h-275q-9 0 -9 10l84 680q2 10 11 10h275q5 0 7.5 -3t1.5 -7l-3 -27q-1 -4 -4 -7z
M218 889q0 7 8 7h30q8 0 11 -7l37 -76q0 -1 2 -1t3 1l55 76q7 7 13 7h30q6 0 7 -3.5t-3 -8.5l-77 -102q-7 -7 -13 -7h-41q-6 0 -10 7l-51 102q-1 2 -1 5z" />
    <glyph glyph-name="ecaron" unicode="&#x11b;" horiz-adv-x="388" 
d="M341 233h-223q-3 0 -5 -4l-10 -85q-1 -6 -1 -18q0 -39 21.5 -63t58.5 -24q34 0 61 21t39 55q5 9 12 9l30 -2q4 0 6.5 -2t1.5 -6q0 -3 -1 -4q-16 -55 -57 -86.5t-97 -31.5q-59 0 -93.5 34t-34.5 91q0 8 2 24l27 221q8 66 53 108t109 42q59 0 93.5 -34.5t34.5 -91.5
q0 -8 -2 -24l-14 -119q-2 -10 -11 -10zM164.5 435.5q-29.5 -29.5 -35.5 -76.5l-9 -76q0 -2 1 -3t2 -1h178q4 0 4 4l10 76q1 6 1 17q0 41 -22 65t-59 24q-41 0 -70.5 -29.5zM163 691q0 7 8 7h30q8 0 11 -7l37 -76q0 -1 2 -1t3 1l55 76q7 7 13 7h30q6 0 7 -3.5t-3 -8.5
l-77 -102q-7 -7 -13 -7h-41q-6 0 -10 7l-51 102q-1 2 -1 5z" />
    <glyph glyph-name="Gcircumflex" unicode="&#x11c;" horiz-adv-x="433" 
d="M94.5 29q-37.5 37 -37.5 99q0 8 2 26l48 392q9 73 57.5 117.5t119.5 44.5q64 0 102 -37t38 -99q0 -8 -2 -26l-5 -44q-2 -10 -11 -10h-32q-9 0 -9 10l6 45q1 6 1 18q0 44 -25.5 70t-68.5 26q-48 0 -81 -31t-40 -83l-48 -394q-1 -6 -1 -18q0 -44 25.5 -70t68.5 -26
q48 0 81 31t39 83l18 141q0 4 -4 4h-91q-10 0 -8 10l3 27q2 10 11 10h137q10 0 8 -10l-22 -181q-9 -73 -58 -117.5t-120 -44.5q-64 0 -101.5 37zM194.5 778.5q-1.5 3.5 2.5 8.5l76 102q5 7 12 7h41q6 0 11 -7l52 -102q1 -2 1 -6q0 -6 -8 -6h-30q-6 0 -11 7l-36 76q-1 2 -3 2
t-3 -2l-55 -76q-5 -7 -12 -7h-30q-6 0 -7.5 3.5z" />
    <glyph glyph-name="gcircumflex" unicode="&#x11d;" horiz-adv-x="394" 
d="M340 504h33q9 0 9 -10l-60 -488q-13 -103 -65 -157t-153 -50q-10 0 -8 10l3 27q1 10 14 10q74 0 110.5 41t46.5 123l5 38q0 3 -2 3.5t-3 -2.5q-20 -27 -47.5 -40.5t-58.5 -13.5q-53 0 -83.5 33.5t-30.5 89.5q0 9 2 27l26 217q8 67 49 108.5t101 41.5q31 0 55.5 -14
t36.5 -40q2 -2 3.5 -2t1.5 3l4 35q2 10 11 10zM252.5 71q28.5 29 34.5 76l26 212q1 6 1 19q0 39 -21 63t-57 24q-41 0 -71 -29.5t-36 -76.5l-26 -212q-1 -6 -1 -16q0 -40 22.5 -64.5t59.5 -24.5q40 0 68.5 29zM151.5 582.5q-1.5 3.5 2.5 8.5l76 102q5 7 12 7h41q6 0 11 -7
l52 -102q1 -2 1 -6q0 -6 -8 -6h-30q-6 0 -11 7l-36 76q-1 2 -3 2t-3 -2l-55 -76q-5 -7 -12 -7h-30q-6 0 -7.5 3.5z" />
    <glyph glyph-name="Gbreve" unicode="&#x11e;" horiz-adv-x="433" 
d="M94.5 29q-37.5 37 -37.5 99q0 8 2 26l48 392q9 73 57.5 117.5t119.5 44.5q64 0 102 -37t38 -99q0 -8 -2 -26l-5 -44q-2 -10 -11 -10h-32q-9 0 -9 10l6 45q1 6 1 18q0 44 -25.5 70t-68.5 26q-48 0 -81 -31t-40 -83l-48 -394q-1 -6 -1 -18q0 -44 25.5 -70t68.5 -26
q48 0 81 31t39 83l18 141q0 4 -4 4h-91q-10 0 -8 10l3 27q2 10 11 10h137q10 0 8 -10l-22 -181q-9 -73 -58 -117.5t-120 -44.5q-64 0 -101.5 37zM226.5 782q-24.5 26 -23.5 66q2 10 11 10h14q10 0 10 -12q0 -25 16 -41.5t40 -16.5t44 17t26 43q3 10 12 10h14q5 0 7 -3t1 -7
q-8 -40 -38.5 -66t-69.5 -26t-63.5 26z" />
    <glyph glyph-name="gbreve" unicode="&#x11f;" horiz-adv-x="394" 
d="M340 504h33q9 0 9 -10l-60 -488q-13 -103 -65 -157t-153 -50q-10 0 -8 10l3 27q1 10 14 10q74 0 110.5 41t46.5 123l5 38q0 3 -2 3.5t-3 -2.5q-20 -27 -47.5 -40.5t-58.5 -13.5q-53 0 -83.5 33.5t-30.5 89.5q0 9 2 27l26 217q8 67 49 108.5t101 41.5q31 0 55.5 -14
t36.5 -40q2 -2 3.5 -2t1.5 3l4 35q2 10 11 10zM252.5 71q28.5 29 34.5 76l26 212q1 6 1 19q0 39 -21 63t-57 24q-41 0 -71 -29.5t-36 -76.5l-26 -212q-1 -6 -1 -16q0 -40 22.5 -64.5t59.5 -24.5q40 0 68.5 29zM183.5 586q-24.5 26 -23.5 66q2 10 11 10h14q10 0 10 -12
q0 -25 16 -41.5t40 -16.5t44 17t26 43q3 10 12 10h14q5 0 7 -3t1 -7q-8 -40 -38.5 -66t-69.5 -26t-63.5 26z" />
    <glyph glyph-name="Gdotaccent" unicode="&#x120;" horiz-adv-x="433" 
d="M94.5 29q-37.5 37 -37.5 99q0 8 2 26l48 392q9 73 57.5 117.5t119.5 44.5q64 0 102 -37t38 -99q0 -8 -2 -26l-5 -44q-2 -10 -11 -10h-32q-9 0 -9 10l6 45q1 6 1 18q0 44 -25.5 70t-68.5 26q-48 0 -81 -31t-40 -83l-48 -394q-1 -6 -1 -18q0 -44 25.5 -70t68.5 -26
q48 0 81 31t39 83l18 141q0 4 -4 4h-91q-10 0 -8 10l3 27q2 10 11 10h137q10 0 8 -10l-22 -181q-9 -73 -58 -117.5t-120 -44.5q-64 0 -101.5 37zM264 812.5q-12 11.5 -12 30.5q0 25 16 41.5t40 16.5q19 0 30.5 -12t11.5 -32q0 -24 -16 -40t-39 -16q-19 0 -31 11.5z" />
    <glyph glyph-name="gdotaccent" unicode="&#x121;" horiz-adv-x="394" 
d="M340 504h33q9 0 9 -10l-60 -488q-13 -103 -65 -157t-153 -50q-10 0 -8 10l3 27q1 10 14 10q74 0 110.5 41t46.5 123l5 38q0 3 -2 3.5t-3 -2.5q-20 -27 -47.5 -40.5t-58.5 -13.5q-53 0 -83.5 33.5t-30.5 89.5q0 9 2 27l26 217q8 67 49 108.5t101 41.5q31 0 55.5 -14
t36.5 -40q2 -2 3.5 -2t1.5 3l4 35q2 10 11 10zM252.5 71q28.5 29 34.5 76l26 212q1 6 1 19q0 39 -21 63t-57 24q-41 0 -71 -29.5t-36 -76.5l-26 -212q-1 -6 -1 -16q0 -40 22.5 -64.5t59.5 -24.5q40 0 68.5 29zM221 616.5q-12 11.5 -12 30.5q0 25 16 41.5t40 16.5
q19 0 30.5 -12t11.5 -32q0 -24 -16 -40t-39 -16q-19 0 -31 11.5z" />
    <glyph glyph-name="uni0122" unicode="&#x122;" horiz-adv-x="433" 
d="M94.5 29q-37.5 37 -37.5 99q0 8 2 26l48 392q9 73 57.5 117.5t119.5 44.5q64 0 102 -37t38 -99q0 -8 -2 -26l-5 -44q-2 -10 -11 -10h-32q-9 0 -9 10l6 45q1 6 1 18q0 44 -25.5 70t-68.5 26q-48 0 -81 -31t-40 -83l-48 -394q-1 -6 -1 -18q0 -44 25.5 -70t68.5 -26
q48 0 81 31t39 83l18 141q0 4 -4 4h-91q-10 0 -8 10l3 27q2 10 11 10h137q10 0 8 -10l-22 -181q-9 -73 -58 -117.5t-120 -44.5q-64 0 -101.5 37zM134.5 -198.5q-1.5 3.5 2.5 8.5l74 110q5 7 12 7h26q6 0 7.5 -3.5t-1.5 -8.5l-81 -110q-5 -7 -12 -7h-20q-6 0 -7.5 3.5z" />
    <glyph glyph-name="uni0123" unicode="&#x123;" horiz-adv-x="394" 
d="M299.5 694.5q1.5 -3.5 -1.5 -8.5l-74 -110q-5 -7 -13 -7h-26q-5 0 -7 3.5t2 8.5l80 110q7 7 13 7h19q6 0 7.5 -3.5zM340 504h33q9 0 9 -10l-60 -488q-13 -103 -65 -157t-153 -50q-10 0 -8 10l3 27q1 10 14 10q74 0 110.5 41t46.5 123l5 38q0 3 -2 3.5t-3 -2.5
q-20 -27 -47.5 -40.5t-58.5 -13.5q-53 0 -83.5 33.5t-30.5 89.5q0 9 2 27l26 217q8 67 49 108.5t101 41.5q31 0 55.5 -14t36.5 -40q2 -2 3.5 -2t1.5 3l4 35q2 10 11 10zM252.5 71q28.5 29 34.5 76l26 212q1 6 1 19q0 39 -21 63t-57 24q-41 0 -71 -29.5t-36 -76.5l-26 -212
q-1 -6 -1 -16q0 -40 22.5 -64.5t59.5 -24.5q40 0 68.5 29z" />
    <glyph glyph-name="Hcircumflex" unicode="&#x124;" horiz-adv-x="456" 
d="M404 700h32q9 0 9 -10l-84 -680q-2 -10 -11 -10h-32q-10 0 -8 10l38 313q0 4 -3 4h-192q-3 0 -5 -4l-38 -313q-2 -10 -11 -10h-32q-9 0 -9 10l84 680q2 10 11 10h32q10 0 8 -10l-38 -312q0 -2 1 -3t2 -1h193q1 0 2.5 1t1.5 3l38 312q2 10 11 10zM203.5 779.5
q-1.5 3.5 2.5 8.5l76 102q5 7 12 7h41q6 0 11 -7l52 -102q1 -2 1 -6q0 -6 -8 -6h-30q-6 0 -11 7l-36 76q-1 2 -3 2t-3 -2l-55 -76q-5 -7 -12 -7h-30q-6 0 -7.5 3.5z" />
    <glyph glyph-name="hcircumflex" unicode="&#x125;" horiz-adv-x="406" 
d="M345.5 479q27.5 -32 27.5 -90q0 -10 -2 -34l-42 -345q-2 -10 -11 -10h-32q-10 0 -8 10l41 340q2 18 2 26q0 42 -19.5 65t-56.5 23q-42 0 -70.5 -32t-35.5 -88l-41 -334q-2 -10 -11 -10h-32q-10 0 -8 10l83 680q2 10 11 10h32q9 0 9 -10l-29 -234q-1 -3 1 -3t4 2
q40 56 109 56q51 0 78.5 -32zM181.5 753.5q-1.5 3.5 2.5 8.5l76 102q5 7 12 7h41q6 0 11 -7l52 -102q1 -2 1 -6q0 -6 -8 -6h-30q-6 0 -11 7l-36 76q-1 2 -3 2t-3 -2l-55 -76q-5 -7 -12 -7h-30q-6 0 -7.5 3.5z" />
    <glyph glyph-name="Hbar" unicode="&#x126;" horiz-adv-x="456" 
d="M472 538l-2 -20q-2 -10 -11 -10h-33q-4 0 -4 -4l-61 -494q-2 -10 -11 -10h-32q-10 0 -8 10l38 313q0 4 -3 4h-192q-3 0 -5 -4l-38 -313q-2 -10 -11 -10h-32q-9 0 -9 10l61 494q0 4 -3 4h-33q-9 0 -9 10l3 20q0 4 3 7t8 3h33q4 0 4 4l17 138q2 10 11 10h32q10 0 8 -10
l-17 -138q0 -4 4 -4h192q4 0 4 4l17 138q2 10 11 10h32q9 0 9 -10l-17 -138q-1 -1 0 -2.5t3 -1.5h33q10 0 8 -10zM353.5 375q1.5 1 1.5 3l15 126q1 1 0 2.5t-3 1.5h-192q-4 0 -4 -4l-16 -126q0 -2 1 -3t2 -1h193q1 0 2.5 1z" />
    <glyph glyph-name="hbar" unicode="&#x127;" horiz-adv-x="406" 
d="M345.5 479q27.5 -32 27.5 -90q0 -10 -2 -34l-42 -345q-2 -10 -11 -10h-32q-10 0 -8 10l41 340q2 18 2 26q0 42 -19.5 65t-56.5 23q-42 0 -70.5 -32t-35.5 -88l-41 -334q-2 -10 -11 -10h-32q-10 0 -8 10l66 541q0 4 -3 4h-41q-10 0 -8 10l2 18q2 10 11 10h41q1 0 2.5 1
t1.5 3l11 93q2 10 11 10h32q9 0 9 -10l-12 -93q0 -4 4 -4h134q4 0 6.5 -3t1.5 -7l-2 -18q-2 -10 -11 -10h-134q-4 0 -4 -4l-12 -95q-1 -3 1 -3t4 2q40 56 109 56q51 0 78.5 -32z" />
    <glyph glyph-name="Itilde" unicode="&#x128;" horiz-adv-x="204" 
d="M58 10l84 680q2 10 11 10h32q10 0 8 -10l-83 -680q-2 -10 -11 -10h-32q-9 0 -9 10zM216.5 815.5q-10.5 5.5 -24.5 16.5q-2 2 -10.5 8.5t-15.5 9.5t-15 3q-14 0 -25 -5.5t-23 -21.5q-8 -9 -14 -3l-11 9q-7 5 -1 13q32 48 76 48q15 0 26 -6t25 -17q5 -3 13 -9.5t15 -9.5
t15 -3q13 0 24 6.5t23 23.5q5 10 14 4l10 -7q4 -2 4 -7t-6 -13q-16 -23 -36.5 -34t-38.5 -11q-14 0 -24.5 5.5z" />
    <glyph glyph-name="itilde" unicode="&#x129;" horiz-adv-x="158" 
d="M36.5 3q-2.5 3 -1.5 7l60 484q0 4 3 7t8 3h32q4 0 6.5 -3t1.5 -7l-59 -484q-1 -4 -4 -7t-7 -3h-32q-5 0 -7.5 3zM169.5 619.5q-10.5 5.5 -24.5 16.5q-2 2 -10.5 8.5t-15.5 9.5t-15 3q-14 0 -25 -5.5t-23 -21.5q-8 -9 -14 -3l-11 9q-7 5 -1 13q32 48 76 48q15 0 26 -6
t25 -17q5 -3 13 -9.5t15 -9.5t15 -3q13 0 24 6.5t23 23.5q5 10 14 4l10 -7q4 -2 4 -7t-6 -13q-16 -23 -36.5 -34t-38.5 -11q-14 0 -24.5 5.5z" />
    <glyph glyph-name="Imacron" unicode="&#x12a;" horiz-adv-x="204" 
d="M58 10l84 680q2 10 11 10h32q10 0 8 -10l-83 -680q-2 -10 -11 -10h-32q-9 0 -9 10zM84 805l3 20q2 10 11 10h173q5 0 7.5 -3t1.5 -7l-3 -20q0 -4 -3 -7t-7 -3h-174q-9 0 -9 10z" />
    <glyph glyph-name="imacron" unicode="&#x12b;" horiz-adv-x="158" 
d="M36.5 3q-2.5 3 -1.5 7l60 484q0 4 3 7t8 3h32q4 0 6.5 -3t1.5 -7l-59 -484q-1 -4 -4 -7t-7 -3h-32q-5 0 -7.5 3zM37 609l3 20q2 10 11 10h173q5 0 7.5 -3t1.5 -7l-3 -20q0 -4 -3 -7t-7 -3h-174q-9 0 -9 10z" />
    <glyph glyph-name="ibreve" unicode="&#x12d;" horiz-adv-x="158" 
d="M36.5 3q-2.5 3 -1.5 7l60 484q0 4 3 7t8 3h32q4 0 6.5 -3t1.5 -7l-59 -484q-1 -4 -4 -7t-7 -3h-32q-5 0 -7.5 3zM67.5 609.5q-24.5 26.5 -22.5 66.5q2 10 11 10h14q9 0 9 -8q0 -28 15.5 -45.5t40.5 -17.5t45 17t26 44q3 10 12 10h14q5 0 7 -3t1 -7q-8 -40 -39 -66.5
t-70 -26.5t-63.5 26.5z" />
    <glyph glyph-name="Iogonek" unicode="&#x12e;" horiz-adv-x="173" 
d="M43 10l84 680q2 10 11 10h32q10 0 8 -10l-83 -680q-2 -10 -11 -10h-32q-9 0 -9 10zM88 -172q0 -7 -8 -9q-12 -3 -26 -3q-28 0 -46.5 15t-18.5 50q0 62 57 112q4 3 4 4q4 3 11 3h15q6 0 7 -4t-3 -8q-23 -22 -37 -47t-14 -50q0 -45 47 -40l4 1q8 0 8 -8v-14v-2z" />
    <glyph glyph-name="iogonek" unicode="&#x12f;" horiz-adv-x="217" 
d="M75.5 3q-2.5 3 -1.5 7l60 484q0 4 3 7t8 3h32q4 0 6.5 -3t1.5 -7l-59 -484q-1 -4 -4 -7t-7 -3h-32q-5 0 -7.5 3zM142 616.5q-12 11.5 -12 30.5q0 25 16 41.5t40 16.5q19 0 30.5 -12t11.5 -32q0 -24 -16 -40t-39 -16q-19 0 -31 11.5zM119 -172q0 -7 -8 -9q-12 -3 -26 -3
q-28 0 -46.5 15t-18.5 50q0 62 57 112q4 3 4 4q4 3 11 3h15q6 0 7 -4t-3 -8q-23 -22 -37 -47t-14 -50q0 -45 47 -40l4 1q8 0 8 -8v-14v-2z" />
    <glyph glyph-name="Idotaccent" unicode="&#x130;" horiz-adv-x="204" 
d="M58 10l84 680q2 10 11 10h32q10 0 8 -10l-83 -680q-2 -10 -11 -10h-32q-9 0 -9 10zM150 812.5q-12 11.5 -12 30.5q0 25 16 41.5t40 16.5q19 0 30.5 -12t11.5 -32q0 -24 -16 -40t-39 -16q-19 0 -31 11.5z" />
    <glyph glyph-name="dotlessi" unicode="&#x131;" horiz-adv-x="158" 
d="M36.5 3q-2.5 3 -1.5 7l60 484q0 4 3 7t8 3h32q4 0 6.5 -3t1.5 -7l-59 -484q-1 -4 -4 -7t-7 -3h-32q-5 0 -7.5 3z" />
    <glyph glyph-name="ij" unicode="&#x133;" horiz-adv-x="391" 
d="M123 617q-12 12 -12 32q0 24 16 40t39 16q19 0 31 -11.5t12 -30.5q0 -25 -16 -41.5t-39 -16.5q-19 0 -31 12zM56 10l59 484q2 10 11 10h32q10 0 8 -10l-59 -484q-2 -10 -11 -10h-32q-10 0 -8 10zM315 616.5q-12 11.5 -12 30.5q0 25 16 41.5t39 16.5q20 0 31.5 -12
t11.5 -32q0 -24 -16 -40t-39 -16q-19 0 -31 11.5zM136.5 -206q-2.5 3 -1.5 7l3 27q2 10 11 10q39 2 62 30t29 77l67 549q2 10 11 10h32q9 0 9 -10l-68 -549q-9 -75 -42.5 -114t-105.5 -40q-4 0 -6.5 3z" />
    <glyph glyph-name="Jcircumflex" unicode="&#x134;" horiz-adv-x="406" 
d="M57.5 29q-36.5 37 -36.5 100q0 9 2 27l11 88q2 10 11 10h32q10 0 8 -10l-11 -89q-1 -7 -1 -19q0 -44 24 -70.5t65 -26.5q46 0 78 32t38 84l66 535q0 4 3 7t8 3h32q4 0 6.5 -3t1.5 -7l-65 -534q-10 -74 -58 -119t-116 -45q-62 0 -98.5 37zM281.5 779.5q-1.5 3.5 2.5 8.5
l76 102q5 7 12 7h41q6 0 11 -7l52 -102q1 -2 1 -6q0 -6 -8 -6h-30q-6 0 -11 7l-36 76q-1 2 -3 2t-3 -2l-55 -76q-5 -7 -12 -7h-30q-6 0 -7.5 3.5z" />
    <glyph glyph-name="jcircumflex" unicode="&#x135;" horiz-adv-x="187" 
d="M-64.5 -206q-2.5 3 -1.5 7l3 27q2 10 11 10q39 2 62 30t29 77l67 549q2 10 11 10h32q9 0 9 -10l-68 -549q-9 -75 -42.5 -114t-105.5 -40q-4 0 -6.5 3zM44.5 582.5q-1.5 3.5 2.5 8.5l76 102q5 7 12 7h41q6 0 11 -7l52 -102q1 -2 1 -6q0 -6 -8 -6h-30q-6 0 -11 7l-36 76
q-1 2 -3 2t-3 -2l-55 -76q-5 -7 -12 -7h-30q-6 0 -7.5 3.5z" />
    <glyph glyph-name="uni0136" unicode="&#x136;" horiz-adv-x="429" 
d="M58 10l84 680q2 10 11 10h32q10 0 8 -10l-42 -343q0 -3 2 -3.5t3 2.5l245 347q7 7 13 7h37q5 0 7 -3.5t-2 -8.5l-186 -266q-2 -2 -2 -6l121 -404v-3q0 -4 -3 -6.5t-7 -2.5h-37q-8 0 -9 8l-105 360q-1 4 -5 0l-81 -107q-2 -2 -2 -5l-30 -246q-2 -10 -11 -10h-32
q-9 0 -9 10zM156.5 -190.5q-1.5 3.5 2.5 8.5l74 110q5 7 12 7h26q6 0 7.5 -3.5t-1.5 -8.5l-81 -110q-5 -7 -12 -7h-20q-6 0 -7.5 3.5z" />
    <glyph glyph-name="uni0137" unicode="&#x137;" horiz-adv-x="382" 
d="M47 10l83 680q2 10 11 10h32q9 0 9 -10l-52 -420q0 -2 2 -2.5t3 1.5l188 229q5 6 12 6h34q6 0 7.5 -3.5t-2.5 -8.5l-111 -136q-2 -2 -2 -5l72 -340v-2q0 -9 -9 -9h-34q-8 0 -11 8l-55 297q-1 6 -6 1l-96 -116q-2 -2 -2 -5l-22 -175q-2 -10 -11 -10h-32q-10 0 -8 10z
M123.5 -190.5q-1.5 3.5 2.5 8.5l74 110q5 7 12 7h26q6 0 7.5 -3.5t-1.5 -8.5l-81 -110q-5 -7 -12 -7h-20q-6 0 -7.5 3.5z" />
    <glyph glyph-name="Lacute" unicode="&#x139;" horiz-adv-x="377" 
d="M58 10l84 680q2 10 11 10h32q10 0 8 -10l-78 -639q0 -4 3 -4h227q9 0 9 -10l-4 -27q0 -4 -3 -7t-7 -3h-273q-9 0 -9 10zM140.5 770.5q-1.5 3.5 2.5 8.5l74 110q5 7 12 7h26q6 0 7.5 -3.5t-1.5 -8.5l-81 -110q-5 -7 -12 -7h-20q-6 0 -7.5 3.5z" />
    <glyph glyph-name="lacute" unicode="&#x13a;" horiz-adv-x="169" 
d="M42.5 3q-2.5 3 -1.5 7l83 680q1 4 4 7t7 3h32q5 0 7.5 -3t1.5 -7l-84 -680q0 -4 -3 -7t-8 -3h-32q-4 0 -6.5 3zM124.5 770.5q-1.5 3.5 2.5 8.5l74 110q5 7 12 7h26q6 0 7.5 -3.5t-1.5 -8.5l-81 -110q-5 -7 -12 -7h-20q-6 0 -7.5 3.5z" />
    <glyph glyph-name="uni013B" unicode="&#x13b;" horiz-adv-x="377" 
d="M58 10l84 680q2 10 11 10h32q10 0 8 -10l-78 -639q0 -4 3 -4h227q9 0 9 -10l-4 -27q0 -4 -3 -7t-7 -3h-273q-9 0 -9 10zM111.5 -190.5q-1.5 3.5 2.5 8.5l74 110q5 7 12 7h26q6 0 7.5 -3.5t-1.5 -8.5l-81 -110q-5 -7 -12 -7h-20q-6 0 -7.5 3.5z" />
    <glyph glyph-name="uni013C" unicode="&#x13c;" horiz-adv-x="169" 
d="M42.5 3q-2.5 3 -1.5 7l83 680q1 4 4 7t7 3h32q5 0 7.5 -3t1.5 -7l-84 -680q0 -4 -3 -7t-8 -3h-32q-4 0 -6.5 3zM-50.5 -190.5q-1.5 3.5 2.5 8.5l74 110q5 7 12 7h26q6 0 7.5 -3.5t-1.5 -8.5l-81 -110q-5 -7 -12 -7h-20q-6 0 -7.5 3.5z" />
    <glyph glyph-name="Lcaron" unicode="&#x13d;" horiz-adv-x="377" 
d="M58 10l84 680q2 10 11 10h32q10 0 8 -10l-78 -639q0 -4 3 -4h227q9 0 9 -10l-4 -27q0 -4 -3 -7t-7 -3h-273q-9 0 -9 10zM234.5 574.5q-1.5 3.5 2.5 8.5l74 110q5 7 12 7h26q6 0 7.5 -3.5t-1.5 -8.5l-81 -110q-5 -7 -12 -7h-20q-6 0 -7.5 3.5z" />
    <glyph glyph-name="lcaron" unicode="&#x13e;" horiz-adv-x="302" 
d="M42.5 3q-2.5 3 -1.5 7l83 680q1 4 4 7t7 3h32q5 0 7.5 -3t1.5 -7l-84 -680q0 -4 -3 -7t-8 -3h-32q-4 0 -6.5 3zM205.5 574.5q-1.5 3.5 2.5 8.5l74 110q5 7 12 7h26q6 0 7.5 -3.5t-1.5 -8.5l-81 -110q-5 -7 -12 -7h-20q-6 0 -7.5 3.5z" />
    <glyph glyph-name="ldot" unicode="&#x140;" horiz-adv-x="215" 
d="M65.5 3q-2.5 3 -1.5 7l83 680q1 4 4 7t7 3h32q5 0 7.5 -3t1.5 -7l-84 -680q0 -4 -3 -7t-8 -3h-32q-4 0 -6.5 3zM156 813.5q-12 11.5 -12 30.5q0 25 16 41.5t40 16.5q19 0 30.5 -12t11.5 -32q0 -24 -16 -40t-39 -16q-19 0 -31 11.5z" />
    <glyph glyph-name="Lslash" unicode="&#x141;" horiz-adv-x="393" 
d="M135 47h227q10 0 8 -10l-3 -27q-2 -10 -11 -10h-273q-4 0 -6.5 3t-1.5 7l30 247q1 2 -0.5 3.5t-3.5 -0.5l-77 -52q-3 -2 -7 -2t-7 4l-12 19q-2 4 -2 6q0 4 6 8l107 72q4 2 4 5l45 370q1 4 4 7t7 3h32q5 0 7.5 -3t1.5 -7l-41 -330q0 -2 2 -3t3 0l178 120q3 2 7 2t7 -4
l12 -20q2 -4 2 -6q0 -3 -6 -8l-209 -139q-3 -3 -3 -5l-31 -246q0 -4 4 -4z" />
    <glyph glyph-name="lslash" unicode="&#x142;" horiz-adv-x="259" 
d="M266 385q0 -4 -6 -9l-85 -48q-3 -1 -3 -5l-39 -313q-2 -10 -11 -10h-32q-10 0 -8 10l34 278q0 2 -1.5 3t-3.5 0l-51 -29q-4 -2 -6 -2q-5 0 -7 6l-9 19q-1 2 -1 5q0 5 7 9l76 44q3 2 3 5l42 342q2 10 11 10h32q9 0 9 -10l-38 -307q0 -5 4 -3l60 34l5 2q6 0 8 -6l9 -20
q1 -2 1 -5z" />
    <glyph glyph-name="Nacute" unicode="&#x143;" horiz-adv-x="474" 
d="M415 697q3 3 8 3h31q4 0 6.5 -3t1.5 -7l-83 -680q-1 -4 -4 -7t-7 -3h-38q-9 0 -10 8l-138 560q0 3 -2 2.5t-3 -3.5l-67 -557q-2 -10 -11 -10h-32q-9 0 -9 10l84 680q2 10 11 10h37q8 0 9 -8l140 -557q0 -3 2 -2.5t3 3.5l68 554q0 4 3 7zM276.5 778.5q-1.5 3.5 2.5 8.5
l74 110q5 7 12 7h26q6 0 7.5 -3.5t-1.5 -8.5l-81 -110q-5 -7 -12 -7h-20q-6 0 -7.5 3.5z" />
    <glyph glyph-name="nacute" unicode="&#x144;" horiz-adv-x="406" 
d="M345.5 479q27.5 -32 27.5 -90q0 -10 -2 -34l-42 -345q-2 -10 -11 -10h-32q-10 0 -8 10l41 340q2 18 2 26q0 42 -19.5 65t-56.5 23q-42 0 -70.5 -32t-35.5 -88l-41 -334q-2 -10 -11 -10h-32q-10 0 -8 10l59 484q2 10 11 10h32q9 0 9 -10l-5 -38q-1 -3 1 -3t4 2
q40 56 109 56q51 0 78.5 -32zM222.5 574.5q-1.5 3.5 2.5 8.5l74 110q5 7 12 7h26q6 0 7.5 -3.5t-1.5 -8.5l-81 -110q-5 -7 -12 -7h-20q-6 0 -7.5 3.5z" />
    <glyph glyph-name="uni0145" unicode="&#x145;" horiz-adv-x="474" 
d="M415 697q3 3 8 3h31q4 0 6.5 -3t1.5 -7l-83 -680q-1 -4 -4 -7t-7 -3h-38q-9 0 -10 8l-138 560q0 3 -2 2.5t-3 -3.5l-67 -557q-2 -10 -11 -10h-32q-9 0 -9 10l84 680q2 10 11 10h37q8 0 9 -8l140 -557q0 -3 2 -2.5t3 3.5l68 554q0 4 3 7zM156.5 -190.5q-1.5 3.5 2.5 8.5
l74 110q5 7 12 7h26q6 0 7.5 -3.5t-1.5 -8.5l-81 -110q-5 -7 -12 -7h-20q-6 0 -7.5 3.5z" />
    <glyph glyph-name="uni0146" unicode="&#x146;" horiz-adv-x="406" 
d="M345.5 479q27.5 -32 27.5 -90q0 -10 -2 -34l-42 -345q-2 -10 -11 -10h-32q-10 0 -8 10l41 340q2 18 2 26q0 42 -19.5 65t-56.5 23q-42 0 -70.5 -32t-35.5 -88l-41 -334q-2 -10 -11 -10h-32q-10 0 -8 10l59 484q2 10 11 10h32q9 0 9 -10l-5 -38q-1 -3 1 -3t4 2
q40 56 109 56q51 0 78.5 -32zM130.5 -190.5q-1.5 3.5 2.5 8.5l74 110q5 7 12 7h26q6 0 7.5 -3.5t-1.5 -8.5l-81 -110q-5 -7 -12 -7h-20q-6 0 -7.5 3.5z" />
    <glyph glyph-name="Ncaron" unicode="&#x147;" horiz-adv-x="474" 
d="M415 697q3 3 8 3h31q4 0 6.5 -3t1.5 -7l-83 -680q-1 -4 -4 -7t-7 -3h-38q-9 0 -10 8l-138 560q0 3 -2 2.5t-3 -3.5l-67 -557q-2 -10 -11 -10h-32q-9 0 -9 10l84 680q2 10 11 10h37q8 0 9 -8l140 -557q0 -3 2 -2.5t3 3.5l68 554q0 4 3 7zM231 897q0 7 8 7h30q8 0 11 -7
l37 -76q0 -1 2 -1t3 1l55 76q7 7 13 7h30q6 0 7 -3.5t-3 -8.5l-77 -102q-7 -7 -13 -7h-41q-6 0 -10 7l-51 102q-1 2 -1 5z" />
    <glyph glyph-name="ncaron" unicode="&#x148;" horiz-adv-x="406" 
d="M345.5 479q27.5 -32 27.5 -90q0 -10 -2 -34l-42 -345q-2 -10 -11 -10h-32q-10 0 -8 10l41 340q2 18 2 26q0 42 -19.5 65t-56.5 23q-42 0 -70.5 -32t-35.5 -88l-41 -334q-2 -10 -11 -10h-32q-10 0 -8 10l59 484q2 10 11 10h32q9 0 9 -10l-5 -38q-1 -3 1 -3t4 2
q40 56 109 56q51 0 78.5 -32zM177 693q0 7 8 7h30q8 0 11 -7l37 -76q0 -1 2 -1t3 1l55 76q7 7 13 7h30q6 0 7 -3.5t-3 -8.5l-77 -102q-7 -7 -13 -7h-41q-6 0 -10 7l-51 102q-1 2 -1 5z" />
    <glyph glyph-name="Eng" unicode="&#x14a;" horiz-adv-x="474" 
d="M415 697q3 3 8 3h31q4 0 6.5 -3t1.5 -7l-85 -690q-7 -55 -16.5 -84t-35 -46t-76.5 -18q-5 0 -7.5 3t-1.5 7l3 27q1 4 4 7t8 3q28 1 41 12.5t17.5 29t9.5 56.5v3h-1l-140 568q0 3 -2 2.5t-3 -3.5l-67 -557q-2 -10 -11 -10h-32q-9 0 -9 10l84 680q2 10 11 10h37q8 0 9 -8
l137 -547q0 -3 2 -2.5t3 3.5l43 353q2 10 3 10t2 1t1 3l22 177q0 4 3 7z" />
    <glyph glyph-name="eng" unicode="&#x14b;" horiz-adv-x="406" 
d="M329 6l-1 -6l-1 -2l-2 -12q-9 -70 -37.5 -107.5t-96.5 -38.5q-9 0 -9 10l4 26q0 10 11 10q35 3 53 29t24 71l31 252v4q2 2 2 5l12 103q2 18 2 26q0 42 -19.5 65t-56.5 23q-42 0 -70.5 -32t-35.5 -88l-41 -334q-2 -10 -11 -10h-32q-10 0 -8 10l59 484q2 10 11 10h32
q9 0 9 -10l-5 -38q-1 -3 0.5 -3t3.5 2q43 56 110 56q51 0 78.5 -32t27.5 -90q0 -10 -2 -34z" />
    <glyph glyph-name="Omacron" unicode="&#x14c;" horiz-adv-x="438" 
d="M95.5 30.5q-38.5 38.5 -38.5 103.5q0 8 2 26l47 379q9 76 59 122.5t121 46.5q65 0 103.5 -39t38.5 -104q0 -8 -2 -26l-46 -379q-10 -75 -60.5 -121.5t-121.5 -46.5q-64 0 -102.5 38.5zM287 72q34 33 41 86l47 383q1 7 1 20q0 45 -26 72.5t-70 27.5q-48 0 -82 -33.5
t-40 -86.5l-47 -383q-1 -7 -1 -20q0 -45 25.5 -72t68.5 -27q49 0 83 33zM200 804l3 20q2 10 11 10h173q5 0 7.5 -3t1.5 -7l-3 -20q0 -4 -3 -7t-7 -3h-174q-9 0 -9 10z" />
    <glyph glyph-name="omacron" unicode="&#x14d;" horiz-adv-x="395" 
d="M83.5 26.5q-34.5 34.5 -34.5 91.5q0 8 2 24l27 220q8 66 53 108t109 42q60 0 94.5 -34.5t34.5 -91.5q0 -8 -2 -24l-27 -220q-8 -67 -52.5 -108.5t-110.5 -41.5q-59 0 -93.5 34.5zM254 68.5q30 29.5 35 75.5l27 215q1 6 1 16q0 41 -22.5 65.5t-59.5 24.5
q-41 0 -70.5 -29.5t-35.5 -76.5l-26 -215q-1 -6 -1 -18q0 -39 21.5 -63t58.5 -24q42 0 72 29.5zM155 609l3 20q2 10 11 10h173q5 0 7.5 -3t1.5 -7l-3 -20q0 -4 -3 -7t-7 -3h-174q-9 0 -9 10z" />
    <glyph glyph-name="obreve" unicode="&#x14f;" horiz-adv-x="395" 
d="M83.5 26.5q-34.5 34.5 -34.5 91.5q0 8 2 24l27 220q8 66 53 108t109 42q60 0 94.5 -34.5t34.5 -91.5q0 -8 -2 -24l-27 -220q-8 -67 -52.5 -108.5t-110.5 -41.5q-59 0 -93.5 34.5zM254 68.5q30 29.5 35 75.5l27 215q1 6 1 16q0 41 -22.5 65.5t-59.5 24.5
q-41 0 -70.5 -29.5t-35.5 -76.5l-26 -215q-1 -6 -1 -18q0 -39 21.5 -63t58.5 -24q42 0 72 29.5zM185.5 609.5q-24.5 26.5 -22.5 66.5q2 10 11 10h14q9 0 9 -8q0 -28 15.5 -45.5t40.5 -17.5t45 17t26 44q3 10 12 10h14q5 0 7 -3t1 -7q-8 -40 -39 -66.5t-70 -26.5t-63.5 26.5z
" />
    <glyph glyph-name="Ohungarumlaut" unicode="&#x150;" horiz-adv-x="438" 
d="M95.5 30.5q-38.5 38.5 -38.5 103.5q0 8 2 26l47 379q9 76 59 122.5t121 46.5q65 0 103.5 -39t38.5 -104q0 -8 -2 -26l-46 -379q-10 -75 -60.5 -121.5t-121.5 -46.5q-64 0 -102.5 38.5zM287 72q34 33 41 86l47 383q1 7 1 20q0 45 -26 72.5t-70 27.5q-48 0 -82 -33.5
t-40 -86.5l-47 -383q-1 -7 -1 -20q0 -45 25.5 -72t68.5 -27q49 0 83 33zM218.5 769.5q-2.5 3.5 0.5 8.5l72 110q4 7 12 7h27q5 0 7 -3.5t-2 -8.5l-73 -110q-4 -7 -12 -7h-24q-5 0 -7.5 3.5zM331.5 769.5q-1.5 3.5 2.5 8.5l71 110q4 7 13 7h24q6 0 7.5 -3.5t-1.5 -8.5
l-73 -110q-5 -7 -13 -7h-23q-6 0 -7.5 3.5z" />
    <glyph glyph-name="ohungarumlaut" unicode="&#x151;" horiz-adv-x="395" 
d="M83.5 26.5q-34.5 34.5 -34.5 91.5q0 8 2 24l27 220q8 66 53 108t109 42q60 0 94.5 -34.5t34.5 -91.5q0 -8 -2 -24l-27 -220q-8 -67 -52.5 -108.5t-110.5 -41.5q-59 0 -93.5 34.5zM254 68.5q30 29.5 35 75.5l27 215q1 6 1 16q0 41 -22.5 65.5t-59.5 24.5
q-41 0 -70.5 -29.5t-35.5 -76.5l-26 -215q-1 -6 -1 -18q0 -39 21.5 -63t58.5 -24q42 0 72 29.5zM173.5 574.5q-2.5 3.5 0.5 8.5l72 110q4 7 12 7h27q5 0 7 -3.5t-2 -8.5l-73 -110q-4 -7 -12 -7h-24q-5 0 -7.5 3.5zM286.5 574.5q-1.5 3.5 2.5 8.5l71 110q4 7 13 7h24
q6 0 7.5 -3.5t-1.5 -8.5l-73 -110q-5 -7 -13 -7h-23q-6 0 -7.5 3.5z" />
    <glyph glyph-name="OE" unicode="&#x152;" horiz-adv-x="665" 
d="M674 653h-230q-4 0 -4 -4l-34 -271q0 -4 4 -4h147q9 0 9 -10l-4 -27q0 -4 -3 -7t-8 -3h-147q-4 0 -4 -4l-34 -272q0 -4 4 -4h229q5 0 7.5 -3t1.5 -7l-3 -27q-1 -4 -4 -7t-7 -3h-276q-10 0 -8 10l4 34q0 6 -5 2q-48 -54 -120 -54q-59 0 -95.5 39t-36.5 103q0 8 2 26
l47 379q9 75 57.5 122t113.5 47q72 0 107 -54q1 -2 3 -1t2 3l4 34q2 10 11 10h276q4 0 6.5 -3t1.5 -7l-3 -27q-2 -10 -11 -10zM287 72q34 33 41 86l47 383q1 7 1 20q0 45 -26 72.5t-70 27.5q-48 0 -82 -33.5t-40 -86.5l-47 -383q-1 -7 -1 -20q0 -45 25.5 -72t68.5 -27
q49 0 83 33z" />
    <glyph glyph-name="oe" unicode="&#x153;" horiz-adv-x="630" 
d="M583 239h-223q-4 0 -4 -4l-11 -91q-1 -6 -1 -18q0 -39 21.5 -63t58.5 -24q34 0 61 21t38 55q5 9 12 9l32 -2q5 0 6.5 -3t0.5 -7q-15 -55 -56.5 -87.5t-99.5 -32.5q-78 0 -109 70q-2 5 -5 0q-47 -70 -127 -70q-59 0 -93.5 34.5t-34.5 91.5q0 8 2 24l27 220q8 66 53 108
t109 42q41 0 68.5 -18.5t41.5 -52.5q3 -4 6 0q48 71 126 71q59 0 93.5 -34.5t34.5 -91.5q0 -8 -2 -24l-14 -113q-2 -10 -11 -10zM317 376q0 40 -22 64.5t-60 24.5q-41 0 -70.5 -29.5t-35.5 -76.5l-26 -215q-1 -6 -1 -18q0 -39 21.5 -63t58.5 -24q43 0 72.5 29t34.5 76
l27 215q1 6 1 17zM406.5 435.5q-29.5 -29.5 -35.5 -76.5l-10 -78q0 -4 4 -4h177q3 0 5 4l9 78q1 6 1 18q0 39 -22 63.5t-59 24.5q-40 0 -69.5 -29.5z" />
    <glyph glyph-name="Racute" unicode="&#x154;" horiz-adv-x="423" 
d="M324 2q-3 2 -4 6l-68 317q0 3 -3 3h-96q-3 0 -5 -4l-38 -314q-2 -10 -11 -10h-32q-9 0 -9 10l84 680q2 10 11 10h150q60 0 95 -41.5t35 -110.5q0 -24 -2 -36q-8 -67 -42 -114t-84 -64q-4 -1 -4 -5l71 -318v-2q0 -9 -9 -9h-32q-4 0 -7 2zM188 649l-33 -273q0 -4 3 -4h99
q35 0 63.5 21t45 59.5t16.5 87.5q0 52 -24 82.5t-66 30.5h-99q-3 0 -5 -4zM254.5 770.5q-1.5 3.5 2.5 8.5l74 110q5 7 12 7h26q6 0 7.5 -3.5t-1.5 -8.5l-81 -110q-5 -7 -12 -7h-20q-6 0 -7.5 3.5z" />
    <glyph glyph-name="racute" unicode="&#x155;" horiz-adv-x="276" 
d="M299 498q6 -5 3 -13l-12 -34q-4 -9 -13 -5q-14 6 -37 5q-39 -1 -68 -40t-36 -96l-38 -305q-2 -10 -11 -10h-32q-10 0 -8 10l59 484q2 10 11 10h32q9 0 9 -10l-8 -62q0 -7 5 0q18 36 44 56t59 20q24 0 41 -10zM181.5 574.5q-1.5 3.5 2.5 8.5l74 110q5 7 12 7h26
q6 0 7.5 -3.5t-1.5 -8.5l-81 -110q-5 -7 -12 -7h-20q-6 0 -7.5 3.5z" />
    <glyph glyph-name="uni0156" unicode="&#x156;" horiz-adv-x="423" 
d="M324 2q-3 2 -4 6l-68 317q0 3 -3 3h-96q-3 0 -5 -4l-38 -314q-2 -10 -11 -10h-32q-9 0 -9 10l84 680q2 10 11 10h150q60 0 95 -41.5t35 -110.5q0 -24 -2 -36q-8 -67 -42 -114t-84 -64q-4 -1 -4 -5l71 -318v-2q0 -9 -9 -9h-32q-4 0 -7 2zM188 649l-33 -273q0 -4 3 -4h99
q35 0 63.5 21t45 59.5t16.5 87.5q0 52 -24 82.5t-66 30.5h-99q-3 0 -5 -4zM146.5 -190.5q-1.5 3.5 2.5 8.5l74 110q5 7 12 7h26q6 0 7.5 -3.5t-1.5 -8.5l-81 -110q-5 -7 -12 -7h-20q-6 0 -7.5 3.5z" />
    <glyph glyph-name="uni0157" unicode="&#x157;" horiz-adv-x="276" 
d="M299 498q6 -5 3 -13l-12 -34q-4 -9 -13 -5q-14 6 -37 5q-39 -1 -68 -40t-36 -96l-38 -305q-2 -10 -11 -10h-32q-10 0 -8 10l59 484q2 10 11 10h32q9 0 9 -10l-8 -62q0 -7 5 0q18 36 44 56t59 20q24 0 41 -10zM-44.5 -190.5q-1.5 3.5 2.5 8.5l74 110q5 7 12 7h26
q6 0 7.5 -3.5t-1.5 -8.5l-81 -110q-5 -7 -12 -7h-20q-6 0 -7.5 3.5z" />
    <glyph glyph-name="Rcaron" unicode="&#x158;" horiz-adv-x="423" 
d="M324 2q-3 2 -4 6l-68 317q0 3 -3 3h-96q-3 0 -5 -4l-38 -314q-2 -10 -11 -10h-32q-9 0 -9 10l84 680q2 10 11 10h150q60 0 95 -41.5t35 -110.5q0 -24 -2 -36q-8 -67 -42 -114t-84 -64q-4 -1 -4 -5l71 -318v-2q0 -9 -9 -9h-32q-4 0 -7 2zM188 649l-33 -273q0 -4 3 -4h99
q35 0 63.5 21t45 59.5t16.5 87.5q0 52 -24 82.5t-66 30.5h-99q-3 0 -5 -4zM209 889q0 7 8 7h30q8 0 11 -7l37 -76q0 -1 2 -1t3 1l55 76q7 7 13 7h30q6 0 7 -3.5t-3 -8.5l-77 -102q-7 -7 -13 -7h-41q-6 0 -10 7l-51 102q-1 2 -1 5z" />
    <glyph glyph-name="rcaron" unicode="&#x159;" horiz-adv-x="276" 
d="M299 498q6 -5 3 -13l-12 -34q-4 -9 -13 -5q-14 6 -37 5q-39 -1 -68 -40t-36 -96l-38 -305q-2 -10 -11 -10h-32q-10 0 -8 10l59 484q2 10 11 10h32q9 0 9 -10l-8 -62q0 -7 5 0q18 36 44 56t59 20q24 0 41 -10zM136 693q0 7 8 7h30q8 0 11 -7l37 -76q0 -1 2 -1t3 1l55 76
q7 7 13 7h30q6 0 7 -3.5t-3 -8.5l-77 -102q-7 -7 -13 -7h-41q-6 0 -10 7l-51 102q-1 2 -1 5z" />
    <glyph glyph-name="Sacute" unicode="&#x15a;" horiz-adv-x="397" 
d="M79.5 31.5q-36.5 39.5 -36.5 105.5q0 10 2 30l2 21q2 10 11 10h31q5 0 7.5 -3t1.5 -7l-3 -19q-1 -8 -1 -23q0 -50 24 -79t64 -29q33 0 61 18.5t44.5 52.5t16.5 76q0 30 -12 53.5t-30 41t-59 53.5q-41 35 -63.5 58t-37 53.5t-14.5 69.5q0 9 2 29q10 77 57 121t113 44
q63 0 99.5 -39.5t36.5 -107.5q0 -9 -2 -31l-3 -25q-2 -10 -11 -10h-32q-9 0 -9 10l3 25q2 18 2 26q0 48 -24 77t-66 29q-43 0 -75 -31.5t-39 -88.5q-1 -7 -1 -20q0 -40 21 -68.5t77 -75.5q47 -40 70.5 -64.5t36.5 -51.5t13 -63q0 -8 -2 -28q-10 -82 -59 -130.5t-119 -48.5
q-61 0 -97.5 39.5zM231.5 770.5q-1.5 3.5 2.5 8.5l74 110q5 7 12 7h26q6 0 7.5 -3.5t-1.5 -8.5l-81 -110q-5 -7 -12 -7h-20q-6 0 -7.5 3.5z" />
    <glyph glyph-name="sacute" unicode="&#x15b;" horiz-adv-x="354" 
d="M72.5 25.5q-33.5 30.5 -33.5 79.5q0 11 1 17l1 6q2 10 11 10h30q10 0 8 -10v-6l-1 -11q0 -32 22 -52.5t59 -20.5q39 0 65.5 24.5t31.5 63.5l1 12q0 25 -12 41.5t-29.5 26.5t-49.5 25q-50 22 -77 47.5t-27 75.5q0 69 43 111.5t109 42.5q57 0 89 -31t32 -83q0 -12 -1 -19
l-1 -3q0 -4 -3 -7t-7 -3h-30q-4 0 -6.5 3t-1.5 7l1 5q4 37 -17.5 62t-59.5 25q-42 0 -69.5 -28.5t-27.5 -71.5q0 -33 20.5 -50.5t64.5 -38.5q35 -16 57 -29.5t38 -37.5t16 -59q0 -69 -43 -111.5t-112 -42.5q-58 0 -91.5 30.5zM196.5 574.5q-1.5 3.5 2.5 8.5l74 110q5 7 12 7
h26q6 0 7.5 -3.5t-1.5 -8.5l-81 -110q-5 -7 -12 -7h-20q-6 0 -7.5 3.5z" />
    <glyph glyph-name="Scircumflex" unicode="&#x15c;" horiz-adv-x="397" 
d="M79.5 31.5q-36.5 39.5 -36.5 105.5q0 10 2 30l2 21q2 10 11 10h31q5 0 7.5 -3t1.5 -7l-3 -19q-1 -8 -1 -23q0 -50 24 -79t64 -29q33 0 61 18.5t44.5 52.5t16.5 76q0 30 -12 53.5t-30 41t-59 53.5q-41 35 -63.5 58t-37 53.5t-14.5 69.5q0 9 2 29q10 77 57 121t113 44
q63 0 99.5 -39.5t36.5 -107.5q0 -9 -2 -31l-3 -25q-2 -10 -11 -10h-32q-9 0 -9 10l3 25q2 18 2 26q0 48 -24 77t-66 29q-43 0 -75 -31.5t-39 -88.5q-1 -7 -1 -20q0 -40 21 -68.5t77 -75.5q47 -40 70.5 -64.5t36.5 -51.5t13 -63q0 -8 -2 -28q-10 -82 -59 -130.5t-119 -48.5
q-61 0 -97.5 39.5zM170.5 778.5q-1.5 3.5 2.5 8.5l76 102q5 7 12 7h41q6 0 11 -7l52 -102q1 -2 1 -6q0 -6 -8 -6h-30q-6 0 -11 7l-36 76q-1 2 -3 2t-3 -2l-55 -76q-5 -7 -12 -7h-30q-6 0 -7.5 3.5z" />
    <glyph glyph-name="scircumflex" unicode="&#x15d;" horiz-adv-x="354" 
d="M72.5 25.5q-33.5 30.5 -33.5 79.5q0 11 1 17l1 6q2 10 11 10h30q10 0 8 -10v-6l-1 -11q0 -32 22 -52.5t59 -20.5q39 0 65.5 24.5t31.5 63.5l1 12q0 25 -12 41.5t-29.5 26.5t-49.5 25q-50 22 -77 47.5t-27 75.5q0 69 43 111.5t109 42.5q57 0 89 -31t32 -83q0 -12 -1 -19
l-1 -3q0 -4 -3 -7t-7 -3h-30q-4 0 -6.5 3t-1.5 7l1 5q4 37 -17.5 62t-59.5 25q-42 0 -69.5 -28.5t-27.5 -71.5q0 -33 20.5 -50.5t64.5 -38.5q35 -16 57 -29.5t38 -37.5t16 -59q0 -69 -43 -111.5t-112 -42.5q-58 0 -91.5 30.5zM135.5 582.5q-1.5 3.5 2.5 8.5l76 102q5 7 12 7
h41q6 0 11 -7l52 -102q1 -2 1 -6q0 -6 -8 -6h-30q-6 0 -11 7l-36 76q-1 2 -3 2t-3 -2l-55 -76q-5 -7 -12 -7h-30q-6 0 -7.5 3.5z" />
    <glyph glyph-name="Scedilla" unicode="&#x15e;" horiz-adv-x="397" 
d="M304 50q-41 -47 -100 -56q-5 -2 -2 -5q30 -36 30 -78q0 -19 -6 -37q-10 -32 -31.5 -45.5t-48.5 -13.5q-13 0 -25 3q-8 2 -5 12l4 14q1 5 4.5 6.5t7.5 0.5t13 -1q20 0 34 14.5t14 46.5q0 41 -34 80l-4 2q-52 8 -82 46t-30 98q0 10 2 30l2 21q2 10 11 10h31q5 0 7.5 -3
t1.5 -7l-3 -19q-1 -8 -1 -23q0 -50 24 -79t64 -29q33 0 61 18.5t44.5 52.5t16.5 76q0 30 -12 53.5t-30 41t-59 53.5q-41 35 -63.5 58t-37 53.5t-14.5 69.5q0 9 2 29q10 77 57 121t113 44q63 0 99.5 -39.5t36.5 -107.5q0 -9 -2 -31l-3 -25q-2 -10 -11 -10h-32q-9 0 -9 10
l3 25q2 18 2 26q0 48 -24 77t-66 29q-43 0 -75 -31.5t-39 -88.5q-1 -7 -1 -20q0 -40 21 -68.5t77 -75.5q47 -40 70.5 -64.5t36.5 -51.5t13 -63q0 -8 -2 -28q-10 -74 -51 -121z" />
    <glyph glyph-name="scedilla" unicode="&#x15f;" horiz-adv-x="354" 
d="M284 46.5q-35 -41.5 -92 -49.5q-6 -2 -2 -5q30 -36 30 -78q0 -19 -6 -37q-10 -31 -31 -45t-47 -14q-11 0 -27 4q-8 1 -5 11l3 14q3 10 13 7q4 -1 12 -1q35 0 46 39q3 10 3 22q0 39 -34 80q-2 2 -5 2q-48 5 -75.5 35t-27.5 74q0 11 1 17l1 6q2 10 11 10h30q10 0 8 -10v-6
l-1 -11q0 -32 22 -52.5t59 -20.5q39 0 65.5 24.5t31.5 63.5l1 12q0 25 -12 41.5t-29.5 26.5t-49.5 25q-50 22 -77 47.5t-27 75.5q0 69 43 111.5t109 42.5q57 0 89 -31t32 -83q0 -12 -1 -19l-1 -3q0 -4 -3 -7t-7 -3h-30q-4 0 -6.5 3t-1.5 7l1 5q4 37 -17.5 62t-59.5 25
q-42 0 -69.5 -28.5t-27.5 -71.5q0 -33 20.5 -50.5t64.5 -38.5q35 -16 57 -29.5t38 -37.5t16 -59q0 -61 -35 -102.5z" />
    <glyph glyph-name="Scaron" unicode="&#x160;" horiz-adv-x="397" 
d="M79.5 31.5q-36.5 39.5 -36.5 105.5q0 10 2 30l2 21q2 10 11 10h31q5 0 7.5 -3t1.5 -7l-3 -19q-1 -8 -1 -23q0 -50 24 -79t64 -29q33 0 61 18.5t44.5 52.5t16.5 76q0 30 -12 53.5t-30 41t-59 53.5q-41 35 -63.5 58t-37 53.5t-14.5 69.5q0 9 2 29q10 77 57 121t113 44
q63 0 99.5 -39.5t36.5 -107.5q0 -9 -2 -31l-3 -25q-2 -10 -11 -10h-32q-9 0 -9 10l3 25q2 18 2 26q0 48 -24 77t-66 29q-43 0 -75 -31.5t-39 -88.5q-1 -7 -1 -20q0 -40 21 -68.5t77 -75.5q47 -40 70.5 -64.5t36.5 -51.5t13 -63q0 -8 -2 -28q-10 -82 -59 -130.5t-119 -48.5
q-61 0 -97.5 39.5zM186 889q0 7 8 7h30q8 0 11 -7l37 -76q0 -1 2 -1t3 1l55 76q7 7 13 7h30q6 0 7 -3.5t-3 -8.5l-77 -102q-7 -7 -13 -7h-41q-6 0 -10 7l-51 102q-1 2 -1 5z" />
    <glyph glyph-name="scaron" unicode="&#x161;" horiz-adv-x="354" 
d="M72.5 25.5q-33.5 30.5 -33.5 79.5q0 11 1 17l1 6q2 10 11 10h30q10 0 8 -10v-6l-1 -11q0 -32 22 -52.5t59 -20.5q39 0 65.5 24.5t31.5 63.5l1 12q0 25 -12 41.5t-29.5 26.5t-49.5 25q-50 22 -77 47.5t-27 75.5q0 69 43 111.5t109 42.5q57 0 89 -31t32 -83q0 -12 -1 -19
l-1 -3q0 -4 -3 -7t-7 -3h-30q-4 0 -6.5 3t-1.5 7l1 5q4 37 -17.5 62t-59.5 25q-42 0 -69.5 -28.5t-27.5 -71.5q0 -33 20.5 -50.5t64.5 -38.5q35 -16 57 -29.5t38 -37.5t16 -59q0 -69 -43 -111.5t-112 -42.5q-58 0 -91.5 30.5zM151 693q0 7 8 7h30q8 0 11 -7l37 -76
q0 -1 2 -1t3 1l55 76q7 7 13 7h30q6 0 7 -3.5t-3 -8.5l-77 -102q-7 -7 -13 -7h-41q-6 0 -10 7l-51 102q-1 2 -1 5z" />
    <glyph glyph-name="uni0162" unicode="&#x162;" horiz-adv-x="399" 
d="M427.5 697q2.5 -3 1.5 -7l-3 -27q-2 -10 -11 -10h-129q-3 0 -5 -4l-78 -639q-2 -10 -11 -10h-32q-10 0 -8 10l78 639q0 4 -3 4h-122q-4 0 -6.5 3t-1.5 7l3 27q2 10 11 10h310q4 0 6.5 -3zM126 -169l4 13q3 10 13 7q4 -1 11 -1q16 0 28.5 9.5t18.5 29.5q3 10 3 22
q0 39 -31 77q-2 2 -2 5q0 7 8 7h16q6 0 9 -3l4 -4q33 -36 33 -82q0 -16 -5 -36q-9 -32 -30.5 -45.5t-48.5 -13.5q-14 0 -26 3q-8 1 -5 12z" />
    <glyph glyph-name="uni0163" unicode="&#x163;" horiz-adv-x="253" 
d="M251 462h-78q-4 0 -4 -4l-40 -322q-2 -20 -2 -26q0 -35 14.5 -49t45.5 -14h10q10 0 8 -10l-3 -27q-2 -10 -11 -10h-22q-5 0 -2 -5q20 -28 20 -65q0 -17 -5 -37q-10 -31 -31 -45t-47 -14q-11 0 -27 4q-8 1 -5 11l3 14q3 10 13 7q4 -1 12 -1q35 0 46 39q3 10 3 22
q0 40 -32 77q-1 1 -4 3q-38 19 -38 81q0 8 2 32l41 335q1 1 0 2.5t-3 1.5h-40q-10 0 -8 10l2 22q2 10 11 10h40q4 0 4 4l14 112q2 10 11 10h31q9 0 9 -10l-14 -112q0 -4 3 -4h78q10 0 8 -10l-2 -22q-2 -10 -11 -10z" />
    <glyph glyph-name="Tcaron" unicode="&#x164;" horiz-adv-x="399" 
d="M427.5 697q2.5 -3 1.5 -7l-3 -27q-2 -10 -11 -10h-129q-3 0 -5 -4l-78 -639q-2 -10 -11 -10h-32q-10 0 -8 10l78 639q0 4 -3 4h-122q-4 0 -6.5 3t-1.5 7l3 27q2 10 11 10h310q4 0 6.5 -3zM190 887q0 7 8 7h30q8 0 11 -7l37 -76q0 -1 2 -1t3 1l55 76q7 7 13 7h30
q6 0 7 -3.5t-3 -8.5l-77 -102q-7 -7 -13 -7h-41q-6 0 -10 7l-51 102q-1 2 -1 5z" />
    <glyph glyph-name="tcaron" unicode="&#x165;" horiz-adv-x="253" 
d="M251 462h-78q-4 0 -4 -4l-40 -322q-2 -20 -2 -26q0 -35 14.5 -49t45.5 -14h10q10 0 8 -10l-3 -27q-2 -10 -11 -10h-19q-48 0 -72.5 19.5t-24.5 71.5q0 8 2 32l41 335q1 1 0 2.5t-3 1.5h-40q-10 0 -8 10l2 22q2 10 11 10h40q4 0 4 4l14 112q2 10 11 10h31q9 0 9 -10
l-14 -112q0 -4 3 -4h78q10 0 8 -10l-2 -22q-2 -10 -11 -10zM204.5 574.5q-1.5 3.5 2.5 8.5l74 110q5 7 12 7h26q6 0 7.5 -3.5t-1.5 -8.5l-81 -110q-5 -7 -12 -7h-20q-6 0 -7.5 3.5z" />
    <glyph glyph-name="Tbar" unicode="&#x166;" horiz-adv-x="399" 
d="M415 653h-129q-3 0 -5 -4l-27 -225q0 -4 3 -4h83q4 0 6.5 -3t1.5 -7l-2 -18q-2 -10 -11 -10h-82q-2 0 -3.5 -1t-1.5 -3l-45 -368q-2 -10 -11 -10h-32q-10 0 -8 10l45 368q0 4 -4 4h-93q-10 0 -8 10l2 18q2 10 11 10h93q4 0 4 4l28 225q0 4 -3 4h-122q-4 0 -6.5 3t-1.5 7
l3 27q2 10 11 10h310q4 0 6.5 -3t1.5 -7l-3 -27q-2 -10 -11 -10z" />
    <glyph glyph-name="tbar" unicode="&#x167;" horiz-adv-x="253" 
d="M251 462h-78q-4 0 -4 -4l-13 -107q-1 -1 0 -2.5t3 -1.5h77q4 0 6.5 -3t1.5 -7l-2 -17q-2 -10 -11 -10h-77q-1 0 -2.5 -1t-1.5 -3l-21 -170q-2 -20 -2 -26q0 -35 14.5 -49t45.5 -14h10q10 0 8 -10l-3 -27q-2 -10 -11 -10h-19q-48 0 -72.5 19.5t-24.5 71.5q0 8 2 32l23 183
q0 4 -4 4h-37q-4 0 -6.5 3t-1.5 7l2 17q2 10 11 10h37q4 0 4 4l13 107q1 1 0 2.5t-3 1.5h-40q-10 0 -8 10l2 22q2 10 11 10h40q4 0 4 4l14 112q2 10 11 10h31q9 0 9 -10l-14 -112q0 -4 3 -4h78q10 0 8 -10l-2 -22q-2 -10 -11 -10z" />
    <glyph glyph-name="Utilde" unicode="&#x168;" horiz-adv-x="461" 
d="M108.5 33.5q-36.5 41.5 -36.5 112.5q0 11 2 35l62 509q2 10 11 10h32q9 0 9 -10l-64 -515q-2 -18 -2 -26q0 -51 25 -80.5t68 -29.5q49 0 84.5 37.5t42.5 98.5l63 515q2 10 11 10h32q10 0 8 -10l-62 -509q-10 -85 -61 -137t-123 -52q-65 0 -101.5 41.5zM343.5 815.5
q-10.5 5.5 -24.5 16.5q-2 2 -10.5 8.5t-15.5 9.5t-15 3q-14 0 -25 -5.5t-23 -21.5q-8 -9 -14 -3l-11 9q-7 5 -1 13q32 48 76 48q15 0 26 -6t25 -17q5 -3 13 -9.5t15 -9.5t15 -3q13 0 24 6.5t23 23.5q5 10 14 4l10 -7q4 -2 4 -7t-6 -13q-16 -23 -36.5 -34t-38.5 -11
q-14 0 -24.5 5.5z" />
    <glyph glyph-name="utilde" unicode="&#x169;" horiz-adv-x="406" 
d="M341 504h32q9 0 9 -10l-60 -484q0 -4 -3 -7t-8 -3h-32q-4 0 -6.5 3t-1.5 7l4 36q1 3 -0.5 3.5t-3.5 -1.5q-38 -55 -106 -55q-52 0 -81 29t-29 86q0 9 2 31l43 355q1 4 4 7t7 3h32q5 0 7.5 -3t1.5 -7l-42 -343q-2 -18 -2 -26q0 -42 19.5 -63.5t55.5 -21.5q43 0 71 32
t35 88l41 334q2 10 11 10zM289.5 619.5q-10.5 5.5 -24.5 16.5q-2 2 -10.5 8.5t-15.5 9.5t-15 3q-14 0 -25 -5.5t-23 -21.5q-8 -9 -14 -3l-11 9q-7 5 -1 13q32 48 76 48q15 0 26 -6t25 -17q5 -3 13 -9.5t15 -9.5t15 -3q13 0 24 6.5t23 23.5q5 10 14 4l10 -7q4 -2 4 -7t-6 -13
q-16 -23 -36.5 -34t-38.5 -11q-14 0 -24.5 5.5z" />
    <glyph glyph-name="Umacron" unicode="&#x16a;" horiz-adv-x="461" 
d="M108.5 33.5q-36.5 41.5 -36.5 112.5q0 11 2 35l62 509q2 10 11 10h32q9 0 9 -10l-64 -515q-2 -18 -2 -26q0 -51 25 -80.5t68 -29.5q49 0 84.5 37.5t42.5 98.5l63 515q2 10 11 10h32q10 0 8 -10l-62 -509q-10 -85 -61 -137t-123 -52q-65 0 -101.5 41.5zM212 805l3 20
q2 10 11 10h173q5 0 7.5 -3t1.5 -7l-3 -20q0 -4 -3 -7t-7 -3h-174q-9 0 -9 10z" />
    <glyph glyph-name="umacron" unicode="&#x16b;" horiz-adv-x="406" 
d="M341 504h32q9 0 9 -10l-60 -484q0 -4 -3 -7t-8 -3h-32q-4 0 -6.5 3t-1.5 7l4 36q1 3 -0.5 3.5t-3.5 -1.5q-38 -55 -106 -55q-52 0 -81 29t-29 86q0 9 2 31l43 355q1 4 4 7t7 3h32q5 0 7.5 -3t1.5 -7l-42 -343q-2 -18 -2 -26q0 -42 19.5 -63.5t55.5 -21.5q43 0 71 32
t35 88l41 334q2 10 11 10zM157 609l3 20q2 10 11 10h173q5 0 7.5 -3t1.5 -7l-3 -20q0 -4 -3 -7t-7 -3h-174q-9 0 -9 10z" />
    <glyph glyph-name="Ubreve" unicode="&#x16c;" horiz-adv-x="461" 
d="M108.5 33.5q-36.5 41.5 -36.5 112.5q0 11 2 35l62 509q2 10 11 10h32q9 0 9 -10l-64 -515q-2 -18 -2 -26q0 -51 25 -80.5t68 -29.5q49 0 84.5 37.5t42.5 98.5l63 515q2 10 11 10h32q10 0 8 -10l-62 -509q-10 -85 -61 -137t-123 -52q-65 0 -101.5 41.5zM242.5 805.5
q-24.5 26.5 -22.5 66.5q2 10 11 10h14q9 0 9 -8q0 -28 15.5 -45.5t40.5 -17.5t45 17t26 44q3 10 12 10h14q5 0 7 -3t1 -7q-8 -40 -39 -66.5t-70 -26.5t-63.5 26.5z" />
    <glyph glyph-name="ubreve" unicode="&#x16d;" horiz-adv-x="406" 
d="M341 504h32q9 0 9 -10l-60 -484q0 -4 -3 -7t-8 -3h-32q-4 0 -6.5 3t-1.5 7l4 36q1 3 -0.5 3.5t-3.5 -1.5q-38 -55 -106 -55q-52 0 -81 29t-29 86q0 9 2 31l43 355q1 4 4 7t7 3h32q5 0 7.5 -3t1.5 -7l-42 -343q-2 -18 -2 -26q0 -42 19.5 -63.5t55.5 -21.5q43 0 71 32
t35 88l41 334q2 10 11 10zM187.5 609.5q-24.5 26.5 -22.5 66.5q2 10 11 10h14q9 0 9 -8q0 -28 15.5 -45.5t40.5 -17.5t45 17t26 44q3 10 12 10h14q5 0 7 -3t1 -7q-8 -40 -39 -66.5t-70 -26.5t-63.5 26.5z" />
    <glyph glyph-name="Uring" unicode="&#x16e;" horiz-adv-x="461" 
d="M108.5 33.5q-36.5 41.5 -36.5 112.5q0 11 2 35l62 509q2 10 11 10h32q9 0 9 -10l-64 -515q-2 -18 -2 -26q0 -51 25 -80.5t68 -29.5q49 0 84.5 37.5t42.5 98.5l63 515q2 10 11 10h32q10 0 8 -10l-62 -509q-10 -85 -61 -137t-123 -52q-65 0 -101.5 41.5zM244.5 805
q-24.5 26 -24.5 64q0 32 15.5 59t41.5 43t55 16q38 0 62.5 -25.5t24.5 -64.5q0 -49 -33.5 -83.5t-79.5 -34.5q-37 0 -61.5 26zM362.5 837.5q22.5 23.5 22.5 55.5q0 25 -16.5 42t-40.5 17q-29 0 -52 -23t-23 -55q0 -26 17 -43t41 -17q29 0 51.5 23.5z" />
    <glyph glyph-name="uring" unicode="&#x16f;" horiz-adv-x="406" 
d="M341 504h32q9 0 9 -10l-60 -484q0 -4 -3 -7t-8 -3h-32q-4 0 -6.5 3t-1.5 7l4 36q1 3 -0.5 3.5t-3.5 -1.5q-38 -55 -106 -55q-52 0 -81 29t-29 86q0 9 2 31l43 355q1 4 4 7t7 3h32q5 0 7.5 -3t1.5 -7l-42 -343q-2 -18 -2 -26q0 -42 19.5 -63.5t55.5 -21.5q43 0 71 32
t35 88l41 334q2 10 11 10zM189.5 609q-24.5 26 -24.5 64q0 32 15.5 59t41.5 43t55 16q38 0 62.5 -25.5t24.5 -64.5q0 -49 -33.5 -83.5t-79.5 -34.5q-37 0 -61.5 26zM307.5 641.5q22.5 23.5 22.5 55.5q0 25 -16.5 42t-40.5 17q-29 0 -52 -23t-23 -55q0 -26 17 -43t41 -17
q29 0 51.5 23.5z" />
    <glyph glyph-name="Uhungarumlaut" unicode="&#x170;" horiz-adv-x="461" 
d="M108.5 33.5q-36.5 41.5 -36.5 112.5q0 11 2 35l62 509q2 10 11 10h32q9 0 9 -10l-64 -515q-2 -18 -2 -26q0 -51 25 -80.5t68 -29.5q49 0 84.5 37.5t42.5 98.5l63 515q2 10 11 10h32q10 0 8 -10l-62 -509q-10 -85 -61 -137t-123 -52q-65 0 -101.5 41.5zM230.5 770.5
q-2.5 3.5 0.5 8.5l72 110q4 7 12 7h27q5 0 7 -3.5t-2 -8.5l-73 -110q-4 -7 -12 -7h-24q-5 0 -7.5 3.5zM343.5 770.5q-1.5 3.5 2.5 8.5l71 110q4 7 13 7h24q6 0 7.5 -3.5t-1.5 -8.5l-73 -110q-5 -7 -13 -7h-23q-6 0 -7.5 3.5z" />
    <glyph glyph-name="uhungarumlaut" unicode="&#x171;" horiz-adv-x="406" 
d="M341 504h32q9 0 9 -10l-60 -484q0 -4 -3 -7t-8 -3h-32q-4 0 -6.5 3t-1.5 7l4 36q1 3 -0.5 3.5t-3.5 -1.5q-38 -55 -106 -55q-52 0 -81 29t-29 86q0 9 2 31l43 355q1 4 4 7t7 3h32q5 0 7.5 -3t1.5 -7l-42 -343q-2 -18 -2 -26q0 -42 19.5 -63.5t55.5 -21.5q43 0 71 32
t35 88l41 334q2 10 11 10zM175.5 574.5q-2.5 3.5 0.5 8.5l72 110q4 7 12 7h27q5 0 7 -3.5t-2 -8.5l-73 -110q-4 -7 -12 -7h-24q-5 0 -7.5 3.5zM288.5 574.5q-1.5 3.5 2.5 8.5l71 110q4 7 13 7h24q6 0 7.5 -3.5t-1.5 -8.5l-73 -110q-5 -7 -13 -7h-23q-6 0 -7.5 3.5z" />
    <glyph glyph-name="Uogonek" unicode="&#x172;" horiz-adv-x="461" 
d="M416 700h32q10 0 8 -10l-62 -509q-10 -80 -56 -131t-112 -57q-3 0 -5 -2q-47 -48 -48 -96q1 -39 38 -39q7 0 11 1l5 1q6 0 6 -8l1 -13q0 -11 -9 -12q-13 -3 -28 -3q-62 0 -62 67q0 56 45 101q4 4 -1 5q-50 9 -78.5 49t-28.5 101q0 24 2 36l62 509q2 10 11 10h32
q9 0 9 -10l-64 -515q-2 -18 -2 -26q0 -51 25 -80.5t68 -29.5q49 0 84.5 37.5t42.5 98.5l63 515q2 10 11 10z" />
    <glyph glyph-name="uogonek" unicode="&#x173;" horiz-adv-x="406" 
d="M310 -148q6 0 6 -8l1 -14q0 -10 -9 -11q-12 -3 -26 -3q-27 0 -46 14.5t-19 48.5q0 65 59 116q5 5 3 5q-4 0 -6.5 3t-1.5 7l4 36q1 3 -0.5 3.5t-3.5 -1.5q-38 -55 -106 -55q-52 0 -81 29t-29 86q0 9 2 31l43 355q1 4 4 7t7 3h32q5 0 7.5 -3t1.5 -7l-42 -343q-2 -18 -2 -26
q0 -42 19.5 -63.5t55.5 -21.5q43 0 71 32t35 88l41 334q2 10 11 10h32q9 0 9 -10l-60 -487q-1 -6 -7 -12q-26 -23 -42 -50t-16 -54q0 -41 37 -41q8 0 12 1z" />
    <glyph glyph-name="Wcircumflex" unicode="&#x174;" horiz-adv-x="586" 
d="M139 9l-44 680q0 5 3 8t7 3h34q10 0 10 -9l30 -567q1 -2 2 -2t2 2l154 567q3 9 11 9h30q8 0 9 -9l19 -567q1 -2 2 -2t2 2l161 567q3 9 11 9h34q4 0 6.5 -3t0.5 -8l-204 -680q-3 -9 -12 -9h-31q-8 0 -8 9l-18 566q-1 2 -2 2t-2 -2l-156 -566q-1 -9 -11 -9h-31q-9 0 -9 9z
M272.5 778.5q-1.5 3.5 2.5 8.5l76 102q5 7 12 7h41q6 0 11 -7l52 -102q1 -2 1 -6q0 -6 -8 -6h-30q-6 0 -11 7l-36 76q-1 2 -3 2t-3 -2l-55 -76q-5 -7 -12 -7h-30q-6 0 -7.5 3.5z" />
    <glyph glyph-name="wcircumflex" unicode="&#x175;" horiz-adv-x="523" 
d="M109 9l-43 484q0 11 10 11h31q10 0 10 -9l28 -408q0 -3 1 -3t2 3l129 408q3 9 12 9h28q9 0 10 -9l29 -408q0 -3 1.5 -3t2.5 3l130 408q2 9 11 9l30 -1q10 0 8 -11l-163 -483q-3 -9 -12 -9h-32q-10 0 -10 9l-30 393q-1 3 -2 3t-2 -3l-125 -393q-3 -9 -12 -9h-33q-9 0 -9 9
zM214.5 582.5q-1.5 3.5 2.5 8.5l76 102q5 7 12 7h41q6 0 11 -7l52 -102q1 -2 1 -6q0 -6 -8 -6h-30q-6 0 -11 7l-36 76q-1 2 -3 2t-3 -2l-55 -76q-5 -7 -12 -7h-30q-6 0 -7.5 3.5z" />
    <glyph glyph-name="Ycircumflex" unicode="&#x176;" horiz-adv-x="399" 
d="M155 10l39 310q0 4 -1 5l-89 363l-1 3q0 9 10 9h34q10 0 11 -8l67 -306q1 -2 3 -2t3 2l141 306q4 8 13 8h34q5 0 7 -3.5t-1 -8.5l-178 -363q-2 -1 -2 -5l-38 -310q-2 -10 -11 -10h-32q-9 0 -9 10zM177.5 778.5q-1.5 3.5 2.5 8.5l76 102q5 7 12 7h41q6 0 11 -7l52 -102
q1 -2 1 -6q0 -6 -8 -6h-30q-6 0 -11 7l-36 76q-1 2 -3 2t-3 -2l-55 -76q-5 -7 -12 -7h-30q-6 0 -7.5 3.5z" />
    <glyph glyph-name="ycircumflex" unicode="&#x177;" horiz-adv-x="343" 
d="M-4 -197q-2 3 -1 7l3 26q2 10 11 10h1q29 1 46.5 13t32.5 42.5t36 95.5q1 2 0.5 3.5t-0.5 2.5l-63 490v3q0 8 10 8h34q4 0 6.5 -2.5t2.5 -6.5l45 -417q0 -3 1.5 -3t2.5 3l146 417q3 9 12 9l35 -1q5 0 6.5 -3.5t-0.5 -7.5l-203 -543q-25 -65 -44.5 -96t-44 -42t-66.5 -11
h-5q-2 0 -4 3zM125.5 582.5q-1.5 3.5 2.5 8.5l76 102q5 7 12 7h41q6 0 11 -7l52 -102q1 -2 1 -6q0 -6 -8 -6h-30q-6 0 -11 7l-36 76q-1 2 -3 2t-3 -2l-55 -76q-5 -7 -12 -7h-30q-6 0 -7.5 3.5z" />
    <glyph glyph-name="Ydieresis" unicode="&#x178;" horiz-adv-x="399" 
d="M155 10l39 310q0 4 -1 5l-89 363l-1 3q0 9 10 9h34q10 0 11 -8l67 -306q1 -2 3 -2t3 2l141 306q4 8 13 8h34q5 0 7 -3.5t-1 -8.5l-178 -363q-2 -1 -2 -5l-38 -310q-2 -10 -11 -10h-32q-9 0 -9 10zM316 812.5q-12 11.5 -12 30.5q0 25 16 41.5t40 16.5q19 0 30.5 -12
t11.5 -32q0 -24 -16 -40t-39 -16q-19 0 -31 11.5zM179 812.5q-12 11.5 -12 30.5q0 25 16 41.5t40 16.5q19 0 30.5 -12t11.5 -32q0 -24 -16 -40t-39 -16q-19 0 -31 11.5z" />
    <glyph glyph-name="Zacute" unicode="&#x179;" horiz-adv-x="379" 
d="M17 10l4 31q0 7 3 12l317 595q2 2 1 3.5t-3 1.5h-234q-4 0 -6.5 3t-1.5 7l3 27q2 10 11 10h283q5 0 7.5 -3t1.5 -7l-4 -31q0 -4 -3 -12l-317 -595q-1 -2 0 -3.5t2 -1.5h233q9 0 9 -10l-4 -27q0 -4 -3 -7t-8 -3h-283q-10 0 -8 10zM227.5 770.5q-1.5 3.5 2.5 8.5l74 110
q5 7 12 7h26q6 0 7.5 -3.5t-1.5 -8.5l-81 -110q-5 -7 -12 -7h-20q-6 0 -7.5 3.5z" />
    <glyph glyph-name="zacute" unicode="&#x17a;" horiz-adv-x="347" 
d="M18 10l4 32q0 3 4 13l259 395q3 5 -1 5h-199q-9 0 -9 10l4 29q2 10 11 10h254q9 0 9 -10l-4 -32q-2 -10 -5 -13l-260 -395q-1 -2 -0.5 -3.5t2.5 -1.5h202q9 0 9 -10l-4 -29q-2 -10 -11 -10h-257q-10 0 -8 10zM192.5 574.5q-1.5 3.5 2.5 8.5l74 110q5 7 12 7h26
q6 0 7.5 -3.5t-1.5 -8.5l-81 -110q-5 -7 -12 -7h-20q-6 0 -7.5 3.5z" />
    <glyph glyph-name="Zdotaccent" unicode="&#x17b;" horiz-adv-x="379" 
d="M17 10l4 31q0 7 3 12l317 595q2 2 1 3.5t-3 1.5h-234q-4 0 -6.5 3t-1.5 7l3 27q2 10 11 10h283q5 0 7.5 -3t1.5 -7l-4 -31q0 -4 -3 -12l-317 -595q-1 -2 0 -3.5t2 -1.5h233q9 0 9 -10l-4 -27q0 -4 -3 -7t-8 -3h-283q-10 0 -8 10zM237 812.5q-12 11.5 -12 30.5
q0 25 16 41.5t40 16.5q19 0 30.5 -12t11.5 -32q0 -24 -16 -40t-39 -16q-19 0 -31 11.5z" />
    <glyph glyph-name="zdotaccent" unicode="&#x17c;" horiz-adv-x="347" 
d="M18 10l4 32q0 3 4 13l259 395q3 5 -1 5h-199q-9 0 -9 10l4 29q2 10 11 10h254q9 0 9 -10l-4 -32q-2 -10 -5 -13l-260 -395q-1 -2 -0.5 -3.5t2.5 -1.5h202q9 0 9 -10l-4 -29q-2 -10 -11 -10h-257q-10 0 -8 10zM201 616.5q-12 11.5 -12 30.5q0 25 16 41.5t40 16.5
q19 0 30.5 -12t11.5 -32q0 -24 -16 -40t-39 -16q-19 0 -31 11.5z" />
    <glyph glyph-name="Zcaron" unicode="&#x17d;" horiz-adv-x="379" 
d="M17 10l4 31q0 7 3 12l317 595q2 2 1 3.5t-3 1.5h-234q-4 0 -6.5 3t-1.5 7l3 27q2 10 11 10h283q5 0 7.5 -3t1.5 -7l-4 -31q0 -4 -3 -12l-317 -595q-1 -2 0 -3.5t2 -1.5h233q9 0 9 -10l-4 -27q0 -4 -3 -7t-8 -3h-283q-10 0 -8 10zM182 889q0 7 8 7h30q8 0 11 -7l37 -76
q0 -1 2 -1t3 1l55 76q7 7 13 7h30q6 0 7 -3.5t-3 -8.5l-77 -102q-7 -7 -13 -7h-41q-6 0 -10 7l-51 102q-1 2 -1 5z" />
    <glyph glyph-name="zcaron" unicode="&#x17e;" horiz-adv-x="347" 
d="M18 10l4 32q0 3 4 13l259 395q3 5 -1 5h-199q-9 0 -9 10l4 29q2 10 11 10h254q9 0 9 -10l-4 -32q-2 -10 -5 -13l-260 -395q-1 -2 -0.5 -3.5t2.5 -1.5h202q9 0 9 -10l-4 -29q-2 -10 -11 -10h-257q-10 0 -8 10zM147 693q0 7 8 7h30q8 0 11 -7l37 -76q0 -1 2 -1t3 1l55 76
q7 7 13 7h30q6 0 7 -3.5t-3 -8.5l-77 -102q-7 -7 -13 -7h-41q-6 0 -10 7l-51 102q-1 2 -1 5z" />
    <glyph glyph-name="uni018F" unicode="&#x18f;" horiz-adv-x="497" 
d="M437 660.5q46 -47.5 46 -124.5q0 -10 -2 -32l-38 -311q-7 -59 -37.5 -105.5t-77 -72.5t-102.5 -26q-78 0 -124 47.5t-46 124.5q0 10 2 32l19 160q2 10 11 10h320q3 0 5 4l16 135q2 18 2 27q0 59 -33.5 95.5t-89.5 36.5q-52 0 -92 -32.5t-57 -85.5q-4 -9 -12 -9l-34 1
q-5 0 -7 3t-1 7q20 74 76.5 118.5t132.5 44.5q77 0 123 -47.5zM338 81q45 45 54 115l14 113q0 4 -4 4h-275q-3 0 -5 -4l-14 -113q-1 -8 -1 -25q0 -60 34 -97.5t90 -37.5q62 0 107 45z" />
    <glyph glyph-name="florin" unicode="&#x192;" horiz-adv-x="449" 
d="M331.5 648q22.5 35 56 49.5t86.5 11.5q8 -1 7 -11l-4 -28q-1 -10 -12 -10h-18q-42 0 -65.5 -29.5t-40.5 -90.5l-43 -155q-1 -4 2 -4h74q4 0 6.5 -3t1.5 -7l-2 -21q-1 -4 -4 -7t-7 -3h-80q-5 0 -5 -4l-108 -387q-17 -62 -39.5 -97t-56 -49.5t-86.5 -11.5q-9 2 -8 11l5 28
q1 10 12 10h18q42 0 65.5 30t39.5 90l105 376q1 4 -2 4h-56q-5 0 -7.5 3t-1.5 7l3 21q2 10 11 10h62q5 0 5 4l47 166q17 62 39.5 97z" />
    <glyph glyph-name="Ohorn" unicode="&#x1a0;" horiz-adv-x="438" 
d="M382 676q46 -38 46 -110q0 -9 -2 -27l-46 -379q-10 -75 -60.5 -121.5t-121.5 -46.5q-64 0 -102.5 38.5t-38.5 103.5q0 8 2 26l47 379q9 76 59 122.5t121 46.5q24 0 50 -7q1 -1 5 -1q24 2 44 20.5t26 47.5q0 10 10 10h15q10 0 8 -12q-6 -29 -22 -51t-39 -34q-4 -1 -1 -5z
M375 541q1 7 1 20q0 45 -26 72.5t-70 27.5q-48 0 -82 -33.5t-40 -86.5l-47 -383q-1 -7 -1 -20q0 -45 25.5 -72t68.5 -27q49 0 83 33t41 86z" />
    <glyph glyph-name="ohorn" unicode="&#x1a1;" horiz-adv-x="395" 
d="M333 479q36 -34 36 -93q0 -8 -2 -24l-27 -220q-8 -67 -52.5 -108.5t-110.5 -41.5q-59 0 -93.5 34.5t-34.5 91.5q0 8 2 24l27 220q8 66 53 108t109 42q23 0 49 -7q1 -1 4 -1q25 2 45 20t26 48q1 10 11 10h15q4 0 6 -3t1 -9q-6 -29 -22.5 -51.5t-40.5 -34.5q-3 -1 -1 -5z
M317 375q0 41 -22.5 65.5t-59.5 24.5q-41 0 -70.5 -29.5t-35.5 -76.5l-26 -215q-1 -6 -1 -18q0 -39 21.5 -63t58.5 -24q42 0 72 29.5t35 75.5l27 215q1 6 1 16z" />
    <glyph glyph-name="Uhorn" unicode="&#x1af;" horiz-adv-x="461" 
d="M541 768q-7 -37 -29.5 -62.5t-54.5 -33.5q-2 -1 -4 -5l-59 -486q-10 -85 -61 -137t-123 -52q-65 0 -101.5 41.5t-36.5 112.5q0 11 2 35l62 509q2 10 11 10h32q9 0 9 -10l-64 -515q-2 -18 -2 -26q0 -51 25 -80.5t68 -29.5q49 0 84.5 37.5t42.5 98.5l63 515q2 10 11 10h15
q26 0 48 18.5t29 49.5q0 10 10 10h15q10 0 8 -10z" />
    <glyph glyph-name="uhorn" unicode="&#x1b0;" horiz-adv-x="406" 
d="M463.5 579q2.5 -3 1.5 -7q-7 -36 -29 -61t-53 -34q-4 -1 -4 -5l-57 -462q0 -4 -3 -7t-8 -3h-32q-4 0 -6.5 3t-1.5 7l4 36q1 3 -0.5 3.5t-3.5 -1.5q-38 -55 -106 -55q-52 0 -81 29t-29 86q0 9 2 31l43 355q1 4 4 7t7 3h32q5 0 7.5 -3t1.5 -7l-42 -343q-2 -18 -2 -26
q0 -42 19.5 -63.5t55.5 -21.5q43 0 71 32t35 88l41 334q2 10 11 10h14q26 0 47.5 18t28.5 50q1 10 11 10h15q4 0 6.5 -3z" />
    <glyph glyph-name="uni01CD" unicode="&#x1cd;" horiz-adv-x="379" 
d="M297 9l-10 131q0 2 -1.5 3t-3.5 1h-190q-2 0 -3.5 -1t-1.5 -3l-42 -131q-3 -9 -12 -9h-32q-5 0 -7 3t0 8l231 680q2 9 11 9h39q9 0 10 -9l65 -680q0 -5 -3 -8t-7 -3h-33q-10 0 -10 9zM107 188h171q2 0 4 4l-35 423q0 3 -1 3t-3 -3l-139 -423q0 -4 3 -4zM182 887q0 7 8 7
h30q8 0 11 -7l37 -76q0 -1 2 -1t3 1l55 76q7 7 13 7h30q6 0 7 -3.5t-3 -8.5l-77 -102q-7 -7 -13 -7h-41q-6 0 -10 7l-51 102q-1 2 -1 5z" />
    <glyph glyph-name="uni01CE" unicode="&#x1ce;" horiz-adv-x="391" 
d="M340 504h32q9 0 9 -10l-60 -484q0 -4 -3 -7t-8 -3h-32q-4 0 -6.5 3t-1.5 7l5 39q0 3 -2 3.5t-3 -2.5q-19 -28 -47 -43t-60 -15q-54 0 -84 33t-30 89q0 8 2 28l27 220q8 67 48.5 108.5t100.5 41.5q32 0 56 -15t37 -43q1 -3 2.5 -2.5t2.5 3.5l4 39q2 10 11 10zM252 68
q29 29 34 76l27 215q1 6 1 19q0 39 -21 63t-57 24q-42 0 -71.5 -29.5t-35.5 -76.5l-26 -215q-1 -6 -1 -18q0 -39 22 -63t59 -24q40 0 69 29zM164 691q0 7 8 7h30q8 0 11 -7l37 -76q0 -1 2 -1t3 1l55 76q7 7 13 7h30q6 0 7 -3.5t-3 -8.5l-77 -102q-7 -7 -13 -7h-41
q-6 0 -10 7l-51 102q-1 2 -1 5z" />
    <glyph glyph-name="uni01D4" unicode="&#x1d4;" horiz-adv-x="406" 
d="M341 504h32q9 0 9 -10l-60 -484q0 -4 -3 -7t-8 -3h-32q-4 0 -6.5 3t-1.5 7l4 36q1 3 -0.5 3.5t-3.5 -1.5q-38 -55 -106 -55q-52 0 -81 29t-29 86q0 9 2 31l43 355q1 4 4 7t7 3h32q5 0 7.5 -3t1.5 -7l-42 -343q-2 -18 -2 -26q0 -42 19.5 -63.5t55.5 -21.5q43 0 71 32
t35 88l41 334q2 10 11 10zM168 691q0 7 8 7h30q8 0 11 -7l37 -76q0 -1 2 -1t3 1l55 76q7 7 13 7h30q6 0 7 -3.5t-3 -8.5l-77 -102q-7 -7 -13 -7h-41q-6 0 -10 7l-51 102q-1 2 -1 5z" />
    <glyph glyph-name="uni01E5" unicode="&#x1e5;" horiz-adv-x="400" 
d="M409.5 265q2.5 -3 1.5 -7l-2 -17q-2 -10 -11 -10h-45q-4 0 -4 -4l-27 -221q-13 -103 -65 -157t-153 -50q-10 0 -8 10l3 27q1 10 14 10q74 0 110.5 41t46.5 123l5 38q0 3 -2 3.5t-3 -2.5q-20 -27 -47.5 -40.5t-58.5 -13.5q-53 0 -83.5 33.5t-30.5 89.5q0 9 2 27l26 217
q8 67 49 108.5t101 41.5q31 0 55.5 -14t36.5 -40q2 -2 3.5 -2t1.5 3l4 35q2 10 11 10h33q9 0 9 -10l-28 -222q0 -4 4 -4h44q5 0 7.5 -3zM252.5 71q28.5 29 34.5 76l10 80q0 4 -4 4h-89q-9 0 -9 10l3 17q0 4 3 7t7 3h90q4 0 4 4l11 87q1 6 1 19q0 39 -21 63t-57 24
q-41 0 -71 -29.5t-36 -76.5l-26 -212q-1 -6 -1 -16q0 -40 22.5 -64.5t59.5 -24.5q40 0 68.5 29z" />
    <glyph glyph-name="gcaron" unicode="&#x1e7;" horiz-adv-x="394" 
d="M340 504h33q9 0 9 -10l-60 -488q-13 -103 -65 -157t-153 -50q-10 0 -8 10l3 27q1 10 14 10q74 0 110.5 41t46.5 123l5 38q0 3 -2 3.5t-3 -2.5q-20 -27 -47.5 -40.5t-58.5 -13.5q-53 0 -83.5 33.5t-30.5 89.5q0 9 2 27l26 217q8 67 49 108.5t101 41.5q31 0 55.5 -14
t36.5 -40q2 -2 3.5 -2t1.5 3l4 35q2 10 11 10zM252.5 71q28.5 29 34.5 76l26 212q1 6 1 19q0 39 -21 63t-57 24q-41 0 -71 -29.5t-36 -76.5l-26 -212q-1 -6 -1 -16q0 -40 22.5 -64.5t59.5 -24.5q40 0 68.5 29zM166 691q0 7 8 7h30q8 0 11 -7l37 -76q0 -1 2 -1t3 1l55 76
q7 7 13 7h30q6 0 7 -3.5t-3 -8.5l-77 -102q-7 -7 -13 -7h-41q-6 0 -10 7l-51 102q-1 2 -1 5z" />
    <glyph glyph-name="uni01E9" unicode="&#x1e9;" horiz-adv-x="382" 
d="M47 10l83 680q2 10 11 10h32q9 0 9 -10l-52 -420q0 -2 2 -2.5t3 1.5l188 229q5 6 12 6h34q6 0 7.5 -3.5t-2.5 -8.5l-111 -136q-2 -2 -2 -5l72 -340v-2q0 -9 -9 -9h-34q-8 0 -11 8l-55 297q-1 6 -6 1l-96 -116q-2 -2 -2 -5l-22 -175q-2 -10 -11 -10h-32q-10 0 -8 10z
M190 887q0 7 8 7h30q8 0 11 -7l37 -76q0 -1 2 -1t3 1l55 76q7 7 13 7h30q6 0 7 -3.5t-3 -8.5l-77 -102q-7 -7 -13 -7h-41q-6 0 -10 7l-51 102q-1 2 -1 5z" />
    <glyph glyph-name="uni01EF" unicode="&#x1ef;" horiz-adv-x="432" 
d="M168.5 239.5q0.5 -1.5 2.5 -1.5q102 -4 152 -53t50 -130q0 -24 -2 -36q-10 -76 -50 -128t-97 -77t-119 -25q-45 0 -87 14q-6 3 -5 12l4 27q1 6 4.5 8t8.5 0q36 -12 76 -12q78 0 140 43.5t74 139.5q2 20 2 29q0 63 -40 103t-136 40q-12 0 -42 -2h-2q-5 0 -9 8l-3 20
q0 10 5 14l227 217q3 5 -1 5h-199q-9 0 -9 10l4 29q2 10 11 10h259q10 0 8 -10l-4 -32q0 -6 -6 -12l-215 -207q-2 -2 -1.5 -3.5zM188 691q0 7 8 7h30q8 0 11 -7l37 -76q0 -1 2 -1t3 1l55 76q7 7 13 7h30q6 0 7 -3.5t-3 -8.5l-77 -102q-7 -7 -13 -7h-41q-6 0 -10 7l-51 102
q-1 2 -1 5z" />
    <glyph glyph-name="oslashacute" unicode="&#x1ff;" horiz-adv-x="395" 
d="M350 459q20 -31 20 -73q0 -8 -2 -24l-27 -220q-8 -67 -53 -108.5t-111 -41.5q-38 0 -67 15q-3 2 -6 -2l-25 -47q-2 -5 -5.5 -6.5t-7.5 1.5l-20 12q-7 5 -2 14l30 56q2 3 0 5q-23 32 -23 79q0 15 1 23l27 220q8 66 53 108t109 42q43 0 73 -18q5 -2 6 2l28 53q1 4 5 5.5
t8 -0.5l21 -12q7 -5 2 -14l-34 -64q-2 -3 0 -5zM103 128q0 -10 2 -24q1 -3 3 -2.5t3 2.5l179 337q1 3 -1 5q-22 19 -53 19q-41 0 -70.5 -29.5t-35.5 -76.5l-26 -215q-1 -5 -1 -16zM318 376q0 11 -1 15q-1 3 -2.5 3t-2.5 -2l-179 -333q-1 -3 2 -5q20 -15 48 -15q42 0 72 29.5
t35 75.5l27 215q1 6 1 17zM212.5 574.5q-1.5 3.5 2.5 8.5l74 110q5 7 12 7h26q6 0 7.5 -3.5t-1.5 -8.5l-81 -110q-5 -7 -12 -7h-20q-6 0 -7.5 3.5z" />
    <glyph glyph-name="uni0218" unicode="&#x218;" horiz-adv-x="397" 
d="M79.5 31.5q-36.5 39.5 -36.5 105.5q0 10 2 30l2 21q2 10 11 10h31q5 0 7.5 -3t1.5 -7l-3 -19q-1 -8 -1 -23q0 -50 24 -79t64 -29q33 0 61 18.5t44.5 52.5t16.5 76q0 30 -12 53.5t-30 41t-59 53.5q-41 35 -63.5 58t-37 53.5t-14.5 69.5q0 9 2 29q10 77 57 121t113 44
q63 0 99.5 -39.5t36.5 -107.5q0 -9 -2 -31l-3 -25q-2 -10 -11 -10h-32q-9 0 -9 10l3 25q2 18 2 26q0 48 -24 77t-66 29q-43 0 -75 -31.5t-39 -88.5q-1 -7 -1 -20q0 -40 21 -68.5t77 -75.5q47 -40 70.5 -64.5t36.5 -51.5t13 -63q0 -8 -2 -28q-10 -82 -59 -130.5t-119 -48.5
q-61 0 -97.5 39.5zM117.5 -198.5q-1.5 3.5 2.5 8.5l74 110q5 7 12 7h26q6 0 7.5 -3.5t-1.5 -8.5l-81 -110q-5 -7 -12 -7h-20q-6 0 -7.5 3.5z" />
    <glyph glyph-name="uni0219" unicode="&#x219;" horiz-adv-x="354" 
d="M72.5 25.5q-33.5 30.5 -33.5 79.5q0 11 1 17l1 6q2 10 11 10h30q10 0 8 -10v-6l-1 -11q0 -32 22 -52.5t59 -20.5q39 0 65.5 24.5t31.5 63.5l1 12q0 25 -12 41.5t-29.5 26.5t-49.5 25q-50 22 -77 47.5t-27 75.5q0 69 43 111.5t109 42.5q57 0 89 -31t32 -83q0 -12 -1 -19
l-1 -3q0 -4 -3 -7t-7 -3h-30q-4 0 -6.5 3t-1.5 7l1 5q4 37 -17.5 62t-59.5 25q-42 0 -69.5 -28.5t-27.5 -71.5q0 -33 20.5 -50.5t64.5 -38.5q35 -16 57 -29.5t38 -37.5t16 -59q0 -69 -43 -111.5t-112 -42.5q-58 0 -91.5 30.5zM105.5 -195.5q-1.5 3.5 2.5 8.5l74 110
q5 7 12 7h26q6 0 7.5 -3.5t-1.5 -8.5l-81 -110q-5 -7 -12 -7h-20q-6 0 -7.5 3.5z" />
    <glyph glyph-name="uni021A" unicode="&#x21a;" horiz-adv-x="399" 
d="M427.5 697q2.5 -3 1.5 -7l-3 -27q-2 -10 -11 -10h-129q-3 0 -5 -4l-78 -639q-2 -10 -11 -10h-32q-10 0 -8 10l78 639q0 4 -3 4h-122q-4 0 -6.5 3t-1.5 7l3 27q2 10 11 10h310q4 0 6.5 -3zM55.5 -193.5q-1.5 3.5 2.5 8.5l74 110q5 7 12 7h26q6 0 7.5 -3.5t-1.5 -8.5
l-81 -110q-5 -7 -12 -7h-20q-6 0 -7.5 3.5z" />
    <glyph glyph-name="uni021B" unicode="&#x21b;" horiz-adv-x="253" 
d="M251 462h-78q-4 0 -4 -4l-40 -322q-2 -20 -2 -26q0 -35 14.5 -49t45.5 -14h10q10 0 8 -10l-3 -27q-2 -10 -11 -10h-19q-48 0 -72.5 19.5t-24.5 71.5q0 8 2 32l41 335q1 1 0 2.5t-3 1.5h-40q-10 0 -8 10l2 22q2 10 11 10h40q4 0 4 4l14 112q2 10 11 10h31q9 0 9 -10
l-14 -112q0 -4 3 -4h78q10 0 8 -10l-2 -22q-2 -10 -11 -10zM73.5 -179.5q-1.5 3.5 2.5 8.5l74 110q5 7 12 7h26q6 0 7.5 -3.5t-1.5 -8.5l-81 -110q-5 -7 -12 -7h-20q-6 0 -7.5 3.5z" />
    <glyph glyph-name="uni021F" unicode="&#x21f;" horiz-adv-x="406" 
d="M345.5 479q27.5 -32 27.5 -90q0 -10 -2 -34l-42 -345q-2 -10 -11 -10h-32q-10 0 -8 10l41 340q2 18 2 26q0 42 -19.5 65t-56.5 23q-42 0 -70.5 -32t-35.5 -88l-41 -334q-2 -10 -11 -10h-32q-10 0 -8 10l83 680q2 10 11 10h32q9 0 9 -10l-29 -234q-1 -3 1 -3t4 2
q40 56 109 56q51 0 78.5 -32zM203 887q0 7 8 7h30q8 0 11 -7l37 -76q0 -1 2 -1t3 1l55 76q7 7 13 7h30q6 0 7 -3.5t-3 -8.5l-77 -102q-7 -7 -13 -7h-41q-6 0 -10 7l-51 102q-1 2 -1 5z" />
    <glyph glyph-name="uni0228" unicode="&#x228;" horiz-adv-x="414" 
d="M430 656q-3 -3 -7 -3h-230q-3 0 -5 -4l-33 -271q0 -2 1 -3t2 -1h148q10 0 8 -10l-3 -27q-2 -10 -11 -10h-147q-3 0 -5 -4l-33 -272q0 -4 3 -4h230q9 0 9 -10l-4 -27q0 -4 -3 -7t-8 -3h-113q-2 0 -3 -1.5t0 -3.5q29 -35 29 -76q0 -19 -6 -37q-9 -32 -30 -45.5t-48 -13.5
q-14 0 -26 3q-8 2 -5 12l4 14q2 5 5 6.5t7 0.5t13 -1q20 0 34 14.5t14 46.5q0 39 -33 79q-2 2 -5 2h-112q-9 0 -9 10l84 680q2 10 11 10h275q5 0 7.5 -3t1.5 -7l-3 -27q-1 -4 -4 -7z" />
    <glyph glyph-name="uni0229" unicode="&#x229;" horiz-adv-x="388" 
d="M341 233h-223q-3 0 -5 -4l-10 -85q-1 -6 -1 -18q0 -39 21.5 -63t58.5 -24q34 0 61 21t39 55q5 9 12 9l30 -2q5 0 7.5 -3t0.5 -7q-14 -47 -46.5 -78t-78.5 -39q-5 -1 -3 -5q25 -32 25 -71q0 -19 -6 -37q-10 -32 -31.5 -45.5t-48.5 -13.5q-13 0 -25 3q-8 2 -5 12l4 14
q1 4 4.5 6.5t7.5 0.5q4 -1 13 -1q36 0 45 39q3 12 3 23q0 34 -27 71q-2 2 -5 2q-51 4 -79.5 38t-28.5 87q0 15 1 23l27 221q8 66 53 108t109 42q59 0 93.5 -34.5t34.5 -91.5q0 -8 -2 -24l-14 -119q-2 -10 -11 -10zM164.5 435.5q-29.5 -29.5 -35.5 -76.5l-9 -76q0 -2 1 -3
t2 -1h178q4 0 4 4l10 76q1 6 1 17q0 41 -22 65t-59 24q-41 0 -70.5 -29.5z" />
    <glyph glyph-name="uni0237" unicode="&#x237;" horiz-adv-x="187" 
d="M-64.5 -206q-2.5 3 -1.5 7l3 27q2 10 11 10q39 2 62 30t29 77l67 549q2 10 11 10h32q9 0 9 -10l-68 -549q-9 -75 -42.5 -114t-105.5 -40q-4 0 -6.5 3z" />
    <glyph glyph-name="uni0259" unicode="&#x259;" horiz-adv-x="388" 
d="M328.5 477.5q34.5 -34.5 34.5 -91.5q0 -8 -2 -24l-27 -220q-8 -66 -53 -108t-109 -42q-60 0 -94 34.5t-34 91.5q0 8 2 24l14 118q2 10 11 10h223q4 0 4 4l11 86q1 6 1 18q0 39 -21.5 63t-58.5 24q-34 0 -61.5 -21t-39.5 -55q-3 -9 -12 -9l-30 2q-11 0 -8 10
q15 55 57 87.5t100 32.5t92.5 -34.5zM247.5 68q29.5 29 34.5 76l10 77q0 2 -1 3t-2 1h-179q-4 0 -4 -4l-10 -77q-1 -6 -1 -16q0 -40 22 -64.5t60 -24.5q41 0 70.5 29z" />
    <glyph glyph-name="uni0292" unicode="&#x292;" horiz-adv-x="432" 
d="M168.5 239.5q0.5 -1.5 2.5 -1.5q102 -4 152 -53t50 -130q0 -24 -2 -36q-10 -76 -50 -128t-97 -77t-119 -25q-45 0 -87 14q-6 3 -5 12l4 27q1 6 4.5 8t8.5 0q36 -12 76 -12q78 0 140 43.5t74 139.5q2 20 2 29q0 63 -40 103t-136 40q-12 0 -42 -2h-2q-5 0 -9 8l-3 20
q0 10 5 14l227 217q3 5 -1 5h-199q-9 0 -9 10l4 29q2 10 11 10h259q10 0 8 -10l-4 -32q0 -6 -6 -12l-215 -207q-2 -2 -1.5 -3.5z" />
    <glyph glyph-name="uni02BB" unicode="&#x2bb;" horiz-adv-x="103" 
d="M69 691q0 9 9 9h33q8 0 10 -9l23 -179v-2q0 -9 -10 -9h-22q-8 0 -11 8l-32 180v2z" />
    <glyph glyph-name="uni02BC" unicode="&#x2bc;" horiz-adv-x="103" 
d="M165.5 697q1.5 -3 -0.5 -8l-77 -180q-5 -8 -13 -8h-22q-10 0 -7 11l67 179q3 9 12 9h34q5 0 6.5 -3z" />
    <glyph glyph-name="circumflex" unicode="&#x2c6;" horiz-adv-x="207" 
d="M81.5 582.5q-1.5 3.5 2.5 8.5l76 102q5 7 12 7h41q6 0 11 -7l52 -102q1 -2 1 -6q0 -6 -8 -6h-30q-6 0 -11 7l-36 76q-1 2 -3 2t-3 -2l-55 -76q-5 -7 -12 -7h-30q-6 0 -7.5 3.5z" />
    <glyph glyph-name="caron" unicode="&#x2c7;" horiz-adv-x="254" 
d="M95 693q0 7 8 7h30q8 0 11 -7l37 -76q0 -1 2 -1t3 1l55 76q7 7 13 7h30q6 0 7 -3.5t-3 -8.5l-77 -102q-7 -7 -13 -7h-41q-6 0 -10 7l-51 102q-1 2 -1 5z" />
    <glyph glyph-name="uni02C9" unicode="&#x2c9;" horiz-adv-x="193" 
d="M64.5 663q-2.5 3 -1.5 7l2 20q2 10 11 10h173q10 0 8 -10l-2 -20q-2 -10 -11 -10h-173q-4 0 -6.5 3z" />
    <glyph glyph-name="breve" unicode="&#x2d8;" horiz-adv-x="243" 
d="M107.5 586q-24.5 26 -23.5 66q2 10 11 10h14q10 0 10 -12q0 -25 16 -41.5t40 -16.5t44 17t26 43q3 10 12 10h14q5 0 7 -3t1 -7q-8 -40 -38.5 -66t-69.5 -26t-63.5 26z" />
    <glyph glyph-name="dotaccent" unicode="&#x2d9;" horiz-adv-x="144" 
d="M96 616.5q-12 11.5 -12 30.5q0 25 16 41.5t40 16.5q19 0 30.5 -12t11.5 -32q0 -24 -16 -40t-39 -16q-19 0 -31 11.5z" />
    <glyph glyph-name="ring" unicode="&#x2da;" horiz-adv-x="244" 
d="M112.5 609q-24.5 26 -24.5 64q0 32 15.5 59t41.5 43t55 16q38 0 62.5 -25.5t24.5 -64.5q0 -49 -33.5 -83.5t-79.5 -34.5q-37 0 -61.5 26zM230.5 641.5q22.5 23.5 22.5 55.5q0 25 -16.5 42t-40.5 17q-29 0 -52 -23t-23 -55q0 -26 17 -43t41 -17q29 0 51.5 23.5z" />
    <glyph glyph-name="ogonek" unicode="&#x2db;" horiz-adv-x="109" 
d="M65 -172q0 -7 -8 -9q-12 -3 -26 -3q-28 0 -46.5 15t-18.5 50q0 62 57 112q4 3 4 4q5 3 11 3h16q8 0 8 -5q0 -2 -5 -7q-23 -22 -37 -47t-14 -50q0 -45 47 -40l4 1q8 0 8 -8v-14v-2z" />
    <glyph glyph-name="tilde" unicode="&#x2dc;" horiz-adv-x="298" 
d="M228.5 619.5q-10.5 5.5 -24.5 16.5q-2 2 -10.5 8.5t-15.5 9.5t-15 3q-14 0 -25 -5.5t-23 -21.5q-8 -9 -14 -3l-11 9q-7 5 -1 13q32 48 76 48q15 0 26 -6t25 -17q5 -3 13 -9.5t15 -9.5t15 -3q13 0 24 6.5t23 23.5q5 10 14 4l10 -7q4 -2 4 -7t-6 -13q-16 -23 -36.5 -34
t-38.5 -11q-14 0 -24.5 5.5z" />
    <glyph glyph-name="hungarumlaut" unicode="&#x2dd;" horiz-adv-x="278" 
d="M81 582.5q-2 3.5 2 8.5l74 110q5 7 12 7h27q5 0 7 -3.5t-2 -8.5l-81 -110q-5 -7 -12 -7h-19q-6 0 -8 3.5zM194.5 582.5q-1.5 3.5 2.5 8.5l73 110q7 7 13 7h25q6 0 7.5 -3.5t-2.5 -8.5l-79 -110q-5 -7 -13 -7h-19q-6 0 -7.5 3.5z" />
    <glyph glyph-name="gravecomb" unicode="&#x300;" 
d="M45 579q0 -8 -10 -8h-20q-6 0 -11 7l-52 110q-1 2 -1 5q0 7 9 7h26q7 0 11 -7l47 -110z" />
    <glyph glyph-name="acutecomb" unicode="&#x301;" 
d="M-63.5 574.5q-1.5 3.5 2.5 8.5l74 110q5 7 12 7h26q6 0 7.5 -3.5t-1.5 -8.5l-81 -110q-5 -7 -12 -7h-20q-6 0 -7.5 3.5z" />
    <glyph glyph-name="uni0302" unicode="&#x302;" 
d="M-172.5 582.5q-1.5 3.5 2.5 8.5l76 102q5 7 12 7h41q6 0 11 -7l52 -102q1 -2 1 -6q0 -6 -8 -6h-30q-6 0 -11 7l-36 76q-1 2 -3 2t-3 -2l-55 -76q-5 -7 -12 -7h-30q-6 0 -7.5 3.5z" />
    <glyph glyph-name="tildecomb" unicode="&#x303;" 
d="M-45.5 619.5q-10.5 5.5 -24.5 16.5q-2 2 -10.5 8.5t-15.5 9.5t-15 3q-14 0 -25 -5.5t-23 -21.5q-8 -9 -14 -3l-11 9q-7 5 -1 13q32 48 76 48q15 0 26 -6t25 -17q5 -3 13 -9.5t15 -9.5t15 -3q13 0 24 6.5t23 23.5q5 10 14 4l10 -7q4 -2 4 -7t-6 -13q-16 -23 -36.5 -34
t-38.5 -11q-14 0 -24.5 5.5z" />
    <glyph glyph-name="uni0304" unicode="&#x304;" 
d="M-132.5 631q-2.5 3 -1.5 7l2 20q1 4 4 7t7 3h173q10 0 8 -10l-2 -20q-2 -10 -11 -10h-173q-4 0 -6.5 3z" />
    <glyph glyph-name="uni0306" unicode="&#x306;" 
d="M-133.5 609.5q-24.5 26.5 -22.5 66.5q2 10 11 10h14q9 0 9 -8q0 -28 15.5 -45.5t40.5 -17.5t45 17t26 44q3 10 12 10h14q5 0 7 -3t1 -7q-8 -40 -39 -66.5t-70 -26.5t-63.5 26.5z" />
    <glyph glyph-name="uni0307" unicode="&#x307;" 
d="M-28 616.5q-12 11.5 -12 30.5q0 25 16 41.5t40 16.5q19 0 30.5 -12t11.5 -32q0 -24 -16 -40t-39 -16q-19 0 -31 11.5z" />
    <glyph glyph-name="uni0308" unicode="&#x308;" 
d="M-25 616.5q-12 11.5 -12 30.5q0 25 16 41.5t40 16.5q19 0 30.5 -12t11.5 -32q0 -24 -16 -40t-39 -16q-19 0 -31 11.5zM-162 616.5q-12 11.5 -12 30.5q0 25 16 41.5t40 16.5q19 0 30.5 -12t11.5 -32q0 -24 -16 -40t-39 -16q-19 0 -31 11.5z" />
    <glyph glyph-name="hookabovecomb" unicode="&#x309;" 
d="M-270 560q8 14 18.5 25.5t20.5 20.5q15 13 22.5 23t9.5 26t-10 27t-30 11t-30.5 -8t-28.5 -28q-6 -9 -14 -3l-8 7q-7 6 -1 14q22 28 40 40t47 12q31 0 50.5 -17.5t19.5 -45.5q0 -26 -12 -43t-35 -37q-19 -16 -30 -31l-2 -4q-5 -8 -11 -5l-12 3q-9 4 -4 13z" />
    <glyph glyph-name="uni030A" unicode="&#x30a;" 
d="M-104.5 609q-24.5 26 -24.5 64q0 32 15.5 59t41.5 43t55 16q38 0 62.5 -25.5t24.5 -64.5q0 -49 -33.5 -83.5t-79.5 -34.5q-37 0 -61.5 26zM13.5 641.5q22.5 23.5 22.5 55.5q0 25 -16.5 42t-40.5 17q-29 0 -52 -23t-23 -55q0 -26 17 -43t41 -17q29 0 51.5 23.5z" />
    <glyph glyph-name="uni030B" unicode="&#x30b;" 
d="M-194.5 574.5q-2.5 3.5 0.5 8.5l72 110q4 7 12 7h27q5 0 7 -3.5t-2 -8.5l-73 -110q-4 -7 -12 -7h-24q-5 0 -7.5 3.5zM-81.5 574.5q-1.5 3.5 2.5 8.5l71 110q4 7 13 7h24q6 0 7.5 -3.5t-1.5 -8.5l-73 -110q-5 -7 -13 -7h-23q-6 0 -7.5 3.5z" />
    <glyph glyph-name="uni030C" unicode="&#x30c;" 
d="M-159 693q0 7 8 7h30q8 0 11 -7l37 -76q0 -1 2 -1t3 1l55 76q7 7 13 7h30q6 0 7 -3.5t-3 -8.5l-77 -102q-7 -7 -13 -7h-41q-6 0 -10 7l-51 102q-1 2 -1 5z" />
    <glyph glyph-name="uni0312" unicode="&#x312;" 
d="M37 696.5q2 -3.5 -2 -8.5l-74 -110q-5 -7 -12 -7h-26q-6 0 -7.5 3.5t1.5 8.5l81 110q5 7 12 7h20q5 0 7 -3.5z" />
    <glyph glyph-name="uni0313" unicode="&#x313;" 
d="M-63.5 574.5q-1.5 3.5 2.5 8.5l74 110q5 7 12 7h26q6 0 7.5 -3.5t-1.5 -8.5l-81 -110q-5 -7 -12 -7h-20q-6 0 -7.5 3.5z" />
    <glyph glyph-name="uni031B" unicode="&#x31b;" 
d="M-80.5 475q-2.5 3 -1.5 7l2 12q0 9 10 11q24 3 42 20.5t25 46.5q1 10 11 10h14q5 0 7 -3t1 -9q-9 -41 -37.5 -67.5t-65.5 -30.5q-5 0 -7.5 3z" />
    <glyph glyph-name="dotbelowcomb" unicode="&#x323;" 
d="M-122 -167q-11 12 -11 30q0 22 15 37.5t37 15.5q17 0 28.5 -11t11.5 -28q0 -23 -15.5 -39.5t-36.5 -16.5q-18 0 -29 12z" />
    <glyph glyph-name="uni0326" unicode="&#x326;" 
d="M-182.5 -190.5q-1.5 3.5 2.5 8.5l74 110q5 7 12 7h26q6 0 7.5 -3.5t-1.5 -8.5l-81 -110q-5 -7 -12 -7h-20q-6 0 -7.5 3.5z" />
    <glyph glyph-name="uni0327" unicode="&#x327;" 
d="M-146 -169l4 13q3 10 13 7q4 -1 11 -1q16 0 28.5 9.5t18.5 29.5q3 10 3 22q0 39 -31 77q-2 2 -2 5q0 7 8 7h16q6 0 9 -3l4 -4q33 -36 33 -82q0 -16 -5 -36q-9 -32 -30.5 -45.5t-48.5 -13.5q-14 0 -26 3q-8 1 -5 12z" />
    <glyph glyph-name="uni0328" unicode="&#x328;" 
d="M-44 -172q0 -7 -8 -9q-12 -3 -26 -3q-28 0 -46.5 15t-18.5 50q0 62 57 112q4 3 4 4q4 3 11 3h15q6 0 7 -4t-3 -8q-23 -22 -37 -47t-14 -50q0 -45 47 -40l4 1q8 0 8 -8v-14v-2z" />
    <glyph glyph-name="uni0335" unicode="&#x335;" 
d="M-191 608h234q10 0 8 -10l-2 -17q-2 -10 -11 -10h-234q-4 0 -6.5 3t-1.5 7l2 17q2 10 11 10z" />
    <glyph glyph-name="uni0336" unicode="&#x336;" 
d="M-351 527l3 21q2 10 11 10h376q9 0 9 -10l-3 -21q-2 -10 -11 -10h-376q-9 0 -9 10z" />
    <glyph glyph-name="uni0337" unicode="&#x337;" 
d="M-268 141q-4 0 -7 4l-13 18q-1 2 -1 5q0 4 5 9l352 235q2 2 6 2t7 -4l12 -20q2 -4 2 -6q0 -3 -5 -8l-352 -233q-2 -2 -6 -2z" />
    <glyph glyph-name="uni0338" unicode="&#x338;" 
d="M-368 -32.5q-2 3.5 1 8.5l394 759q4 8 12 8h20q5 0 7 -3.5t0 -8.5l-395 -759q-4 -8 -12 -8h-20q-5 0 -7 3.5z" />
    <glyph glyph-name="uni0394" unicode="&#x394;" horiz-adv-x="474" 
d="M-8 10l3 31q2 8 4 12l280 639q5 8 13 8h23q8 0 11 -8l123 -640q0 -2 0.5 -5t-0.5 -7l-4 -30q0 -4 -3 -7t-7 -3h-435q-10 0 -8 10zM48 48.5q1 -1.5 3 -1.5h344q2 0 3.5 1.5t0.5 3.5l-102 573q-1 2 -3 2t-3 -2l-243 -573q-1 -2 0 -3.5z" />
    <glyph glyph-name="uni03A9" unicode="&#x3a9;" horiz-adv-x="463" 
d="M42.5 3q-2.5 3 -1.5 7l3 27q2 10 11 10h57q2 0 3.5 1.5t-0.5 3.5q-41 36 -41 104q0 16 1 24l45 359q9 76 58.5 122.5t120.5 46.5q65 0 104 -39t39 -104q0 -8 -2 -26l-44 -359q-5 -41 -24 -74t-47 -54q-3 -2 -2.5 -3.5t2.5 -1.5h56q9 0 9 -10l-4 -27q0 -4 -3 -7t-8 -3
h-128q-4 0 -6.5 3t-1.5 7l3 28q1 8 10 11q33 7 59 39t31 78l46 375q1 7 1 20q0 45 -25.5 72.5t-69.5 27.5q-48 0 -82 -33.5t-41 -86.5l-46 -375q-1 -7 -1 -20q0 -38 17.5 -64.5t43.5 -32.5q9 -3 8 -11l-4 -28q0 -4 -3 -7t-8 -3h-129q-4 0 -6.5 3z" />
    <glyph glyph-name="uni03BC" unicode="&#x3bc;" horiz-adv-x="411" 
d="M347 504h32q9 0 9 -10l-60 -484q-2 -10 -11 -10h-32q-10 0 -8 10l4 36q1 3 -0.5 3t-3.5 -2q-39 -54 -106 -54q-41 0 -68 18q-1 1 -3 0t-2 -3l-24 -198q-2 -10 -11 -10h-32q-9 0 -9 10l84 684q2 10 11 10h32q9 0 9 -10l-42 -343q-2 -20 -2 -28q0 -41 19.5 -62t55.5 -21
q42 0 70.5 32t35.5 88l41 334q2 10 11 10z" />
    <glyph glyph-name="pi" unicode="&#x3c0;" horiz-adv-x="485" 
d="M479 458h-48q-3 0 -5 -4l-45 -365q-3 -24 7 -31.5t34 -8.5q9 0 9 -10l-4 -29q-2 -10 -11 -10q-44 1 -67 11.5t-23 43.5q0 9 1 14l47 385q0 2 -1 3t-2 1h-178q-4 0 -4 -4l-55 -444q-2 -10 -11 -10h-32q-10 0 -8 10l54 444q0 4 -3 4h-54q-5 0 -7.5 3t-1.5 7l3 26
q2 10 11 10h400q10 0 8 -10l-3 -26q-2 -10 -11 -10z" />
    <glyph glyph-name="Wgrave" unicode="&#x1e80;" horiz-adv-x="586" 
d="M139 9l-44 680q0 5 3 8t7 3h34q10 0 10 -9l30 -567q1 -2 2 -2t2 2l154 567q3 9 11 9h30q8 0 9 -9l19 -567q1 -2 2 -2t2 2l161 567q3 9 11 9h34q4 0 6.5 -3t0.5 -8l-204 -680q-3 -9 -12 -9h-31q-8 0 -8 9l-18 566q-1 2 -2 2t-2 -2l-156 -566q-1 -9 -11 -9h-31q-9 0 -9 9z
M387 775q0 -8 -10 -8h-20q-6 0 -11 7l-52 110q-1 2 -1 5q0 7 9 7h26q7 0 11 -7l47 -110z" />
    <glyph glyph-name="wgrave" unicode="&#x1e81;" horiz-adv-x="523" 
d="M109 9l-43 484q0 11 10 11h31q10 0 10 -9l28 -408q0 -3 1 -3t2 3l129 408q3 9 12 9h28q9 0 10 -9l29 -408q0 -3 1.5 -3t2.5 3l130 408q2 9 11 9l30 -1q10 0 8 -11l-163 -483q-3 -9 -12 -9h-32q-10 0 -10 9l-30 393q-1 3 -2 3t-2 -3l-125 -393q-3 -9 -12 -9h-33q-9 0 -9 9
zM329 579q0 -8 -10 -8h-20q-6 0 -11 7l-52 110q-1 2 -1 5q0 7 9 7h26q7 0 11 -7l47 -110z" />
    <glyph glyph-name="Wacute" unicode="&#x1e82;" horiz-adv-x="586" 
d="M139 9l-44 680q0 5 3 8t7 3h34q10 0 10 -9l30 -567q1 -2 2 -2t2 2l154 567q3 9 11 9h30q8 0 9 -9l19 -567q1 -2 2 -2t2 2l161 567q3 9 11 9h34q4 0 6.5 -3t0.5 -8l-204 -680q-3 -9 -12 -9h-31q-8 0 -8 9l-18 566q-1 2 -2 2t-2 -2l-156 -566q-1 -9 -11 -9h-31q-9 0 -9 9z
M333.5 770.5q-1.5 3.5 2.5 8.5l74 110q5 7 12 7h26q6 0 7.5 -3.5t-1.5 -8.5l-81 -110q-5 -7 -12 -7h-20q-6 0 -7.5 3.5z" />
    <glyph glyph-name="wacute" unicode="&#x1e83;" horiz-adv-x="523" 
d="M109 9l-43 484q0 11 10 11h31q10 0 10 -9l28 -408q0 -3 1 -3t2 3l129 408q3 9 12 9h28q9 0 10 -9l29 -408q0 -3 1.5 -3t2.5 3l130 408q2 9 11 9l30 -1q10 0 8 -11l-163 -483q-3 -9 -12 -9h-32q-10 0 -10 9l-30 393q-1 3 -2 3t-2 -3l-125 -393q-3 -9 -12 -9h-33q-9 0 -9 9
zM275.5 574.5q-1.5 3.5 2.5 8.5l74 110q5 7 12 7h26q6 0 7.5 -3.5t-1.5 -8.5l-81 -110q-5 -7 -12 -7h-20q-6 0 -7.5 3.5z" />
    <glyph glyph-name="Wdieresis" unicode="&#x1e84;" horiz-adv-x="586" 
d="M139 9l-44 680q0 5 3 8t7 3h34q10 0 10 -9l30 -567q1 -2 2 -2t2 2l154 567q3 9 11 9h30q8 0 9 -9l19 -567q1 -2 2 -2t2 2l161 567q3 9 11 9h34q4 0 6.5 -3t0.5 -8l-204 -680q-3 -9 -12 -9h-31q-8 0 -8 9l-18 566q-1 2 -2 2t-2 -2l-156 -566q-1 -9 -11 -9h-31q-9 0 -9 9z
M411 812.5q-12 11.5 -12 30.5q0 25 16 41.5t40 16.5q19 0 30.5 -12t11.5 -32q0 -24 -16 -40t-39 -16q-19 0 -31 11.5zM274 812.5q-12 11.5 -12 30.5q0 25 16 41.5t40 16.5q19 0 30.5 -12t11.5 -32q0 -24 -16 -40t-39 -16q-19 0 -31 11.5z" />
    <glyph glyph-name="wdieresis" unicode="&#x1e85;" horiz-adv-x="523" 
d="M109 9l-43 484q0 11 10 11h31q10 0 10 -9l28 -408q0 -3 1 -3t2 3l129 408q3 9 12 9h28q9 0 10 -9l29 -408q0 -3 1.5 -3t2.5 3l130 408q2 9 11 9l30 -1q10 0 8 -11l-163 -483q-3 -9 -12 -9h-32q-10 0 -10 9l-30 393q-1 3 -2 3t-2 -3l-125 -393q-3 -9 -12 -9h-33q-9 0 -9 9
zM352 616.5q-12 11.5 -12 30.5q0 25 16 41.5t40 16.5q19 0 30.5 -12t11.5 -32q0 -24 -16 -40t-39 -16q-19 0 -31 11.5zM215 616.5q-12 11.5 -12 30.5q0 25 16 41.5t40 16.5q19 0 30.5 -12t11.5 -32q0 -24 -16 -40t-39 -16q-19 0 -31 11.5z" />
    <glyph glyph-name="uni1EA0" unicode="&#x1ea0;" horiz-adv-x="379" 
d="M297 9l-10 131q0 2 -1.5 3t-3.5 1h-190q-2 0 -3.5 -1t-1.5 -3l-42 -131q-3 -9 -12 -9h-32q-5 0 -7 3t0 8l231 680q2 9 11 9h39q9 0 10 -9l65 -680q0 -5 -3 -8t-7 -3h-33q-10 0 -10 9zM107 188h171q2 0 4 4l-35 423q0 3 -1 3t-3 -3l-139 -423q0 -4 3 -4zM120 -167
q-11 12 -11 30q0 22 15 37.5t37 15.5q17 0 28.5 -11t11.5 -28q0 -23 -15.5 -39.5t-36.5 -16.5q-18 0 -29 12z" />
    <glyph glyph-name="uni1EA1" unicode="&#x1ea1;" horiz-adv-x="391" 
d="M340 504h32q9 0 9 -10l-60 -484q0 -4 -3 -7t-8 -3h-32q-4 0 -6.5 3t-1.5 7l5 39q0 3 -2 3.5t-3 -2.5q-19 -28 -47 -43t-60 -15q-54 0 -84 33t-30 89q0 8 2 28l27 220q8 67 48.5 108.5t100.5 41.5q32 0 56 -15t37 -43q1 -3 2.5 -2.5t2.5 3.5l4 39q2 10 11 10zM252 68
q29 29 34 76l27 215q1 6 1 19q0 39 -21 63t-57 24q-42 0 -71.5 -29.5t-35.5 -76.5l-26 -215q-1 -6 -1 -18q0 -39 22 -63t59 -24q40 0 69 29zM125 -167q-11 12 -11 30q0 22 15 37.5t37 15.5q17 0 28.5 -11t11.5 -28q0 -23 -15.5 -39.5t-36.5 -16.5q-18 0 -29 12z" />
    <glyph glyph-name="uni1EA2" unicode="&#x1ea2;" horiz-adv-x="379" 
d="M297 9l-10 131q0 2 -1.5 3t-3.5 1h-190q-2 0 -3.5 -1t-1.5 -3l-42 -131q-3 -9 -12 -9h-32q-5 0 -7 3t0 8l231 680q2 9 11 9h39q9 0 10 -9l65 -680q0 -5 -3 -8t-7 -3h-33q-10 0 -10 9zM107 188h171q2 0 4 4l-35 423q0 3 -1 3t-3 -3l-139 -423q0 -4 3 -4zM251 756
q8 14 18.5 25.5t20.5 20.5q15 13 22.5 23t9.5 26t-10 27t-30 11t-30.5 -8t-28.5 -28q-6 -9 -14 -3l-8 7q-7 6 -1 14q22 28 40 40t47 12q31 0 50.5 -17.5t19.5 -45.5q0 -26 -12 -43t-35 -37q-19 -16 -30 -31l-2 -4q-5 -8 -11 -5l-12 3q-9 4 -4 13z" />
    <glyph glyph-name="uni1EA3" unicode="&#x1ea3;" horiz-adv-x="391" 
d="M340 504h32q9 0 9 -10l-60 -484q0 -4 -3 -7t-8 -3h-32q-4 0 -6.5 3t-1.5 7l5 39q0 3 -2 3.5t-3 -2.5q-19 -28 -47 -43t-60 -15q-54 0 -84 33t-30 89q0 8 2 28l27 220q8 67 48.5 108.5t100.5 41.5q32 0 56 -15t37 -43q1 -3 2.5 -2.5t2.5 3.5l4 39q2 10 11 10zM252 68
q29 29 34 76l27 215q1 6 1 19q0 39 -21 63t-57 24q-42 0 -71.5 -29.5t-35.5 -76.5l-26 -215q-1 -6 -1 -18q0 -39 22 -63t59 -24q40 0 69 29zM233 560q8 14 18.5 25.5t20.5 20.5q15 13 22.5 23t9.5 26t-10 27t-30 11t-30.5 -8t-28.5 -28q-6 -9 -14 -3l-8 7q-7 6 -1 14
q22 28 40 40t47 12q31 0 50.5 -17.5t19.5 -45.5q0 -26 -12 -43t-35 -37q-19 -16 -30 -31l-2 -4q-5 -8 -11 -5l-12 3q-9 4 -4 13z" />
    <glyph glyph-name="uni1EA4" unicode="&#x1ea4;" horiz-adv-x="379" 
d="M297 9l-10 131q0 2 -1.5 3t-3.5 1h-190q-2 0 -3.5 -1t-1.5 -3l-42 -131q-3 -9 -12 -9h-32q-5 0 -7 3t0 8l231 680q2 9 11 9h39q9 0 10 -9l65 -680q0 -5 -3 -8t-7 -3h-33q-10 0 -10 9zM107 188h171q2 0 4 4l-35 423q0 3 -1 3t-3 -3l-139 -423q0 -4 3 -4zM167.5 778.5
q-1.5 3.5 2.5 8.5l76 102q5 7 12 7h41q6 0 11 -7l52 -102q1 -2 1 -6q0 -6 -8 -6h-30q-6 0 -11 7l-36 76q-1 2 -3 2t-3 -2l-55 -76q-5 -7 -12 -7h-30q-6 0 -7.5 3.5zM375.5 847.5q-1.5 3.5 2.5 8.5l74 110q5 7 12 7h26q6 0 7.5 -3.5t-1.5 -8.5l-81 -110q-5 -7 -12 -7h-20
q-6 0 -7.5 3.5z" />
    <glyph glyph-name="uni1EA5" unicode="&#x1ea5;" horiz-adv-x="391" 
d="M340 504h32q9 0 9 -10l-60 -484q0 -4 -3 -7t-8 -3h-32q-4 0 -6.5 3t-1.5 7l5 39q0 3 -2 3.5t-3 -2.5q-19 -28 -47 -43t-60 -15q-54 0 -84 33t-30 89q0 8 2 28l27 220q8 67 48.5 108.5t100.5 41.5q32 0 56 -15t37 -43q1 -3 2.5 -2.5t2.5 3.5l4 39q2 10 11 10zM252 68
q29 29 34 76l27 215q1 6 1 19q0 39 -21 63t-57 24q-42 0 -71.5 -29.5t-35.5 -76.5l-26 -215q-1 -6 -1 -18q0 -39 22 -63t59 -24q40 0 69 29zM149.5 582.5q-1.5 3.5 2.5 8.5l76 102q5 7 12 7h41q6 0 11 -7l52 -102q1 -2 1 -6q0 -6 -8 -6h-30q-6 0 -11 7l-36 76q-1 2 -3 2
t-3 -2l-55 -76q-5 -7 -12 -7h-30q-6 0 -7.5 3.5zM357.5 651.5q-1.5 3.5 2.5 8.5l74 110q5 7 12 7h26q6 0 7.5 -3.5t-1.5 -8.5l-81 -110q-5 -7 -12 -7h-20q-6 0 -7.5 3.5z" />
    <glyph glyph-name="uni1EA6" unicode="&#x1ea6;" horiz-adv-x="379" 
d="M297 9l-10 131q0 2 -1.5 3t-3.5 1h-190q-2 0 -3.5 -1t-1.5 -3l-42 -131q-3 -9 -12 -9h-32q-5 0 -7 3t0 8l231 680q2 9 11 9h39q9 0 10 -9l65 -680q0 -5 -3 -8t-7 -3h-33q-10 0 -10 9zM107 188h171q2 0 4 4l-35 423q0 3 -1 3t-3 -3l-139 -423q0 -4 3 -4zM167.5 778.5
q-1.5 3.5 2.5 8.5l76 102q5 7 12 7h41q6 0 11 -7l52 -102q1 -2 1 -6q0 -6 -8 -6h-30q-6 0 -11 7l-36 76q-1 2 -3 2t-3 -2l-55 -76q-5 -7 -12 -7h-30q-6 0 -7.5 3.5zM428 896q0 -8 -10 -8h-20q-6 0 -11 7l-52 110q-1 2 -1 5q0 7 9 7h26q7 0 11 -7l47 -110z" />
    <glyph glyph-name="uni1EA7" unicode="&#x1ea7;" horiz-adv-x="391" 
d="M340 504h32q9 0 9 -10l-60 -484q0 -4 -3 -7t-8 -3h-32q-4 0 -6.5 3t-1.5 7l5 39q0 3 -2 3.5t-3 -2.5q-19 -28 -47 -43t-60 -15q-54 0 -84 33t-30 89q0 8 2 28l27 220q8 67 48.5 108.5t100.5 41.5q32 0 56 -15t37 -43q1 -3 2.5 -2.5t2.5 3.5l4 39q2 10 11 10zM252 68
q29 29 34 76l27 215q1 6 1 19q0 39 -21 63t-57 24q-42 0 -71.5 -29.5t-35.5 -76.5l-26 -215q-1 -6 -1 -18q0 -39 22 -63t59 -24q40 0 69 29zM149.5 582.5q-1.5 3.5 2.5 8.5l76 102q5 7 12 7h41q6 0 11 -7l52 -102q1 -2 1 -6q0 -6 -8 -6h-30q-6 0 -11 7l-36 76q-1 2 -3 2
t-3 -2l-55 -76q-5 -7 -12 -7h-30q-6 0 -7.5 3.5zM410 700q0 -8 -10 -8h-20q-6 0 -11 7l-52 110q-1 2 -1 5q0 7 9 7h26q7 0 11 -7l47 -110z" />
    <glyph glyph-name="uni1EA8" unicode="&#x1ea8;" horiz-adv-x="379" 
d="M297 9l-10 131q0 2 -1.5 3t-3.5 1h-190q-2 0 -3.5 -1t-1.5 -3l-42 -131q-3 -9 -12 -9h-32q-5 0 -7 3t0 8l231 680q2 9 11 9h39q9 0 10 -9l65 -680q0 -5 -3 -8t-7 -3h-33q-10 0 -10 9zM107 188h171q2 0 4 4l-35 423q0 3 -1 3t-3 -3l-139 -423q0 -4 3 -4zM376 879
q12 21 38 45q15 13 22 22.5t9 24.5q2 16 -9.5 27.5t-28.5 11.5q-18 0 -29.5 -8t-28.5 -29q-6 -8 -14 -2l-8 7q-7 6 -1 13q19 27 37.5 39t48.5 12q31 0 49.5 -17t18.5 -45q0 -25 -11.5 -41.5t-33.5 -35.5q-2 -2 -13.5 -12.5t-17.5 -20.5q-3 -10 -12 -7l-11 3q-10 3 -5 13z
M167.5 778.5q-1.5 3.5 2.5 8.5l76 102q5 7 12 7h41q6 0 11 -7l52 -102q1 -2 1 -6q0 -6 -8 -6h-30q-6 0 -11 7l-36 76q-1 2 -3 2t-3 -2l-55 -76q-5 -7 -12 -7h-30q-6 0 -7.5 3.5z" />
    <glyph glyph-name="uni1EA9" unicode="&#x1ea9;" horiz-adv-x="391" 
d="M340 504h32q9 0 9 -10l-60 -484q0 -4 -3 -7t-8 -3h-32q-4 0 -6.5 3t-1.5 7l5 39q0 3 -2 3.5t-3 -2.5q-19 -28 -47 -43t-60 -15q-54 0 -84 33t-30 89q0 8 2 28l27 220q8 67 48.5 108.5t100.5 41.5q32 0 56 -15t37 -43q1 -3 2.5 -2.5t2.5 3.5l4 39q2 10 11 10zM252 68
q29 29 34 76l27 215q1 6 1 19q0 39 -21 63t-57 24q-42 0 -71.5 -29.5t-35.5 -76.5l-26 -215q-1 -6 -1 -18q0 -39 22 -63t59 -24q40 0 69 29zM358 683q12 21 38 45q15 13 22 22.5t9 24.5q2 16 -9.5 27.5t-28.5 11.5q-18 0 -29.5 -8t-28.5 -29q-6 -8 -14 -2l-8 7q-7 6 -1 13
q19 27 37.5 39t48.5 12q31 0 49.5 -17t18.5 -45q0 -25 -11.5 -41.5t-33.5 -35.5q-2 -2 -13.5 -12.5t-17.5 -20.5q-3 -10 -12 -7l-11 3q-10 3 -5 13zM149.5 582.5q-1.5 3.5 2.5 8.5l76 102q5 7 12 7h41q6 0 11 -7l52 -102q1 -2 1 -6q0 -6 -8 -6h-30q-6 0 -11 7l-36 76
q-1 2 -3 2t-3 -2l-55 -76q-5 -7 -12 -7h-30q-6 0 -7.5 3.5z" />
    <glyph glyph-name="uni1EAA" unicode="&#x1eaa;" horiz-adv-x="379" 
d="M297 9l-10 131q0 2 -1.5 3t-3.5 1h-190q-2 0 -3.5 -1t-1.5 -3l-42 -131q-3 -9 -12 -9h-32q-5 0 -7 3t0 8l231 680q2 9 11 9h39q9 0 10 -9l65 -680q0 -5 -3 -8t-7 -3h-33q-10 0 -10 9zM107 188h171q2 0 4 4l-35 423q0 3 -1 3t-3 -3l-139 -423q0 -4 3 -4zM167.5 778.5
q-1.5 3.5 2.5 8.5l76 102q5 7 12 7h41q6 0 11 -7l52 -102q1 -2 1 -6q0 -6 -8 -6h-30q-6 0 -11 7l-36 76q-1 2 -3 2t-3 -2l-55 -76q-5 -7 -12 -7h-30q-6 0 -7.5 3.5zM313.5 931.5q-10.5 5.5 -24.5 16.5q-2 2 -10.5 8.5t-15.5 9.5t-15 3q-14 0 -25 -5.5t-23 -21.5
q-8 -9 -14 -3l-11 9q-7 5 -1 13q32 48 76 48q15 0 26 -6t25 -17q5 -3 13 -9.5t15 -9.5t15 -3q13 0 24 6.5t23 23.5q5 10 14 4l10 -7q4 -2 4 -7t-6 -13q-16 -23 -36.5 -34t-38.5 -11q-14 0 -24.5 5.5z" />
    <glyph glyph-name="uni1EAB" unicode="&#x1eab;" horiz-adv-x="391" 
d="M340 504h32q9 0 9 -10l-60 -484q0 -4 -3 -7t-8 -3h-32q-4 0 -6.5 3t-1.5 7l5 39q0 3 -2 3.5t-3 -2.5q-19 -28 -47 -43t-60 -15q-54 0 -84 33t-30 89q0 8 2 28l27 220q8 67 48.5 108.5t100.5 41.5q32 0 56 -15t37 -43q1 -3 2.5 -2.5t2.5 3.5l4 39q2 10 11 10zM252 68
q29 29 34 76l27 215q1 6 1 19q0 39 -21 63t-57 24q-42 0 -71.5 -29.5t-35.5 -76.5l-26 -215q-1 -6 -1 -18q0 -39 22 -63t59 -24q40 0 69 29zM149.5 582.5q-1.5 3.5 2.5 8.5l76 102q5 7 12 7h41q6 0 11 -7l52 -102q1 -2 1 -6q0 -6 -8 -6h-30q-6 0 -11 7l-36 76q-1 2 -3 2
t-3 -2l-55 -76q-5 -7 -12 -7h-30q-6 0 -7.5 3.5zM295.5 735.5q-10.5 5.5 -24.5 16.5q-2 2 -10.5 8.5t-15.5 9.5t-15 3q-14 0 -25 -5.5t-23 -21.5q-8 -9 -14 -3l-11 9q-7 5 -1 13q32 48 76 48q15 0 26 -6t25 -17q5 -3 13 -9.5t15 -9.5t15 -3q13 0 24 6.5t23 23.5q5 10 14 4
l10 -7q4 -2 4 -7t-6 -13q-16 -23 -36.5 -34t-38.5 -11q-14 0 -24.5 5.5z" />
    <glyph glyph-name="uni1EAC" unicode="&#x1eac;" horiz-adv-x="379" 
d="M297 9l-10 131q0 2 -1.5 3t-3.5 1h-190q-2 0 -3.5 -1t-1.5 -3l-42 -131q-3 -9 -12 -9h-32q-5 0 -7 3t0 8l231 680q2 9 11 9h39q9 0 10 -9l65 -680q0 -5 -3 -8t-7 -3h-33q-10 0 -10 9zM107 188h171q2 0 4 4l-35 423q0 3 -1 3t-3 -3l-139 -423q0 -4 3 -4zM120 -167
q-11 12 -11 30q0 22 15 37.5t37 15.5q17 0 28.5 -11t11.5 -28q0 -23 -15.5 -39.5t-36.5 -16.5q-18 0 -29 12zM167.5 778.5q-1.5 3.5 2.5 8.5l76 102q5 7 12 7h41q6 0 11 -7l52 -102q1 -2 1 -6q0 -6 -8 -6h-30q-6 0 -11 7l-36 76q-1 2 -3 2t-3 -2l-55 -76q-5 -7 -12 -7h-30
q-6 0 -7.5 3.5z" />
    <glyph glyph-name="uni1EAD" unicode="&#x1ead;" horiz-adv-x="391" 
d="M340 504h32q9 0 9 -10l-60 -484q0 -4 -3 -7t-8 -3h-32q-4 0 -6.5 3t-1.5 7l5 39q0 3 -2 3.5t-3 -2.5q-19 -28 -47 -43t-60 -15q-54 0 -84 33t-30 89q0 8 2 28l27 220q8 67 48.5 108.5t100.5 41.5q32 0 56 -15t37 -43q1 -3 2.5 -2.5t2.5 3.5l4 39q2 10 11 10zM252 68
q29 29 34 76l27 215q1 6 1 19q0 39 -21 63t-57 24q-42 0 -71.5 -29.5t-35.5 -76.5l-26 -215q-1 -6 -1 -18q0 -39 22 -63t59 -24q40 0 69 29zM125 -167q-11 12 -11 30q0 22 15 37.5t37 15.5q17 0 28.5 -11t11.5 -28q0 -23 -15.5 -39.5t-36.5 -16.5q-18 0 -29 12zM149.5 582.5
q-1.5 3.5 2.5 8.5l76 102q5 7 12 7h41q6 0 11 -7l52 -102q1 -2 1 -6q0 -6 -8 -6h-30q-6 0 -11 7l-36 76q-1 2 -3 2t-3 -2l-55 -76q-5 -7 -12 -7h-30q-6 0 -7.5 3.5z" />
    <glyph glyph-name="uni1EAE" unicode="&#x1eae;" horiz-adv-x="379" 
d="M297 9l-10 131q0 2 -1.5 3t-3.5 1h-190q-2 0 -3.5 -1t-1.5 -3l-42 -131q-3 -9 -12 -9h-32q-5 0 -7 3t0 8l231 680q2 9 11 9h39q9 0 10 -9l65 -680q0 -5 -3 -8t-7 -3h-33q-10 0 -10 9zM107 188h171q2 0 4 4l-35 423q0 3 -1 3t-3 -3l-139 -423q0 -4 3 -4zM201.5 805.5
q-24.5 26.5 -22.5 66.5q2 10 11 10h14q9 0 9 -8q0 -28 15.5 -45.5t40.5 -17.5t45 17t26 44q3 10 12 10h14q5 0 7 -3t1 -7q-8 -40 -39 -66.5t-70 -26.5t-63.5 26.5zM247.5 929.5q-1.5 3.5 2.5 8.5l74 110q5 7 12 7h26q6 0 7.5 -3.5t-1.5 -8.5l-81 -110q-5 -7 -12 -7h-20
q-6 0 -7.5 3.5z" />
    <glyph glyph-name="uni1EAF" unicode="&#x1eaf;" horiz-adv-x="391" 
d="M340 504h32q9 0 9 -10l-60 -484q0 -4 -3 -7t-8 -3h-32q-4 0 -6.5 3t-1.5 7l5 39q0 3 -2 3.5t-3 -2.5q-19 -28 -47 -43t-60 -15q-54 0 -84 33t-30 89q0 8 2 28l27 220q8 67 48.5 108.5t100.5 41.5q32 0 56 -15t37 -43q1 -3 2.5 -2.5t2.5 3.5l4 39q2 10 11 10zM252 68
q29 29 34 76l27 215q1 6 1 19q0 39 -21 63t-57 24q-42 0 -71.5 -29.5t-35.5 -76.5l-26 -215q-1 -6 -1 -18q0 -39 22 -63t59 -24q40 0 69 29zM183.5 609.5q-24.5 26.5 -22.5 66.5q2 10 11 10h14q9 0 9 -8q0 -28 15.5 -45.5t40.5 -17.5t45 17t26 44q3 10 12 10h14q5 0 7 -3
t1 -7q-8 -40 -39 -66.5t-70 -26.5t-63.5 26.5zM229.5 733.5q-1.5 3.5 2.5 8.5l74 110q5 7 12 7h26q6 0 7.5 -3.5t-1.5 -8.5l-81 -110q-5 -7 -12 -7h-20q-6 0 -7.5 3.5z" />
    <glyph glyph-name="uni1EB0" unicode="&#x1eb0;" horiz-adv-x="379" 
d="M297 9l-10 131q0 2 -1.5 3t-3.5 1h-190q-2 0 -3.5 -1t-1.5 -3l-42 -131q-3 -9 -12 -9h-32q-5 0 -7 3t0 8l231 680q2 9 11 9h39q9 0 10 -9l65 -680q0 -5 -3 -8t-7 -3h-33q-10 0 -10 9zM107 188h171q2 0 4 4l-35 423q0 3 -1 3t-3 -3l-139 -423q0 -4 3 -4zM201.5 805.5
q-24.5 26.5 -22.5 66.5q2 10 11 10h14q9 0 9 -8q0 -28 15.5 -45.5t40.5 -17.5t45 17t26 44q3 10 12 10h14q5 0 7 -3t1 -7q-8 -40 -39 -66.5t-70 -26.5t-63.5 26.5zM301 934q0 -8 -10 -8h-20q-6 0 -11 7l-52 110q-1 2 -1 5q0 7 9 7h26q7 0 11 -7l47 -110z" />
    <glyph glyph-name="uni1EB1" unicode="&#x1eb1;" horiz-adv-x="391" 
d="M340 504h32q9 0 9 -10l-60 -484q0 -4 -3 -7t-8 -3h-32q-4 0 -6.5 3t-1.5 7l5 39q0 3 -2 3.5t-3 -2.5q-19 -28 -47 -43t-60 -15q-54 0 -84 33t-30 89q0 8 2 28l27 220q8 67 48.5 108.5t100.5 41.5q32 0 56 -15t37 -43q1 -3 2.5 -2.5t2.5 3.5l4 39q2 10 11 10zM252 68
q29 29 34 76l27 215q1 6 1 19q0 39 -21 63t-57 24q-42 0 -71.5 -29.5t-35.5 -76.5l-26 -215q-1 -6 -1 -18q0 -39 22 -63t59 -24q40 0 69 29zM183.5 609.5q-24.5 26.5 -22.5 66.5q2 10 11 10h14q9 0 9 -8q0 -28 15.5 -45.5t40.5 -17.5t45 17t26 44q3 10 12 10h14q5 0 7 -3
t1 -7q-8 -40 -39 -66.5t-70 -26.5t-63.5 26.5zM283 738q0 -8 -10 -8h-20q-6 0 -11 7l-52 110q-1 2 -1 5q0 7 9 7h26q7 0 11 -7l47 -110z" />
    <glyph glyph-name="uni1EB2" unicode="&#x1eb2;" horiz-adv-x="379" 
d="M297 9l-10 131q0 2 -1.5 3t-3.5 1h-190q-2 0 -3.5 -1t-1.5 -3l-42 -131q-3 -9 -12 -9h-32q-5 0 -7 3t0 8l231 680q2 9 11 9h39q9 0 10 -9l65 -680q0 -5 -3 -8t-7 -3h-33q-10 0 -10 9zM107 188h171q2 0 4 4l-35 423q0 3 -1 3t-3 -3l-139 -423q0 -4 3 -4zM271 914
q13 22 37 44q14 11 21.5 21.5t9.5 25.5t-9 26t-28 11q-18 0 -29.5 -7.5t-27.5 -27.5q-9 -8 -14 -3l-9 7q-6 6 -1 13q21 27 38.5 38.5t47.5 11.5q29 0 48 -17t19 -43q0 -25 -11.5 -41.5t-33.5 -35.5q-3 -2 -13.5 -12t-16.5 -20q-5 -10 -13 -7l-10 3q-10 3 -5 13zM201.5 805.5
q-24.5 26.5 -22.5 66.5q2 10 11 10h14q9 0 9 -8q0 -28 15.5 -45.5t40.5 -17.5t45 17t26 44q3 10 12 10h14q5 0 7 -3t1 -7q-8 -40 -39 -66.5t-70 -26.5t-63.5 26.5z" />
    <glyph glyph-name="uni1EB3" unicode="&#x1eb3;" horiz-adv-x="391" 
d="M340 504h32q9 0 9 -10l-60 -484q0 -4 -3 -7t-8 -3h-32q-4 0 -6.5 3t-1.5 7l5 39q0 3 -2 3.5t-3 -2.5q-19 -28 -47 -43t-60 -15q-54 0 -84 33t-30 89q0 8 2 28l27 220q8 67 48.5 108.5t100.5 41.5q32 0 56 -15t37 -43q1 -3 2.5 -2.5t2.5 3.5l4 39q2 10 11 10zM252 68
q29 29 34 76l27 215q1 6 1 19q0 39 -21 63t-57 24q-42 0 -71.5 -29.5t-35.5 -76.5l-26 -215q-1 -6 -1 -18q0 -39 22 -63t59 -24q40 0 69 29zM253 718q13 22 37 44q14 11 21.5 21.5t9.5 25.5t-9 26t-28 11q-18 0 -29.5 -7.5t-27.5 -27.5q-9 -8 -14 -3l-9 7q-6 6 -1 13
q21 27 38.5 38.5t47.5 11.5q29 0 48 -17t19 -43q0 -25 -11.5 -41.5t-33.5 -35.5q-3 -2 -13.5 -12t-16.5 -20q-5 -10 -13 -7l-10 3q-10 3 -5 13zM183.5 609.5q-24.5 26.5 -22.5 66.5q2 10 11 10h14q9 0 9 -8q0 -28 15.5 -45.5t40.5 -17.5t45 17t26 44q3 10 12 10h14q5 0 7 -3
t1 -7q-8 -40 -39 -66.5t-70 -26.5t-63.5 26.5z" />
    <glyph glyph-name="uni1EB4" unicode="&#x1eb4;" horiz-adv-x="379" 
d="M297 9l-10 131q0 2 -1.5 3t-3.5 1h-190q-2 0 -3.5 -1t-1.5 -3l-42 -131q-3 -9 -12 -9h-32q-5 0 -7 3t0 8l231 680q2 9 11 9h39q9 0 10 -9l65 -680q0 -5 -3 -8t-7 -3h-33q-10 0 -10 9zM107 188h171q2 0 4 4l-35 423q0 3 -1 3t-3 -3l-139 -423q0 -4 3 -4zM201.5 805.5
q-24.5 26.5 -22.5 66.5q2 10 11 10h14q9 0 9 -8q0 -28 15.5 -45.5t40.5 -17.5t45 17t26 44q3 10 12 10h14q5 0 7 -3t1 -7q-8 -40 -39 -66.5t-70 -26.5t-63.5 26.5zM306.5 929.5q-10.5 5.5 -24.5 16.5q-2 2 -10.5 8.5t-15.5 9.5t-15 3q-14 0 -25 -5.5t-23 -21.5q-8 -9 -14 -3
l-11 9q-7 5 -1 13q32 48 76 48q15 0 26 -6t25 -17q5 -3 13 -9.5t15 -9.5t15 -3q13 0 24 6.5t23 23.5q5 10 14 4l10 -7q4 -2 4 -7t-6 -13q-16 -23 -36.5 -34t-38.5 -11q-14 0 -24.5 5.5z" />
    <glyph glyph-name="uni1EB5" unicode="&#x1eb5;" horiz-adv-x="391" 
d="M340 504h32q9 0 9 -10l-60 -484q0 -4 -3 -7t-8 -3h-32q-4 0 -6.5 3t-1.5 7l5 39q0 3 -2 3.5t-3 -2.5q-19 -28 -47 -43t-60 -15q-54 0 -84 33t-30 89q0 8 2 28l27 220q8 67 48.5 108.5t100.5 41.5q32 0 56 -15t37 -43q1 -3 2.5 -2.5t2.5 3.5l4 39q2 10 11 10zM252 68
q29 29 34 76l27 215q1 6 1 19q0 39 -21 63t-57 24q-42 0 -71.5 -29.5t-35.5 -76.5l-26 -215q-1 -6 -1 -18q0 -39 22 -63t59 -24q40 0 69 29zM183.5 609.5q-24.5 26.5 -22.5 66.5q2 10 11 10h14q9 0 9 -8q0 -28 15.5 -45.5t40.5 -17.5t45 17t26 44q3 10 12 10h14q5 0 7 -3
t1 -7q-8 -40 -39 -66.5t-70 -26.5t-63.5 26.5zM288.5 733.5q-10.5 5.5 -24.5 16.5q-2 2 -10.5 8.5t-15.5 9.5t-15 3q-14 0 -25 -5.5t-23 -21.5q-8 -9 -14 -3l-11 9q-7 5 -1 13q32 48 76 48q15 0 26 -6t25 -17q5 -3 13 -9.5t15 -9.5t15 -3q13 0 24 6.5t23 23.5q5 10 14 4
l10 -7q4 -2 4 -7t-6 -13q-16 -23 -36.5 -34t-38.5 -11q-14 0 -24.5 5.5z" />
    <glyph glyph-name="uni1EB6" unicode="&#x1eb6;" horiz-adv-x="379" 
d="M297 9l-10 131q0 2 -1.5 3t-3.5 1h-190q-2 0 -3.5 -1t-1.5 -3l-42 -131q-3 -9 -12 -9h-32q-5 0 -7 3t0 8l231 680q2 9 11 9h39q9 0 10 -9l65 -680q0 -5 -3 -8t-7 -3h-33q-10 0 -10 9zM107 188h171q2 0 4 4l-35 423q0 3 -1 3t-3 -3l-139 -423q0 -4 3 -4zM120 -167
q-11 12 -11 30q0 22 15 37.5t37 15.5q17 0 28.5 -11t11.5 -28q0 -23 -15.5 -39.5t-36.5 -16.5q-18 0 -29 12zM201.5 805.5q-24.5 26.5 -22.5 66.5q2 10 11 10h14q9 0 9 -8q0 -28 15.5 -45.5t40.5 -17.5t45 17t26 44q3 10 12 10h14q5 0 7 -3t1 -7q-8 -40 -39 -66.5t-70 -26.5
t-63.5 26.5z" />
    <glyph glyph-name="uni1EB7" unicode="&#x1eb7;" horiz-adv-x="391" 
d="M340 504h32q9 0 9 -10l-60 -484q0 -4 -3 -7t-8 -3h-32q-4 0 -6.5 3t-1.5 7l5 39q0 3 -2 3.5t-3 -2.5q-19 -28 -47 -43t-60 -15q-54 0 -84 33t-30 89q0 8 2 28l27 220q8 67 48.5 108.5t100.5 41.5q32 0 56 -15t37 -43q1 -3 2.5 -2.5t2.5 3.5l4 39q2 10 11 10zM252 68
q29 29 34 76l27 215q1 6 1 19q0 39 -21 63t-57 24q-42 0 -71.5 -29.5t-35.5 -76.5l-26 -215q-1 -6 -1 -18q0 -39 22 -63t59 -24q40 0 69 29zM125 -167q-11 12 -11 30q0 22 15 37.5t37 15.5q17 0 28.5 -11t11.5 -28q0 -23 -15.5 -39.5t-36.5 -16.5q-18 0 -29 12zM183.5 609.5
q-24.5 26.5 -22.5 66.5q2 10 11 10h14q9 0 9 -8q0 -28 15.5 -45.5t40.5 -17.5t45 17t26 44q3 10 12 10h14q5 0 7 -3t1 -7q-8 -40 -39 -66.5t-70 -26.5t-63.5 26.5z" />
    <glyph glyph-name="uni1EB8" unicode="&#x1eb8;" horiz-adv-x="414" 
d="M430 656q-3 -3 -7 -3h-230q-3 0 -5 -4l-33 -271q0 -2 1 -3t2 -1h148q10 0 8 -10l-3 -27q-2 -10 -11 -10h-147q-3 0 -5 -4l-33 -272q0 -4 3 -4h230q9 0 9 -10l-4 -27q0 -4 -3 -7t-8 -3h-275q-9 0 -9 10l84 680q2 10 11 10h275q5 0 7.5 -3t1.5 -7l-3 -27q-1 -4 -4 -7z
M151 -167q-11 12 -11 30q0 22 15 37.5t37 15.5q17 0 28.5 -11t11.5 -28q0 -23 -15.5 -39.5t-36.5 -16.5q-18 0 -29 12z" />
    <glyph glyph-name="uni1EB9" unicode="&#x1eb9;" horiz-adv-x="388" 
d="M341 233h-223q-3 0 -5 -4l-10 -85q-1 -6 -1 -18q0 -39 21.5 -63t58.5 -24q34 0 61 21t39 55q5 9 12 9l30 -2q4 0 6.5 -2t1.5 -6q0 -3 -1 -4q-16 -55 -57 -86.5t-97 -31.5q-59 0 -93.5 34t-34.5 91q0 8 2 24l27 221q8 66 53 108t109 42q59 0 93.5 -34.5t34.5 -91.5
q0 -8 -2 -24l-14 -119q-2 -10 -11 -10zM164.5 435.5q-29.5 -29.5 -35.5 -76.5l-9 -76q0 -2 1 -3t2 -1h178q4 0 4 4l10 76q1 6 1 17q0 41 -22 65t-59 24q-41 0 -70.5 -29.5zM124 -167q-11 12 -11 30q0 22 15 37.5t37 15.5q17 0 28.5 -11t11.5 -28q0 -23 -15.5 -39.5
t-36.5 -16.5q-18 0 -29 12z" />
    <glyph glyph-name="uni1EBA" unicode="&#x1eba;" horiz-adv-x="414" 
d="M430 656q-3 -3 -7 -3h-230q-3 0 -5 -4l-33 -271q0 -2 1 -3t2 -1h148q10 0 8 -10l-3 -27q-2 -10 -11 -10h-147q-3 0 -5 -4l-33 -272q0 -4 3 -4h230q9 0 9 -10l-4 -27q0 -4 -3 -7t-8 -3h-275q-9 0 -9 10l84 680q2 10 11 10h275q5 0 7.5 -3t1.5 -7l-3 -27q-1 -4 -4 -7z
M286 756q8 14 18.5 25.5t20.5 20.5q15 13 22.5 23t9.5 26t-10 27t-30 11t-30.5 -8t-28.5 -28q-6 -9 -14 -3l-8 7q-7 6 -1 14q22 28 40 40t47 12q31 0 50.5 -17.5t19.5 -45.5q0 -26 -12 -43t-35 -37q-19 -16 -30 -31l-2 -4q-5 -8 -11 -5l-12 3q-9 4 -4 13z" />
    <glyph glyph-name="uni1EBB" unicode="&#x1ebb;" horiz-adv-x="388" 
d="M341 233h-223q-3 0 -5 -4l-10 -85q-1 -6 -1 -18q0 -39 21.5 -63t58.5 -24q34 0 61 21t39 55q5 9 12 9l30 -2q4 0 6.5 -2t1.5 -6q0 -3 -1 -4q-16 -55 -57 -86.5t-97 -31.5q-59 0 -93.5 34t-34.5 91q0 8 2 24l27 221q8 66 53 108t109 42q59 0 93.5 -34.5t34.5 -91.5
q0 -8 -2 -24l-14 -119q-2 -10 -11 -10zM164.5 435.5q-29.5 -29.5 -35.5 -76.5l-9 -76q0 -2 1 -3t2 -1h178q4 0 4 4l10 76q1 6 1 17q0 41 -22 65t-59 24q-41 0 -70.5 -29.5zM232 560q8 14 18.5 25.5t20.5 20.5q15 13 22.5 23t9.5 26t-10 27t-30 11t-30.5 -8t-28.5 -28
q-6 -9 -14 -3l-8 7q-7 6 -1 14q22 28 40 40t47 12q31 0 50.5 -17.5t19.5 -45.5q0 -26 -12 -43t-35 -37q-19 -16 -30 -31l-2 -4q-5 -8 -11 -5l-12 3q-9 4 -4 13z" />
    <glyph glyph-name="uni1EBC" unicode="&#x1ebc;" horiz-adv-x="414" 
d="M430 656q-3 -3 -7 -3h-230q-3 0 -5 -4l-33 -271q0 -2 1 -3t2 -1h148q10 0 8 -10l-3 -27q-2 -10 -11 -10h-147q-3 0 -5 -4l-33 -272q0 -4 3 -4h230q9 0 9 -10l-4 -27q0 -4 -3 -7t-8 -3h-275q-9 0 -9 10l84 680q2 10 11 10h275q5 0 7.5 -3t1.5 -7l-3 -27q-1 -4 -4 -7z
M338.5 815.5q-10.5 5.5 -24.5 16.5q-2 2 -10.5 8.5t-15.5 9.5t-15 3q-14 0 -25 -5.5t-23 -21.5q-8 -9 -14 -3l-11 9q-7 5 -1 13q32 48 76 48q15 0 26 -6t25 -17q5 -3 13 -9.5t15 -9.5t15 -3q13 0 24 6.5t23 23.5q5 10 14 4l10 -7q4 -2 4 -7t-6 -13q-16 -23 -36.5 -34
t-38.5 -11q-14 0 -24.5 5.5z" />
    <glyph glyph-name="uni1EBD" unicode="&#x1ebd;" horiz-adv-x="388" 
d="M341 233h-223q-3 0 -5 -4l-10 -85q-1 -6 -1 -18q0 -39 21.5 -63t58.5 -24q34 0 61 21t39 55q5 9 12 9l30 -2q4 0 6.5 -2t1.5 -6q0 -3 -1 -4q-16 -55 -57 -86.5t-97 -31.5q-59 0 -93.5 34t-34.5 91q0 8 2 24l27 221q8 66 53 108t109 42q59 0 93.5 -34.5t34.5 -91.5
q0 -8 -2 -24l-14 -119q-2 -10 -11 -10zM164.5 435.5q-29.5 -29.5 -35.5 -76.5l-9 -76q0 -2 1 -3t2 -1h178q4 0 4 4l10 76q1 6 1 17q0 41 -22 65t-59 24q-41 0 -70.5 -29.5zM284.5 619.5q-10.5 5.5 -24.5 16.5q-2 2 -10.5 8.5t-15.5 9.5t-15 3q-14 0 -25 -5.5t-23 -21.5
q-8 -9 -14 -3l-11 9q-7 5 -1 13q32 48 76 48q15 0 26 -6t25 -17q5 -3 13 -9.5t15 -9.5t15 -3q13 0 24 6.5t23 23.5q5 10 14 4l10 -7q4 -2 4 -7t-6 -13q-16 -23 -36.5 -34t-38.5 -11q-14 0 -24.5 5.5z" />
    <glyph glyph-name="uni1EBE" unicode="&#x1ebe;" horiz-adv-x="414" 
d="M430 656q-3 -3 -7 -3h-230q-3 0 -5 -4l-33 -271q0 -2 1 -3t2 -1h148q10 0 8 -10l-3 -27q-2 -10 -11 -10h-147q-3 0 -5 -4l-33 -272q0 -4 3 -4h230q9 0 9 -10l-4 -27q0 -4 -3 -7t-8 -3h-275q-9 0 -9 10l84 680q2 10 11 10h275q5 0 7.5 -3t1.5 -7l-3 -27q-1 -4 -4 -7z
M202.5 778.5q-1.5 3.5 2.5 8.5l76 102q5 7 12 7h41q6 0 11 -7l52 -102q1 -2 1 -6q0 -6 -8 -6h-30q-6 0 -11 7l-36 76q-1 2 -3 2t-3 -2l-55 -76q-5 -7 -12 -7h-30q-6 0 -7.5 3.5zM410.5 847.5q-1.5 3.5 2.5 8.5l74 110q5 7 12 7h26q6 0 7.5 -3.5t-1.5 -8.5l-81 -110
q-5 -7 -12 -7h-20q-6 0 -7.5 3.5z" />
    <glyph glyph-name="uni1EBF" unicode="&#x1ebf;" horiz-adv-x="388" 
d="M341 233h-223q-3 0 -5 -4l-10 -85q-1 -6 -1 -18q0 -39 21.5 -63t58.5 -24q34 0 61 21t39 55q5 9 12 9l30 -2q4 0 6.5 -2t1.5 -6q0 -3 -1 -4q-16 -55 -57 -86.5t-97 -31.5q-59 0 -93.5 34t-34.5 91q0 8 2 24l27 221q8 66 53 108t109 42q59 0 93.5 -34.5t34.5 -91.5
q0 -8 -2 -24l-14 -119q-2 -10 -11 -10zM164.5 435.5q-29.5 -29.5 -35.5 -76.5l-9 -76q0 -2 1 -3t2 -1h178q4 0 4 4l10 76q1 6 1 17q0 41 -22 65t-59 24q-41 0 -70.5 -29.5zM148.5 582.5q-1.5 3.5 2.5 8.5l76 102q5 7 12 7h41q6 0 11 -7l52 -102q1 -2 1 -6q0 -6 -8 -6h-30
q-6 0 -11 7l-36 76q-1 2 -3 2t-3 -2l-55 -76q-5 -7 -12 -7h-30q-6 0 -7.5 3.5zM356.5 651.5q-1.5 3.5 2.5 8.5l74 110q5 7 12 7h26q6 0 7.5 -3.5t-1.5 -8.5l-81 -110q-5 -7 -12 -7h-20q-6 0 -7.5 3.5z" />
    <glyph glyph-name="uni1EC0" unicode="&#x1ec0;" horiz-adv-x="414" 
d="M430 656q-3 -3 -7 -3h-230q-3 0 -5 -4l-33 -271q0 -2 1 -3t2 -1h148q10 0 8 -10l-3 -27q-2 -10 -11 -10h-147q-3 0 -5 -4l-33 -272q0 -4 3 -4h230q9 0 9 -10l-4 -27q0 -4 -3 -7t-8 -3h-275q-9 0 -9 10l84 680q2 10 11 10h275q5 0 7.5 -3t1.5 -7l-3 -27q-1 -4 -4 -7z
M202.5 778.5q-1.5 3.5 2.5 8.5l76 102q5 7 12 7h41q6 0 11 -7l52 -102q1 -2 1 -6q0 -6 -8 -6h-30q-6 0 -11 7l-36 76q-1 2 -3 2t-3 -2l-55 -76q-5 -7 -12 -7h-30q-6 0 -7.5 3.5zM463 896q0 -8 -10 -8h-20q-6 0 -11 7l-52 110q-1 2 -1 5q0 7 9 7h26q7 0 11 -7l47 -110z" />
    <glyph glyph-name="uni1EC1" unicode="&#x1ec1;" horiz-adv-x="388" 
d="M341 233h-223q-3 0 -5 -4l-10 -85q-1 -6 -1 -18q0 -39 21.5 -63t58.5 -24q34 0 61 21t39 55q5 9 12 9l30 -2q4 0 6.5 -2t1.5 -6q0 -3 -1 -4q-16 -55 -57 -86.5t-97 -31.5q-59 0 -93.5 34t-34.5 91q0 8 2 24l27 221q8 66 53 108t109 42q59 0 93.5 -34.5t34.5 -91.5
q0 -8 -2 -24l-14 -119q-2 -10 -11 -10zM164.5 435.5q-29.5 -29.5 -35.5 -76.5l-9 -76q0 -2 1 -3t2 -1h178q4 0 4 4l10 76q1 6 1 17q0 41 -22 65t-59 24q-41 0 -70.5 -29.5zM148.5 582.5q-1.5 3.5 2.5 8.5l76 102q5 7 12 7h41q6 0 11 -7l52 -102q1 -2 1 -6q0 -6 -8 -6h-30
q-6 0 -11 7l-36 76q-1 2 -3 2t-3 -2l-55 -76q-5 -7 -12 -7h-30q-6 0 -7.5 3.5zM409 700q0 -8 -10 -8h-20q-6 0 -11 7l-52 110q-1 2 -1 5q0 7 9 7h26q7 0 11 -7l47 -110z" />
    <glyph glyph-name="uni1EC2" unicode="&#x1ec2;" horiz-adv-x="414" 
d="M430 656q-3 -3 -7 -3h-230q-3 0 -5 -4l-33 -271q0 -2 1 -3t2 -1h148q10 0 8 -10l-3 -27q-2 -10 -11 -10h-147q-3 0 -5 -4l-33 -272q0 -4 3 -4h230q9 0 9 -10l-4 -27q0 -4 -3 -7t-8 -3h-275q-9 0 -9 10l84 680q2 10 11 10h275q5 0 7.5 -3t1.5 -7l-3 -27q-1 -4 -4 -7z
M411 879q12 21 38 45q15 13 22 22.5t9 24.5q2 16 -9.5 27.5t-28.5 11.5q-18 0 -29.5 -8t-28.5 -29q-6 -8 -14 -2l-8 7q-7 6 -1 13q19 27 37.5 39t48.5 12q31 0 49.5 -17t18.5 -45q0 -25 -11.5 -41.5t-33.5 -35.5q-2 -2 -13.5 -12.5t-17.5 -20.5q-3 -10 -12 -7l-11 3
q-10 3 -5 13zM202.5 778.5q-1.5 3.5 2.5 8.5l76 102q5 7 12 7h41q6 0 11 -7l52 -102q1 -2 1 -6q0 -6 -8 -6h-30q-6 0 -11 7l-36 76q-1 2 -3 2t-3 -2l-55 -76q-5 -7 -12 -7h-30q-6 0 -7.5 3.5z" />
    <glyph glyph-name="uni1EC3" unicode="&#x1ec3;" horiz-adv-x="388" 
d="M341 233h-223q-3 0 -5 -4l-10 -85q-1 -6 -1 -18q0 -39 21.5 -63t58.5 -24q34 0 61 21t39 55q5 9 12 9l30 -2q4 0 6.5 -2t1.5 -6q0 -3 -1 -4q-16 -55 -57 -86.5t-97 -31.5q-59 0 -93.5 34t-34.5 91q0 8 2 24l27 221q8 66 53 108t109 42q59 0 93.5 -34.5t34.5 -91.5
q0 -8 -2 -24l-14 -119q-2 -10 -11 -10zM164.5 435.5q-29.5 -29.5 -35.5 -76.5l-9 -76q0 -2 1 -3t2 -1h178q4 0 4 4l10 76q1 6 1 17q0 41 -22 65t-59 24q-41 0 -70.5 -29.5zM357 683q12 21 38 45q15 13 22 22.5t9 24.5q2 16 -9.5 27.5t-28.5 11.5q-18 0 -29.5 -8t-28.5 -29
q-6 -8 -14 -2l-8 7q-7 6 -1 13q19 27 37.5 39t48.5 12q31 0 49.5 -17t18.5 -45q0 -25 -11.5 -41.5t-33.5 -35.5q-2 -2 -13.5 -12.5t-17.5 -20.5q-3 -10 -12 -7l-11 3q-10 3 -5 13zM148.5 582.5q-1.5 3.5 2.5 8.5l76 102q5 7 12 7h41q6 0 11 -7l52 -102q1 -2 1 -6q0 -6 -8 -6
h-30q-6 0 -11 7l-36 76q-1 2 -3 2t-3 -2l-55 -76q-5 -7 -12 -7h-30q-6 0 -7.5 3.5z" />
    <glyph glyph-name="uni1EC4" unicode="&#x1ec4;" horiz-adv-x="414" 
d="M430 656q-3 -3 -7 -3h-230q-3 0 -5 -4l-33 -271q0 -2 1 -3t2 -1h148q10 0 8 -10l-3 -27q-2 -10 -11 -10h-147q-3 0 -5 -4l-33 -272q0 -4 3 -4h230q9 0 9 -10l-4 -27q0 -4 -3 -7t-8 -3h-275q-9 0 -9 10l84 680q2 10 11 10h275q5 0 7.5 -3t1.5 -7l-3 -27q-1 -4 -4 -7z
M202.5 778.5q-1.5 3.5 2.5 8.5l76 102q5 7 12 7h41q6 0 11 -7l52 -102q1 -2 1 -6q0 -6 -8 -6h-30q-6 0 -11 7l-36 76q-1 2 -3 2t-3 -2l-55 -76q-5 -7 -12 -7h-30q-6 0 -7.5 3.5zM348.5 931.5q-10.5 5.5 -24.5 16.5q-2 2 -10.5 8.5t-15.5 9.5t-15 3q-14 0 -25 -5.5t-23 -21.5
q-8 -9 -14 -3l-11 9q-7 5 -1 13q32 48 76 48q15 0 26 -6t25 -17q5 -3 13 -9.5t15 -9.5t15 -3q13 0 24 6.5t23 23.5q5 10 14 4l10 -7q4 -2 4 -7t-6 -13q-16 -23 -36.5 -34t-38.5 -11q-14 0 -24.5 5.5z" />
    <glyph glyph-name="uni1EC5" unicode="&#x1ec5;" horiz-adv-x="388" 
d="M341 233h-223q-3 0 -5 -4l-10 -85q-1 -6 -1 -18q0 -39 21.5 -63t58.5 -24q34 0 61 21t39 55q5 9 12 9l30 -2q4 0 6.5 -2t1.5 -6q0 -3 -1 -4q-16 -55 -57 -86.5t-97 -31.5q-59 0 -93.5 34t-34.5 91q0 8 2 24l27 221q8 66 53 108t109 42q59 0 93.5 -34.5t34.5 -91.5
q0 -8 -2 -24l-14 -119q-2 -10 -11 -10zM164.5 435.5q-29.5 -29.5 -35.5 -76.5l-9 -76q0 -2 1 -3t2 -1h178q4 0 4 4l10 76q1 6 1 17q0 41 -22 65t-59 24q-41 0 -70.5 -29.5zM148.5 582.5q-1.5 3.5 2.5 8.5l76 102q5 7 12 7h41q6 0 11 -7l52 -102q1 -2 1 -6q0 -6 -8 -6h-30
q-6 0 -11 7l-36 76q-1 2 -3 2t-3 -2l-55 -76q-5 -7 -12 -7h-30q-6 0 -7.5 3.5zM294.5 735.5q-10.5 5.5 -24.5 16.5q-2 2 -10.5 8.5t-15.5 9.5t-15 3q-14 0 -25 -5.5t-23 -21.5q-8 -9 -14 -3l-11 9q-7 5 -1 13q32 48 76 48q15 0 26 -6t25 -17q5 -3 13 -9.5t15 -9.5t15 -3
q13 0 24 6.5t23 23.5q5 10 14 4l10 -7q4 -2 4 -7t-6 -13q-16 -23 -36.5 -34t-38.5 -11q-14 0 -24.5 5.5z" />
    <glyph glyph-name="uni1EC6" unicode="&#x1ec6;" horiz-adv-x="414" 
d="M430 656q-3 -3 -7 -3h-230q-3 0 -5 -4l-33 -271q0 -2 1 -3t2 -1h148q10 0 8 -10l-3 -27q-2 -10 -11 -10h-147q-3 0 -5 -4l-33 -272q0 -4 3 -4h230q9 0 9 -10l-4 -27q0 -4 -3 -7t-8 -3h-275q-9 0 -9 10l84 680q2 10 11 10h275q5 0 7.5 -3t1.5 -7l-3 -27q-1 -4 -4 -7z
M151 -167q-11 12 -11 30q0 22 15 37.5t37 15.5q17 0 28.5 -11t11.5 -28q0 -23 -15.5 -39.5t-36.5 -16.5q-18 0 -29 12zM202.5 778.5q-1.5 3.5 2.5 8.5l76 102q5 7 12 7h41q6 0 11 -7l52 -102q1 -2 1 -6q0 -6 -8 -6h-30q-6 0 -11 7l-36 76q-1 2 -3 2t-3 -2l-55 -76
q-5 -7 -12 -7h-30q-6 0 -7.5 3.5z" />
    <glyph glyph-name="uni1EC7" unicode="&#x1ec7;" horiz-adv-x="388" 
d="M341 233h-223q-3 0 -5 -4l-10 -85q-1 -6 -1 -18q0 -39 21.5 -63t58.5 -24q34 0 61 21t39 55q5 9 12 9l30 -2q4 0 6.5 -2t1.5 -6q0 -3 -1 -4q-16 -55 -57 -86.5t-97 -31.5q-59 0 -93.5 34t-34.5 91q0 8 2 24l27 221q8 66 53 108t109 42q59 0 93.5 -34.5t34.5 -91.5
q0 -8 -2 -24l-14 -119q-2 -10 -11 -10zM164.5 435.5q-29.5 -29.5 -35.5 -76.5l-9 -76q0 -2 1 -3t2 -1h178q4 0 4 4l10 76q1 6 1 17q0 41 -22 65t-59 24q-41 0 -70.5 -29.5zM124 -167q-11 12 -11 30q0 22 15 37.5t37 15.5q17 0 28.5 -11t11.5 -28q0 -23 -15.5 -39.5
t-36.5 -16.5q-18 0 -29 12zM148.5 582.5q-1.5 3.5 2.5 8.5l76 102q5 7 12 7h41q6 0 11 -7l52 -102q1 -2 1 -6q0 -6 -8 -6h-30q-6 0 -11 7l-36 76q-1 2 -3 2t-3 -2l-55 -76q-5 -7 -12 -7h-30q-6 0 -7.5 3.5z" />
    <glyph glyph-name="uni1EC8" unicode="&#x1ec8;" horiz-adv-x="204" 
d="M58 10l84 680q2 10 11 10h32q10 0 8 -10l-83 -680q-2 -10 -11 -10h-32q-9 0 -9 10zM164 756q8 14 18.5 25.5t20.5 20.5q15 13 22.5 23t9.5 26t-10 27t-30 11t-30.5 -8t-28.5 -28q-6 -9 -14 -3l-8 7q-7 6 -1 14q22 28 40 40t47 12q31 0 50.5 -17.5t19.5 -45.5
q0 -26 -12 -43t-35 -37q-19 -16 -30 -31l-2 -4q-5 -8 -11 -5l-12 3q-9 4 -4 13z" />
    <glyph glyph-name="uni1EC9" unicode="&#x1ec9;" horiz-adv-x="158" 
d="M36.5 3q-2.5 3 -1.5 7l60 484q0 4 3 7t8 3h32q4 0 6.5 -3t1.5 -7l-59 -484q-1 -4 -4 -7t-7 -3h-32q-5 0 -7.5 3zM117 560q8 14 18.5 25.5t20.5 20.5q15 13 22.5 23t9.5 26t-10 27t-30 11t-30.5 -8t-28.5 -28q-6 -9 -14 -3l-8 7q-7 6 -1 14q22 28 40 40t47 12
q31 0 50.5 -17.5t19.5 -45.5q0 -26 -12 -43t-35 -37q-19 -16 -30 -31l-2 -4q-5 -8 -11 -5l-12 3q-9 4 -4 13z" />
    <glyph glyph-name="uni1ECA" unicode="&#x1eca;" horiz-adv-x="204" 
d="M58 10l84 680q2 10 11 10h32q10 0 8 -10l-83 -680q-2 -10 -11 -10h-32q-9 0 -9 10zM32 -167q-11 12 -11 30q0 22 15 37.5t37 15.5q17 0 28.5 -11t11.5 -28q0 -23 -15.5 -39.5t-36.5 -16.5q-18 0 -29 12z" />
    <glyph glyph-name="uni1ECB" unicode="&#x1ecb;" horiz-adv-x="199" 
d="M123 617q-12 12 -12 32q0 24 16 40t39 16q19 0 31 -11.5t12 -30.5q0 -25 -16 -41.5t-39 -16.5q-19 0 -31 12zM56 10l59 484q2 10 11 10h32q10 0 8 -10l-59 -484q-2 -10 -11 -10h-32q-10 0 -8 10zM29 -167q-11 12 -11 30q0 22 15 37.5t37 15.5q17 0 28.5 -11t11.5 -28
q0 -23 -15.5 -39.5t-36.5 -16.5q-18 0 -29 12z" />
    <glyph glyph-name="uni1ECC" unicode="&#x1ecc;" horiz-adv-x="438" 
d="M95.5 30.5q-38.5 38.5 -38.5 103.5q0 8 2 26l47 379q9 76 59 122.5t121 46.5q65 0 103.5 -39t38.5 -104q0 -8 -2 -26l-46 -379q-10 -75 -60.5 -121.5t-121.5 -46.5q-64 0 -102.5 38.5zM287 72q34 33 41 86l47 383q1 7 1 20q0 45 -26 72.5t-70 27.5q-48 0 -82 -33.5
t-40 -86.5l-47 -383q-1 -7 -1 -20q0 -45 25.5 -72t68.5 -27q49 0 83 33zM149 -167q-11 12 -11 30q0 22 15 37.5t37 15.5q17 0 28.5 -11t11.5 -28q0 -23 -15.5 -39.5t-36.5 -16.5q-18 0 -29 12z" />
    <glyph glyph-name="uni1ECD" unicode="&#x1ecd;" horiz-adv-x="395" 
d="M83.5 26.5q-34.5 34.5 -34.5 91.5q0 8 2 24l27 220q8 66 53 108t109 42q60 0 94.5 -34.5t34.5 -91.5q0 -8 -2 -24l-27 -220q-8 -67 -52.5 -108.5t-110.5 -41.5q-59 0 -93.5 34.5zM254 68.5q30 29.5 35 75.5l27 215q1 6 1 16q0 41 -22.5 65.5t-59.5 24.5
q-41 0 -70.5 -29.5t-35.5 -76.5l-26 -215q-1 -6 -1 -18q0 -39 21.5 -63t58.5 -24q42 0 72 29.5zM128 -167q-11 12 -11 30q0 22 15 37.5t37 15.5q17 0 28.5 -11t11.5 -28q0 -23 -15.5 -39.5t-36.5 -16.5q-18 0 -29 12z" />
    <glyph glyph-name="uni1ECE" unicode="&#x1ece;" horiz-adv-x="438" 
d="M95.5 30.5q-38.5 38.5 -38.5 103.5q0 8 2 26l47 379q9 76 59 122.5t121 46.5q65 0 103.5 -39t38.5 -104q0 -8 -2 -26l-46 -379q-10 -75 -60.5 -121.5t-121.5 -46.5q-64 0 -102.5 38.5zM287 72q34 33 41 86l47 383q1 7 1 20q0 45 -26 72.5t-70 27.5q-48 0 -82 -33.5
t-40 -86.5l-47 -383q-1 -7 -1 -20q0 -45 25.5 -72t68.5 -27q49 0 83 33zM280 755q8 14 18.5 25.5t20.5 20.5q15 13 22.5 23t9.5 26t-10 27t-30 11t-30.5 -8t-28.5 -28q-6 -9 -14 -3l-8 7q-7 6 -1 14q22 28 40 40t47 12q31 0 50.5 -17.5t19.5 -45.5q0 -26 -12 -43t-35 -37
q-19 -16 -30 -31l-2 -4q-5 -8 -11 -5l-12 3q-9 4 -4 13z" />
    </font>
</defs>
</svg>
