<?xml version="1.0" standalone="no"?>
<!DOCTYPE svg PUBLIC "-//W3C//DTD SVG 1.1//EN" "http://www.w3.org/Graphics/SVG/1.1/DTD/svg11.dtd" >
<svg xmlns="http://www.w3.org/2000/svg" xmlns:xlink="http://www.w3.org/1999/xlink" version="1.1">
<metadata>
Created by FontForge 20201107 at Wed Nov  7 06:08:56 2018
 By 
Copyright 2017 The Barlow Project Authors (https://github.com/jpt/barlow)
</metadata>
<defs>
<font id="BarlowCondensed-ExtraLightItalic" horiz-adv-x="0" >
  <font-face 
    font-family="Barlow Condensed ExtraLight"
    font-weight="275"
    font-style="italic"
    font-stretch="condensed"
    units-per-em="1000"
    panose-1="0 0 3 6 0 0 0 0 0 0"
    ascent="800"
    descent="-200"
    x-height="502"
    cap-height="700"
    bbox="-510.571 -213 961 1075"
    underline-thickness="50"
    underline-position="-100"
    slope="-7"
    unicode-range="U+000D-FB02"
  />
<missing-glyph horiz-adv-x="303" 
d="M-18 1q1 -1 2 -1h295q3 0 5 4l85 692q0 4 -4 4h-295q-4 0 -4 -4l-85 -692q0 -2 1 -3zM140 235l6 47q3 29 16 47.5t38 42.5q30 28 45.5 54t15.5 71q0 34 -15 53.5t-40 19.5q-31 0 -53 -25.5t-27 -67.5l-2 -23q-2 -10 -11 -10h-8q-4 0 -6.5 3t-1.5 8l2 22q7 53 37.5 86
t72.5 33q37 0 58.5 -26t21.5 -70q0 -8 -2 -24q-5 -45 -22 -71.5t-46 -54.5q-21 -19 -31.5 -33.5t-13.5 -35.5l-5 -46q-1 -4 -4 -7t-7 -3h-9q-9 0 -9 10zM117.5 100q-7.5 8 -7.5 20q0 16 11 26.5t25 10.5q12 0 19.5 -7.5t7.5 -19.5q0 -16 -10 -27t-25 -11q-13 0 -20.5 8z" />
    <glyph glyph-name="fi" unicode="fi" horiz-adv-x="456" 
d="M200.5 643.5q-19.5 -30.5 -27.5 -96.5l-5 -41q0 -4 3 -4h83q10 0 8 -10l-1 -12q-2 -10 -11 -10h-83q-4 0 -4 -4l-56 -456q-2 -10 -11 -10h-18q-5 0 -7.5 3t-1.5 7l56 456q0 4 -3 4h-43q-10 0 -8 10l1 12q2 10 11 10h43q4 0 4 4l5 41q10 82 40.5 122t91.5 40h15
q10 0 8 -10l-1 -15q-2 -10 -11 -10h-14q-44 0 -63.5 -30.5zM384.5 621q-10.5 11 -10.5 28q0 22 14.5 37t35.5 15q18 0 28.5 -11t10.5 -29q0 -22 -15 -36.5t-36 -14.5q-17 0 -27.5 11zM320 10l60 482q0 4 3 7t7 3h19q10 0 8 -10l-59 -482q-2 -10 -11 -10h-18q-9 0 -9 10z" />
    <glyph glyph-name="fl" unicode="fl" horiz-adv-x="423" 
d="M200.5 643.5q-19.5 -30.5 -27.5 -96.5l-5 -41q0 -4 3 -4h83q10 0 8 -10l-1 -12q-2 -10 -11 -10h-83q-4 0 -4 -4l-56 -456q-2 -10 -11 -10h-18q-5 0 -7.5 3t-1.5 7l56 456q0 4 -3 4h-43q-10 0 -8 10l1 12q2 10 11 10h43q4 0 4 4l5 41q10 82 40.5 122t91.5 40h15
q10 0 8 -10l-1 -15q-2 -10 -11 -10h-14q-44 0 -63.5 -30.5zM305.5 3q-2.5 3 -1.5 7l83 680q2 10 11 10h19q10 0 8 -10l-83 -680q-2 -10 -11 -10h-19q-4 0 -6.5 3z" />
    <glyph glyph-name="I_J.liga" unicode="IJ" horiz-adv-x="603" 
d="M63 10l84 680q2 10 11 10h18q9 0 9 -10l-84 -680q-2 -10 -11 -10h-18q-9 0 -9 10zM258.5 28q-34.5 36 -34.5 98q0 9 2 27l11 89q0 4 3 7t7 3h19q10 0 8 -10l-11 -91q-1 -7 -1 -21q0 -47 25.5 -75t69.5 -28q49 0 83 34t41 90l67 539q0 4 3 7t8 3h18q10 0 8 -10l-65 -537
q-9 -73 -55 -117t-113 -44q-59 0 -93.5 36z" />
    <glyph glyph-name="f_f_i.liga" unicode="ffi" horiz-adv-x="705" 
d="M168 506q0 -4 3 -4h92q5 0 7.5 -3t1.5 -7l-2 -12q0 -4 -3 -7t-8 -3h-92q-4 0 -4 -4l-56 -456q-2 -10 -11 -10h-18q-5 0 -7.5 3t-1.5 7l56 456q0 4 -3 4h-43q-10 0 -8 10l1 12q2 10 11 10h43q4 0 4 4l6 45q9 80 39.5 119.5t91.5 38.5h14q9 0 9 -10l-2 -12q-2 -10 -11 -10
h-12q-45 0 -64.5 -31t-27.5 -97zM429.5 670.5q30.5 39.5 93.5 38.5h13q9 0 9 -10l-2 -12q-2 -10 -11 -10h-12q-45 0 -65 -31t-28 -97l-5 -43q0 -4 3 -4h84q10 0 8 -10l-1 -12q-2 -10 -11 -10h-84q-1 0 -2.5 -1t-1.5 -3l-56 -456q-2 -10 -11 -10h-18q-9 0 -9 10l56 456
q1 1 0 2.5t-3 1.5h-53q-4 0 -6.5 3t-1.5 7l1 12q1 4 4 7t7 3h53q4 0 4 4l6 45q9 80 39.5 119.5zM701 690q11 -11 11 -29q0 -21 -14.5 -36t-35.5 -15q-17 0 -28 10.5t-11 27.5q0 23 14.5 38t35.5 15q17 0 28 -11zM570 10l59 482q2 10 11 10h18q9 0 9 -10l-60 -482q0 -4 -3 -7
t-7 -3h-19q-10 0 -8 10z" />
    <glyph glyph-name="f_f_l.liga" unicode="ffl" horiz-adv-x="678" 
d="M168 506q0 -4 3 -4h92q5 0 7.5 -3t1.5 -7l-2 -12q0 -4 -3 -7t-8 -3h-92q-4 0 -4 -4l-56 -456q-2 -10 -11 -10h-18q-5 0 -7.5 3t-1.5 7l56 456q0 4 -3 4h-43q-10 0 -8 10l1 12q2 10 11 10h43q4 0 4 4l6 45q9 80 39.5 119.5t91.5 38.5h14q9 0 9 -10l-2 -12q-2 -10 -11 -10
h-12q-45 0 -64.5 -31t-27.5 -97zM430.5 670.5q30.5 39.5 92.5 38.5h13q9 0 9 -10l-2 -12q-2 -10 -11 -10h-12q-44 0 -64 -31t-28 -97l-5 -43q0 -4 3 -4h83q10 0 8 -10l-1 -12q-2 -10 -11 -10h-83q-4 0 -4 -4l-56 -456q-2 -10 -11 -10h-18q-9 0 -9 10l56 456q0 4 -3 4h-53
q-4 0 -6.5 3t-1.5 7l1 12q1 4 4 7t7 3h53q4 0 4 4l6 45q9 80 39.5 119.5zM646 697q3 3 7 3h19q10 0 8 -10l-83 -680q-2 -10 -11 -10h-19q-4 0 -6.5 3t-1.5 7l83 680q1 4 4 7z" />
    <glyph glyph-name="g_j.liga" unicode="gj" horiz-adv-x="574" 
d="M570.5 690q10.5 -11 10.5 -29q0 -22 -14.5 -36.5t-34.5 -14.5q-17 0 -28.5 10.5t-11.5 27.5q0 23 15 38t36 15q17 0 27.5 -11zM327.5 451q1.5 0 1.5 3l5 38q2 10 11 10h19q9 0 9 -10l-60 -489q-26 -204 -200 -204q-8 0 -11 2.5t-2 7.5l2 16q0 10 13 10q73 0 111 43
t48 127l6 45q0 3 -1.5 3t-3.5 -2q-19 -28 -47 -42.5t-61 -14.5q-53 0 -83.5 33.5t-30.5 89.5q0 15 1 23l27 223q8 65 49.5 106t99.5 41q33 0 57 -14.5t37 -42.5q2 -2 3.5 -2zM498 492q2 10 11 10h18q9 0 9 -10l-69 -556q-8 -67 -40 -105t-89 -41q-9 0 -9 10l3 15q1 10 9 10
q36 2 59.5 31.5t29.5 79.5zM254 60.5q31 31.5 37 81.5l27 220q1 7 1 19q0 43 -23 68.5t-61 25.5q-45 0 -77.5 -31.5t-38.5 -81.5l-27 -220q-1 -6 -1 -18q0 -43 24.5 -69t64.5 -26q43 0 74 31.5z" />
    <glyph glyph-name="i_j.liga" unicode="ij" horiz-adv-x="380" 
d="M125.5 621q-10.5 11 -10.5 28q0 22 14.5 37t35.5 15q18 0 28.5 -11t10.5 -29q0 -22 -15 -36.5t-36 -14.5q-17 0 -27.5 11zM309 620.5q-11 10.5 -11 27.5q0 23 14.5 38t35.5 15q17 0 28 -11t11 -29q0 -21 -14.5 -36t-35.5 -15q-17 0 -28 10.5zM61 10l60 482q0 4 3 7t7 3
h19q10 0 8 -10l-59 -482q-2 -10 -11 -10h-18q-9 0 -9 10zM132 -200l1 15q2 10 11 10q38 3 61.5 32.5t29.5 79.5l68 555q2 10 11 10h18q9 0 9 -10l-68 -555q-18 -143 -133 -147q-10 0 -8 10z" />
    <glyph glyph-name="hyphen_hyphen.liga" unicode="&#x2d;&#x2d;" horiz-adv-x="574" 
d="M53.5 294q-2.5 3 -1.5 7l2 16q2 10 11 10h485q9 0 9 -10l-2 -16q-1 -4 -4 -7t-7 -3h-485q-5 0 -7.5 3z" />
    <glyph glyph-name=".notdef" horiz-adv-x="303" 
d="M-18 1q1 -1 2 -1h295q3 0 5 4l85 692q0 4 -4 4h-295q-4 0 -4 -4l-85 -692q0 -2 1 -3zM140 235l6 47q3 29 16 47.5t38 42.5q30 28 45.5 54t15.5 71q0 34 -15 53.5t-40 19.5q-31 0 -53 -25.5t-27 -67.5l-2 -23q-2 -10 -11 -10h-8q-4 0 -6.5 3t-1.5 8l2 22q7 53 37.5 86
t72.5 33q37 0 58.5 -26t21.5 -70q0 -8 -2 -24q-5 -45 -22 -71.5t-46 -54.5q-21 -19 -31.5 -33.5t-13.5 -35.5l-5 -46q-1 -4 -4 -7t-7 -3h-9q-9 0 -9 10zM117.5 100q-7.5 8 -7.5 20q0 16 11 26.5t25 10.5q12 0 19.5 -7.5t7.5 -19.5q0 -16 -10 -27t-25 -11q-13 0 -20.5 8z" />
    <glyph glyph-name=".null" 
 />
    <glyph glyph-name="nonmarkingreturn" unicode="&#xd;" horiz-adv-x="194" 
 />
    <glyph glyph-name="NULL" 
 />
    <glyph glyph-name="NULL" 
 />
    <glyph glyph-name="space" unicode=" " horiz-adv-x="194" 
 />
    <glyph glyph-name="exclam" unicode="!" horiz-adv-x="232" 
d="M110 233l53 457q2 10 11 10h19q4 0 6.5 -3t1.5 -7l-58 -457q-1 -10 -11 -10h-13q-10 0 -9 10zM69 14.5q-11 10.5 -11 27.5q0 22 15 38t35 16q18 0 28.5 -11t10.5 -29q0 -22 -14.5 -37t-35.5 -15q-17 0 -28 10.5z" />
    <glyph glyph-name="quotedbl" unicode="&#x22;" horiz-adv-x="178" 
d="M73 506l17 177q0 4 3 7t8 3h20q10 0 8 -10l-26 -177q-1 -10 -11 -10h-11q-9 0 -8 10zM158 506l19 177q2 10 11 10h19q5 0 7.5 -3t1.5 -7l-27 -177q-1 -10 -11 -10h-11q-10 0 -9 10z" />
    <glyph glyph-name="numbersign" unicode="#" horiz-adv-x="559" 
d="M522 441h-61q-5 0 -6 -4l-49 -187q0 -4 3 -4h58q10 0 8 -10l-2 -15q0 -4 -3 -7t-8 -3h-63q-5 0 -5 -4l-50 -186q-3 -9 -11 -9l-18 1q-10 0 -8 10l48 184q0 4 -2 4h-169q-5 0 -5 -4l-49 -186q-3 -9 -11 -9l-18 1q-5 0 -7 3t-1 7l48 184q0 4 -3 4h-59q-10 0 -8 10l2 15
q0 4 3 7t8 3h64q5 0 5 4l49 187q0 4 -2 4h-62q-5 0 -7.5 3t-1.5 7l2 15q2 10 11 10h67q5 0 5 4l50 187q3 9 11 9l18 -1q5 0 7 -3t1 -7l-48 -185q0 -4 2 -4h168q5 0 6 4l50 187q1 9 10 9l20 -1q4 0 6.5 -3t0.5 -8l-49 -184q0 -4 3 -4h56q10 0 8 -10l-1 -15q-2 -10 -11 -10z
M367 250l49 187q1 1 0 2.5t-2 1.5h-169q-5 0 -5 -4l-48 -187q-1 -1 0 -2.5t2 -1.5h168q5 0 5 4z" />
    <glyph glyph-name="dollar" unicode="$" horiz-adv-x="392" 
d="M298.5 51.5q-39.5 -46.5 -95.5 -56.5q-4 -1 -4 -5l-9 -75q0 -4 -3 -7t-8 -3h-11q-9 0 -9 10l9 73q2 4 -3 4q-55 3 -87.5 41.5t-32.5 100.5q0 10 2 32l2 19q2 10 11 10h17q5 0 7.5 -3t1.5 -7l-2 -18q-2 -18 -2 -27q0 -52 26 -83t70 -31q35 0 65 20t48 56t18 82
q0 33 -12.5 57.5t-31.5 43t-61 54.5q-40 35 -62.5 58t-36.5 53t-14 69q0 8 2 28q10 73 52.5 115.5t103.5 45.5q4 0 4 4l9 78q2 10 11 10h11q5 0 7.5 -3t1.5 -7l-10 -80q0 -3 3 -5q47 -8 74 -45.5t27 -94.5q0 -11 -2 -33l-3 -25q0 -4 -3 -7t-8 -3h-18q-10 0 -8 10l3 25
q2 18 2 26q0 53 -26.5 84.5t-70.5 31.5q-47 0 -81.5 -34t-41.5 -95q-1 -8 -1 -22q0 -42 22 -72t78 -77q46 -39 70 -63.5t37 -51.5t13 -62q0 -8 -2 -28q-9 -71 -48.5 -117.5z" />
    <glyph glyph-name="percent" unicode="%" horiz-adv-x="765" 
d="M164 472.5q-32 33.5 -32 83.5q0 41 20 76.5t54 56.5t72 21q48 0 80.5 -34t32.5 -84q0 -40 -20.5 -75.5t-54 -56.5t-71.5 -21q-49 0 -81 33.5zM169.5 3.5q-2.5 3.5 0.5 8.5l440 681q3 7 12 7h12q6 0 8 -3.5t-2 -8.5l-439 -681q-4 -7 -13 -7h-11q-5 0 -7.5 3.5zM304 484.5
q26 16.5 42 44.5t16 60q0 39 -24.5 65.5t-62.5 26.5q-30 0 -56.5 -16.5t-42 -45t-15.5 -60.5q0 -39 24.5 -65t63.5 -26q29 0 55 16.5zM453 24q-32 34 -32 84q0 41 20.5 76t54 56t71.5 21q48 0 80.5 -34t32.5 -84q0 -40 -20.5 -75.5t-54 -56.5t-71.5 -21q-49 0 -81 34z
M593 35.5q26 16.5 42 44.5t16 60q0 39 -24.5 65.5t-62.5 26.5q-30 0 -56 -16.5t-42 -44t-16 -59.5q0 -40 24.5 -66.5t63.5 -26.5q29 0 55 16.5z" />
    <glyph glyph-name="ampersand" unicode="&#x26;" horiz-adv-x="499" 
d="M428 8q0 -8 -9 -8h-18q-8 0 -12 7l-18 36q-8 14 -22 42q-3 3 -6 0q-44 -50 -83 -71.5t-85 -21.5q-62 0 -97 33t-35 95q0 8 2 30q8 69 45 118t103 105q4 2 2 5q-36 70 -48 102.5t-12 59.5q0 8 2 26q8 65 47 103.5t94 38.5q49 0 78.5 -31.5t29.5 -84.5q0 -48 -19.5 -87
t-47.5 -67.5t-75 -69.5q-2 -1 -2 -5l56 -107l15 -28q8 -14 17.5 -32t21.5 -41q2 -3 5 0q15 20 59 84q7 10 14 4l13 -9q7 -5 1 -14q-46 -68 -71 -98q-2 -4 -1 -6l55 -104zM202 636.5q-29 -35.5 -29 -93.5q0 -24 10 -53t39 -88q3 -4 6 -1q59 51 89.5 92.5t30.5 94.5
q0 38 -20 61t-54 23q-43 0 -72 -35.5zM255 49q33 21 73 69q1 2 1 6l-41 77l-73 137q-2 3 -5 1q-63 -55 -96 -102t-33 -110q0 -48 26.5 -74t75.5 -26q39 1 72 22z" />
    <glyph glyph-name="quotesingle" unicode="'" horiz-adv-x="93" 
d="M74 512l16 175q2 10 11 10h21q5 0 7.5 -3t1.5 -7l-26 -175q-1 -10 -11 -10h-12q-9 0 -8 10z" />
    <glyph glyph-name="parenleft" unicode="(" horiz-adv-x="175" 
d="M39 -103q-16 48 -24.5 115.5t-8.5 144.5q0 85 10 165q16 124 51.5 242.5t78.5 193.5q6 7 13 7h16q5 0 7 -3t0 -8q-40 -76 -73.5 -193t-48.5 -237q-11 -93 -11 -173q0 -146 28 -250l1 -3q0 -8 -10 -8h-18q-8 0 -11 7z" />
    <glyph glyph-name="parenright" unicode=")" horiz-adv-x="175" 
d="M178 758q16 -48 24.5 -115.5t8.5 -144.5q0 -85 -10 -165q-16 -125 -51.5 -243t-79.5 -193q-6 -7 -13 -7h-16q-5 0 -7 3t0 8q41 76 74.5 193t48.5 238q10 83 10 171q0 153 -28 251l-1 3q0 8 10 8h20q7 0 10 -7z" />
    <glyph glyph-name="asterisk" unicode="*" horiz-adv-x="349" 
d="M191.5 396q-2.5 3 -1.5 7l17 135q0 2 -1.5 3t-3.5 0l-116 -69l-5 -2q-6 0 -8 6l-3 8q-1 2 -1 5q0 5 6 9l117 69q1 1 1.5 3t-0.5 3l-101 69q-6 5 -1 14l5 8q7 10 14 4l99 -69q2 -1 3.5 0t2.5 3l16 135q2 10 11 10h10q10 0 8 -10l-16 -135q-1 -2 0.5 -3t3.5 0l116 69
q4 2 6 2q5 0 7 -6l3 -8l2 -5q0 -4 -6 -9l-117 -69q-2 -1 -2.5 -3t1.5 -3l100 -69q7 -6 1 -14l-5 -8q-5 -10 -14 -4l-99 69q-2 1 -3.5 0t-1.5 -3l-17 -135q-2 -10 -11 -10h-9q-5 0 -7.5 3z" />
    <glyph glyph-name="plus" unicode="+" horiz-adv-x="430" 
d="M416 328l-2 -12q-2 -10 -11 -10h-150q-4 0 -4 -4l-19 -155q-1 -4 -4 -7t-7 -3h-13q-9 0 -9 10l20 155q0 4 -4 4h-150q-9 0 -9 10l2 12q2 10 11 10h150q4 0 4 4l20 156q0 4 3 7t8 3h12q9 0 9 -10l-20 -156q0 -4 4 -4h150q9 0 9 -10z" />
    <glyph glyph-name="comma" unicode="," horiz-adv-x="157" 
d="M14.5 -68q-2.5 3 -0.5 8l60 205q3 9 12 9h15q10 0 8 -11l-65 -205q-3 -9 -12 -9h-11q-4 0 -6.5 3z" />
    <glyph glyph-name="hyphen" unicode="-" horiz-adv-x="296" 
d="M54 310l1 15q1 4 4 7t7 3h207q10 0 8 -10l-1 -15q-1 -4 -4 -7t-7 -3h-207q-10 0 -8 10z" />
    <glyph glyph-name="period" unicode="." horiz-adv-x="169" 
d="M37.5 16q-10.5 11 -10.5 28q0 22 14.5 37t34.5 15q17 0 28.5 -10.5t11.5 -27.5q0 -23 -14.5 -38t-36.5 -15q-17 0 -27.5 11z" />
    <glyph glyph-name="slash" unicode="/" horiz-adv-x="288" 
d="M9.5 3.5q-1.5 3.5 0.5 7.5l241 680q1 4 4 6.5t7 2.5h19q5 0 6.5 -3t-0.5 -8l-240 -680q-4 -9 -12 -9h-19q-5 0 -6.5 3.5z" />
    <glyph glyph-name="zero" unicode="0" horiz-adv-x="427" 
d="M94 29q-36 38 -36 102q0 8 2 28l47 382q10 76 57 122t116 46q62 0 99 -38t37 -103q0 -9 -2 -27l-47 -382q-10 -76 -58 -122t-117 -46q-62 0 -98 38zM285 61.5q36 35.5 44 94.5l47 388q2 16 2 23q0 49 -27 78t-75 29q-52 0 -87.5 -35.5t-43.5 -94.5l-47 -388
q-2 -16 -2 -23q0 -49 27 -78t73 -29q53 0 89 35.5z" />
    <glyph glyph-name="one" unicode="1" horiz-adv-x="236" 
d="M203 700h22q4 0 6.5 -3t1.5 -7l-83 -680q-2 -10 -11 -10h-19q-10 0 -8 10l78 636q0 2 -1.5 3t-3.5 0l-101 -45q-2 -1 -5 -1q-5 0 -7 7l-2 14v2q0 8 6 11l114 60q6 3 13 3z" />
    <glyph glyph-name="two" unicode="2" horiz-adv-x="373" 
d="M77.5 36.5q0.5 -1.5 2.5 -1.5h237q4 0 6.5 -3t1.5 -7l-2 -15q0 -4 -3 -7t-8 -3h-277q-9 0 -9 10l3 18q0 5 4 13l204 299q81 124 90 200q2 18 2 27q0 49 -23 77.5t-63 28.5q-44 0 -75 -36.5t-38 -95.5l-4 -36q-2 -10 -11 -10h-20q-9 0 -9 10l5 37q10 74 53 120t104 46
q55 0 87.5 -37.5t32.5 -100.5q0 -10 -2 -30q-10 -88 -97 -218l-80 -118q-24 -37 -52 -77.5t-58 -86.5q-2 -2 -1.5 -3.5z" />
    <glyph glyph-name="three" unicode="3" horiz-adv-x="384" 
d="M334 272q0 -27 -5 -65q-7 -59 -23 -103q-44 -112 -144 -112q-53 0 -82.5 30.5t-34.5 88.5q-2 20 -2 33q0 24 3 51q2 10 11 10h19q9 0 8 -10q-2 -15 -2 -43q0 -22 1 -31q4 -46 25 -70t58 -24q70 0 104 84q16 43 23 99q4 46 4 63q0 28 -5 55q-15 72 -80 72q-7 0 -19 -2
q-2 -1 -5 -1q-4 0 -8 4l-7 9q-5 5 -1 14l163 236q1 2 0.5 3.5t-2.5 1.5h-217q-5 0 -7.5 3t-1.5 7l2 15q2 10 11 10h258q10 0 8 -10l-2 -18q0 -5 -4 -13l-155 -226q-2 -5 1 -5q39 0 64.5 -23t35.5 -66q8 -30 8 -67z" />
    <glyph glyph-name="four" unicode="4" horiz-adv-x="372" 
d="M355 224l-2 -16q0 -4 -3 -7t-8 -3h-28q-4 0 -4 -4l-23 -184q0 -4 -3 -7t-8 -3h-18q-10 0 -8 10l22 184q0 4 -3 4h-229q-9 0 -9 10l2 16q2 8 4 12l208 456q5 8 13 8h20q11 0 6 -11l-204 -450q-1 -2 -0.5 -3.5t2.5 -1.5h191q3 0 5 4l21 174q2 10 11 10h18q9 0 9 -10
l-22 -174q0 -4 4 -4h28q10 0 8 -10z" />
    <glyph glyph-name="five" unicode="5" horiz-adv-x="383" 
d="M353 273q0 -31 -4 -62q-6 -49 -20 -92q-20 -62 -57.5 -94.5t-91.5 -32.5q-56 0 -86 33t-32 99q0 5 -0.5 12.5t0.5 17.5v2q0 4 3 6t7 2h18q9 0 9 -10l1 -28q5 -99 85 -99q72 0 106 93q14 41 20 91q3 29 3 54q0 27 -3 49q-12 80 -81 80q-81 0 -110 -83q-4 -9 -12 -9h-20
q-4 0 -6.5 3t-1.5 7l46 378q1 4 4 7t7 3h242q10 0 8 -10l-1 -15q-1 -4 -4 -7t-7 -3h-210q-4 0 -4 -4l-36 -285q-1 -3 0.5 -3t3.5 2q40 55 112 55q46 0 73 -27t35 -80q4 -20 4 -50z" />
    <glyph glyph-name="six" unicode="6" horiz-adv-x="384" 
d="M354 280q0 -27 -5 -69q-8 -55 -16 -80q-18 -69 -56.5 -104t-95.5 -35q-53 0 -83 32.5t-34 96.5q-2 48 3 89l41 330q10 76 54 122t107 46q51 0 82 -37.5t31 -100.5q0 -10 -2 -30l-1 -7q-2 -10 -11 -10h-19q-4 0 -6.5 3t-1.5 7l1 9q2 18 2 25q0 47 -22.5 76t-56.5 29
q-46 0 -79 -36t-40 -94l-21 -169q0 -3 1.5 -3t3.5 2q18 29 46 44.5t60 15.5q51 0 80.5 -30.5t35.5 -87.5q2 -20 2 -34zM311 213q5 38 5 64q0 14 -2 34q-12 86 -83 86q-73 0 -105 -92q-14 -43 -20 -92q-6 -45 -4 -85q8 -101 84 -101q39 0 67 27.5t44 80.5q10 38 14 78z" />
    <glyph glyph-name="seven" unicode="7" horiz-adv-x="337" 
d="M90 11l248 650q1 1 0 2.5t-3 1.5h-209q-4 0 -4 -4l-5 -43q-2 -10 -11 -10h-14q-10 0 -8 10l8 72q1 4 4 7t7 3h272q10 0 8 -10l-2 -19q0 -3 -1 -6l-2 -6l-248 -650q-1 -4 -4.5 -6.5t-7.5 -2.5h-21q-12 0 -7 11z" />
    <glyph glyph-name="eight" unicode="8" horiz-adv-x="402" 
d="M293 372q31 -18 44 -57q13 -36 13 -79q0 -21 -3 -44q-7 -50 -26 -97q-22 -50 -58.5 -76.5t-83.5 -26.5q-46 0 -75 26.5t-39 76.5q-4 32 -4 51q0 22 3 47q9 67 33 112q24 46 64 66q5 3 0 5q-31 19 -44 52q-13 29 -13 70q0 24 2 37q10 68 36 105q21 33 53 51t72 18
q81 0 110 -66q14 -31 14 -74q0 -11 -2 -35q-9 -64 -36 -103q-22 -34 -59 -53q-5 -3 -1 -6zM229 392q30 0 54 14.5t40 41.5q20 34 28 85q2 22 2 30q0 37 -12 62q-22 48 -78 48q-57 0 -91 -52q-23 -38 -29 -89q-2 -22 -2 -30q0 -32 10 -59q22 -51 78 -51zM308 193q3 23 3 43
q0 33 -8 60q-8 31 -28.5 46.5t-50.5 15.5q-62 0 -95 -68q-21 -40 -28 -97q-2 -14 -2 -39q0 -27 4 -46q6 -39 27 -60t54 -21q34 0 61 22t43 63q14 36 20 81z" />
    <glyph glyph-name="nine" unicode="9" horiz-adv-x="377" 
d="M361 547q0 -17 -4 -57l-41 -330q-9 -76 -53 -122t-109 -46q-50 0 -80.5 37t-30.5 99q0 10 2 32l1 7q0 4 3 7t8 3h18q9 0 9 -10l-2 -9q-1 -8 -1 -24q0 -48 21.5 -77t56.5 -29q47 0 79.5 36t39.5 94l21 170q1 3 -0.5 3t-3.5 -2q-39 -61 -108 -61q-50 0 -79 30.5t-35 87.5
q-2 12 -2 39q0 33 4 64q5 44 15 80q19 69 58 104t95 35q109 0 116 -129q2 -20 2 -32zM299 395q14 43 20 92q5 39 3 85q-8 101 -83 101q-40 0 -68 -27.5t-43 -80.5q-10 -31 -16 -78q-4 -42 -4 -58q0 -22 3 -40q11 -86 82 -86q73 0 106 92z" />
    <glyph glyph-name="colon" unicode=":" horiz-adv-x="176" 
d="M83.5 357q-10.5 11 -10.5 28q0 22 14.5 37t34.5 15q17 0 28.5 -10.5t11.5 -27.5q0 -23 -14.5 -38t-36.5 -15q-17 0 -27.5 11zM41.5 17q-10.5 11 -10.5 28q0 22 14.5 37t34.5 15q17 0 28.5 -10.5t11.5 -27.5q0 -23 -14.5 -38t-36.5 -15q-17 0 -27.5 11z" />
    <glyph glyph-name="semicolon" unicode=";" horiz-adv-x="170" 
d="M85 373.5q-10 11.5 -10 28.5q0 21 14.5 37.5t32.5 16.5q14 0 24 -12t10 -29q0 -22 -14 -37.5t-32 -15.5q-15 0 -25 11.5zM22 -61.5q-2 3.5 -1 7.5l45 193q1 9 10 9h18q4 0 6.5 -3t0.5 -8l-51 -193q-1 -9 -10 -9h-11q-5 0 -7 3.5z" />
    <glyph glyph-name="less" unicode="&#x3c;" horiz-adv-x="430" 
d="M380.5 68q-3.5 -2 -8.5 0l-319 179q-6 2 -6 12l3 22q2 10 8 12l364 179q2 1 5 1q7 0 5 -8l-2 -19q0 -9 -8 -12l-333 -161q-2 -1 -2.5 -3t1.5 -3l294 -161q7 -3 5 -12l-2 -19q-1 -5 -4.5 -7z" />
    <glyph glyph-name="equal" unicode="=" horiz-adv-x="430" 
d="M70.5 431q-2.5 3 -1.5 7l2 12q0 4 3 7t7 3h341q10 0 8 -10l-1 -12q-2 -10 -11 -10h-340q-5 0 -7.5 3zM44.5 216q-2.5 3 -1.5 7l2 12q0 4 3 7t7 3h341q10 0 8 -10l-1 -12q-2 -10 -11 -10h-340q-5 0 -7.5 3z" />
    <glyph glyph-name="greater" unicode="&#x3e;" horiz-adv-x="430" 
d="M31 67q-8 0 -6 8l2 19q2 10 8 12l333 161q2 1 2.5 3t-1.5 3l-293 161q-6 2 -6 12l3 19q0 5 3.5 7t8.5 0l320 -179q7 -3 5 -12l-3 -22q0 -9 -8 -12l-363 -179q-2 -1 -5 -1z" />
    <glyph glyph-name="question" unicode="?" horiz-adv-x="328" 
d="M137.5 193q-2.5 3 -1.5 7l9 70q5 41 22.5 66.5t51.5 58.5q38 37 58 67t26 81q2 20 2 28q0 47 -21 74.5t-56 27.5q-43 0 -73.5 -35.5t-38.5 -93.5l-4 -37q-2 -10 -11 -10l-19 1q-4 0 -6.5 3t-1.5 7l4 36q9 73 52 119t103 46q51 0 80.5 -36.5t29.5 -98.5q0 -10 -2 -32
q-8 -63 -31.5 -100t-63.5 -75q-29 -28 -43.5 -48.5t-18.5 -49.5l-8 -69q-2 -10 -11 -10h-20q-5 0 -7.5 3zM104.5 15q-10.5 11 -10.5 29q0 22 14.5 36.5t35.5 14.5q17 0 28 -11t11 -28q0 -22 -15 -37t-36 -15q-17 0 -27.5 11z" />
    <glyph glyph-name="at" unicode="@" horiz-adv-x="741" 
d="M642 536q65 -62 65 -169q0 -46 -13 -97q-23 -92 -72.5 -144t-113.5 -52q-32 0 -53.5 13.5t-30.5 37.5q-2 5 -5 0q-16 -25 -41 -38.5t-51 -13.5q-35 0 -56 20.5t-21 55.5q0 13 3 28q7 31 10 41l9 37l19 77q11 47 43 75.5t75 28.5q19 0 35 -9t24 -25q1 -2 3 -1.5t2 2.5
l5 18q1 9 10 9h12q5 0 7 -3.5t1 -7.5l-53 -216q-4 -15 -4 -31q0 -31 17 -49.5t49 -18.5q48 0 86 42.5t57 121.5q13 48 13 93q0 97 -58 152t-159 55q-78 0 -151 -40t-126.5 -112.5t-76.5 -165.5q-12 -49 -12 -92q0 -101 57.5 -159.5t152.5 -58.5q51 0 96 14t74 34q2 2 6 2
t7 -4l5 -7q2 -2 2 -6q0 -6 -5 -8q-33 -24 -85 -40t-110 -16q-106 0 -169 64t-63 174q0 50 13 103q25 102 85 181t140.5 123t167.5 44q113 0 178 -62zM385 123q23 21 33 55l19 76l13 56l6 24q2 14 2 20q0 24 -13 38.5t-37 14.5q-29 0 -53.5 -21.5t-32.5 -54.5q-6 -20 -19 -77
l-7 -31l-11 -45q-3 -12 -3 -23q0 -24 14 -38.5t38 -14.5q28 0 51 21z" />
    <glyph glyph-name="A" unicode="A" horiz-adv-x="365" 
d="M297 9l-11 136q0 2 -1.5 3t-3.5 1h-200q-2 0 -3.5 -1t-1.5 -3l-45 -136q-3 -9 -12 -9h-18q-5 0 -7 3t0 8l231 680q2 9 11 9h25q9 0 9 -9l65 -680q0 -11 -10 -11h-18q-10 0 -10 9zM90 183.5q1 -1.5 2 -1.5h186q2 0 3.5 1.5t0.5 2.5l-39 447q-1 3 -2 3t-2 -3l-149 -447
q-1 -1 0 -2.5z" />
    <glyph glyph-name="B" unicode="B" horiz-adv-x="426" 
d="M324 360q34 -18 52 -53t18 -86q0 -9 -2 -33q-11 -89 -61 -138.5t-127 -49.5h-132q-9 0 -9 10l84 680q2 10 11 10h128q70 0 108 -37.5t38 -107.5q0 -10 -2 -34q-15 -118 -105 -156q-4 -1 -1 -5zM182.5 664q-1.5 -1 -1.5 -3l-34 -278q0 -4 3 -4h97q61 0 99.5 37t46.5 103
q2 20 2 28q0 56 -29.5 87t-83.5 31h-97q-1 0 -2.5 -1zM306 76.5q39 40.5 48 113.5q2 22 2 32q0 59 -29 91.5t-83 32.5h-98q-4 0 -4 -4l-37 -302q0 -4 3 -4h98q61 0 100 40.5z" />
    <glyph glyph-name="C" unicode="C" horiz-adv-x="424" 
d="M97 28.5q-36 36.5 -36 98.5q0 9 2 27l48 393q9 73 56 117t115 44q62 0 98.5 -36t36.5 -98q0 -9 -2 -27l-2 -20q-2 -10 -11 -10l-20 -1q-4 0 -6.5 3t-1.5 7l3 23q1 7 1 20q0 48 -27 76t-73 28q-51 0 -86.5 -34t-42.5 -90l-49 -398q-1 -7 -1 -21q0 -47 26.5 -75t72.5 -28
q52 0 87.5 34t42.5 90l3 22q0 4 3 7t8 3l19 -1q10 0 8 -10l-2 -18q-9 -73 -56.5 -117.5t-116.5 -44.5q-61 0 -97 36.5z" />
    <glyph glyph-name="D" unicode="D" horiz-adv-x="447" 
d="M63 10l84 680q2 10 11 10h136q62 0 96 -39t34 -108q0 -11 -2 -35l-42 -336q-10 -85 -56 -133.5t-115 -48.5h-137q-9 0 -9 10zM105 36.5q1 -1.5 3 -1.5h106q51 1 85 40t42 107l42 335q2 22 2 32q0 55 -24.5 85.5t-69.5 30.5h-106q-1 0 -2.5 -1t-1.5 -3l-76 -622
q-1 -1 0 -2.5z" />
    <glyph glyph-name="E" unicode="E" horiz-adv-x="412" 
d="M419 665h-234q-1 0 -2.5 -1t-1.5 -3l-35 -289q-1 -1 0 -2.5t3 -1.5h153q9 0 9 -10l-2 -15q-2 -10 -11 -10h-153q-3 0 -5 -4l-35 -290q-1 -1 0 -2.5t3 -1.5h234q10 0 8 -10l-2 -15q0 -4 -3 -7t-7 -3h-266q-9 0 -9 10l84 680q2 10 11 10h266q4 0 6.5 -3t1.5 -7l-2 -15
q-2 -10 -11 -10z" />
    <glyph glyph-name="F" unicode="F" horiz-adv-x="384" 
d="M418 665h-233q-1 0 -2.5 -1t-1.5 -3l-35 -289q-1 -1 0 -2.5t3 -1.5h152q9 0 9 -10l-2 -15q-2 -10 -11 -10h-152q-3 0 -5 -4l-39 -319q-2 -10 -11 -10h-18q-9 0 -9 10l84 680q2 10 11 10h265q4 0 6.5 -3t1.5 -7l-2 -15q-2 -10 -11 -10z" />
    <glyph glyph-name="G" unicode="G" horiz-adv-x="430" 
d="M96.5 27.5q-36.5 35.5 -36.5 95.5q0 8 2 26l49 402q9 71 56 114t115 43q62 0 98.5 -35.5t36.5 -95.5q0 -8 -2 -26l-6 -46q0 -4 -3 -7t-8 -3h-18q-9 0 -9 10l6 47q1 7 1 20q0 46 -27 73.5t-73 27.5q-51 0 -86.5 -33.5t-42.5 -87.5l-49 -404q-1 -7 -1 -20q0 -46 26.5 -73.5
t72.5 -27.5q52 0 87.5 33.5t42.5 87.5l18 152q1 1 0 2.5t-3 1.5h-97q-9 0 -9 10l2 15q2 10 11 10h129q9 0 9 -10l-22 -180q-9 -71 -56.5 -114t-115.5 -43q-61 0 -97.5 35.5z" />
    <glyph glyph-name="H" unicode="H" horiz-adv-x="454" 
d="M411 700h18q5 0 7.5 -3t1.5 -7l-84 -680q0 -4 -3 -7t-8 -3h-18q-9 0 -9 10l40 319q0 4 -4 4h-207q-3 0 -5 -4l-39 -319q-2 -10 -11 -10h-18q-9 0 -9 10l84 680q2 10 11 10h18q9 0 9 -10l-39 -318q-1 -1 0 -2.5t3 -1.5h208q1 0 2.5 1t1.5 3l39 318q2 10 11 10z" />
    <glyph glyph-name="I" unicode="I" horiz-adv-x="201" 
d="M63 10l84 680q2 10 11 10h18q9 0 9 -10l-84 -680q-2 -10 -11 -10h-18q-9 0 -9 10z" />
    <glyph glyph-name="J" unicode="J" horiz-adv-x="401" 
d="M57.5 28q-34.5 36 -34.5 98q0 9 2 27l11 89q0 4 3 7t7 3h19q10 0 8 -10l-11 -91q-1 -7 -1 -21q0 -47 25.5 -75t69.5 -28q49 0 83 34t41 90l67 539q0 4 3 7t8 3h18q10 0 8 -10l-65 -537q-9 -73 -55 -117t-113 -44q-59 0 -93.5 36z" />
    <glyph glyph-name="K" unicode="K" horiz-adv-x="421" 
d="M63 10l84 680q2 10 11 10h18q9 0 9 -10l-44 -357q-1 -3 1 -3.5t4 2.5l259 361q7 7 13 7h22q6 0 7.5 -3.5t-2.5 -8.5l-186 -263q-3 -3 -2 -6l123 -407v-3q0 -4 -2.5 -6.5t-6.5 -2.5h-24q-8 0 -9 8l-111 375q0 4 -4 0l-88 -115q-3 -3 -3 -5l-31 -253q-2 -10 -11 -10h-18
q-9 0 -9 10z" />
    <glyph glyph-name="L" unicode="L" horiz-adv-x="371" 
d="M63 10l84 680q2 10 11 10h18q9 0 9 -10l-80 -651q-1 -1 0 -2.5t3 -1.5h230q10 0 8 -10l-1 -15q-2 -10 -11 -10h-262q-9 0 -9 10z" />
    <glyph glyph-name="M" unicode="M" horiz-adv-x="493" 
d="M449 700h20q9 0 9 -10l-84 -680q-2 -10 -11 -10h-18q-9 0 -9 10l73 591q0 3 -2 3t-3 -2l-144 -266q-4 -8 -12 -8t-9 8l-81 264q0 2 -2 2t-3 -3l-72 -589q-2 -10 -11 -10h-18q-9 0 -9 10l84 680q2 10 11 10h19q9 0 10 -8l88 -288q0 -2 2 -2t3 2l157 288q4 8 12 8z" />
    <glyph glyph-name="N" unicode="N" horiz-adv-x="469" 
d="M419 697q3 3 7 3h19q10 0 8 -10l-83 -680q-2 -10 -11 -10h-23q-9 0 -10 8l-148 592q0 3 -2 2.5t-3 -3.5l-72 -589q-2 -10 -11 -10h-18q-9 0 -9 10l84 680q2 10 11 10h22q9 0 10 -8l149 -589q0 -3 2 -2.5t3 3.5l71 586q1 4 4 7z" />
    <glyph glyph-name="O" unicode="O" horiz-adv-x="435" 
d="M97.5 29.5q-36.5 37.5 -36.5 100.5q0 8 2 26l47 387q9 73 57.5 119t116.5 46q63 0 100 -38t37 -101q0 -8 -2 -26l-48 -387q-9 -73 -57.5 -118.5t-117.5 -45.5q-62 0 -98.5 37.5zM289 62.5q37 35.5 44 91.5l48 391q1 7 1 22q0 48 -28 77t-74 29q-51 0 -88 -35.5t-44 -92.5
l-48 -391q-1 -7 -1 -20q0 -48 27.5 -77.5t73.5 -29.5q52 0 89 35.5z" />
    <glyph glyph-name="P" unicode="P" horiz-adv-x="419" 
d="M393.5 661q33.5 -41 33.5 -110q0 -23 -2 -36q-10 -82 -56.5 -132.5t-111.5 -50.5h-112q-2 0 -3.5 -1t-1.5 -3l-39 -318q-2 -10 -11 -10h-18q-9 0 -9 10l84 682q2 10 11 10h144q58 0 91.5 -41zM343 407q36 41 44 108q2 22 2 32q0 56 -25.5 87.5t-70.5 31.5h-107
q-2 0 -3.5 -1t-1.5 -3l-36 -292q0 -4 4 -4h107q51 0 87 41z" />
    <glyph glyph-name="Q" unicode="Q" horiz-adv-x="422" 
d="M373 670.5q35 -37.5 35 -100.5q0 -8 -2 -28l-47 -384q-8 -68 -47.5 -112.5t-97.5 -52.5q-4 0 -4 -4l-12 -102q-1 -4 -4 -7t-7 -3h-20q-10 0 -8 10l12 102q2 4 -3 4q-49 8 -78 44.5t-29 93.5q0 9 2 27l47 384q9 74 56 120t113 46q59 0 94 -37.5zM369 545q1 7 1 22
q0 48 -25.5 77t-69.5 29q-49 0 -84.5 -35.5t-42.5 -92.5l-47 -390q-2 -16 -2 -23q0 -47 26.5 -76t69.5 -29q49 0 83.5 35.5t42.5 92.5z" />
    <glyph glyph-name="R" unicode="R" horiz-adv-x="418" 
d="M327 8l-73 324q0 3 -3 3h-106q-4 0 -4 -4l-40 -321q-2 -10 -11 -10h-18q-9 0 -9 10l84 680q2 10 11 10h143q58 0 92 -40t34 -108q0 -24 -2 -36q-8 -69 -43.5 -116t-87.5 -60q-4 -2 -4 -5l74 -324v-2q0 -9 -9 -9h-17q-10 0 -11 8zM182.5 664q-1.5 -1 -1.5 -3l-35 -289
q-1 -1 0 -2.5t3 -1.5h108q51 0 86.5 40.5t43.5 106.5q2 22 2 30q0 55 -25.5 87.5t-70.5 32.5h-108q-1 0 -2.5 -1z" />
    <glyph glyph-name="S" unicode="S" horiz-adv-x="392" 
d="M80 31q-35 39 -35 104q0 9 2 31l2 19q2 10 11 10h17q5 0 7.5 -3t1.5 -7l-2 -18q-2 -18 -2 -27q0 -52 26 -83t70 -31q35 0 65 20t48 56t18 82q0 33 -12.5 57.5t-31.5 43t-61 54.5q-40 35 -62.5 58t-36.5 53t-14 69q0 8 2 28q10 75 55 118t109 43q60 0 95 -39t35 -105
q0 -10 -2 -32l-3 -25q0 -4 -3 -7t-8 -3h-18q-10 0 -8 10l3 25q2 18 2 26q0 53 -26.5 84.5t-70.5 31.5q-47 0 -81.5 -34t-41.5 -95q-1 -8 -1 -22q0 -42 22 -72t78 -77q46 -39 70 -63.5t37 -51.5t13 -62q0 -8 -2 -28q-10 -80 -58 -128.5t-114 -48.5q-60 0 -95 39z" />
    <glyph glyph-name="T" unicode="T" horiz-adv-x="390" 
d="M418 690l-1 -15q-1 -4 -4 -7t-7 -3h-130q-3 0 -5 -4l-80 -651q0 -4 -3 -7t-8 -3h-18q-10 0 -8 10l79 651q1 1 0 2.5t-3 1.5h-121q-9 0 -9 10l2 15q2 10 11 10h297q10 0 8 -10z" />
    <glyph glyph-name="U" unicode="U" horiz-adv-x="460" 
d="M111.5 33q-35.5 41 -35.5 110q0 23 2 35l63 512q2 10 11 10h18q5 0 7.5 -3t1.5 -7l-64 -516q-2 -18 -2 -26q0 -56 27 -88.5t74 -32.5q52 0 89.5 40.5t45.5 106.5l64 516q0 4 3 7t8 3h18q10 0 8 -10l-62 -512q-10 -84 -59.5 -135t-118.5 -51q-63 0 -98.5 41z" />
    <glyph glyph-name="V" unicode="V" horiz-adv-x="404" 
d="M163 9l-58 680q0 11 10 11h20q10 0 10 -9l46 -610q1 -3 2 -3t2 3l196 610q3 9 12 9h20q10 0 7 -11l-224 -680q-3 -9 -12 -9h-21q-10 0 -10 9z" />
    <glyph glyph-name="W" unicode="W" horiz-adv-x="575" 
d="M140 9l-43 680q0 11 10 11h20q9 0 9 -9l34 -598q0 -2 1 -2t2 2l164 598q3 9 11 9h18q9 0 9 -9l20 -598q0 -2 1 -2t2 2l171 598q3 9 12 9h20q5 0 7 -3t0 -8l-202 -680q-3 -9 -12 -9h-20q-8 0 -8 9l-18 596q-1 2 -2 2t-2 -2l-165 -596q-3 -9 -11 -9h-19q-9 0 -9 9z" />
    <glyph glyph-name="X" unicode="X" horiz-adv-x="403" 
d="M24 3.5q-2 3.5 1 8.5l179 335q2 3 0 6l-96 335l-1 3q0 9 10 9h20q9 0 10 -8l81 -299q0 -2 2.5 -2.5t3.5 2.5l153 299q3 8 11 8h21q5 0 7 -3.5t-1 -8.5l-180 -336q-1 -2 -1 -6l98 -334l1 -3q0 -9 -10 -9h-21q-8 0 -9 8l-80 298q-1 2 -3 2t-3 -2l-154 -298q-4 -8 -12 -8
h-20q-5 0 -7 3.5z" />
    <glyph glyph-name="Y" unicode="Y" horiz-adv-x="389" 
d="M157 10l39 317q0 1 0.5 2.5t-0.5 2.5l-89 356l-1 3q0 9 10 9h19q10 0 11 -8l73 -315q1 -2 3 -2t3 2l149 315q4 8 13 8h19q5 0 7 -3.5t-1 -8.5l-176 -356q-2 -2 -2 -5l-39 -317q-2 -10 -11 -10h-18q-9 0 -9 10z" />
    <glyph glyph-name="Z" unicode="Z" horiz-adv-x="376" 
d="M20 10l2 19q0 5 3 12l326 619q1 2 0 3.5t-3 1.5h-238q-9 0 -9 10l2 15q2 10 11 10h275q4 0 6.5 -3t1.5 -7l-2 -19q-2 -9 -4 -12l-325 -619q-1 -2 -0.5 -3.5t2.5 -1.5h239q10 0 8 -10l-1 -15q-1 -4 -4 -7t-7 -3h-275q-10 0 -8 10z" />
    <glyph glyph-name="bracketleft" unicode="[" horiz-adv-x="275" 
d="M-7 -99l104 851q2 10 11 10h127q9 0 9 -10l-2 -15q-2 -10 -11 -10h-95q-3 0 -5 -4l-97 -793q0 -2 1 -3t2 -1h97q4 0 6.5 -3t1.5 -7l-2 -15q-2 -10 -11 -10h-128q-10 0 -8 10z" />
    <glyph glyph-name="backslash" unicode="\" horiz-adv-x="288" 
d="M242 9q0 -9 -9 -9h-19q-4 0 -6.5 2.5t-2.5 6.5l-74 680v2q0 9 9 9h19q9 0 9 -9l74 -680v-2z" />
    <glyph glyph-name="bracketright" unicode="]" horiz-adv-x="275" 
d="M209 -109h-129q-9 0 -9 10l2 15q2 10 11 10h97q4 0 4 4l98 793q0 4 -4 4h-96q-4 0 -6.5 3t-1.5 7l2 15q0 4 3 7t8 3h128q10 0 8 -10l-104 -851q-2 -10 -11 -10z" />
    <glyph glyph-name="asciicircum" unicode="^" horiz-adv-x="373" 
d="M58.5 315q-1.5 3 0.5 8l171 369q4 8 13 8h19q10 0 11 -8l81 -369v-2q0 -9 -9 -9h-14q-8 0 -10 8l-71 332q-1 2 -3 2t-3 -2l-151 -332q-5 -8 -13 -8h-15q-5 0 -6.5 3z" />
    <glyph glyph-name="underscore" unicode="_" horiz-adv-x="345" 
d="M8.5 3q-2.5 3 -1.5 7l2 14q2 10 11 10h275q9 0 9 -10l-2 -14q-2 -10 -11 -10h-275q-5 0 -7.5 3z" />
    <glyph glyph-name="grave" unicode="`" horiz-adv-x="158" 
d="M179 578q0 -8 -9 -8h-12q-6 0 -11 7l-50 111q-1 2 -1 5q0 7 9 7h16q6 0 10 -7l47 -111z" />
    <glyph glyph-name="a" unicode="a" horiz-adv-x="400" 
d="M345 502h18q5 0 7.5 -3t1.5 -7l-59 -482q-1 -4 -4 -7t-7 -3h-19q-10 0 -8 10l5 39q0 3 -2 3.5t-3 -2.5q-20 -28 -48 -43t-60 -15q-53 0 -84 33.5t-31 88.5q0 7 2 25l27 224q8 66 49 106.5t100 40.5q33 0 57.5 -15t36.5 -43q1 -3 3 -2.5t2 3.5l5 39q2 10 11 10zM254 58.5
q31 31.5 37 81.5l27 222q1 7 1 19q0 43 -23 68.5t-61 25.5q-45 0 -77.5 -31.5t-38.5 -81.5l-27 -222q-1 -6 -1 -18q0 -42 24.5 -68.5t64.5 -26.5q43 0 74 31.5z" />
    <glyph glyph-name="b" unicode="b" horiz-adv-x="400" 
d="M339.5 476.5q30.5 -33.5 30.5 -90.5q0 -15 -1 -23l-28 -225q-8 -64 -49.5 -105t-100.5 -41q-32 0 -56 14t-37 40q-2 2 -3.5 1.5t-1.5 -3.5l-4 -34q-1 -4 -4 -7t-7 -3h-19q-10 0 -8 10l83 680q2 10 11 10h19q4 0 6.5 -3t1.5 -7l-28 -232q-1 -3 0.5 -3.5t3.5 1.5
q20 26 47.5 40t59.5 14q54 0 84.5 -33.5zM332 380q0 43 -24 69t-64 26q-44 0 -75 -31.5t-37 -81.5l-28 -222q-1 -6 -1 -19q0 -42 23.5 -68t62.5 -26q44 0 76 31.5t38 81.5l28 222q1 6 1 18z" />
    <glyph glyph-name="c" unicode="c" horiz-adv-x="376" 
d="M85.5 26q-33.5 34 -33.5 90q0 7 2 23l27 224q8 65 51.5 106t104.5 41q57 0 90.5 -33t33.5 -81q0 -10 -1 -15v-4q-1 -4 -4 -7t-7 -3l-19 -1q-10 0 -8 10v4l1 11q0 35 -24.5 59.5t-65.5 24.5q-44 0 -76 -31.5t-38 -81.5l-27 -222q-1 -6 -1 -18q0 -42 24 -68.5t63 -26.5
q44 0 76 29t36 66l1 4q2 10 11 10h18q5 0 7.5 -3t1.5 -7l-1 -5q-4 -34 -25 -63.5t-55 -47.5t-74 -18q-55 0 -88.5 34z" />
    <glyph glyph-name="d" unicode="d" horiz-adv-x="400" 
d="M369 700h19q4 0 6.5 -3t1.5 -7l-83 -680q-1 -4 -4 -7t-7 -3h-19q-10 0 -8 10l4 34q0 3 -1 3.5t-3 -1.5q-20 -26 -48 -40t-59 -14q-53 0 -84.5 33t-31.5 88q0 7 2 25l27 225q8 65 50 106t100 41q32 0 56.5 -14t37.5 -40q1 -2 2.5 -1.5t2.5 3.5l28 232q2 10 11 10z
M254 58.5q31 31.5 37 81.5l27 222q1 7 1 19q0 43 -23 68.5t-61 25.5q-45 0 -77.5 -31.5t-38.5 -81.5l-27 -222q-1 -6 -1 -18q0 -43 24.5 -69t64.5 -26q43 0 74 31.5z" />
    <glyph glyph-name="e" unicode="e" horiz-adv-x="383" 
d="M333 240h-225q-4 0 -4 -4l-12 -96q-1 -6 -1 -18q0 -43 23.5 -69t63.5 -26q36 0 65.5 22.5t42.5 58.5q5 9 12 9l17 -1q5 0 7 -3t1 -8q-16 -52 -56 -82.5t-93 -30.5q-55 0 -88.5 33.5t-33.5 89.5q0 7 2 23l27 225q8 65 51.5 106t104.5 41q57 0 89.5 -34.5t32.5 -90.5
q0 -14 -1 -22l-14 -113q-2 -10 -11 -10zM157 443.5q-32 -31.5 -38 -81.5l-10 -85q-1 -1 0 -2.5t3 -1.5h193q4 0 4 4l11 85q1 6 1 18q0 43 -24 69t-64 26q-44 0 -76 -31.5z" />
    <glyph glyph-name="f" unicode="f" horiz-adv-x="259" 
d="M200.5 643.5q-19.5 -30.5 -27.5 -96.5l-5 -41q0 -4 3 -4h83q10 0 8 -10l-1 -12q-2 -10 -11 -10h-83q-4 0 -4 -4l-56 -456q-2 -10 -11 -10h-18q-5 0 -7.5 3t-1.5 7l56 456q0 4 -3 4h-43q-10 0 -8 10l1 12q2 10 11 10h43q4 0 4 4l5 41q10 82 40.5 122t91.5 40h15
q10 0 8 -10l-1 -15q-2 -10 -11 -10h-14q-44 0 -63.5 -30.5z" />
    <glyph glyph-name="g" unicode="g" horiz-adv-x="389" 
d="M345 502h19q9 0 9 -10l-60 -489q-26 -204 -200 -204q-8 0 -11 2.5t-2 7.5l2 16q0 10 13 10q73 0 111 43t48 127l6 45q0 3 -1.5 3t-3.5 -2q-19 -28 -47 -42.5t-61 -14.5q-53 0 -83.5 33.5t-30.5 89.5q0 15 1 23l27 223q8 65 49.5 106t99.5 41q33 0 57 -14.5t37 -42.5
q2 -2 3.5 -2t1.5 3l5 38q2 10 11 10zM254 60.5q31 31.5 37 81.5l27 220q1 7 1 19q0 43 -23 68.5t-61 25.5q-45 0 -77.5 -31.5t-38.5 -81.5l-27 -220q-1 -6 -1 -18q0 -43 24.5 -69t64.5 -26q43 0 74 31.5z" />
    <glyph glyph-name="h" unicode="h" horiz-adv-x="401" 
d="M337.5 477.5q27.5 -31.5 27.5 -88.5q0 -9 -2 -33l-43 -346q0 -4 -3 -7t-8 -3h-18q-10 0 -8 10l42 342q2 18 2 26q0 46 -21.5 71t-61.5 25q-45 0 -76 -34.5t-38 -94.5l-41 -335q-1 -4 -4 -7t-7 -3h-19q-10 0 -8 10l83 680q2 10 11 10h19q4 0 6.5 -3t1.5 -7l-30 -242
q0 -3 1.5 -3t3.5 2q20 31 49 46.5t63 15.5q51 0 78.5 -31.5z" />
    <glyph glyph-name="i" unicode="i" horiz-adv-x="197" 
d="M125.5 621q-10.5 11 -10.5 28q0 22 14.5 37t35.5 15q18 0 28.5 -11t10.5 -29q0 -22 -15 -36.5t-36 -14.5q-17 0 -27.5 11zM61 10l60 482q0 4 3 7t7 3h19q10 0 8 -10l-59 -482q-2 -10 -11 -10h-18q-9 0 -9 10z" />
    <glyph glyph-name="j" unicode="j" horiz-adv-x="186" 
d="M115.5 621q-11.5 11 -11.5 27q0 23 15 38t36 15q17 0 27.5 -11t10.5 -29q0 -22 -14.5 -36.5t-34.5 -14.5q-17 0 -28.5 11zM-60 -200l1 15q2 10 11 10q38 3 61 32.5t29 79.5l68 555q2 10 11 10h18q9 0 9 -10l-68 -555q-18 -143 -132 -147q-10 0 -8 10z" />
    <glyph glyph-name="k" unicode="k" horiz-adv-x="373" 
d="M51 10l83 680q2 10 11 10h19q4 0 6.5 -3t1.5 -7l-53 -434q-1 -2 1 -2.5t3 1.5l202 241q4 6 13 6h19q6 0 7.5 -3.5t-2.5 -8.5l-108 -130q0 -1 -1.5 -2.5t-0.5 -2.5l70 -344l1 -3q0 -8 -10 -8h-19q-8 0 -11 8l-58 313q-1 6 -6 1l-106 -127q-2 -2 -2 -5l-22 -180
q-1 -4 -4 -7t-7 -3h-19q-10 0 -8 10z" />
    <glyph glyph-name="l" unicode="l" horiz-adv-x="164" 
d="M46.5 3q-2.5 3 -1.5 7l83 680q2 10 11 10h19q10 0 8 -10l-83 -680q-2 -10 -11 -10h-19q-4 0 -6.5 3z" />
    <glyph glyph-name="m" unicode="m" horiz-adv-x="616" 
d="M552.5 475q26.5 -34 26.5 -94q0 -10 -2 -34l-41 -337q-2 -10 -11 -10h-19q-4 0 -6.5 3t-1.5 7l41 333q2 20 2 28q0 48 -21 75.5t-56 27.5q-44 0 -74 -34.5t-37 -94.5l-41 -335q-2 -10 -11 -10h-18q-10 0 -8 10l41 333q2 20 2 28q0 48 -20.5 75.5t-55.5 27.5
q-45 0 -75 -34.5t-37 -94.5l-41 -335q-1 -4 -4 -7t-7 -3h-19q-10 0 -8 10l59 482q2 10 11 10h18q9 0 9 -10l-5 -41q-1 -3 0.5 -3t3.5 2q21 29 49.5 44t59.5 15q37 0 61.5 -21t33.5 -60q2 -6 5 1q20 39 52.5 59.5t70.5 20.5q47 0 73.5 -34z" />
    <glyph glyph-name="n" unicode="n" horiz-adv-x="401" 
d="M337.5 477.5q27.5 -31.5 27.5 -88.5q0 -9 -2 -33l-43 -346q0 -4 -3 -7t-8 -3h-18q-10 0 -8 10l42 342q2 18 2 26q0 46 -21.5 71t-61.5 25q-45 0 -76 -34.5t-38 -94.5l-41 -335q-1 -4 -4 -7t-7 -3h-19q-10 0 -8 10l59 482q2 10 11 10h18q9 0 9 -10l-6 -44q0 -3 1.5 -3
t3.5 2q20 31 49 46.5t63 15.5q51 0 78.5 -31.5z" />
    <glyph glyph-name="o" unicode="o" horiz-adv-x="390" 
d="M85.5 26q-33.5 34 -33.5 90q0 7 2 23l27 224q8 65 51.5 106t104.5 41q57 0 89.5 -34.5t32.5 -90.5q0 -14 -1 -22l-28 -224q-8 -65 -51 -106t-105 -41q-55 0 -88.5 34zM255 58.5q32 31.5 38 81.5l27 222q1 6 1 18q0 42 -24 68.5t-64 26.5q-44 0 -76 -32t-38 -81l-27 -222
q-1 -6 -1 -18q0 -42 24 -68.5t63 -26.5q45 0 77 31.5z" />
    <glyph glyph-name="p" unicode="p" horiz-adv-x="406" 
d="M345 476.5q31 -33.5 31 -87.5q0 -7 -2 -25l-27 -225q-8 -65 -49.5 -106t-100.5 -41q-31 0 -55 14t-37 40q-1 2 -3 1.5t-3 -3.5l-28 -232q-2 -10 -11 -10h-18q-5 0 -7.5 3t-1.5 7l84 680q0 4 3 7t8 3h18q9 0 9 -10l-5 -34q0 -3 1.5 -3.5t3.5 1.5q20 26 47.5 40t58.5 14
q53 0 84 -33.5zM338 382q0 42 -24 67.5t-65 25.5q-43 0 -73.5 -31.5t-36.5 -81.5l-28 -222q-1 -6 -1 -19q0 -42 23 -68t61 -26q46 0 78 31.5t38 81.5l27 222q1 7 1 20z" />
    <glyph glyph-name="q" unicode="q" horiz-adv-x="406" 
d="M345 502h18q5 0 7.5 -3t1.5 -7l-84 -680q0 -4 -3 -7t-8 -3h-18q-9 0 -9 10l29 232q0 3 -1 3.5t-3 -1.5q-20 -26 -48 -40t-59 -14q-53 0 -84.5 33.5t-31.5 88.5q0 7 2 25l28 225q8 64 49 105t100 41q32 0 56.5 -14t37.5 -40q1 -2 2.5 -1.5t2.5 3.5l4 34q2 10 11 10z
M254 58.5q31 31.5 37 81.5l27 222q1 7 1 19q0 43 -23 68.5t-61 25.5q-45 0 -77.5 -31.5t-38.5 -81.5l-27 -222q-1 -6 -1 -18q0 -42 24.5 -68.5t64.5 -26.5q43 0 74 31.5z" />
    <glyph glyph-name="r" unicode="r" horiz-adv-x="269" 
d="M292 496q7 -5 2 -13l-8 -20q-5 -9 -13 -5q-14 6 -35 5q-41 0 -72 -41t-39 -102l-38 -310q-1 -4 -4 -7t-7 -3h-19q-10 0 -8 10l59 482q2 10 11 10h18q9 0 9 -10l-8 -65q-1 -3 1 -3t3 3q19 37 46.5 58t60.5 21q24 0 41 -10z" />
    <glyph glyph-name="s" unicode="s" horiz-adv-x="346" 
d="M75 25.5q-32 29.5 -32 76.5q0 11 1 17v5q2 10 11 10h18q10 0 8 -10v-5q-1 -5 -1 -13q0 -34 23 -55.5t63 -21.5q46 0 75.5 31t29.5 80q0 37 -23 56.5t-70 40.5q-49 22 -75.5 47t-26.5 73q0 12 1 19q7 59 47 94.5t98 35.5q53 0 84 -29.5t31 -78.5q0 -14 -1 -21v-3
q-2 -10 -11 -10h-16q-5 0 -7.5 3t-1.5 7l1 4l1 12q0 36 -23 59.5t-61 23.5q-46 0 -75.5 -31.5t-29.5 -78.5q0 -35 21.5 -53.5t65.5 -39.5q36 -16 57 -29t36.5 -36t15.5 -58q0 -68 -41 -109.5t-107 -41.5q-54 0 -86 29.5z" />
    <glyph glyph-name="t" unicode="t" horiz-adv-x="248" 
d="M245 470h-81q-4 0 -4 -4l-41 -336q-2 -22 -2 -29q0 -37 15.5 -51.5t47.5 -14.5h11q4 0 6.5 -3t1.5 -7l-2 -15q-2 -10 -11 -10h-16q-45 0 -68.5 19.5t-23.5 70.5q0 9 2 33l42 343q0 4 -3 4h-40q-10 0 -8 10l1 12q2 10 11 10h40q4 0 4 4l14 112q2 10 11 10h18q9 0 9 -10
l-14 -112q0 -4 3 -4h81q10 0 8 -10l-1 -12q-2 -10 -11 -10z" />
    <glyph glyph-name="u" unicode="u" horiz-adv-x="401" 
d="M346 502h18q9 0 9 -10l-59 -482q-1 -4 -4 -7t-7 -3h-19q-10 0 -8 10l5 40q0 3 -2 3.5t-3 -2.5q-37 -58 -108 -58q-52 0 -80.5 29t-28.5 86q0 9 2 31l43 353q2 10 11 10h18q5 0 7.5 -3t1.5 -7l-42 -345q-2 -20 -2 -28q0 -45 21 -68t60 -23q46 0 77 34.5t38 94.5l41 335
q2 10 11 10z" />
    <glyph glyph-name="v" unicode="v" horiz-adv-x="342" 
d="M131 9l-62 482v2q0 9 10 9h21q10 0 10 -9l49 -424q0 -3 1.5 -3t2.5 3l151 424q1 4 4 6.5t7 2.5h24q11 0 6 -11l-179 -482q-3 -9 -12 -9h-23q-10 0 -10 9z" />
    <glyph glyph-name="w" unicode="w" horiz-adv-x="512" 
d="M111 9l-43 482q0 11 10 11h18q9 0 9 -9l31 -428q0 -3 1.5 -3t2.5 3l136 428q3 9 12 9h17q9 0 10 -9l32 -428q1 -3 2 -3t2 3l137 428q3 9 12 9h18q4 0 6.5 -3t0.5 -8l-162 -482q-3 -9 -12 -9h-19q-10 0 -10 9l-33 414q-1 3 -2 3t-2 -3l-134 -414q-1 -9 -11 -9h-20
q-9 0 -9 9z" />
    <glyph glyph-name="x" unicode="x" horiz-adv-x="336" 
d="M5.5 3.5q-1.5 3.5 0.5 8.5l152 236q2 3 0 6l-93 236l-1 4q0 8 9 8h23q9 0 10 -7l76 -206q1 -2 3 -2t3 2l126 206q4 7 12 7h21q5 0 6.5 -3.5t-1.5 -8.5l-150 -236q-2 -4 -1 -6l92 -236l1 -4q0 -8 -9 -8h-20q-10 0 -11 7l-75 207q-1 2 -3 2t-3 -2l-127 -207q-3 -7 -12 -7
h-22q-5 0 -6.5 3.5z" />
    <glyph glyph-name="y" unicode="y" horiz-adv-x="332" 
d="M-2 -197q-2 3 -1 7l2 15q2 10 11 10q29 1 46 13.5t32 45t39 103.5q1 2 0.5 3.5t-0.5 2.5l-65 488v2q0 4 3 6.5t7 2.5h21q9 0 9 -9l51 -434q0 -3 1.5 -3t2.5 3l156 434q2 9 12 9h19q12 0 7 -11l-205 -547q-24 -63 -42.5 -93t-40 -40.5t-57.5 -10.5h-4q-2 0 -4 3z" />
    <glyph glyph-name="z" unicode="z" horiz-adv-x="344" 
d="M21 10l2 19q0 3 4 13l271 419q1 2 1 3.5t-2 1.5h-208q-10 0 -8 10l2 16q0 4 3 7t8 3h246q9 0 9 -10l-3 -19q0 -3 -4 -13l-271 -419q-1 -2 -1 -3.5t2 -1.5h210q10 0 8 -10l-2 -16q0 -4 -3 -7t-8 -3h-248q-10 0 -8 10z" />
    <glyph glyph-name="braceleft" unicode="{" horiz-adv-x="233" 
d="M75 -90.5q-18 18.5 -18 59.5q0 9 2 31l27 222q2 22 2 29q0 27 -9 41.5t-27 19.5q-8 1 -8 10l2 16q1 9 10 10q24 6 38 27.5t19 62.5l26 215q8 58 31 83.5t69 25.5h35q10 0 8 -10l-1 -15q-2 -10 -11 -10h-28q-29 0 -45 -18.5t-20 -60.5l-26 -208q-5 -44 -18.5 -70
t-37.5 -37q-4 -1 -1 -5q32 -20 32 -75q0 -9 -2 -33l-26 -215q-2 -20 -2 -26q0 -28 11.5 -40.5t35.5 -12.5h28q5 0 7.5 -3t1.5 -7l-2 -15q-2 -10 -11 -10h-35q-39 0 -57 18.5z" />
    <glyph glyph-name="bar" unicode="|" horiz-adv-x="121" 
d="M14 -70l100 820q1 4 4 7t7 3h19q10 0 8 -10l-100 -820q-1 -4 -4 -7t-7 -3h-19q-10 0 -8 10z" />
    <glyph glyph-name="braceright" unicode="}" horiz-adv-x="233" 
d="M1 -109q-10 0 -8 10l2 15q0 4 3 7t7 3h28q29 0 45 18.5t21 60.5l26 215q5 44 18.5 69.5t37.5 38.5q5 3 0 5q-31 18 -31 72q0 22 2 35l26 208q1 8 1 23q0 29 -11.5 42.5t-36.5 13.5h-27q-9 0 -9 10l2 15q2 10 11 10h35q38 0 56.5 -19t18.5 -60q0 -8 -2 -30l-26 -215
q-2 -22 -2 -30q0 -27 8.5 -41t27.5 -19q8 -1 8 -10l-2 -16q-1 -9 -11 -10q-24 -5 -37.5 -26.5t-18.5 -63.5l-27 -222q-7 -58 -31 -83.5t-69 -25.5h-35z" />
    <glyph glyph-name="asciitilde" unicode="~" horiz-adv-x="435" 
d="M271 254q-18 8 -49 28q-17 12 -32.5 18t-33.5 6q-48 0 -79 -42q-3 -4 -7 -5t-7 1l-7 6q-7 7 -2 13q18 30 44.5 46.5t59.5 16.5q23 0 40.5 -6.5t36.5 -19.5q25 -17 43 -25.5t44 -8.5q20 0 35 10t33 30q7 9 14 3l8 -6q6 -6 1 -14q-22 -28 -44.5 -43.5t-51.5 -15.5
q-28 0 -46 8z" />
    <glyph glyph-name="uni00A0" unicode="&#xa0;" horiz-adv-x="194" 
 />
    <glyph glyph-name="exclamdown" unicode="&#xa1;" horiz-adv-x="232" 
d="M211.5 697q10.5 -11 10.5 -29q0 -22 -14.5 -36.5t-35.5 -14.5q-17 0 -28 10.5t-11 27.5q0 23 14.5 38t35.5 15q18 0 28.5 -11zM151 490h14q9 0 8 -10l-54 -458q-2 -10 -11 -10h-18q-9 0 -9 10l59 458q1 10 11 10z" />
    <glyph glyph-name="cent" unicode="&#xa2;" horiz-adv-x="376" 
d="M360 457l-19 -1q-10 0 -8 10v4l1 11q0 35 -24.5 59.5t-65.5 24.5q-44 0 -76 -31.5t-38 -81.5l-27 -222q-1 -6 -1 -18q0 -42 24 -68.5t63 -26.5q44 0 76 29t37 66v4q2 10 11 10h18q5 0 7.5 -3t1.5 -7l-1 -5q-5 -48 -42.5 -84.5t-91.5 -43.5q-4 0 -4 -4l-8 -69q0 -4 -3 -7
t-8 -3h-15q-9 0 -9 10l10 69q0 4 -3 4q-47 7 -74.5 40t-27.5 83q0 7 2 23l27 224q7 59 44.5 98.5t91.5 47.5q4 0 4 4l8 69q0 4 3 7t8 3h15q9 0 9 -10l-10 -69q0 -4 3 -4q47 -6 75.5 -37.5t28.5 -74.5q0 -11 -1 -16l-1 -7q0 -7 -10 -7z" />
    <glyph glyph-name="sterling" unicode="&#xa3;" horiz-adv-x="481" 
d="M138.5 35.5q0.5 -1.5 2.5 -1.5h277q5 0 7.5 -3t1.5 -7l-2 -14q-2 -10 -11 -10h-318q-10 0 -8 10l2 16q0 7 7 12q20 16 36 52t22 81l17 143q1 1 0 2.5t-3 1.5h-58q-9 0 -9 10l2 13q2 10 11 10h58q4 0 4 4l21 167q11 87 57 136.5t114 49.5q100 0 117 -122q0 -10 -9 -12
l-17 -3h-3q-7 0 -8 8q-10 95 -87 95q-52 0 -85.5 -40t-41.5 -111l-21 -168q0 -4 4 -4h143q9 0 9 -10l-2 -13q-2 -10 -11 -10h-143q-3 0 -5 -4l-17 -141q-5 -42 -19 -77t-33 -57q-2 -2 -1.5 -3.5z" />
    <glyph glyph-name="currency" unicode="&#xa4;" horiz-adv-x="471" 
d="M379 184q-3 -3 0 -6l54 -64q2 -4 2 -5q0 -5 -5 -9l-12 -10q-7 -7 -13 1l-54 62q0 1 -1.5 1.5t-3.5 -0.5q-55 -41 -120 -41q-61 0 -105 38q-1 1 -6 -1l-65 -59q-7 -7 -14 -1l-10 10q-3 3 -3 7t4 7l66 60q4 4 1 6q-30 45 -30 97q0 76 57 140q2 4 0 6l-55 65q-2 2 -2 5
q0 5 4 9l13 10q8 5 14 -1l53 -63q3 -3 6 -1q54 42 118 42q33 0 61.5 -11.5t50.5 -32.5q3 -3 6 0l72 66q8 7 14 1l10 -10q7 -7 0 -14l-75 -68q-3 -3 -1 -6q24 -39 24 -91q0 -78 -55 -139zM137 186q37 -38 94 -38q43 0 82 23t62.5 62.5t23.5 85.5q0 57 -37 96t-94 39
q-43 0 -82 -23.5t-62.5 -63.5t-23.5 -86q0 -57 37 -95z" />
    <glyph glyph-name="yen" unicode="&#xa5;" horiz-adv-x="504" 
d="M437 317q-3 -3 -8 -3h-138q-3 0 -5 -4l-9 -79q-1 -1 0 -2.5t3 -1.5h139q10 0 8 -10l-1 -8q0 -4 -3 -7t-8 -3h-138q-3 0 -5 -4l-22 -185q-1 -4 -4 -7t-7 -3h-19q-10 0 -8 10l22 185q1 1 0 2.5t-3 1.5h-133q-10 0 -8 10l1 8q0 4 3 7t8 3h132q2 0 3.5 1t1.5 3l10 79
q0 4 -4 4h-133q-10 0 -8 10l1 9q2 10 11 10h127q2 0 3 1.5t0 3.5l-86 340v3q0 4 2.5 6.5t6.5 2.5h20q9 0 10 -8l73 -315q1 -3 3 -3t3 3l150 315q4 8 13 8h19q5 0 7 -3.5t0 -8.5l-169 -340q-1 -2 -0.5 -3.5t2.5 -1.5h133q10 0 8 -10l-1 -9q0 -4 -3 -7z" />
    <glyph glyph-name="brokenbar" unicode="&#xa6;" horiz-adv-x="121" 
d="M71 395l43 355q1 4 4 7t7 3h19q10 0 8 -10l-43 -355q-2 -10 -11 -10h-19q-10 0 -8 10zM14 -70l42 346q2 10 11 10h19q4 0 6.5 -3t1.5 -7l-42 -346q-1 -4 -4 -7t-7 -3h-19q-10 0 -8 10z" />
    <glyph glyph-name="section" unicode="&#xa7;" horiz-adv-x="354" 
d="M53 -173q-29 34 -29 91q0 8 2 28l2 13q2 10 11 10h18q5 0 7.5 -3t1.5 -7l-2 -11q-1 -7 -1 -20q0 -45 19.5 -72.5t52.5 -27.5q28 0 51.5 18.5t37.5 50t14 68.5q0 47 -25.5 70.5t-66.5 41.5q-35 15 -55 31.5t-29 49.5q-8 25 -8 57q0 14 2 30q7 48 34 95q31 49 72 61
q5 2 1 5q-29 15 -47.5 48t-18.5 77q0 49 19 89.5t52.5 64t73.5 23.5q49 0 77.5 -34.5t28.5 -92.5q0 -8 -2 -28l-1 -11q-2 -10 -11 -10h-18q-5 0 -7.5 3t-1.5 7l1 10q2 18 2 25q0 44 -19.5 70t-52.5 26q-43 0 -72.5 -41t-29.5 -101q0 -43 22 -69t67 -45q30 -14 48.5 -27
t32.5 -40q15 -34 15 -69q0 -9 -2 -31q-8 -56 -31 -96q-30 -49 -76 -62q-5 -2 0 -5q29 -14 46.5 -44.5t17.5 -73.5q0 -48 -19 -88.5t-52.5 -64t-73.5 -23.5q-49 0 -78 34zM257 173q11 21 18.5 47.5t7.5 50.5q0 38 -14 64q-10 18 -28.5 29.5t-40.5 11.5q-26 0 -47.5 -17
t-34.5 -41q-17 -30 -23 -72q-1 -8 -1 -27q0 -29 6 -47q15 -54 72 -54q55 0 85 55z" />
    <glyph glyph-name="dieresis" unicode="&#xa8;" horiz-adv-x="269" 
d="M226.5 621q-10.5 11 -10.5 28q0 22 14.5 37t34.5 15q17 0 28.5 -10.5t11.5 -27.5q0 -23 -14.5 -38t-36.5 -15q-17 0 -27.5 11zM96.5 621q-10.5 11 -10.5 28q0 22 14.5 37t34.5 15q17 0 28.5 -10.5t11.5 -27.5q0 -23 -14.5 -38t-36.5 -15q-17 0 -27.5 11z" />
    <glyph glyph-name="copyright" unicode="&#xa9;" horiz-adv-x="829" 
d="M233 32.5q-71 40.5 -110.5 111.5t-39.5 158q0 22 3 46q12 100 68.5 182.5t143 130t184.5 47.5q90 0 161 -40.5t110.5 -112t39.5 -160.5q0 -23 -3 -47q-12 -98 -68.5 -179.5t-143 -129t-184.5 -47.5q-90 0 -161 40.5zM566 65q79 44 130.5 118.5t62.5 164.5q3 23 3 43
q0 81 -36 147t-100.5 103.5t-147.5 37.5q-90 0 -169 -44t-131 -120t-63 -167q-3 -21 -3 -42q0 -80 36 -145t101 -102.5t148 -37.5q90 0 169 44zM364 202q-19 20 -15 53l23 183q4 33 27.5 53t58.5 20q32 0 51 -16.5t19 -44.5q0 -8 -1 -12l-1 -8q-2 -10 -11 -10h-9
q-4 0 -6.5 3t-1.5 7l1 10q2 20 -10 32t-35 12q-22 0 -37 -12t-18 -32l-22 -186q-3 -20 9 -32.5t34 -12.5q23 0 38.5 12.5t17.5 32.5l2 10q0 4 3 7t8 3h8q9 0 9 -11l-1 -8q-5 -33 -28.5 -53t-59.5 -20q-34 0 -53 20z" />
    <glyph glyph-name="ordfeminine" unicode="&#xaa;" horiz-adv-x="260" 
d="M232 561q4 0 4 4l4 32q1 6 1 18q0 30 -13.5 47.5t-39.5 17.5q-22 0 -40.5 -14t-24.5 -36q-3 -10 -12 -9l-12 2q-9 2 -8 11q9 33 37.5 53.5t63.5 20.5q39 0 60 -23t21 -63q0 -7 -2 -23l-26 -218q-2 -10 -11 -10h-12q-10 0 -8 10l2 19q0 6 -4 1q-29 -35 -77 -35
q-31 0 -52.5 16.5t-21.5 56.5q0 12 1 19q6 53 38 78t80 25h52zM196 412.5q24 19.5 28 55.5l8 62q0 2 -1 3t-2 1h-51q-38 0 -61.5 -23t-23.5 -67q0 -26 13.5 -38.5t35.5 -12.5q30 0 54 19.5zM45 313q3 3 7 3h189q4 0 6.5 -3t1.5 -7l-1 -11q-2 -10 -11 -10h-188q-5 0 -7.5 3
t-1.5 7l1 11q1 4 4 7z" />
    <glyph glyph-name="guillemotleft" unicode="&#xab;" horiz-adv-x="463" 
d="M232 114q0 -3 -2.5 -5t-6.5 -2h-16q-8 0 -12 6l-95 161q-2 4 -2 6q0 5 3 8l136 161q4 6 13 6h15q6 0 7.5 -3.5t-2.5 -8.5l-135 -159q-2 -4 -1 -6l96 -159q2 -4 2 -5zM371 114q0 -7 -10 -7h-15q-10 0 -12 6l-96 161q-1 1 -1 5q0 5 3 9l135 161q5 6 14 6h15q6 0 7.5 -3.5
t-3.5 -8.5l-134 -159q-1 -3 0 -6l95 -159q2 -4 2 -5z" />
    <glyph glyph-name="logicalnot" unicode="&#xac;" horiz-adv-x="430" 
d="M415 326l-1 -12l-2 -10h-1l-14 -111q-2 -10 -11 -10h-13q-5 0 -7.5 3t-1.5 7l13 107q1 1 0 2.5t-3 1.5h-311q-5 0 -7.5 3t-1.5 7l2 12q0 4 3 7t7 3h341q10 0 8 -10z" />
    <glyph glyph-name="uni00AD" unicode="&#xad;" horiz-adv-x="296" 
d="M54 310l1 15q1 4 4 7t7 3h207q10 0 8 -10l-1 -15q-1 -4 -4 -7t-7 -3h-207q-10 0 -8 10z" />
    <glyph glyph-name="registered" unicode="&#xae;" horiz-adv-x="426" 
d="M367 693q38 -22 59 -60t21 -85q0 -58 -29.5 -107.5t-78.5 -79t-104 -29.5q-48 0 -85.5 22t-59 60t-21.5 86q0 57 29.5 106.5t78.5 79t105 29.5q47 0 85 -22zM327 383.5q42 25.5 67.5 69t25.5 93.5q0 61 -40 102t-101 41q-48 0 -90.5 -25.5t-68 -68.5t-25.5 -92
q0 -62 40.5 -103.5t102.5 -41.5q47 0 89 25.5zM312 535.5q-9 -14.5 -24 -20.5q-3 -1 -2 -5l19 -64l1 -3q0 -9 -10 -9h-6q-9 0 -10 8l-19 66q0 3 -3 3h-22q-4 0 -4 -4l-8 -63q0 -4 -3 -7t-8 -3h-3q-4 0 -6.5 3t-1.5 7l19 157q2 10 11 10h47q19 0 30.5 -12t11.5 -31
q0 -18 -9 -32.5zM242 586l-7 -52q0 -4 4 -4h27q13 0 22.5 9.5t9.5 24.5q0 12 -6.5 19t-18.5 7h-27q-4 0 -4 -4z" />
    <glyph glyph-name="macron" unicode="&#xaf;" horiz-adv-x="545" 
d="M232 612l2 11q0 4 3 7t8 3h169q5 0 7.5 -3t1.5 -7l-2 -11q0 -4 -3 -7t-7 -3h-170q-9 0 -9 10z" />
    <glyph glyph-name="degree" unicode="&#xb0;" horiz-adv-x="347" 
d="M122 536q-37 38 -37 96q0 47 23.5 87.5t62.5 64.5t82 24q57 0 94 -38t37 -96q0 -47 -23.5 -87.5t-62.5 -64.5t-83 -24q-56 0 -93 38zM285 548q31 19 49.5 51t18.5 70q0 47 -29 77.5t-74 30.5q-35 0 -66 -19t-49.5 -51.5t-18.5 -71.5q0 -46 29 -76t74 -30q35 0 66 19z" />
    <glyph glyph-name="plusminus" unicode="&#xb1;" horiz-adv-x="430" 
d="M417 339l-2 -12q-2 -10 -11 -10h-150q-4 0 -4 -4l-19 -155q-1 -4 -4 -7t-7 -3h-13q-9 0 -9 10l20 155q0 4 -4 4h-150q-9 0 -9 10l2 12q2 10 11 10h150q4 0 4 4l20 156q0 4 3 7t8 3h12q9 0 9 -10l-20 -156q0 -4 4 -4h150q9 0 9 -10zM22.5 39q-2.5 3 -1.5 7l2 12q0 4 3 7
t7 3h341q10 0 8 -10l-1 -12q-2 -10 -11 -10h-340q-5 0 -7.5 3z" />
    <glyph glyph-name="uni00B2" unicode="&#xb2;" horiz-adv-x="228" 
d="M63.5 457q-2.5 3 -1.5 7l1 11q2 6 5 13l22 31q86 121 100 142q53 79 53 131q0 27 -13 42.5t-35 15.5q-24 0 -41 -20t-21 -53l-3 -19q-2 -10 -11 -10h-12q-5 0 -7.5 3t-1.5 7l3 20q5 46 32.5 73.5t65.5 27.5q36 0 56 -22t20 -62q0 -33 -13.5 -68.5t-41.5 -78.5l-56 -82
q-30 -42 -54 -79q-2 -2 -1 -3.5t3 -1.5h129q10 0 8 -10l-1 -8q0 -4 -3 -7t-8 -3h-166q-5 0 -7.5 3z" />
    <glyph glyph-name="uni00B3" unicode="&#xb3;" horiz-adv-x="247" 
d="M256 579q-4 -39 -19 -70q-13 -29 -35.5 -45t-53.5 -16q-35 0 -55 23.5t-22 61.5q0 13 2 35q1 10 11 10h11q9 0 9 -8q0 -7 -1 -14.5t-1 -14.5q2 -29 14.5 -46t35.5 -17q37 0 57 41q12 26 18 63q2 28 2 36q0 14 -1 20q-4 25 -17 38t-33 13q-6 0 -9 -1l-5 -1q-5 0 -8 4l-4 6
q-3 4 -2.5 6.5t2.5 6.5l95 130q1 2 0 3.5t-3 1.5h-126q-10 0 -8 10l1 8q2 10 11 10h158q10 0 8 -10l-1 -11q-1 -6 -5 -13l-87 -120q-2 -5 1 -5q31 -3 46.5 -28.5t15.5 -69.5q0 -24 -2 -37z" />
    <glyph glyph-name="acute" unicode="&#xb4;" horiz-adv-x="158" 
d="M81.5 573.5q-1.5 3.5 2.5 8.5l74 111q5 7 12 7h16q5 0 7 -3.5t-2 -8.5l-79 -111q-5 -7 -12 -7h-11q-6 0 -7.5 3.5z" />
    <glyph glyph-name="uni00B5" unicode="&#xb5;" horiz-adv-x="407" 
d="M345 499q3 3 8 3h18q9 0 9 -10l-60 -482q0 -4 -3 -7t-8 -3h-18q-10 0 -8 10l4 40q1 3 -1 3.5t-3 -2.5q-39 -58 -108 -58q-51 0 -80 29q-2 1 -3.5 0t-1.5 -3l-26 -209q-2 -10 -11 -10h-18q-5 0 -7.5 3t-1.5 7l84 682q2 10 11 10h18q9 0 9 -10l-43 -345q-2 -18 -2 -26
q0 -46 21.5 -69.5t61.5 -23.5q45 0 76.5 34.5t38.5 94.5l41 335q0 4 3 7z" />
    <glyph glyph-name="paragraph" unicode="&#xb6;" horiz-adv-x="436" 
d="M411 700q10 0 8 -10l-108 -880q0 -4 -3 -7t-8 -3h-13q-9 0 -9 10l105 852q0 4 -3 4h-90q-4 0 -4 -4l-105 -852q0 -4 -3 -7t-8 -3h-15q-9 0 -9 10l54 436q0 4 -3 4q-58 4 -90.5 54t-32.5 126q0 23 3 45q8 63 33.5 114t64.5 81t86 30h150z" />
    <glyph glyph-name="periodcentered" unicode="&#xb7;" horiz-adv-x="177" 
d="M69.5 239q-10.5 11 -10.5 28q0 22 14.5 37t34.5 15q17 0 28.5 -10.5t11.5 -27.5q0 -23 -14.5 -38t-36.5 -15q-17 0 -27.5 11z" />
    <glyph glyph-name="cedilla" unicode="&#xb8;" horiz-adv-x="103" 
d="M-37 -169l2 8q1 4 4.5 6.5t7.5 0.5q5 -1 14 -1q22 0 36.5 15t14.5 49q0 38 -30 79q-2 2 -2 6q0 6 7 6h9q6 0 10 -3l3 -4q33 -36 33 -82q0 -16 -5 -36q-9 -31 -29.5 -44.5t-46.5 -13.5q-12 0 -23 3q-8 2 -5 11z" />
    <glyph glyph-name="uni00B9" unicode="&#xb9;" horiz-adv-x="136" 
d="M163 874h16q5 0 7.5 -3t1.5 -7l-49 -400q-2 -10 -11 -10h-13q-10 0 -8 10l45 371q0 2 -1.5 3.5t-2.5 0.5l-32 -10l-4 -1q-7 0 -6 9l1 6q0 7 8 12l36 16q6 3 12 3z" />
    <glyph glyph-name="ordmasculine" unicode="&#xba;" horiz-adv-x="265" 
d="M97 388.5q-22 22.5 -22 60.5q0 10 1 15l18 146q5 43 34.5 70.5t71.5 27.5q39 0 61 -22.5t22 -59.5q0 -11 -1 -16l-17 -146q-6 -44 -35 -71t-72 -27q-39 0 -61 22.5zM209.5 413.5q19.5 19.5 24.5 51.5l17 143l1 12q0 27 -15 43.5t-40 16.5q-28 0 -48 -20t-24 -52l-17 -143
q-1 -4 -1 -13q0 -26 15 -42t40 -16q28 0 47.5 19.5zM47.5 288q-2.5 3 -1.5 7l1 11q2 10 11 10h188q5 0 7.5 -3t1.5 -7l-1 -11q-1 -4 -4 -7t-7 -3h-189q-4 0 -6.5 3z" />
    <glyph glyph-name="guillemotright" unicode="&#xbb;" horiz-adv-x="463" 
d="M82.5 110.5q-1.5 3.5 2.5 8.5l134 159q3 3 1 6l-95 159q-2 4 -2 5q0 3 2.5 5t6.5 2h16q10 0 12 -6l96 -161q1 -1 1 -5t-3 -9l-135 -161q-5 -6 -14 -6h-15q-6 0 -7.5 3.5zM221.5 110.5q-1.5 3.5 2.5 8.5l134 159q3 3 1 6l-95 159q-2 4 -2 5q0 3 2.5 5t6.5 2h16q10 0 12 -6
l96 -161q1 -1 1 -5t-3 -9l-135 -161q-5 -6 -14 -6h-15q-6 0 -7.5 3.5z" />
    <glyph glyph-name="onequarter" unicode="&#xbc;" horiz-adv-x="619" 
d="M141 700h16q5 0 7.5 -3t1.5 -7l-49 -400q-2 -10 -11 -10h-13q-10 0 -8 10l45 371q0 2 -1.5 3.5t-2.5 0.5l-32 -10l-4 -1q-7 0 -6 9l1 6q0 7 8 12l36 16q6 3 12 3zM50 3.5q-1 3.5 3 8.5l509 681q5 7 12 7h13q6 0 7 -3.5t-3 -8.5l-510 -681q-5 -7 -12 -7h-12q-6 0 -7 3.5z
M600.5 144q2.5 -3 1.5 -7l-1 -10q-2 -10 -11 -10h-13q-4 0 -4 -4l-13 -103q-2 -10 -11 -10h-10q-5 0 -7.5 3t-1.5 7l13 103q0 4 -4 4h-124q-10 0 -8 10l1 10q0 4 1 7t2 5l120 263q5 8 13 8h13q10 0 7 -11l-117 -257q-2 -2 -1 -3.5t3 -1.5h94q4 0 4 4l12 92q0 4 3 7t8 3h10
q5 0 7.5 -3t1.5 -7l-11 -92q-1 -1 0 -2.5t3 -1.5h12q5 0 7.5 -3z" />
    <glyph glyph-name="onehalf" unicode="&#xbd;" horiz-adv-x="633" 
d="M141 700h16q5 0 7.5 -3t1.5 -7l-49 -400q-2 -10 -11 -10h-13q-10 0 -8 10l45 371q0 2 -1.5 3.5t-2.5 0.5l-32 -10l-4 -1q-7 0 -6 9l1 6q0 7 8 12l36 16q6 3 12 3zM50 3.5q-1 3.5 3 8.5l509 681q5 7 12 7h13q6 0 7 -3.5t-3 -8.5l-510 -681q-5 -7 -12 -7h-12q-6 0 -7 3.5z
M412.5 3q-2.5 3 -1.5 7l1 11q2 6 5 13l22 31q86 121 100 142q53 79 53 131q0 27 -13 42.5t-35 15.5q-24 0 -41 -20t-21 -53l-3 -19q-2 -10 -11 -10h-12q-5 0 -7.5 3t-1.5 7l3 20q5 46 32.5 73.5t65.5 27.5q36 0 56 -22t20 -62q0 -33 -13.5 -68.5t-41.5 -78.5l-56 -82
q-30 -42 -54 -79q-2 -2 -1 -3.5t3 -1.5h129q10 0 8 -10l-1 -8q0 -4 -3 -7t-8 -3h-166q-5 0 -7.5 3z" />
    <glyph glyph-name="threequarters" unicode="&#xbe;" horiz-adv-x="683" 
d="M234 403q-4 -39 -19 -70q-13 -29 -35.5 -45t-53.5 -16q-35 0 -55 23.5t-22 61.5q0 13 2 35q1 10 11 10h11q9 0 9 -8q0 -7 -1 -14.5t-1 -14.5q2 -29 14.5 -46t35.5 -17q37 0 57 41q12 26 18 63q2 28 2 36q0 14 -1 20q-4 25 -17 38t-33 13q-6 0 -9 -1l-5 -1q-5 0 -8 4l-4 6
q-3 4 -2.5 6.5t2.5 6.5l95 130q1 2 0 3.5t-3 1.5h-126q-10 0 -8 10l1 8q2 10 11 10h158q10 0 8 -10l-1 -11q-1 -6 -5 -13l-87 -120q-2 -5 1 -5q31 -3 46.5 -28.5t15.5 -69.5q0 -24 -2 -37zM114 3.5q-1 3.5 3 8.5l509 681q5 7 12 7h13q6 0 7 -3.5t-3 -8.5l-510 -681
q-5 -7 -12 -7h-12q-6 0 -7 3.5zM664.5 144q2.5 -3 1.5 -7l-1 -10q-2 -10 -11 -10h-13q-4 0 -4 -4l-13 -103q-2 -10 -11 -10h-10q-5 0 -7.5 3t-1.5 7l13 103q0 4 -4 4h-124q-10 0 -8 10l1 10q0 4 1 7t2 5l120 263q5 8 13 8h13q10 0 7 -11l-117 -257q-2 -2 -1 -3.5t3 -1.5h94
q4 0 4 4l12 92q0 4 3 7t8 3h10q5 0 7.5 -3t1.5 -7l-11 -92q-1 -1 0 -2.5t3 -1.5h12q5 0 7.5 -3z" />
    <glyph glyph-name="questiondown" unicode="&#xbf;" horiz-adv-x="328" 
d="M246.5 485q10.5 -11 10.5 -29q0 -22 -14.5 -36.5t-35.5 -14.5q-17 0 -27.5 11t-10.5 28q0 22 14.5 37t34.5 15q18 0 28.5 -11zM214 300l-8 -70q-5 -41 -23 -66.5t-52 -58.5q-38 -37 -58 -67t-26 -81q-2 -20 -2 -28q0 -47 21.5 -74.5t56.5 -27.5q43 0 73.5 35.5t37.5 93.5
l5 37q0 4 3 7t8 3l18 -1q10 0 8 -10l-4 -36q-9 -73 -52 -119t-102 -46q-52 0 -81.5 36.5t-29.5 98.5q0 10 2 32q8 63 32 100t64 75q30 29 44.5 49t17.5 49l9 69q0 4 3 7t7 3h20q10 0 8 -10z" />
    <glyph glyph-name="Agrave" unicode="&#xc0;" horiz-adv-x="365" 
d="M297 9l-11 136q0 2 -1.5 3t-3.5 1h-200q-2 0 -3.5 -1t-1.5 -3l-45 -136q-3 -9 -12 -9h-18q-5 0 -7 3t0 8l231 680q2 9 11 9h25q9 0 9 -9l65 -680q0 -11 -10 -11h-18q-10 0 -10 9zM90 183.5q1 -1.5 2 -1.5h186q2 0 3.5 1.5t0.5 2.5l-39 447q-1 3 -2 3t-2 -3l-149 -447
q-1 -1 0 -2.5zM270 776q0 -8 -9 -8h-12q-6 0 -11 7l-50 111q-1 2 -1 5q0 7 9 7h16q6 0 10 -7l47 -111z" />
    <glyph glyph-name="Aacute" unicode="&#xc1;" horiz-adv-x="365" 
d="M297 9l-11 136q0 2 -1.5 3t-3.5 1h-200q-2 0 -3.5 -1t-1.5 -3l-45 -136q-3 -9 -12 -9h-18q-5 0 -7 3t0 8l231 680q2 9 11 9h25q9 0 9 -9l65 -680q0 -11 -10 -11h-18q-10 0 -10 9zM90 183.5q1 -1.5 2 -1.5h186q2 0 3.5 1.5t0.5 2.5l-39 447q-1 3 -2 3t-2 -3l-149 -447
q-1 -1 0 -2.5zM225.5 771.5q-1.5 3.5 2.5 8.5l74 111q5 7 12 7h16q5 0 7 -3.5t-2 -8.5l-79 -111q-5 -7 -12 -7h-11q-6 0 -7.5 3.5z" />
    <glyph glyph-name="Acircumflex" unicode="&#xc2;" horiz-adv-x="365" 
d="M297 9l-11 136q0 2 -1.5 3t-3.5 1h-200q-2 0 -3.5 -1t-1.5 -3l-45 -136q-3 -9 -12 -9h-18q-5 0 -7 3t0 8l231 680q2 9 11 9h25q9 0 9 -9l65 -680q0 -11 -10 -11h-18q-10 0 -10 9zM90 183.5q1 -1.5 2 -1.5h186q2 0 3.5 1.5t0.5 2.5l-39 447q-1 3 -2 3t-2 -3l-149 -447
q-1 -1 0 -2.5zM170 790l76 101q5 7 12 7h26q8 0 11 -6l53 -102q1 -2 1 -5q0 -7 -9 -7h-20q-6 0 -11 7l-37 80q-1 2 -3 2t-3 -2l-59 -80q-5 -7 -12 -7h-20q-12 0 -5 12z" />
    <glyph glyph-name="Atilde" unicode="&#xc3;" horiz-adv-x="365" 
d="M297 9l-11 136q0 2 -1.5 3t-3.5 1h-200q-2 0 -3.5 -1t-1.5 -3l-45 -136q-3 -9 -12 -9h-18q-5 0 -7 3t0 8l231 680q2 9 11 9h25q9 0 9 -9l65 -680q0 -11 -10 -11h-18q-10 0 -10 9zM90 183.5q1 -1.5 2 -1.5h186q2 0 3.5 1.5t0.5 2.5l-39 447q-1 3 -2 3t-2 -3l-149 -447
q-1 -1 0 -2.5zM296 823q-11 6 -24 17l-12 9t-15 9t-15 3q-15 0 -26 -5.5t-24 -21.5q-8 -9 -14 -3l-5 4q-8 5 -2 14q32 44 74 44q14 0 25 -6t25 -17q3 -2 11.5 -9t16 -10.5t15.5 -3.5q14 0 25 6.5t23 24.5q3 4 7 5t7 -1l6 -3q3 -1 3 -7q0 -8 -5 -14q-16 -21 -35.5 -31
t-36.5 -10q-13 0 -24 6z" />
    <glyph glyph-name="Adieresis" unicode="&#xc4;" horiz-adv-x="365" 
d="M297 9l-11 136q0 2 -1.5 3t-3.5 1h-200q-2 0 -3.5 -1t-1.5 -3l-45 -136q-3 -9 -12 -9h-18q-5 0 -7 3t0 8l231 680q2 9 11 9h25q9 0 9 -9l65 -680q0 -11 -10 -11h-18q-10 0 -10 9zM90 183.5q1 -1.5 2 -1.5h186q2 0 3.5 1.5t0.5 2.5l-39 447q-1 3 -2 3t-2 -3l-149 -447
q-1 -1 0 -2.5zM298.5 819q-10.5 11 -10.5 28q0 22 14.5 37t34.5 15q17 0 28.5 -10.5t11.5 -27.5q0 -23 -14.5 -38t-36.5 -15q-17 0 -27.5 11zM168.5 819q-10.5 11 -10.5 28q0 22 14.5 37t34.5 15q17 0 28.5 -10.5t11.5 -27.5q0 -23 -14.5 -38t-36.5 -15q-17 0 -27.5 11z" />
    <glyph glyph-name="Aring" unicode="&#xc5;" horiz-adv-x="365" 
d="M297 9l-11 136q0 2 -1.5 3t-3.5 1h-200q-2 0 -3.5 -1t-1.5 -3l-45 -136q-3 -9 -12 -9h-18q-5 0 -7 3t0 8l231 680q2 9 11 9h25q9 0 9 -9l65 -680q0 -11 -10 -11h-18q-10 0 -10 9zM90 183.5q1 -1.5 2 -1.5h186q2 0 3.5 1.5t0.5 2.5l-39 447q-1 3 -2 3t-2 -3l-149 -447
q-1 -1 0 -2.5zM200 809q-24 25 -24 62q0 30 15 56.5t40 42.5t53 16q36 0 60 -25t24 -62q0 -30 -15 -56.5t-40 -42.5t-53 -16q-36 0 -60 25zM317 837q23 24 23 58q0 27 -16.5 44.5t-42.5 17.5q-31 0 -54.5 -24t-23.5 -58q0 -27 17 -44.5t43 -17.5q31 0 54 24z" />
    <glyph glyph-name="AE" unicode="&#xc6;" horiz-adv-x="653" 
d="M661 665h-234q-4 0 -4 -4l-36 -289q0 -4 4 -4h152q10 0 8 -10l-2 -15q0 -4 -3 -7t-8 -3h-152q-4 0 -4 -4l-36 -290q0 -4 4 -4h233q5 0 7.5 -3t1.5 -7l-2 -15q-2 -10 -11 -10h-267q-4 0 -6.5 3t-1.5 7l16 135q1 1 0 2.5t-3 1.5h-203q-2 0 -4 -3l-77 -138q-4 -8 -12 -8h-18
q-5 0 -7 3.5t1 8.5l379 680q4 8 12 8h277q9 0 9 -10l-2 -15q-2 -10 -11 -10zM131 183.5q1 -1.5 3 -1.5h187q4 0 4 4l56 442q0 3 -2 3t-3 -2l-244 -442q-2 -2 -1 -3.5z" />
    <glyph glyph-name="Ccedilla" unicode="&#xc7;" horiz-adv-x="424" 
d="M402 517l-20 -1q-4 0 -6.5 3t-1.5 7l3 23q1 7 1 20q0 48 -27 76t-73 28q-51 0 -86.5 -34t-42.5 -90l-49 -398q-1 -7 -1 -21q0 -47 26.5 -75t72.5 -28q52 0 87.5 34t42.5 90l3 22q0 4 3 7t8 3l19 -1q10 0 8 -10l-2 -18q-8 -67 -49 -110t-102 -50q-6 -2 -2 -5
q31 -37 31 -79q0 -18 -5 -36q-9 -31 -29.5 -45t-46.5 -14q-13 0 -24 3q-9 1 -6 12l3 7q3 10 12 7q5 -1 13 -1q38 0 49 41q3 12 3 24q0 41 -35 83q-2 2 -4 2q-53 5 -83.5 40.5t-30.5 92.5q0 8 2 28l48 393q9 73 56 117t115 44q62 0 98.5 -36t36.5 -98q0 -9 -2 -27l-2 -20
q-2 -10 -11 -10z" />
    <glyph glyph-name="Egrave" unicode="&#xc8;" horiz-adv-x="412" 
d="M419 665h-234q-1 0 -2.5 -1t-1.5 -3l-35 -289q-1 -1 0 -2.5t3 -1.5h153q9 0 9 -10l-2 -15q-2 -10 -11 -10h-153q-3 0 -5 -4l-35 -290q-1 -1 0 -2.5t3 -1.5h234q10 0 8 -10l-2 -15q0 -4 -3 -7t-7 -3h-266q-9 0 -9 10l84 680q2 10 11 10h266q4 0 6.5 -3t1.5 -7l-2 -15
q-2 -10 -11 -10zM313 776q0 -8 -9 -8h-12q-6 0 -11 7l-50 111q-1 2 -1 5q0 7 9 7h16q6 0 10 -7l47 -111z" />
    <glyph glyph-name="Eacute" unicode="&#xc9;" horiz-adv-x="412" 
d="M419 665h-234q-1 0 -2.5 -1t-1.5 -3l-35 -289q-1 -1 0 -2.5t3 -1.5h153q9 0 9 -10l-2 -15q-2 -10 -11 -10h-153q-3 0 -5 -4l-35 -290q-1 -1 0 -2.5t3 -1.5h234q10 0 8 -10l-2 -15q0 -4 -3 -7t-7 -3h-266q-9 0 -9 10l84 680q2 10 11 10h266q4 0 6.5 -3t1.5 -7l-2 -15
q-2 -10 -11 -10zM268.5 771.5q-1.5 3.5 2.5 8.5l74 111q5 7 12 7h16q5 0 7 -3.5t-2 -8.5l-79 -111q-5 -7 -12 -7h-11q-6 0 -7.5 3.5z" />
    <glyph glyph-name="Ecircumflex" unicode="&#xca;" horiz-adv-x="412" 
d="M419 665h-234q-1 0 -2.5 -1t-1.5 -3l-35 -289q-1 -1 0 -2.5t3 -1.5h153q9 0 9 -10l-2 -15q-2 -10 -11 -10h-153q-3 0 -5 -4l-35 -290q-1 -1 0 -2.5t3 -1.5h234q10 0 8 -10l-2 -15q0 -4 -3 -7t-7 -3h-266q-9 0 -9 10l84 680q2 10 11 10h266q4 0 6.5 -3t1.5 -7l-2 -15
q-2 -10 -11 -10zM213 790l76 101q5 7 12 7h26q8 0 11 -6l53 -102q1 -2 1 -5q0 -7 -9 -7h-20q-6 0 -11 7l-37 80q-1 2 -3 2t-3 -2l-59 -80q-5 -7 -12 -7h-20q-12 0 -5 12z" />
    <glyph glyph-name="Edieresis" unicode="&#xcb;" horiz-adv-x="412" 
d="M419 665h-234q-1 0 -2.5 -1t-1.5 -3l-35 -289q-1 -1 0 -2.5t3 -1.5h153q9 0 9 -10l-2 -15q-2 -10 -11 -10h-153q-3 0 -5 -4l-35 -290q-1 -1 0 -2.5t3 -1.5h234q10 0 8 -10l-2 -15q0 -4 -3 -7t-7 -3h-266q-9 0 -9 10l84 680q2 10 11 10h266q4 0 6.5 -3t1.5 -7l-2 -15
q-2 -10 -11 -10zM341.5 819q-10.5 11 -10.5 28q0 22 14.5 37t34.5 15q17 0 28.5 -10.5t11.5 -27.5q0 -23 -14.5 -38t-36.5 -15q-17 0 -27.5 11zM211.5 819q-10.5 11 -10.5 28q0 22 14.5 37t34.5 15q17 0 28.5 -10.5t11.5 -27.5q0 -23 -14.5 -38t-36.5 -15q-17 0 -27.5 11z
" />
    <glyph glyph-name="Igrave" unicode="&#xcc;" horiz-adv-x="201" 
d="M63 10l84 680q2 10 11 10h18q9 0 9 -10l-84 -680q-2 -10 -11 -10h-18q-9 0 -9 10zM189 776q0 -8 -9 -8h-12q-6 0 -11 7l-50 111q-1 2 -1 5q0 7 9 7h16q6 0 10 -7l47 -111z" />
    <glyph glyph-name="Iacute" unicode="&#xcd;" horiz-adv-x="201" 
d="M63 10l84 680q2 10 11 10h18q9 0 9 -10l-84 -680q-2 -10 -11 -10h-18q-9 0 -9 10zM144.5 771.5q-1.5 3.5 2.5 8.5l74 111q5 7 12 7h16q5 0 7 -3.5t-2 -8.5l-79 -111q-5 -7 -12 -7h-11q-6 0 -7.5 3.5z" />
    <glyph glyph-name="Icircumflex" unicode="&#xce;" horiz-adv-x="201" 
d="M63 10l84 680q2 10 11 10h18q9 0 9 -10l-84 -680q-2 -10 -11 -10h-18q-9 0 -9 10zM89 790l76 101q5 7 12 7h26q8 0 11 -6l53 -102q1 -2 1 -5q0 -7 -9 -7h-20q-6 0 -11 7l-37 80q-1 2 -3 2t-3 -2l-59 -80q-5 -7 -12 -7h-20q-12 0 -5 12z" />
    <glyph glyph-name="Idieresis" unicode="&#xcf;" horiz-adv-x="201" 
d="M63 10l84 680q2 10 11 10h18q9 0 9 -10l-84 -680q-2 -10 -11 -10h-18q-9 0 -9 10zM217.5 819q-10.5 11 -10.5 28q0 22 14.5 37t34.5 15q17 0 28.5 -10.5t11.5 -27.5q0 -23 -14.5 -38t-36.5 -15q-17 0 -27.5 11zM87.5 819q-10.5 11 -10.5 28q0 22 14.5 37t34.5 15
q17 0 28.5 -10.5t11.5 -27.5q0 -23 -14.5 -38t-36.5 -15q-17 0 -27.5 11z" />
    <glyph glyph-name="Eth" unicode="&#xd0;" horiz-adv-x="494" 
d="M437 661.5q34 -38.5 34 -106.5q0 -24 -2 -37l-41 -336q-10 -85 -56.5 -133.5t-115.5 -48.5h-137q-10 0 -8 10l41 337q0 4 -3 4h-34q-9 0 -9 10l2 9q0 4 3 7t7 3h34q2 0 3.5 1t1.5 3l37 306q2 10 11 10h137q61 0 95 -38.5zM430 517q2 22 2 33q0 54 -24 84.5t-69 30.5h-106
q-4 0 -4 -4l-34 -277q-1 -1 0 -2.5t3 -1.5h89q9 0 9 -10l-1 -9q-1 -4 -4 -7t-7 -3h-90q-4 0 -4 -4l-38 -308q0 -4 4 -4h105q51 1 85.5 40t42.5 107z" />
    <glyph glyph-name="Ntilde" unicode="&#xd1;" horiz-adv-x="469" 
d="M419 697q3 3 7 3h19q10 0 8 -10l-83 -680q-2 -10 -11 -10h-23q-9 0 -10 8l-148 592q0 3 -2 2.5t-3 -3.5l-72 -589q-2 -10 -11 -10h-18q-9 0 -9 10l84 680q2 10 11 10h22q9 0 10 -8l149 -589q0 -3 2 -2.5t3 3.5l71 586q1 4 4 7zM350 832q-11 6 -24 17l-12 9t-15 9t-15 3
q-15 0 -26 -5.5t-24 -21.5q-8 -9 -14 -3l-5 4q-8 5 -2 14q32 44 74 44q14 0 25 -6t25 -17q3 -2 11.5 -9t16 -10.5t15.5 -3.5q14 0 25 6.5t23 24.5q3 4 7 5t7 -1l6 -3q3 -1 3 -7q0 -8 -5 -14q-16 -21 -35.5 -31t-36.5 -10q-13 0 -24 6z" />
    <glyph glyph-name="Ograve" unicode="&#xd2;" horiz-adv-x="435" 
d="M97.5 29.5q-36.5 37.5 -36.5 100.5q0 8 2 26l47 387q9 73 57.5 119t116.5 46q63 0 100 -38t37 -101q0 -8 -2 -26l-48 -387q-9 -73 -57.5 -118.5t-117.5 -45.5q-62 0 -98.5 37.5zM289 62.5q37 35.5 44 91.5l48 391q1 7 1 22q0 48 -28 77t-74 29q-51 0 -88 -35.5t-44 -92.5
l-48 -391q-1 -7 -1 -20q0 -48 27.5 -77.5t73.5 -29.5q52 0 89 35.5zM304 775q0 -8 -9 -8h-12q-6 0 -11 7l-50 111q-1 2 -1 5q0 7 9 7h16q6 0 10 -7l47 -111z" />
    <glyph glyph-name="Oacute" unicode="&#xd3;" horiz-adv-x="435" 
d="M97.5 29.5q-36.5 37.5 -36.5 100.5q0 8 2 26l47 387q9 73 57.5 119t116.5 46q63 0 100 -38t37 -101q0 -8 -2 -26l-48 -387q-9 -73 -57.5 -118.5t-117.5 -45.5q-62 0 -98.5 37.5zM289 62.5q37 35.5 44 91.5l48 391q1 7 1 22q0 48 -28 77t-74 29q-51 0 -88 -35.5t-44 -92.5
l-48 -391q-1 -7 -1 -20q0 -48 27.5 -77.5t73.5 -29.5q52 0 89 35.5zM259.5 770.5q-1.5 3.5 2.5 8.5l74 111q5 7 12 7h16q5 0 7 -3.5t-2 -8.5l-79 -111q-5 -7 -12 -7h-11q-6 0 -7.5 3.5z" />
    <glyph glyph-name="Ocircumflex" unicode="&#xd4;" horiz-adv-x="435" 
d="M97.5 29.5q-36.5 37.5 -36.5 100.5q0 8 2 26l47 387q9 73 57.5 119t116.5 46q63 0 100 -38t37 -101q0 -8 -2 -26l-48 -387q-9 -73 -57.5 -118.5t-117.5 -45.5q-62 0 -98.5 37.5zM289 62.5q37 35.5 44 91.5l48 391q1 7 1 22q0 48 -28 77t-74 29q-51 0 -88 -35.5t-44 -92.5
l-48 -391q-1 -7 -1 -20q0 -48 27.5 -77.5t73.5 -29.5q52 0 89 35.5zM205 789l76 101q5 7 12 7h26q8 0 11 -6l53 -102q1 -2 1 -5q0 -7 -9 -7h-20q-6 0 -11 7l-37 80q-1 2 -3 2t-3 -2l-59 -80q-5 -7 -12 -7h-20q-12 0 -5 12z" />
    <glyph glyph-name="Otilde" unicode="&#xd5;" horiz-adv-x="435" 
d="M97.5 29.5q-36.5 37.5 -36.5 100.5q0 8 2 26l47 387q9 73 57.5 119t116.5 46q63 0 100 -38t37 -101q0 -8 -2 -26l-48 -387q-9 -73 -57.5 -118.5t-117.5 -45.5q-62 0 -98.5 37.5zM289 62.5q37 35.5 44 91.5l48 391q1 7 1 22q0 48 -28 77t-74 29q-51 0 -88 -35.5t-44 -92.5
l-48 -391q-1 -7 -1 -20q0 -48 27.5 -77.5t73.5 -29.5q52 0 89 35.5zM330 822q-11 6 -24 17l-12 9t-15 9t-15 3q-15 0 -26 -5.5t-24 -21.5q-8 -9 -14 -3l-5 4q-8 5 -2 14q32 44 74 44q14 0 25 -6t25 -17q3 -2 11.5 -9t16 -10.5t15.5 -3.5q14 0 25 6.5t23 24.5q3 4 7 5t7 -1
l6 -3q3 -1 3 -7q0 -8 -5 -14q-16 -21 -35.5 -31t-36.5 -10q-13 0 -24 6z" />
    <glyph glyph-name="Odieresis" unicode="&#xd6;" horiz-adv-x="435" 
d="M97.5 29.5q-36.5 37.5 -36.5 100.5q0 8 2 26l47 387q9 73 57.5 119t116.5 46q63 0 100 -38t37 -101q0 -8 -2 -26l-48 -387q-9 -73 -57.5 -118.5t-117.5 -45.5q-62 0 -98.5 37.5zM289 62.5q37 35.5 44 91.5l48 391q1 7 1 22q0 48 -28 77t-74 29q-51 0 -88 -35.5t-44 -92.5
l-48 -391q-1 -7 -1 -20q0 -48 27.5 -77.5t73.5 -29.5q52 0 89 35.5zM332.5 818q-10.5 11 -10.5 28q0 22 14.5 37t34.5 15q17 0 28.5 -10.5t11.5 -27.5q0 -23 -14.5 -38t-36.5 -15q-17 0 -27.5 11zM202.5 818q-10.5 11 -10.5 28q0 22 14.5 37t34.5 15q17 0 28.5 -10.5
t11.5 -27.5q0 -23 -14.5 -38t-36.5 -15q-17 0 -27.5 11z" />
    <glyph glyph-name="multiply" unicode="&#xd7;" horiz-adv-x="346" 
d="M341 433q0 -5 -4 -8l-120 -110q-3 -3 -1 -6l94 -110q2 -4 2 -5q0 -5 -4 -9l-10 -9q-3 -3 -7 -3t-7 3l-93 110q-1 3 -6 0l-120 -110q-3 -3 -7 -3t-6 3l-7 9q-2 4 -2 6q0 5 4 8l120 110q3 3 1 6l-94 110q-2 4 -2 5q0 5 4 9l9 8q3 3 7 3t7 -3l93 -110q2 -3 6 0l120 110
q7 7 13 0l8 -8q2 -4 2 -6z" />
    <glyph glyph-name="Oslash" unicode="&#xd8;" horiz-adv-x="458" 
d="M441 705l-33 -64q-1 -1 -1 -3v-3q14 -27 14 -66q0 -17 -1 -26l-48 -387q-9 -73 -57.5 -118.5t-117.5 -45.5q-61 0 -98 37q-4 3 -6 -1l-25 -48q-2 -5 -5.5 -6.5t-7.5 0.5l-11 6q-7 5 -3 13l33 65q2 4 0 6q-13 29 -13 65q0 7 2 27l47 387q9 73 58 119t117 46q61 0 99 -38
q4 -2 6 2l24 47q5 10 13 5l11 -6q6 -4 3 -13zM99 135l1 -17q0 -3 2 -3t3 3l261 507q1 1 0.5 3l-0.5 2q-14 20 -36 31.5t-49 11.5q-52 0 -88.5 -35.5t-44.5 -92.5l-48 -391zM384 567l-1 14q-1 3 -2.5 3t-2.5 -3l-261 -507q-1 -3 0 -6q13 -20 34.5 -30.5t49.5 -10.5
q52 0 89 35.5t44 91.5l48 391q2 16 2 22z" />
    <glyph glyph-name="Ugrave" unicode="&#xd9;" horiz-adv-x="460" 
d="M111.5 33q-35.5 41 -35.5 110q0 23 2 35l63 512q2 10 11 10h18q5 0 7.5 -3t1.5 -7l-64 -516q-2 -18 -2 -26q0 -56 27 -88.5t74 -32.5q52 0 89.5 40.5t45.5 106.5l64 516q0 4 3 7t8 3h18q10 0 8 -10l-62 -512q-10 -84 -59.5 -135t-118.5 -51q-63 0 -98.5 41zM318 776
q0 -8 -9 -8h-12q-6 0 -11 7l-50 111q-1 2 -1 5q0 7 9 7h16q6 0 10 -7l47 -111z" />
    <glyph glyph-name="Uacute" unicode="&#xda;" horiz-adv-x="460" 
d="M111.5 33q-35.5 41 -35.5 110q0 23 2 35l63 512q2 10 11 10h18q5 0 7.5 -3t1.5 -7l-64 -516q-2 -18 -2 -26q0 -56 27 -88.5t74 -32.5q52 0 89.5 40.5t45.5 106.5l64 516q0 4 3 7t8 3h18q10 0 8 -10l-62 -512q-10 -84 -59.5 -135t-118.5 -51q-63 0 -98.5 41zM272.5 771.5
q-1.5 3.5 2.5 8.5l74 111q5 7 12 7h16q5 0 7 -3.5t-2 -8.5l-79 -111q-5 -7 -12 -7h-11q-6 0 -7.5 3.5z" />
    <glyph glyph-name="Ucircumflex" unicode="&#xdb;" horiz-adv-x="460" 
d="M111.5 33q-35.5 41 -35.5 110q0 23 2 35l63 512q2 10 11 10h18q5 0 7.5 -3t1.5 -7l-64 -516q-2 -18 -2 -26q0 -56 27 -88.5t74 -32.5q52 0 89.5 40.5t45.5 106.5l64 516q0 4 3 7t8 3h18q10 0 8 -10l-62 -512q-10 -84 -59.5 -135t-118.5 -51q-63 0 -98.5 41zM218 790
l76 101q5 7 12 7h26q8 0 11 -6l53 -102q1 -2 1 -5q0 -7 -9 -7h-20q-6 0 -11 7l-37 80q-1 2 -3 2t-3 -2l-59 -80q-5 -7 -12 -7h-20q-12 0 -5 12z" />
    <glyph glyph-name="Udieresis" unicode="&#xdc;" horiz-adv-x="460" 
d="M111.5 33q-35.5 41 -35.5 110q0 23 2 35l63 512q2 10 11 10h18q5 0 7.5 -3t1.5 -7l-64 -516q-2 -18 -2 -26q0 -56 27 -88.5t74 -32.5q52 0 89.5 40.5t45.5 106.5l64 516q0 4 3 7t8 3h18q10 0 8 -10l-62 -512q-10 -84 -59.5 -135t-118.5 -51q-63 0 -98.5 41zM345.5 819
q-10.5 11 -10.5 28q0 22 14.5 37t34.5 15q17 0 28.5 -10.5t11.5 -27.5q0 -23 -14.5 -38t-36.5 -15q-17 0 -27.5 11zM215.5 819q-10.5 11 -10.5 28q0 22 14.5 37t34.5 15q17 0 28.5 -10.5t11.5 -27.5q0 -23 -14.5 -38t-36.5 -15q-17 0 -27.5 11z" />
    <glyph glyph-name="Yacute" unicode="&#xdd;" horiz-adv-x="389" 
d="M157 10l39 317q0 1 0.5 2.5t-0.5 2.5l-89 356l-1 3q0 9 10 9h19q10 0 11 -8l73 -315q1 -2 3 -2t3 2l149 315q4 8 13 8h19q5 0 7 -3.5t-1 -8.5l-176 -356q-2 -2 -2 -5l-39 -317q-2 -10 -11 -10h-18q-9 0 -9 10zM238.5 771.5q-1.5 3.5 2.5 8.5l74 111q5 7 12 7h16
q5 0 7 -3.5t-2 -8.5l-79 -111q-5 -7 -12 -7h-11q-6 0 -7.5 3.5z" />
    <glyph glyph-name="Thorn" unicode="&#xde;" horiz-adv-x="419" 
d="M373 496q34 -41 34 -110q0 -23 -2 -36q-10 -82 -57 -132.5t-112 -50.5h-112q-4 0 -4 -4l-19 -153q-2 -10 -11 -10h-18q-9 0 -9 10l84 680q2 10 11 10h18q9 0 9 -10l-19 -149q0 -4 4 -4h110q59 0 93 -41zM322.5 242q36.5 41 44.5 108q2 22 2 30q0 56 -26 89t-70 33h-108
q-4 0 -4 -4l-36 -293q0 -2 1 -3t2 -1h108q50 0 86.5 41z" />
    <glyph glyph-name="germandbls" unicode="&#xdf;" horiz-adv-x="404" 
d="M51 10l63 512q11 88 52 137.5t103 49.5q57 0 89 -39.5t32 -109.5q0 -11 -2 -33q-6 -59 -29.5 -100t-58.5 -58q-5 -2 0 -5q26 -15 40 -48.5t14 -80.5q0 -21 -3 -45q-11 -88 -57 -139t-117 -51h-39q-9 0 -9 10l2 14q2 10 11 10l40 1q54 1 88 41.5t44 115.5q3 23 3 43
q0 55 -20.5 84.5t-59.5 31.5h-41q-4 0 -6.5 3t-1.5 7l2 14q0 4 3 7t8 3h40q45 0 73.5 36.5t35.5 103.5q2 22 2 32q0 56 -23 86.5t-64 30.5q-45 0 -74.5 -39t-38.5 -110l-63 -515q-1 -4 -4 -7t-7 -3h-19q-10 0 -8 10z" />
    <glyph glyph-name="agrave" unicode="&#xe0;" horiz-adv-x="384" 
d="M345 502h18q5 0 7.5 -3t1.5 -7l-59 -482q-1 -4 -4 -7t-7 -3h-19q-10 0 -8 10l5 39q0 3 -2 3.5t-3 -2.5q-20 -28 -48 -43t-60 -15q-53 0 -84 33.5t-31 88.5q0 7 2 25l27 224q8 66 49 106.5t100 40.5q33 0 57.5 -15t36.5 -43q1 -3 3 -2.5t2 3.5l5 39q2 10 11 10zM254 58.5
q31 31.5 37 81.5l27 222q1 7 1 19q0 43 -23 68.5t-61 25.5q-45 0 -77.5 -31.5t-38.5 -81.5l-27 -222q-1 -6 -1 -18q0 -42 24.5 -68.5t64.5 -26.5q43 0 74 31.5zM256 578q0 -8 -9 -8h-12q-6 0 -11 7l-50 111q-1 2 -1 5q0 7 9 7h16q6 0 10 -7l47 -111z" />
    <glyph glyph-name="aacute" unicode="&#xe1;" horiz-adv-x="384" 
d="M345 502h18q5 0 7.5 -3t1.5 -7l-59 -482q-1 -4 -4 -7t-7 -3h-19q-10 0 -8 10l5 39q0 3 -2 3.5t-3 -2.5q-20 -28 -48 -43t-60 -15q-53 0 -84 33.5t-31 88.5q0 7 2 25l27 224q8 66 49 106.5t100 40.5q33 0 57.5 -15t36.5 -43q1 -3 3 -2.5t2 3.5l5 39q2 10 11 10zM254 58.5
q31 31.5 37 81.5l27 222q1 7 1 19q0 43 -23 68.5t-61 25.5q-45 0 -77.5 -31.5t-38.5 -81.5l-27 -222q-1 -6 -1 -18q0 -42 24.5 -68.5t64.5 -26.5q43 0 74 31.5zM211.5 573.5q-1.5 3.5 2.5 8.5l74 111q5 7 12 7h16q5 0 7 -3.5t-2 -8.5l-79 -111q-5 -7 -12 -7h-11
q-6 0 -7.5 3.5z" />
    <glyph glyph-name="acircumflex" unicode="&#xe2;" horiz-adv-x="384" 
d="M345 502h18q5 0 7.5 -3t1.5 -7l-59 -482q-1 -4 -4 -7t-7 -3h-19q-10 0 -8 10l5 39q0 3 -2 3.5t-3 -2.5q-20 -28 -48 -43t-60 -15q-53 0 -84 33.5t-31 88.5q0 7 2 25l27 224q8 66 49 106.5t100 40.5q33 0 57.5 -15t36.5 -43q1 -3 3 -2.5t2 3.5l5 39q2 10 11 10zM254 58.5
q31 31.5 37 81.5l27 222q1 7 1 19q0 43 -23 68.5t-61 25.5q-45 0 -77.5 -31.5t-38.5 -81.5l-27 -222q-1 -6 -1 -18q0 -42 24.5 -68.5t64.5 -26.5q43 0 74 31.5zM156 592l76 101q5 7 12 7h26q8 0 11 -6l53 -102q1 -2 1 -5q0 -7 -9 -7h-20q-6 0 -11 7l-37 80q-1 2 -3 2t-3 -2
l-59 -80q-5 -7 -12 -7h-20q-12 0 -5 12z" />
    <glyph glyph-name="atilde" unicode="&#xe3;" horiz-adv-x="384" 
d="M345 502h18q5 0 7.5 -3t1.5 -7l-59 -482q-1 -4 -4 -7t-7 -3h-19q-10 0 -8 10l5 39q0 3 -2 3.5t-3 -2.5q-20 -28 -48 -43t-60 -15q-53 0 -84 33.5t-31 88.5q0 7 2 25l27 224q8 66 49 106.5t100 40.5q33 0 57.5 -15t36.5 -43q1 -3 3 -2.5t2 3.5l5 39q2 10 11 10zM254 58.5
q31 31.5 37 81.5l27 222q1 7 1 19q0 43 -23 68.5t-61 25.5q-45 0 -77.5 -31.5t-38.5 -81.5l-27 -222q-1 -6 -1 -18q0 -42 24.5 -68.5t64.5 -26.5q43 0 74 31.5zM282 625q-11 6 -24 17l-12 9t-15 9t-15 3q-15 0 -26 -5.5t-24 -21.5q-8 -9 -14 -3l-5 4q-8 5 -2 14q32 44 74 44
q14 0 25 -6t25 -17q3 -2 11.5 -9t16 -10.5t15.5 -3.5q14 0 25 6.5t23 24.5q3 4 7 5t7 -1l6 -3q3 -1 3 -7q0 -8 -5 -14q-16 -21 -35.5 -31t-36.5 -10q-13 0 -24 6z" />
    <glyph glyph-name="adieresis" unicode="&#xe4;" horiz-adv-x="384" 
d="M345 502h18q5 0 7.5 -3t1.5 -7l-59 -482q-1 -4 -4 -7t-7 -3h-19q-10 0 -8 10l5 39q0 3 -2 3.5t-3 -2.5q-20 -28 -48 -43t-60 -15q-53 0 -84 33.5t-31 88.5q0 7 2 25l27 224q8 66 49 106.5t100 40.5q33 0 57.5 -15t36.5 -43q1 -3 3 -2.5t2 3.5l5 39q2 10 11 10zM254 58.5
q31 31.5 37 81.5l27 222q1 7 1 19q0 43 -23 68.5t-61 25.5q-45 0 -77.5 -31.5t-38.5 -81.5l-27 -222q-1 -6 -1 -18q0 -42 24.5 -68.5t64.5 -26.5q43 0 74 31.5zM284.5 621q-10.5 11 -10.5 28q0 22 14.5 37t34.5 15q17 0 28.5 -10.5t11.5 -27.5q0 -23 -14.5 -38t-36.5 -15
q-17 0 -27.5 11zM154.5 621q-10.5 11 -10.5 28q0 22 14.5 37t34.5 15q17 0 28.5 -10.5t11.5 -27.5q0 -23 -14.5 -38t-36.5 -15q-17 0 -27.5 11z" />
    <glyph glyph-name="aring" unicode="&#xe5;" horiz-adv-x="384" 
d="M345 502h18q5 0 7.5 -3t1.5 -7l-59 -482q-1 -4 -4 -7t-7 -3h-19q-10 0 -8 10l5 39q0 3 -2 3.5t-3 -2.5q-20 -28 -48 -43t-60 -15q-53 0 -84 33.5t-31 88.5q0 7 2 25l27 224q8 66 49 106.5t100 40.5q33 0 57.5 -15t36.5 -43q1 -3 3 -2.5t2 3.5l5 39q2 10 11 10zM254 58.5
q31 31.5 37 81.5l27 222q1 7 1 19q0 43 -23 68.5t-61 25.5q-45 0 -77.5 -31.5t-38.5 -81.5l-27 -222q-1 -6 -1 -18q0 -42 24.5 -68.5t64.5 -26.5q43 0 74 31.5zM185 611q-24 25 -24 62q0 30 15 56.5t40 42.5t53 16q36 0 60 -25t24 -62q0 -30 -15 -56.5t-40 -42.5t-53 -16
q-36 0 -60 25zM302 639q23 24 23 58q0 27 -16.5 44.5t-42.5 17.5q-31 0 -54.5 -24t-23.5 -58q0 -27 17 -44.5t43 -17.5q31 0 54 24z" />
    <glyph glyph-name="ae" unicode="&#xe6;" horiz-adv-x="618" 
d="M71.5 16q-30.5 24 -30.5 83q0 8 2 30q19 150 174 150h84q4 0 4 4l8 61q2 20 2 28q0 48 -21.5 75.5t-62.5 27.5q-37 0 -68 -24t-39 -61q-3 -10 -12 -9l-20 1q-4 0 -6 3.5t-1 7.5q12 53 55 85t95 32q40 0 67 -19.5t38 -55.5q2 -5 5 0q20 35 53.5 55t74.5 20
q56 0 88.5 -34.5t32.5 -90.5q0 -14 -1 -22l-14 -108q0 -4 -3 -7t-8 -3h-224q-4 0 -4 -4l-12 -101q-1 -6 -1 -18q0 -42 24 -67.5t63 -25.5q36 0 64.5 21.5t42.5 57.5q3 9 11 9l19 -1q4 0 6 -3.5t0 -7.5q-15 -51 -55 -82t-92 -31q-44 0 -74.5 23t-38.5 61q0 2 -1 2t-2 -2
q-20 -41 -59.5 -62.5t-87.5 -21.5q-45 0 -75.5 24zM348 278h192q2 0 3.5 1t1.5 3l10 80q1 6 1 19q0 42 -23.5 68t-63.5 26q-45 0 -76.5 -31.5t-37.5 -81.5l-10 -80q0 -4 3 -4zM243.5 56q37.5 30 44.5 87l12 97q0 4 -3 4h-82q-56 0 -91.5 -27.5t-42.5 -86.5q-1 -8 -1 -21
q0 -42 21.5 -62.5t57.5 -20.5q47 0 84.5 30z" />
    <glyph glyph-name="ccedilla" unicode="&#xe7;" horiz-adv-x="376" 
d="M356 369q-3 -2 -7 -2l-19 -1q-10 0 -8 10v4l1 11q0 35 -24.5 59.5t-65.5 24.5q-44 0 -76 -31.5t-38 -81.5l-27 -222q-1 -6 -1 -18q0 -42 24 -68.5t63 -26.5q44 0 76 29t36 66l1 4q2 10 11 10h18q5 0 7.5 -3t1.5 -7l-1 -5q-5 -48 -42 -84t-91 -43q-5 -2 -2 -5
q31 -37 31 -79q0 -18 -5 -36q-9 -31 -29.5 -45t-46.5 -14q-13 0 -24 3q-8 2 -5 12l3 7q1 5 4.5 6.5t7.5 0.5t13 -1q22 0 36.5 15t14.5 50q0 40 -34 83l-4 2q-48 5 -75.5 38t-27.5 84q0 8 2 24l27 224q8 65 51.5 106t104.5 41q57 0 90.5 -33t33.5 -81q0 -10 -1 -15l-1 -7
q0 -3 -3 -5z" />
    <glyph glyph-name="egrave" unicode="&#xe8;" horiz-adv-x="383" 
d="M333 240h-225q-4 0 -4 -4l-12 -96q-1 -6 -1 -18q0 -43 23.5 -69t63.5 -26q36 0 65.5 22.5t42.5 58.5q5 9 12 9l17 -1q5 0 7 -3t1 -8q-16 -52 -56 -82.5t-93 -30.5q-55 0 -88.5 33.5t-33.5 89.5q0 7 2 23l27 225q8 65 51.5 106t104.5 41q57 0 89.5 -34.5t32.5 -90.5
q0 -14 -1 -22l-14 -113q-2 -10 -11 -10zM157 443.5q-32 -31.5 -38 -81.5l-10 -85q-1 -1 0 -2.5t3 -1.5h193q4 0 4 4l11 85q1 6 1 18q0 43 -24 69t-64 26q-44 0 -76 -31.5zM255 578q0 -8 -9 -8h-12q-6 0 -11 7l-50 111q-1 2 -1 5q0 7 9 7h16q6 0 10 -7l47 -111z" />
    <glyph glyph-name="eacute" unicode="&#xe9;" horiz-adv-x="383" 
d="M333 240h-225q-4 0 -4 -4l-12 -96q-1 -6 -1 -18q0 -43 23.5 -69t63.5 -26q36 0 65.5 22.5t42.5 58.5q5 9 12 9l17 -1q5 0 7 -3t1 -8q-16 -52 -56 -82.5t-93 -30.5q-55 0 -88.5 33.5t-33.5 89.5q0 7 2 23l27 225q8 65 51.5 106t104.5 41q57 0 89.5 -34.5t32.5 -90.5
q0 -14 -1 -22l-14 -113q-2 -10 -11 -10zM157 443.5q-32 -31.5 -38 -81.5l-10 -85q-1 -1 0 -2.5t3 -1.5h193q4 0 4 4l11 85q1 6 1 18q0 43 -24 69t-64 26q-44 0 -76 -31.5zM210.5 573.5q-1.5 3.5 2.5 8.5l74 111q5 7 12 7h16q5 0 7 -3.5t-2 -8.5l-79 -111q-5 -7 -12 -7h-11
q-6 0 -7.5 3.5z" />
    <glyph glyph-name="ecircumflex" unicode="&#xea;" horiz-adv-x="383" 
d="M333 240h-225q-4 0 -4 -4l-12 -96q-1 -6 -1 -18q0 -43 23.5 -69t63.5 -26q36 0 65.5 22.5t42.5 58.5q5 9 12 9l17 -1q5 0 7 -3t1 -8q-16 -52 -56 -82.5t-93 -30.5q-55 0 -88.5 33.5t-33.5 89.5q0 7 2 23l27 225q8 65 51.5 106t104.5 41q57 0 89.5 -34.5t32.5 -90.5
q0 -14 -1 -22l-14 -113q-2 -10 -11 -10zM157 443.5q-32 -31.5 -38 -81.5l-10 -85q-1 -1 0 -2.5t3 -1.5h193q4 0 4 4l11 85q1 6 1 18q0 43 -24 69t-64 26q-44 0 -76 -31.5zM155 592l76 101q5 7 12 7h26q8 0 11 -6l53 -102q1 -2 1 -5q0 -7 -9 -7h-20q-6 0 -11 7l-37 80
q-1 2 -3 2t-3 -2l-59 -80q-5 -7 -12 -7h-20q-12 0 -5 12z" />
    <glyph glyph-name="edieresis" unicode="&#xeb;" horiz-adv-x="383" 
d="M333 240h-225q-4 0 -4 -4l-12 -96q-1 -6 -1 -18q0 -43 23.5 -69t63.5 -26q36 0 65.5 22.5t42.5 58.5q5 9 12 9l17 -1q5 0 7 -3t1 -8q-16 -52 -56 -82.5t-93 -30.5q-55 0 -88.5 33.5t-33.5 89.5q0 7 2 23l27 225q8 65 51.5 106t104.5 41q57 0 89.5 -34.5t32.5 -90.5
q0 -14 -1 -22l-14 -113q-2 -10 -11 -10zM157 443.5q-32 -31.5 -38 -81.5l-10 -85q-1 -1 0 -2.5t3 -1.5h193q4 0 4 4l11 85q1 6 1 18q0 43 -24 69t-64 26q-44 0 -76 -31.5zM283.5 621q-10.5 11 -10.5 28q0 22 14.5 37t34.5 15q17 0 28.5 -10.5t11.5 -27.5q0 -23 -14.5 -38
t-36.5 -15q-17 0 -27.5 11zM153.5 621q-10.5 11 -10.5 28q0 22 14.5 37t34.5 15q17 0 28.5 -10.5t11.5 -27.5q0 -23 -14.5 -38t-36.5 -15q-17 0 -27.5 11z" />
    <glyph glyph-name="igrave" unicode="&#xec;" horiz-adv-x="154" 
d="M41.5 3q-2.5 3 -1.5 7l59 482q2 10 11 10h19q4 0 6.5 -3t1.5 -7l-59 -482q-2 -10 -11 -10h-19q-4 0 -6.5 3zM141 578q0 -8 -9 -8h-12q-6 0 -11 7l-50 111q-1 2 -1 5q0 7 9 7h16q6 0 10 -7l47 -111z" />
    <glyph glyph-name="iacute" unicode="&#xed;" horiz-adv-x="154" 
d="M41.5 3q-2.5 3 -1.5 7l59 482q2 10 11 10h19q4 0 6.5 -3t1.5 -7l-59 -482q-2 -10 -11 -10h-19q-4 0 -6.5 3zM96.5 573.5q-1.5 3.5 2.5 8.5l74 111q5 7 12 7h16q5 0 7 -3.5t-2 -8.5l-79 -111q-5 -7 -12 -7h-11q-6 0 -7.5 3.5z" />
    <glyph glyph-name="icircumflex" unicode="&#xee;" horiz-adv-x="154" 
d="M41.5 3q-2.5 3 -1.5 7l59 482q2 10 11 10h19q4 0 6.5 -3t1.5 -7l-59 -482q-2 -10 -11 -10h-19q-4 0 -6.5 3zM41 592l76 101q5 7 12 7h26q8 0 11 -6l53 -102q1 -2 1 -5q0 -7 -9 -7h-20q-6 0 -11 7l-37 80q-1 2 -3 2t-3 -2l-59 -80q-5 -7 -12 -7h-20q-12 0 -5 12z" />
    <glyph glyph-name="idieresis" unicode="&#xef;" horiz-adv-x="154" 
d="M41.5 3q-2.5 3 -1.5 7l59 482q2 10 11 10h19q4 0 6.5 -3t1.5 -7l-59 -482q-2 -10 -11 -10h-19q-4 0 -6.5 3zM169.5 621q-10.5 11 -10.5 28q0 22 14.5 37t34.5 15q17 0 28.5 -10.5t11.5 -27.5q0 -23 -14.5 -38t-36.5 -15q-17 0 -27.5 11zM39.5 621q-10.5 11 -10.5 28
q0 22 14.5 37t34.5 15q17 0 28.5 -10.5t11.5 -27.5q0 -23 -14.5 -38t-36.5 -15q-17 0 -27.5 11z" />
    <glyph glyph-name="eth" unicode="&#xf0;" horiz-adv-x="411" 
d="M328 600q33 -73 33 -171q0 -37 -4 -70q-3 -37 -7 -60l-6 -50l-14 -110q-8 -65 -51 -106t-105 -41q-55 0 -88.5 34t-33.5 90q0 7 2 23l27 220q7 64 50.5 105.5t102.5 41.5q57 0 88 -41q1 -2 2.5 -1.5t1.5 1.5q0 63 -28 126q-2 4 -5 2l-73 -23l-4 -1q-5 0 -7 8l-1 6v2
q0 7 8 10l63 21q5 3 3 5q-22 37 -49 67q-3 3 -3 6q0 6 9 6h16q6 0 11 -5q33 -41 47 -65q2 -4 5 -2l80 26l5 1q5 0 7 -8l2 -5v-2q0 -7 -9 -11l-73 -24q-3 -2 -2 -5zM320 378q0 42 -23.5 67.5t-64.5 25.5q-43 0 -75 -31.5t-38 -81.5l-27 -218q-1 -6 -1 -18q0 -42 24 -68.5
t63 -26.5q45 0 77 31.5t38 81.5l26 218q1 7 1 20z" />
    <glyph glyph-name="ntilde" unicode="&#xf1;" horiz-adv-x="401" 
d="M213.5 657.5q-9.5 -5.5 -20.5 -20.5q-8 -9 -14 -3l-3 2q-3 3 -3.5 7t2.5 7q27 45 63 45q12 0 21 -6t20 -17q3 -3 10 -9.5t13.5 -10t12.5 -3.5q11 0 20.5 6.5t20.5 23.5q8 10 14 4l3 -2q7 -5 2 -14q-14 -25 -32 -36.5t-33 -11.5q-12 0 -21 6t-20 17l-8.5 8.5t-12.5 9.5
t-13 3q-12 0 -21.5 -5.5zM337.5 477.5q27.5 -31.5 27.5 -88.5q0 -9 -2 -33l-43 -346q0 -4 -3 -7t-8 -3h-18q-10 0 -8 10l42 342q2 18 2 26q0 46 -21.5 71t-61.5 25q-45 0 -76 -34.5t-38 -94.5l-41 -335q-1 -4 -4 -7t-7 -3h-19q-10 0 -8 10l59 482q2 10 11 10h18q9 0 9 -10
l-6 -44q0 -3 1.5 -3t3.5 2q20 31 49 46.5t63 15.5q51 0 78.5 -31.5z" />
    <glyph glyph-name="ograve" unicode="&#xf2;" horiz-adv-x="390" 
d="M85.5 26q-33.5 34 -33.5 90q0 7 2 23l27 224q8 65 51.5 106t104.5 41q57 0 89.5 -34.5t32.5 -90.5q0 -14 -1 -22l-28 -224q-8 -65 -51 -106t-105 -41q-55 0 -88.5 34zM255 58.5q32 31.5 38 81.5l27 222q1 6 1 18q0 42 -24 68.5t-64 26.5q-44 0 -76 -32t-38 -81l-27 -222
q-1 -6 -1 -18q0 -42 24 -68.5t63 -26.5q45 0 77 31.5zM258 578q0 -8 -9 -8h-12q-6 0 -11 7l-50 111q-1 2 -1 5q0 7 9 7h16q6 0 10 -7l47 -111z" />
    <glyph glyph-name="oacute" unicode="&#xf3;" horiz-adv-x="390" 
d="M85.5 26q-33.5 34 -33.5 90q0 7 2 23l27 224q8 65 51.5 106t104.5 41q57 0 89.5 -34.5t32.5 -90.5q0 -14 -1 -22l-28 -224q-8 -65 -51 -106t-105 -41q-55 0 -88.5 34zM255 58.5q32 31.5 38 81.5l27 222q1 6 1 18q0 42 -24 68.5t-64 26.5q-44 0 -76 -32t-38 -81l-27 -222
q-1 -6 -1 -18q0 -42 24 -68.5t63 -26.5q45 0 77 31.5zM213.5 573.5q-1.5 3.5 2.5 8.5l74 111q5 7 12 7h16q5 0 7 -3.5t-2 -8.5l-79 -111q-5 -7 -12 -7h-11q-6 0 -7.5 3.5z" />
    <glyph glyph-name="ocircumflex" unicode="&#xf4;" horiz-adv-x="390" 
d="M85.5 26q-33.5 34 -33.5 90q0 7 2 23l27 224q8 65 51.5 106t104.5 41q57 0 89.5 -34.5t32.5 -90.5q0 -14 -1 -22l-28 -224q-8 -65 -51 -106t-105 -41q-55 0 -88.5 34zM255 58.5q32 31.5 38 81.5l27 222q1 6 1 18q0 42 -24 68.5t-64 26.5q-44 0 -76 -32t-38 -81l-27 -222
q-1 -6 -1 -18q0 -42 24 -68.5t63 -26.5q45 0 77 31.5zM158 592l76 101q5 7 12 7h26q8 0 11 -6l53 -102q1 -2 1 -5q0 -7 -9 -7h-20q-6 0 -11 7l-37 80q-1 2 -3 2t-3 -2l-59 -80q-5 -7 -12 -7h-20q-12 0 -5 12z" />
    <glyph glyph-name="otilde" unicode="&#xf5;" horiz-adv-x="390" 
d="M85.5 26q-33.5 34 -33.5 90q0 7 2 23l27 224q8 65 51.5 106t104.5 41q57 0 89.5 -34.5t32.5 -90.5q0 -14 -1 -22l-28 -224q-8 -65 -51 -106t-105 -41q-55 0 -88.5 34zM255 58.5q32 31.5 38 81.5l27 222q1 6 1 18q0 42 -24 68.5t-64 26.5q-44 0 -76 -32t-38 -81l-27 -222
q-1 -6 -1 -18q0 -42 24 -68.5t63 -26.5q45 0 77 31.5zM284 625q-11 6 -24 17l-12 9t-15 9t-15 3q-15 0 -26 -5.5t-24 -21.5q-8 -9 -14 -3l-5 4q-8 5 -2 14q32 44 74 44q14 0 25 -6t25 -17q3 -2 11.5 -9t16 -10.5t15.5 -3.5q14 0 25 6.5t23 24.5q3 4 7 5t7 -1l6 -3q3 -1 3 -7
q0 -8 -5 -14q-16 -21 -35.5 -31t-36.5 -10q-13 0 -24 6z" />
    <glyph glyph-name="odieresis" unicode="&#xf6;" horiz-adv-x="390" 
d="M85.5 26q-33.5 34 -33.5 90q0 7 2 23l27 224q8 65 51.5 106t104.5 41q57 0 89.5 -34.5t32.5 -90.5q0 -14 -1 -22l-28 -224q-8 -65 -51 -106t-105 -41q-55 0 -88.5 34zM255 58.5q32 31.5 38 81.5l27 222q1 6 1 18q0 42 -24 68.5t-64 26.5q-44 0 -76 -32t-38 -81l-27 -222
q-1 -6 -1 -18q0 -42 24 -68.5t63 -26.5q45 0 77 31.5zM286.5 621q-10.5 11 -10.5 28q0 22 14.5 37t34.5 15q17 0 28.5 -10.5t11.5 -27.5q0 -23 -14.5 -38t-36.5 -15q-17 0 -27.5 11zM156.5 621q-10.5 11 -10.5 28q0 22 14.5 37t34.5 15q17 0 28.5 -10.5t11.5 -27.5
q0 -23 -14.5 -38t-36.5 -15q-17 0 -27.5 11z" />
    <glyph glyph-name="divide" unicode="&#xf7;" horiz-adv-x="430" 
d="M220.5 444q-10.5 11 -10.5 28q0 20 15 35t34 15q16 0 27.5 -11.5t11.5 -27.5q0 -21 -15.5 -35.5t-34.5 -14.5q-17 0 -27.5 11zM55 325l2 13q2 10 11 10h340q5 0 7.5 -3t1.5 -7l-2 -13q0 -4 -3 -7t-8 -3h-340q-9 0 -9 10zM185 154q-11 11 -11 28q0 20 15 35t34 15
q17 0 28.5 -11.5t11.5 -27.5q0 -20 -15.5 -35t-34.5 -15q-17 0 -28 11z" />
    <glyph glyph-name="oslash" unicode="&#xf8;" horiz-adv-x="395" 
d="M339 463q21 -31 21 -77q0 -15 -1 -23l-28 -224q-8 -65 -51 -106t-105 -41q-39 0 -68 18q-4 1 -6 -2l-25 -49q-3 -10 -13 -5l-12 7q-6 4 -3 13l30 57q1 3 -1 5q-23 32 -23 80q0 15 1 23l27 224q8 65 51.5 106t104.5 41q43 0 71 -20q4 -1 7 2l28 56q1 4 5 5.5t8 -0.5l12 -7
q7 -5 3 -13l-33 -65q-2 -3 0 -5zM92 120q0 -20 6 -38q4 -5 5 0l190 368q1 3 -1 5q-23 20 -58 20q-44 0 -76 -31.5t-38 -81.5l-27 -222q-1 -7 -1 -20zM322 380q0 18 -5 36q-4 5 -5 0l-188 -366q-2 -3 1 -5q20 -18 54 -18q45 0 77 31.5t38 81.5l27 222q1 6 1 18z" />
    <glyph glyph-name="ugrave" unicode="&#xf9;" horiz-adv-x="401" 
d="M346 502h18q9 0 9 -10l-59 -482q-1 -4 -4 -7t-7 -3h-19q-10 0 -8 10l5 40q0 3 -2 3.5t-3 -2.5q-37 -58 -108 -58q-52 0 -80.5 29t-28.5 86q0 9 2 31l43 353q2 10 11 10h18q5 0 7.5 -3t1.5 -7l-42 -345q-2 -20 -2 -28q0 -45 21 -68t60 -23q46 0 77 34.5t38 94.5l41 335
q2 10 11 10zM261 578q0 -8 -9 -8h-12q-6 0 -11 7l-50 111q-1 2 -1 5q0 7 9 7h16q6 0 10 -7l47 -111z" />
    <glyph glyph-name="uacute" unicode="&#xfa;" horiz-adv-x="401" 
d="M346 502h18q9 0 9 -10l-59 -482q-1 -4 -4 -7t-7 -3h-19q-10 0 -8 10l5 40q0 3 -2 3.5t-3 -2.5q-37 -58 -108 -58q-52 0 -80.5 29t-28.5 86q0 9 2 31l43 353q2 10 11 10h18q5 0 7.5 -3t1.5 -7l-42 -345q-2 -20 -2 -28q0 -45 21 -68t60 -23q46 0 77 34.5t38 94.5l41 335
q2 10 11 10zM216.5 573.5q-1.5 3.5 2.5 8.5l74 111q5 7 12 7h16q5 0 7 -3.5t-2 -8.5l-79 -111q-5 -7 -12 -7h-11q-6 0 -7.5 3.5z" />
    <glyph glyph-name="ucircumflex" unicode="&#xfb;" horiz-adv-x="401" 
d="M346 502h18q9 0 9 -10l-59 -482q-1 -4 -4 -7t-7 -3h-19q-10 0 -8 10l5 40q0 3 -2 3.5t-3 -2.5q-37 -58 -108 -58q-52 0 -80.5 29t-28.5 86q0 9 2 31l43 353q2 10 11 10h18q5 0 7.5 -3t1.5 -7l-42 -345q-2 -20 -2 -28q0 -45 21 -68t60 -23q46 0 77 34.5t38 94.5l41 335
q2 10 11 10zM161 592l76 101q5 7 12 7h26q8 0 11 -6l53 -102q1 -2 1 -5q0 -7 -9 -7h-20q-6 0 -11 7l-37 80q-1 2 -3 2t-3 -2l-59 -80q-5 -7 -12 -7h-20q-12 0 -5 12z" />
    <glyph glyph-name="udieresis" unicode="&#xfc;" horiz-adv-x="401" 
d="M346 502h18q9 0 9 -10l-59 -482q-1 -4 -4 -7t-7 -3h-19q-10 0 -8 10l5 40q0 3 -2 3.5t-3 -2.5q-37 -58 -108 -58q-52 0 -80.5 29t-28.5 86q0 9 2 31l43 353q2 10 11 10h18q5 0 7.5 -3t1.5 -7l-42 -345q-2 -20 -2 -28q0 -45 21 -68t60 -23q46 0 77 34.5t38 94.5l41 335
q2 10 11 10zM289.5 621q-10.5 11 -10.5 28q0 22 14.5 37t34.5 15q17 0 28.5 -10.5t11.5 -27.5q0 -23 -14.5 -38t-36.5 -15q-17 0 -27.5 11zM159.5 621q-10.5 11 -10.5 28q0 22 14.5 37t34.5 15q17 0 28.5 -10.5t11.5 -27.5q0 -23 -14.5 -38t-36.5 -15q-17 0 -27.5 11z" />
    <glyph glyph-name="yacute" unicode="&#xfd;" horiz-adv-x="332" 
d="M-2 -197q-2 3 -1 7l2 15q2 10 11 10q29 1 46 13.5t32 45t39 103.5q1 2 0.5 3.5t-0.5 2.5l-65 488v2q0 4 3 6.5t7 2.5h21q9 0 9 -9l51 -434q0 -3 1.5 -3t2.5 3l156 434q2 9 12 9h19q12 0 7 -11l-205 -547q-24 -63 -42.5 -93t-40 -40.5t-57.5 -10.5h-4q-2 0 -4 3z
M185.5 573.5q-1.5 3.5 2.5 8.5l74 111q5 7 12 7h16q5 0 7 -3.5t-2 -8.5l-79 -111q-5 -7 -12 -7h-11q-6 0 -7.5 3.5z" />
    <glyph glyph-name="thorn" unicode="&#xfe;" horiz-adv-x="394" 
d="M333.5 476.5q30.5 -33.5 30.5 -89.5q0 -16 -1 -24l-28 -224q-8 -65 -48.5 -106t-100.5 -41q-32 0 -56.5 15t-37.5 43q-1 3 -2.5 2.5t-2.5 -3.5l-29 -239q-2 -10 -11 -10h-18q-9 0 -9 10l108 880q2 10 11 10h19q10 0 8 -10l-29 -237q0 -3 1.5 -3.5t2.5 2.5q20 28 48 43
t61 15q53 0 83.5 -33.5zM326 380q0 43 -24.5 69t-64.5 26q-43 0 -74 -31.5t-37 -81.5l-27 -222q-1 -6 -1 -19q0 -42 23 -68t61 -26q45 0 77 31.5t39 81.5l27 222q1 6 1 18z" />
    <glyph glyph-name="ydieresis" unicode="&#xff;" horiz-adv-x="332" 
d="M-2 -197q-2 3 -1 7l2 15q2 10 11 10q29 1 46 13.5t32 45t39 103.5q1 2 0.5 3.5t-0.5 2.5l-65 488v2q0 4 3 6.5t7 2.5h21q9 0 9 -9l51 -434q0 -3 1.5 -3t2.5 3l156 434q2 9 12 9h19q12 0 7 -11l-205 -547q-24 -63 -42.5 -93t-40 -40.5t-57.5 -10.5h-4q-2 0 -4 3z
M258.5 621q-10.5 11 -10.5 28q0 22 14.5 37t34.5 15q17 0 28.5 -10.5t11.5 -27.5q0 -23 -14.5 -38t-36.5 -15q-17 0 -27.5 11zM128.5 621q-10.5 11 -10.5 28q0 22 14.5 37t34.5 15q17 0 28.5 -10.5t11.5 -27.5q0 -23 -14.5 -38t-36.5 -15q-17 0 -27.5 11z" />
    <glyph glyph-name="Amacron" unicode="&#x100;" horiz-adv-x="365" 
d="M297 9l-11 136q0 2 -1.5 3t-3.5 1h-200q-2 0 -3.5 -1t-1.5 -3l-45 -136q-3 -9 -12 -9h-18q-5 0 -7 3t0 8l231 680q2 9 11 9h25q9 0 9 -9l65 -680q0 -11 -10 -11h-18q-10 0 -10 9zM90 183.5q1 -1.5 2 -1.5h186q2 0 3.5 1.5t0.5 2.5l-39 447q-1 3 -2 3t-2 -3l-149 -447
q-1 -1 0 -2.5zM167 810l2 11q0 4 3 7t8 3h169q5 0 7.5 -3t1.5 -7l-2 -11q0 -4 -3 -7t-7 -3h-170q-9 0 -9 10z" />
    <glyph glyph-name="amacron" unicode="&#x101;" horiz-adv-x="384" 
d="M345 502h18q5 0 7.5 -3t1.5 -7l-59 -482q-1 -4 -4 -7t-7 -3h-19q-10 0 -8 10l5 39q0 3 -2 3.5t-3 -2.5q-20 -28 -48 -43t-60 -15q-53 0 -84 33.5t-31 88.5q0 7 2 25l27 224q8 66 49 106.5t100 40.5q33 0 57.5 -15t36.5 -43q1 -3 3 -2.5t2 3.5l5 39q2 10 11 10zM254 58.5
q31 31.5 37 81.5l27 222q1 7 1 19q0 43 -23 68.5t-61 25.5q-45 0 -77.5 -31.5t-38.5 -81.5l-27 -222q-1 -6 -1 -18q0 -42 24.5 -68.5t64.5 -26.5q43 0 74 31.5zM153 612l2 11q0 4 3 7t8 3h169q5 0 7.5 -3t1.5 -7l-2 -11q0 -4 -3 -7t-7 -3h-170q-9 0 -9 10z" />
    <glyph glyph-name="Abreve" unicode="&#x102;" horiz-adv-x="365" 
d="M297 9l-11 136q0 2 -1.5 3t-3.5 1h-200q-2 0 -3.5 -1t-1.5 -3l-45 -136q-3 -9 -12 -9h-18q-5 0 -7 3t0 8l231 680q2 9 11 9h25q9 0 9 -9l65 -680q0 -11 -10 -11h-18q-10 0 -10 9zM90 183.5q1 -1.5 2 -1.5h186q2 0 3.5 1.5t0.5 2.5l-39 447q-1 3 -2 3t-2 -3l-149 -447
q-1 -1 0 -2.5zM196 785.5q-24 25.5 -23 64.5q2 10 11 10h9q9 0 9 -12q0 -27 16.5 -44t41.5 -17q26 0 47 18t27 45q3 10 12 10h9q4 0 6 -3t1 -7q-8 -39 -38 -64.5t-67 -25.5t-61 25.5z" />
    <glyph glyph-name="abreve" unicode="&#x103;" horiz-adv-x="384" 
d="M345 502h18q5 0 7.5 -3t1.5 -7l-59 -482q-1 -4 -4 -7t-7 -3h-19q-10 0 -8 10l5 39q0 3 -2 3.5t-3 -2.5q-20 -28 -48 -43t-60 -15q-53 0 -84 33.5t-31 88.5q0 7 2 25l27 224q8 66 49 106.5t100 40.5q33 0 57.5 -15t36.5 -43q1 -3 3 -2.5t2 3.5l5 39q2 10 11 10zM254 58.5
q31 31.5 37 81.5l27 222q1 7 1 19q0 43 -23 68.5t-61 25.5q-45 0 -77.5 -31.5t-38.5 -81.5l-27 -222q-1 -6 -1 -18q0 -42 24.5 -68.5t64.5 -26.5q43 0 74 31.5zM181 587.5q-24 25.5 -23 64.5q2 10 11 10h9q9 0 9 -12q0 -27 16.5 -44t41.5 -17q26 0 47 18t27 45q3 10 12 10h9
q4 0 6 -3t1 -7q-8 -39 -38 -64.5t-67 -25.5t-61 25.5z" />
    <glyph glyph-name="Aogonek" unicode="&#x104;" horiz-adv-x="365" 
d="M297 9l-11 136q0 2 -1.5 3t-3.5 1h-200q-2 0 -3.5 -1t-1.5 -3l-45 -136q-3 -9 -12 -9h-18q-5 0 -7 3t0 8l231 680q2 9 11 9h25q9 0 9 -9l65 -680q0 -11 -10 -11h-18q-10 0 -10 9zM90 183.5q1 -1.5 2 -1.5h186q2 0 3.5 1.5t0.5 2.5l-39 447q-1 3 -2 3t-2 -3l-149 -447
q-1 -1 0 -2.5zM325 -180q-12 -3 -24 -3q-26 0 -44 14.5t-18 47.5q0 67 58 114q4 3 4 4q5 3 11 3h8q5 0 6 -4t-3 -8q-52 -52 -52 -100q0 -43 37 -43q9 0 14 1l4 1q7 0 7 -8l1 -7q0 -11 -9 -12z" />
    <glyph glyph-name="aogonek" unicode="&#x105;" horiz-adv-x="421" 
d="M314 -153q5 0 7 -8l1 -7q0 -11 -9 -12q-12 -3 -24 -3q-26 0 -44 14.5t-18 47.5q0 67 63 118q2 2 0 4q-3 3 -3 9l5 39q1 3 -1 3.5t-3 -2.5q-20 -28 -48 -43t-61 -15q-53 0 -83.5 33.5t-30.5 88.5q0 7 2 25l27 224q8 66 49 106.5t100 40.5q32 0 56.5 -15t37.5 -43
q1 -3 2.5 -2.5t2.5 3.5l5 39q0 4 3 7t7 3h19q10 0 8 -10l-59 -485q-1 -6 -7 -12q-26 -24 -42.5 -52t-16.5 -55q0 -43 37 -43q9 0 14 1zM266 58.5q31 31.5 37 81.5l28 222q1 7 1 19q0 43 -23 68.5t-62 25.5q-45 0 -77 -31.5t-38 -81.5l-28 -222q-1 -6 -1 -18
q0 -42 24.5 -68.5t64.5 -26.5q43 0 74 31.5z" />
    <glyph glyph-name="Cacute" unicode="&#x106;" horiz-adv-x="424" 
d="M97 28.5q-36 36.5 -36 98.5q0 9 2 27l48 393q9 73 56 117t115 44q62 0 98.5 -36t36.5 -98q0 -9 -2 -27l-2 -20q-2 -10 -11 -10l-20 -1q-4 0 -6.5 3t-1.5 7l3 23q1 7 1 20q0 48 -27 76t-73 28q-51 0 -86.5 -34t-42.5 -90l-49 -398q-1 -7 -1 -21q0 -47 26.5 -75t72.5 -28
q52 0 87.5 34t42.5 90l3 22q0 4 3 7t8 3l19 -1q10 0 8 -10l-2 -18q-9 -73 -56.5 -117.5t-116.5 -44.5q-61 0 -97 36.5zM257.5 771.5q-1.5 3.5 2.5 8.5l74 111q5 7 12 7h16q5 0 7 -3.5t-2 -8.5l-79 -111q-5 -7 -12 -7h-11q-6 0 -7.5 3.5z" />
    <glyph glyph-name="cacute" unicode="&#x107;" horiz-adv-x="376" 
d="M85.5 26q-33.5 34 -33.5 90q0 7 2 23l27 224q8 65 51.5 106t104.5 41q57 0 90.5 -33t33.5 -81q0 -10 -1 -15v-4q-1 -4 -4 -7t-7 -3l-19 -1q-10 0 -8 10v4l1 11q0 35 -24.5 59.5t-65.5 24.5q-44 0 -76 -31.5t-38 -81.5l-27 -222q-1 -6 -1 -18q0 -42 24 -68.5t63 -26.5
q44 0 76 29t36 66l1 4q2 10 11 10h18q5 0 7.5 -3t1.5 -7l-1 -5q-4 -34 -25 -63.5t-55 -47.5t-74 -18q-55 0 -88.5 34zM213.5 573.5q-1.5 3.5 2.5 8.5l74 111q5 7 12 7h16q5 0 7 -3.5t-2 -8.5l-79 -111q-5 -7 -12 -7h-11q-6 0 -7.5 3.5z" />
    <glyph glyph-name="Ccircumflex" unicode="&#x108;" horiz-adv-x="424" 
d="M97 28.5q-36 36.5 -36 98.5q0 9 2 27l48 393q9 73 56 117t115 44q62 0 98.5 -36t36.5 -98q0 -9 -2 -27l-2 -20q-2 -10 -11 -10l-20 -1q-4 0 -6.5 3t-1.5 7l3 23q1 7 1 20q0 48 -27 76t-73 28q-51 0 -86.5 -34t-42.5 -90l-49 -398q-1 -7 -1 -21q0 -47 26.5 -75t72.5 -28
q52 0 87.5 34t42.5 90l3 22q0 4 3 7t8 3l19 -1q10 0 8 -10l-2 -18q-9 -73 -56.5 -117.5t-116.5 -44.5q-61 0 -97 36.5zM203 790l76 101q5 7 12 7h26q8 0 11 -6l53 -102q1 -2 1 -5q0 -7 -9 -7h-20q-6 0 -11 7l-37 80q-1 2 -3 2t-3 -2l-59 -80q-5 -7 -12 -7h-20q-12 0 -5 12z
" />
    <glyph glyph-name="ccircumflex" unicode="&#x109;" horiz-adv-x="376" 
d="M85.5 26q-33.5 34 -33.5 90q0 7 2 23l27 224q8 65 51.5 106t104.5 41q57 0 90.5 -33t33.5 -81q0 -10 -1 -15v-4q-1 -4 -4 -7t-7 -3l-19 -1q-10 0 -8 10v4l1 11q0 35 -24.5 59.5t-65.5 24.5q-44 0 -76 -31.5t-38 -81.5l-27 -222q-1 -6 -1 -18q0 -42 24 -68.5t63 -26.5
q44 0 76 29t36 66l1 4q2 10 11 10h18q5 0 7.5 -3t1.5 -7l-1 -5q-4 -34 -25 -63.5t-55 -47.5t-74 -18q-55 0 -88.5 34zM158 592l76 101q5 7 12 7h26q8 0 11 -6l53 -102q1 -2 1 -5q0 -7 -9 -7h-20q-6 0 -11 7l-37 80q-1 2 -3 2t-3 -2l-59 -80q-5 -7 -12 -7h-20q-12 0 -5 12z
" />
    <glyph glyph-name="Cdotaccent" unicode="&#x10a;" horiz-adv-x="424" 
d="M97 28.5q-36 36.5 -36 98.5q0 9 2 27l48 393q9 73 56 117t115 44q62 0 98.5 -36t36.5 -98q0 -9 -2 -27l-2 -20q-2 -10 -11 -10l-20 -1q-4 0 -6.5 3t-1.5 7l3 23q1 7 1 20q0 48 -27 76t-73 28q-51 0 -86.5 -34t-42.5 -90l-49 -398q-1 -7 -1 -21q0 -47 26.5 -75t72.5 -28
q52 0 87.5 34t42.5 90l3 22q0 4 3 7t8 3l19 -1q10 0 8 -10l-2 -18q-9 -73 -56.5 -117.5t-116.5 -44.5q-61 0 -97 36.5zM266.5 819q-10.5 11 -10.5 28q0 22 14.5 37t34.5 15q17 0 28.5 -10.5t11.5 -27.5q0 -23 -14.5 -38t-36.5 -15q-17 0 -27.5 11z" />
    <glyph glyph-name="cdotaccent" unicode="&#x10b;" horiz-adv-x="376" 
d="M85.5 26q-33.5 34 -33.5 90q0 7 2 23l27 224q8 65 51.5 106t104.5 41q57 0 90.5 -33t33.5 -81q0 -10 -1 -15v-4q-1 -4 -4 -7t-7 -3l-19 -1q-10 0 -8 10v4l1 11q0 35 -24.5 59.5t-65.5 24.5q-44 0 -76 -31.5t-38 -81.5l-27 -222q-1 -6 -1 -18q0 -42 24 -68.5t63 -26.5
q44 0 76 29t36 66l1 4q2 10 11 10h18q5 0 7.5 -3t1.5 -7l-1 -5q-4 -34 -25 -63.5t-55 -47.5t-74 -18q-55 0 -88.5 34zM221.5 621q-10.5 11 -10.5 28q0 22 14.5 37t34.5 15q17 0 28.5 -10.5t11.5 -27.5q0 -23 -14.5 -38t-36.5 -15q-17 0 -27.5 11z" />
    <glyph glyph-name="Ccaron" unicode="&#x10c;" horiz-adv-x="424" 
d="M97 28.5q-36 36.5 -36 98.5q0 9 2 27l48 393q9 73 56 117t115 44q62 0 98.5 -36t36.5 -98q0 -9 -2 -27l-2 -20q-2 -10 -11 -10l-20 -1q-4 0 -6.5 3t-1.5 7l3 23q1 7 1 20q0 48 -27 76t-73 28q-51 0 -86.5 -34t-42.5 -90l-49 -398q-1 -7 -1 -21q0 -47 26.5 -75t72.5 -28
q52 0 87.5 34t42.5 90l3 22q0 4 3 7t8 3l19 -1q10 0 8 -10l-2 -18q-9 -73 -56.5 -117.5t-116.5 -44.5q-61 0 -97 36.5zM215 891q0 7 8 7h21q7 0 10 -7l39 -80q1 -1 3 -1t3 1l57 80q7 7 13 7h20q12 0 5 -12l-78 -102q-4 -6 -12 -6h-27q-6 0 -10 7l-51 101q-1 2 -1 5z" />
    <glyph glyph-name="ccaron" unicode="&#x10d;" horiz-adv-x="376" 
d="M85.5 26q-33.5 34 -33.5 90q0 7 2 23l27 224q8 65 51.5 106t104.5 41q57 0 90.5 -33t33.5 -81q0 -10 -1 -15v-4q-1 -4 -4 -7t-7 -3l-19 -1q-10 0 -8 10v4l1 11q0 35 -24.5 59.5t-65.5 24.5q-44 0 -76 -31.5t-38 -81.5l-27 -222q-1 -6 -1 -18q0 -42 24 -68.5t63 -26.5
q44 0 76 29t36 66l1 4q2 10 11 10h18q5 0 7.5 -3t1.5 -7l-1 -5q-4 -34 -25 -63.5t-55 -47.5t-74 -18q-55 0 -88.5 34zM171 693q0 7 8 7h21q7 0 10 -7l39 -80q1 -1 3 -1t3 1l57 80q7 7 13 7h20q12 0 5 -12l-78 -102q-4 -6 -12 -6h-27q-6 0 -10 7l-51 101q-1 2 -1 5z" />
    <glyph glyph-name="Dcaron" unicode="&#x10e;" horiz-adv-x="447" 
d="M63 10l84 680q2 10 11 10h136q62 0 96 -39t34 -108q0 -11 -2 -35l-42 -336q-10 -85 -56 -133.5t-115 -48.5h-137q-9 0 -9 10zM105 36.5q1 -1.5 3 -1.5h106q51 1 85 40t42 107l42 335q2 22 2 32q0 55 -24.5 85.5t-69.5 30.5h-106q-1 0 -2.5 -1t-1.5 -3l-76 -622
q-1 -1 0 -2.5zM222 888q0 7 8 7h21q7 0 10 -7l39 -80q1 -1 3 -1t3 1l57 80q7 7 13 7h20q12 0 5 -12l-78 -102q-4 -6 -12 -6h-27q-6 0 -10 7l-51 101q-1 2 -1 5z" />
    <glyph glyph-name="dcaron" unicode="&#x10f;" horiz-adv-x="400" 
d="M369 700h19q4 0 6.5 -3t1.5 -7l-83 -680q-1 -4 -4 -7t-7 -3h-19q-10 0 -8 10l4 34q0 3 -1 3.5t-3 -1.5q-20 -26 -48 -40t-59 -14q-53 0 -84.5 33t-31.5 88q0 7 2 25l27 225q8 65 50 106t100 41q32 0 56.5 -14t37.5 -40q1 -2 2.5 -1.5t2.5 3.5l28 232q2 10 11 10z
M254 58.5q31 31.5 37 81.5l27 222q1 7 1 19q0 43 -23 68.5t-61 25.5q-45 0 -77.5 -31.5t-38.5 -81.5l-27 -222q-1 -6 -1 -18q0 -43 24.5 -69t64.5 -26q43 0 74 31.5zM450.5 573.5q-1.5 3.5 2.5 8.5l74 111q5 7 12 7h16q5 0 7 -3.5t-2 -8.5l-79 -111q-5 -7 -12 -7h-11
q-6 0 -7.5 3.5z" />
    <glyph glyph-name="Dcroat" unicode="&#x110;" horiz-adv-x="494" 
d="M437 661.5q34 -38.5 34 -106.5q0 -24 -2 -37l-41 -336q-10 -85 -56.5 -133.5t-115.5 -48.5h-137q-10 0 -8 10l41 337q0 4 -3 4h-34q-9 0 -9 10l2 9q0 4 3 7t7 3h34q2 0 3.5 1t1.5 3l37 306q2 10 11 10h137q61 0 95 -38.5zM430 517q2 22 2 33q0 54 -24 84.5t-69 30.5h-106
q-4 0 -4 -4l-34 -277q-1 -1 0 -2.5t3 -1.5h89q9 0 9 -10l-1 -9q-1 -4 -4 -7t-7 -3h-90q-4 0 -4 -4l-38 -308q0 -4 4 -4h105q51 1 85.5 40t42.5 107z" />
    <glyph glyph-name="dcroat" unicode="&#x111;" horiz-adv-x="400" 
d="M434 593l-2 -10q0 -4 -3 -7t-8 -3h-35q-2 0 -3.5 -1t-1.5 -3l-68 -559q-1 -4 -4 -7t-7 -3h-19q-10 0 -8 10l4 34q0 3 -1 3.5t-3 -1.5q-20 -26 -48 -40t-59 -14q-53 0 -84.5 33t-31.5 88q0 7 2 25l27 225q8 65 50 106t100 41q32 0 56.5 -14t37.5 -40q1 -2 2.5 -1.5
t2.5 3.5l13 111q1 1 0 2.5t-3 1.5h-148q-5 0 -7.5 3t-1.5 7l1 10q2 10 11 10h149q4 0 4 4l10 83q2 10 11 10h19q4 0 6.5 -3t1.5 -7l-10 -83q0 -4 3 -4h36q9 0 9 -10zM254 58.5q31 31.5 37 81.5l27 222q1 7 1 19q0 43 -23 68.5t-61 25.5q-45 0 -77.5 -31.5t-38.5 -81.5
l-27 -222q-1 -6 -1 -18q0 -43 24.5 -69t64.5 -26q43 0 74 31.5z" />
    <glyph glyph-name="Emacron" unicode="&#x112;" horiz-adv-x="412" 
d="M419 665h-234q-1 0 -2.5 -1t-1.5 -3l-35 -289q-1 -1 0 -2.5t3 -1.5h153q9 0 9 -10l-2 -15q-2 -10 -11 -10h-153q-3 0 -5 -4l-35 -290q-1 -1 0 -2.5t3 -1.5h234q10 0 8 -10l-2 -15q0 -4 -3 -7t-7 -3h-266q-9 0 -9 10l84 680q2 10 11 10h266q4 0 6.5 -3t1.5 -7l-2 -15
q-2 -10 -11 -10zM209 810l2 11q0 4 3 7t8 3h169q5 0 7.5 -3t1.5 -7l-2 -11q0 -4 -3 -7t-7 -3h-170q-9 0 -9 10z" />
    <glyph glyph-name="emacron" unicode="&#x113;" horiz-adv-x="383" 
d="M333 240h-225q-4 0 -4 -4l-12 -96q-1 -6 -1 -18q0 -43 23.5 -69t63.5 -26q36 0 65.5 22.5t42.5 58.5q5 9 12 9l17 -1q5 0 7 -3t1 -8q-16 -52 -56 -82.5t-93 -30.5q-55 0 -88.5 33.5t-33.5 89.5q0 7 2 23l27 225q8 65 51.5 106t104.5 41q57 0 89.5 -34.5t32.5 -90.5
q0 -14 -1 -22l-14 -113q-2 -10 -11 -10zM157 443.5q-32 -31.5 -38 -81.5l-10 -85q-1 -1 0 -2.5t3 -1.5h193q4 0 4 4l11 85q1 6 1 18q0 43 -24 69t-64 26q-44 0 -76 -31.5zM157 643l1 12q2 10 11 10h170q10 0 8 -10l-1 -12q-2 -10 -11 -10h-170q-10 0 -8 10z" />
    <glyph glyph-name="Edotaccent" unicode="&#x116;" horiz-adv-x="412" 
d="M419 665h-234q-1 0 -2.5 -1t-1.5 -3l-35 -289q-1 -1 0 -2.5t3 -1.5h153q9 0 9 -10l-2 -15q-2 -10 -11 -10h-153q-3 0 -5 -4l-35 -290q-1 -1 0 -2.5t3 -1.5h234q10 0 8 -10l-2 -15q0 -4 -3 -7t-7 -3h-266q-9 0 -9 10l84 680q2 10 11 10h266q4 0 6.5 -3t1.5 -7l-2 -15
q-2 -10 -11 -10zM276.5 819q-10.5 11 -10.5 28q0 22 14.5 37t34.5 15q17 0 28.5 -10.5t11.5 -27.5q0 -23 -14.5 -38t-36.5 -15q-17 0 -27.5 11z" />
    <glyph glyph-name="edotaccent" unicode="&#x117;" horiz-adv-x="383" 
d="M333 240h-225q-4 0 -4 -4l-12 -96q-1 -6 -1 -18q0 -43 23.5 -69t63.5 -26q36 0 65.5 22.5t42.5 58.5q5 9 12 9l17 -1q5 0 7 -3t1 -8q-16 -52 -56 -82.5t-93 -30.5q-55 0 -88.5 33.5t-33.5 89.5q0 7 2 23l27 225q8 65 51.5 106t104.5 41q57 0 89.5 -34.5t32.5 -90.5
q0 -14 -1 -22l-14 -113q-2 -10 -11 -10zM157 443.5q-32 -31.5 -38 -81.5l-10 -85q-1 -1 0 -2.5t3 -1.5h193q4 0 4 4l11 85q1 6 1 18q0 43 -24 69t-64 26q-44 0 -76 -31.5zM219.5 621q-10.5 11 -10.5 28q0 22 14.5 37t34.5 15q17 0 28.5 -10.5t11.5 -27.5q0 -23 -14.5 -38
t-36.5 -15q-17 0 -27.5 11z" />
    <glyph glyph-name="Eogonek" unicode="&#x118;" horiz-adv-x="412" 
d="M419 665h-234q-1 0 -2.5 -1t-1.5 -3l-35 -289q-1 -1 0 -2.5t3 -1.5h153q9 0 9 -10l-2 -15q-2 -10 -11 -10h-153q-3 0 -5 -4l-35 -290q-1 -1 0 -2.5t3 -1.5h234q10 0 8 -10l-2 -15q0 -4 -3 -7t-7 -3h-117q-3 0 -5 -2q-57 -55 -57 -104q0 -23 11 -33.5t28 -10.5q9 0 13 1
l4 1q6 0 6 -8l1 -7v-2q0 -8 -8 -10q-12 -3 -24 -3q-27 0 -44.5 15t-17.5 48q0 61 53 110q3 5 -2 5h-107q-9 0 -9 10l84 680q2 10 11 10h266q4 0 6.5 -3t1.5 -7l-2 -15q-2 -10 -11 -10z" />
    <glyph glyph-name="eogonek" unicode="&#x119;" horiz-adv-x="383" 
d="M333 240h-225q-4 0 -4 -4l-12 -96q-1 -6 -1 -18q0 -43 23.5 -69t63.5 -26q36 0 65.5 22.5t42.5 58.5q5 9 12 9l17 -1q5 0 7 -3t1 -8q-15 -49 -53 -80t-88 -33q-3 0 -5 -2q-48 -51 -49 -98q1 -42 40 -42q8 0 13 1l3 1q7 0 7 -8v-8q0 -10 -8 -11q-12 -3 -24 -3
q-27 0 -44 15.5t-17 51.5q0 55 45 101q4 4 -1 5q-42 9 -65.5 41t-23.5 79q0 15 1 23l27 225q8 65 51.5 106t104.5 41q57 0 89.5 -34.5t32.5 -90.5q0 -14 -1 -22l-14 -113q-2 -10 -11 -10zM157 443.5q-32 -31.5 -38 -81.5l-10 -85q-1 -1 0 -2.5t3 -1.5h193q4 0 4 4l11 85
q1 6 1 18q0 43 -24 69t-64 26q-44 0 -76 -31.5z" />
    <glyph glyph-name="Ecaron" unicode="&#x11a;" horiz-adv-x="412" 
d="M419 665h-234q-1 0 -2.5 -1t-1.5 -3l-35 -289q-1 -1 0 -2.5t3 -1.5h153q9 0 9 -10l-2 -15q-2 -10 -11 -10h-153q-3 0 -5 -4l-35 -290q-1 -1 0 -2.5t3 -1.5h234q10 0 8 -10l-2 -15q0 -4 -3 -7t-7 -3h-266q-9 0 -9 10l84 680q2 10 11 10h266q4 0 6.5 -3t1.5 -7l-2 -15
q-2 -10 -11 -10zM225 891q0 7 8 7h21q7 0 10 -7l39 -80q1 -1 3 -1t3 1l57 80q7 7 13 7h20q12 0 5 -12l-78 -102q-4 -6 -12 -6h-27q-6 0 -10 7l-51 101q-1 2 -1 5z" />
    <glyph glyph-name="ecaron" unicode="&#x11b;" horiz-adv-x="383" 
d="M333 240h-225q-4 0 -4 -4l-12 -96q-1 -6 -1 -18q0 -43 23.5 -69t63.5 -26q36 0 65.5 22.5t42.5 58.5q5 9 12 9l17 -1q5 0 7 -3t1 -8q-16 -52 -56 -82.5t-93 -30.5q-55 0 -88.5 33.5t-33.5 89.5q0 7 2 23l27 225q8 65 51.5 106t104.5 41q57 0 89.5 -34.5t32.5 -90.5
q0 -14 -1 -22l-14 -113q-2 -10 -11 -10zM157 443.5q-32 -31.5 -38 -81.5l-10 -85q-1 -1 0 -2.5t3 -1.5h193q4 0 4 4l11 85q1 6 1 18q0 43 -24 69t-64 26q-44 0 -76 -31.5zM167 690q0 7 8 7h21q7 0 10 -7l39 -80q1 -1 3 -1t3 1l57 80q7 7 13 7h20q12 0 5 -12l-78 -102
q-4 -6 -12 -6h-27q-6 0 -10 7l-51 101q-1 2 -1 5z" />
    <glyph glyph-name="Gcircumflex" unicode="&#x11c;" horiz-adv-x="430" 
d="M96.5 27.5q-36.5 35.5 -36.5 95.5q0 8 2 26l49 402q9 71 56 114t115 43q62 0 98.5 -35.5t36.5 -95.5q0 -8 -2 -26l-6 -46q0 -4 -3 -7t-8 -3h-18q-9 0 -9 10l6 47q1 7 1 20q0 46 -27 73.5t-73 27.5q-51 0 -86.5 -33.5t-42.5 -87.5l-49 -404q-1 -7 -1 -20q0 -46 26.5 -73.5
t72.5 -27.5q52 0 87.5 33.5t42.5 87.5l18 152q1 1 0 2.5t-3 1.5h-97q-9 0 -9 10l2 15q2 10 11 10h129q9 0 9 -10l-22 -180q-9 -71 -56.5 -114t-115.5 -43q-61 0 -97.5 35.5zM203 790l76 101q5 7 12 7h26q8 0 11 -6l53 -102q1 -2 1 -5q0 -7 -9 -7h-20q-6 0 -11 7l-37 80
q-1 2 -3 2t-3 -2l-59 -80q-5 -7 -12 -7h-20q-12 0 -5 12z" />
    <glyph glyph-name="gcircumflex" unicode="&#x11d;" horiz-adv-x="389" 
d="M345 502h19q9 0 9 -10l-60 -489q-26 -204 -200 -204q-8 0 -11 2.5t-2 7.5l2 16q0 10 13 10q73 0 111 43t48 127l6 45q0 3 -1.5 3t-3.5 -2q-19 -28 -47 -42.5t-61 -14.5q-53 0 -83.5 33.5t-30.5 89.5q0 15 1 23l27 223q8 65 49.5 106t99.5 41q33 0 57 -14.5t37 -42.5
q2 -2 3.5 -2t1.5 3l5 38q2 10 11 10zM254 60.5q31 31.5 37 81.5l27 220q1 7 1 19q0 43 -23 68.5t-61 25.5q-45 0 -77.5 -31.5t-38.5 -81.5l-27 -220q-1 -6 -1 -18q0 -43 24.5 -69t64.5 -26q43 0 74 31.5zM158 592l76 101q5 7 12 7h26q8 0 11 -6l53 -102q1 -2 1 -5
q0 -7 -9 -7h-20q-6 0 -11 7l-37 80q-1 2 -3 2t-3 -2l-59 -80q-5 -7 -12 -7h-20q-12 0 -5 12z" />
    <glyph glyph-name="Gbreve" unicode="&#x11e;" horiz-adv-x="430" 
d="M96.5 27.5q-36.5 35.5 -36.5 95.5q0 8 2 26l49 402q9 71 56 114t115 43q62 0 98.5 -35.5t36.5 -95.5q0 -8 -2 -26l-6 -46q0 -4 -3 -7t-8 -3h-18q-9 0 -9 10l6 47q1 7 1 20q0 46 -27 73.5t-73 27.5q-51 0 -86.5 -33.5t-42.5 -87.5l-49 -404q-1 -7 -1 -20q0 -46 26.5 -73.5
t72.5 -27.5q52 0 87.5 33.5t42.5 87.5l18 152q1 1 0 2.5t-3 1.5h-97q-9 0 -9 10l2 15q2 10 11 10h129q9 0 9 -10l-22 -180q-9 -71 -56.5 -114t-115.5 -43q-61 0 -97.5 35.5zM228 785.5q-24 25.5 -23 64.5q2 10 11 10h9q9 0 9 -12q0 -27 16.5 -44t41.5 -17q26 0 47 18t27 45
q3 10 12 10h9q4 0 6 -3t1 -7q-8 -39 -38 -64.5t-67 -25.5t-61 25.5z" />
    <glyph glyph-name="gbreve" unicode="&#x11f;" horiz-adv-x="389" 
d="M345 502h19q9 0 9 -10l-60 -489q-26 -204 -200 -204q-8 0 -11 2.5t-2 7.5l2 16q0 10 13 10q73 0 111 43t48 127l6 45q0 3 -1.5 3t-3.5 -2q-19 -28 -47 -42.5t-61 -14.5q-53 0 -83.5 33.5t-30.5 89.5q0 15 1 23l27 223q8 65 49.5 106t99.5 41q33 0 57 -14.5t37 -42.5
q2 -2 3.5 -2t1.5 3l5 38q2 10 11 10zM254 60.5q31 31.5 37 81.5l27 220q1 7 1 19q0 43 -23 68.5t-61 25.5q-45 0 -77.5 -31.5t-38.5 -81.5l-27 -220q-1 -6 -1 -18q0 -43 24.5 -69t64.5 -26q43 0 74 31.5zM184 587.5q-24 25.5 -23 64.5q2 10 11 10h9q9 0 9 -12
q0 -27 16.5 -44t41.5 -17q26 0 47 18t27 45q3 10 12 10h9q4 0 6 -3t1 -7q-8 -39 -38 -64.5t-67 -25.5t-61 25.5z" />
    <glyph glyph-name="Gdotaccent" unicode="&#x120;" horiz-adv-x="430" 
d="M96.5 27.5q-36.5 35.5 -36.5 95.5q0 8 2 26l49 402q9 71 56 114t115 43q62 0 98.5 -35.5t36.5 -95.5q0 -8 -2 -26l-6 -46q0 -4 -3 -7t-8 -3h-18q-9 0 -9 10l6 47q1 7 1 20q0 46 -27 73.5t-73 27.5q-51 0 -86.5 -33.5t-42.5 -87.5l-49 -404q-1 -7 -1 -20q0 -46 26.5 -73.5
t72.5 -27.5q52 0 87.5 33.5t42.5 87.5l18 152q1 1 0 2.5t-3 1.5h-97q-9 0 -9 10l2 15q2 10 11 10h129q9 0 9 -10l-22 -180q-9 -71 -56.5 -114t-115.5 -43q-61 0 -97.5 35.5zM266.5 819q-10.5 11 -10.5 28q0 22 14.5 37t34.5 15q17 0 28.5 -10.5t11.5 -27.5q0 -23 -14.5 -38
t-36.5 -15q-17 0 -27.5 11z" />
    <glyph glyph-name="gdotaccent" unicode="&#x121;" horiz-adv-x="389" 
d="M345 502h19q9 0 9 -10l-60 -489q-26 -204 -200 -204q-8 0 -11 2.5t-2 7.5l2 16q0 10 13 10q73 0 111 43t48 127l6 45q0 3 -1.5 3t-3.5 -2q-19 -28 -47 -42.5t-61 -14.5q-53 0 -83.5 33.5t-30.5 89.5q0 15 1 23l27 223q8 65 49.5 106t99.5 41q33 0 57 -14.5t37 -42.5
q2 -2 3.5 -2t1.5 3l5 38q2 10 11 10zM254 60.5q31 31.5 37 81.5l27 220q1 7 1 19q0 43 -23 68.5t-61 25.5q-45 0 -77.5 -31.5t-38.5 -81.5l-27 -220q-1 -6 -1 -18q0 -43 24.5 -69t64.5 -26q43 0 74 31.5zM222.5 621q-10.5 11 -10.5 28q0 22 14.5 37t34.5 15q17 0 28.5 -10.5
t11.5 -27.5q0 -23 -14.5 -38t-36.5 -15q-17 0 -27.5 11z" />
    <glyph glyph-name="uni0122" unicode="&#x122;" horiz-adv-x="430" 
d="M96.5 27.5q-36.5 35.5 -36.5 95.5q0 8 2 26l49 402q9 71 56 114t115 43q62 0 98.5 -35.5t36.5 -95.5q0 -8 -2 -26l-6 -46q0 -4 -3 -7t-8 -3h-18q-9 0 -9 10l6 47q1 7 1 20q0 46 -27 73.5t-73 27.5q-51 0 -86.5 -33.5t-42.5 -87.5l-49 -404q-1 -7 -1 -20q0 -46 26.5 -73.5
t72.5 -27.5q52 0 87.5 33.5t42.5 87.5l18 152q1 1 0 2.5t-3 1.5h-97q-9 0 -9 10l2 15q2 10 11 10h129q9 0 9 -10l-22 -180q-9 -71 -56.5 -114t-115.5 -43q-61 0 -97.5 35.5zM140.5 -201.5q-1.5 3.5 2.5 8.5l74 111q5 7 12 7h16q5 0 7 -3.5t-2 -8.5l-79 -111q-5 -7 -12 -7
h-11q-6 0 -7.5 3.5z" />
    <glyph glyph-name="uni0123" unicode="&#x123;" horiz-adv-x="389" 
d="M289.5 695.5q1.5 -3.5 -2.5 -8.5l-74 -111q-5 -7 -12 -7h-16q-5 0 -7 3.5t2 8.5l79 111q5 7 12 7h11q6 0 7.5 -3.5zM345 502h19q9 0 9 -10l-60 -489q-26 -204 -200 -204q-8 0 -11 2.5t-2 7.5l2 16q0 10 13 10q73 0 111 43t48 127l6 45q0 3 -1.5 3t-3.5 -2
q-19 -28 -47 -42.5t-61 -14.5q-53 0 -83.5 33.5t-30.5 89.5q0 15 1 23l27 223q8 65 49.5 106t99.5 41q33 0 57 -14.5t37 -42.5q2 -2 3.5 -2t1.5 3l5 38q2 10 11 10zM254 60.5q31 31.5 37 81.5l27 220q1 7 1 19q0 43 -23 68.5t-61 25.5q-45 0 -77.5 -31.5t-38.5 -81.5
l-27 -220q-1 -6 -1 -18q0 -43 24.5 -69t64.5 -26q43 0 74 31.5z" />
    <glyph glyph-name="Hcircumflex" unicode="&#x124;" horiz-adv-x="454" 
d="M411 700h18q5 0 7.5 -3t1.5 -7l-84 -680q0 -4 -3 -7t-8 -3h-18q-9 0 -9 10l40 319q0 4 -4 4h-207q-3 0 -5 -4l-39 -319q-2 -10 -11 -10h-18q-9 0 -9 10l84 680q2 10 11 10h18q9 0 9 -10l-39 -318q-1 -1 0 -2.5t3 -1.5h208q1 0 2.5 1t1.5 3l39 318q2 10 11 10zM213 791
l76 101q5 7 12 7h26q8 0 11 -6l53 -102q1 -2 1 -5q0 -7 -9 -7h-20q-6 0 -11 7l-37 80q-1 2 -3 2t-3 -2l-59 -80q-5 -7 -12 -7h-20q-12 0 -5 12z" />
    <glyph glyph-name="hcircumflex" unicode="&#x125;" horiz-adv-x="401" 
d="M337.5 477.5q27.5 -31.5 27.5 -88.5q0 -9 -2 -33l-43 -346q0 -4 -3 -7t-8 -3h-18q-10 0 -8 10l42 342q2 18 2 26q0 46 -21.5 71t-61.5 25q-45 0 -76 -34.5t-38 -94.5l-41 -335q-1 -4 -4 -7t-7 -3h-19q-10 0 -8 10l83 680q2 10 11 10h19q4 0 6.5 -3t1.5 -7l-30 -242
q0 -3 1.5 -3t3.5 2q20 31 49 46.5t63 15.5q51 0 78.5 -31.5zM188 762l76 101q5 7 12 7h26q8 0 11 -6l53 -102q1 -2 1 -5q0 -7 -9 -7h-20q-6 0 -11 7l-37 80q-1 2 -3 2t-3 -2l-59 -80q-5 -7 -12 -7h-20q-12 0 -5 12z" />
    <glyph glyph-name="Hbar" unicode="&#x126;" horiz-adv-x="454" 
d="M465 530l-2 -12q0 -4 -3 -7t-8 -3h-33q-4 0 -4 -4l-61 -494q0 -4 -3 -7t-8 -3h-18q-9 0 -9 10l40 319q0 4 -4 4h-207q-3 0 -5 -4l-39 -319q-2 -10 -11 -10h-18q-9 0 -9 10l61 494q0 4 -3 4h-33q-5 0 -7.5 3t-1.5 7l2 12q0 4 3 7t8 3h33q1 0 2.5 1t1.5 3l18 146
q2 10 11 10h18q9 0 9 -10l-18 -146q-1 -1 0 -2.5t3 -1.5h208q4 0 4 4l18 146q2 10 11 10h18q5 0 7.5 -3t1.5 -7l-18 -146q0 -4 3 -4h33q9 0 9 -10zM359.5 369q1.5 1 1.5 3l16 132q0 4 -3 4h-208q-4 0 -4 -4l-16 -132q-1 -1 0 -2.5t3 -1.5h208q1 0 2.5 1z" />
    <glyph glyph-name="hbar" unicode="&#x127;" horiz-adv-x="401" 
d="M337.5 477.5q27.5 -31.5 27.5 -88.5q0 -9 -2 -33l-43 -346q0 -4 -3 -7t-8 -3h-18q-10 0 -8 10l42 342q2 18 2 26q0 46 -21.5 71t-61.5 25q-45 0 -76 -34.5t-38 -94.5l-41 -335q-1 -4 -4 -7t-7 -3h-19q-10 0 -8 10l66 542q0 4 -3 4h-42q-10 0 -8 10l1 10q2 10 11 10h42
q1 0 2.5 1t1.5 3l12 100q2 10 11 10h19q4 0 6.5 -3t1.5 -7l-12 -100q-1 -1 0 -2.5t3 -1.5h144q10 0 8 -10l-1 -10q-2 -10 -11 -10h-144q-1 0 -2.5 -1t-1.5 -3l-13 -104q0 -3 1.5 -3t3.5 2q20 31 49 46.5t63 15.5q51 0 78.5 -31.5z" />
    <glyph glyph-name="Itilde" unicode="&#x128;" horiz-adv-x="201" 
d="M63 10l84 680q2 10 11 10h18q9 0 9 -10l-84 -680q-2 -10 -11 -10h-18q-9 0 -9 10zM215 823q-11 6 -24 17l-12 9t-15 9t-15 3q-15 0 -26 -5.5t-24 -21.5q-8 -9 -14 -3l-5 4q-8 5 -2 14q32 44 74 44q14 0 25 -6t25 -17q3 -2 11.5 -9t16 -10.5t15.5 -3.5q14 0 25 6.5
t23 24.5q3 4 7 5t7 -1l6 -3q3 -1 3 -7q0 -8 -5 -14q-16 -21 -35.5 -31t-36.5 -10q-13 0 -24 6z" />
    <glyph glyph-name="itilde" unicode="&#x129;" horiz-adv-x="154" 
d="M41.5 3q-2.5 3 -1.5 7l59 482q2 10 11 10h19q4 0 6.5 -3t1.5 -7l-59 -482q-2 -10 -11 -10h-19q-4 0 -6.5 3zM167 625q-11 6 -24 17l-12 9t-15 9t-15 3q-15 0 -26 -5.5t-24 -21.5q-8 -9 -14 -3l-5 4q-8 5 -2 14q32 44 74 44q14 0 25 -6t25 -17q3 -2 11.5 -9t16 -10.5
t15.5 -3.5q14 0 25 6.5t23 24.5q3 4 7 5t7 -1l6 -3q3 -1 3 -7q0 -8 -5 -14q-16 -21 -35.5 -31t-36.5 -10q-13 0 -24 6z" />
    <glyph glyph-name="Imacron" unicode="&#x12a;" horiz-adv-x="201" 
d="M63 10l84 680q2 10 11 10h18q9 0 9 -10l-84 -680q-2 -10 -11 -10h-18q-9 0 -9 10zM86 810l2 11q0 4 3 7t8 3h169q5 0 7.5 -3t1.5 -7l-2 -11q0 -4 -3 -7t-7 -3h-170q-9 0 -9 10z" />
    <glyph glyph-name="imacron" unicode="&#x12b;" horiz-adv-x="154" 
d="M41.5 3q-2.5 3 -1.5 7l59 482q2 10 11 10h19q4 0 6.5 -3t1.5 -7l-59 -482q-2 -10 -11 -10h-19q-4 0 -6.5 3zM38 612l2 11q0 4 3 7t8 3h169q5 0 7.5 -3t1.5 -7l-2 -11q0 -4 -3 -7t-7 -3h-170q-9 0 -9 10z" />
    <glyph glyph-name="ibreve" unicode="&#x12d;" horiz-adv-x="154" 
d="M41.5 3q-2.5 3 -1.5 7l59 482q2 10 11 10h19q4 0 6.5 -3t1.5 -7l-59 -482q-2 -10 -11 -10h-19q-4 0 -6.5 3zM69 611.5q-24 25.5 -23 64.5q2 10 11 10h8q10 0 10 -12q0 -26 16.5 -43.5t41.5 -17.5q26 0 47 18t27 45q3 10 12 10h8q5 0 7 -3t1 -7q-8 -39 -38 -64.5
t-67 -25.5t-61 25.5z" />
    <glyph glyph-name="Iogonek" unicode="&#x12e;" horiz-adv-x="167" 
d="M46 10l84 680q2 10 11 10h18q9 0 9 -10l-84 -680q-2 -10 -11 -10h-18q-9 0 -9 10zM74 -180q-12 -3 -24 -3q-26 0 -44 14.5t-18 47.5q0 66 57 114q4 3 4 4q4 3 11 3h8q5 0 6.5 -4t-3.5 -8q-51 -51 -51 -100q0 -43 37 -43q9 0 14 1l4 1q7 0 7 -8l1 -7q0 -11 -9 -12z" />
    <glyph glyph-name="iogonek" unicode="&#x12f;" horiz-adv-x="217" 
d="M83.5 3q-2.5 3 -1.5 7l59 482q2 10 11 10h19q4 0 6.5 -3t1.5 -7l-59 -482q-2 -10 -11 -10h-19q-4 0 -6.5 3zM146.5 621q-10.5 11 -10.5 28q0 22 14.5 37t34.5 15q17 0 28.5 -10.5t11.5 -27.5q0 -23 -14.5 -38t-36.5 -15q-17 0 -27.5 11zM109 -180q-12 -3 -24 -3
q-26 0 -44 14.5t-18 47.5q0 66 57 114q4 3 4 4q4 3 11 3h8q5 0 6.5 -4t-3.5 -8q-51 -51 -51 -100q0 -43 37 -43q9 0 14 1l4 1q7 0 7 -8l1 -7q0 -11 -9 -12z" />
    <glyph glyph-name="Idotaccent" unicode="&#x130;" horiz-adv-x="201" 
d="M63 10l84 680q2 10 11 10h18q9 0 9 -10l-84 -680q-2 -10 -11 -10h-18q-9 0 -9 10zM152.5 819q-10.5 11 -10.5 28q0 22 14.5 37t34.5 15q17 0 28.5 -10.5t11.5 -27.5q0 -23 -14.5 -38t-36.5 -15q-17 0 -27.5 11z" />
    <glyph glyph-name="dotlessi" unicode="&#x131;" horiz-adv-x="154" 
d="M41.5 3q-2.5 3 -1.5 7l59 482q2 10 11 10h19q4 0 6.5 -3t1.5 -7l-59 -482q-2 -10 -11 -10h-19q-4 0 -6.5 3z" />
    <glyph glyph-name="ij" unicode="&#x133;" horiz-adv-x="386" 
d="M125.5 621q-10.5 11 -10.5 28q0 22 14.5 37t35.5 15q18 0 28.5 -11t10.5 -29q0 -22 -15 -36.5t-36 -14.5q-17 0 -27.5 11zM61 10l60 482q0 4 3 7t7 3h19q10 0 8 -10l-59 -482q-2 -10 -11 -10h-18q-9 0 -9 10zM315.5 621q-11.5 11 -11.5 27q0 23 15 38t36 15
q17 0 27.5 -11t10.5 -29q0 -22 -14.5 -36.5t-34.5 -14.5q-17 0 -28.5 11zM140 -200l1 15q2 10 11 10q38 3 61 32.5t29 79.5l68 555q2 10 11 10h18q9 0 9 -10l-68 -555q-18 -143 -132 -147q-10 0 -8 10z" />
    <glyph glyph-name="Jcircumflex" unicode="&#x134;" horiz-adv-x="401" 
d="M57.5 28q-34.5 36 -34.5 98q0 9 2 27l11 89q0 4 3 7t7 3h19q10 0 8 -10l-11 -91q-1 -7 -1 -21q0 -47 25.5 -75t69.5 -28q49 0 83 34t41 90l67 539q0 4 3 7t8 3h18q10 0 8 -10l-65 -537q-9 -73 -55 -117t-113 -44q-59 0 -93.5 36zM288 791l76 101q5 7 12 7h26q8 0 11 -6
l53 -102q1 -2 1 -5q0 -7 -9 -7h-20q-6 0 -11 7l-37 80q-1 2 -3 2t-3 -2l-59 -80q-5 -7 -12 -7h-20q-12 0 -5 12z" />
    <glyph glyph-name="jcircumflex" unicode="&#x135;" horiz-adv-x="183" 
d="M-60 -200l1 15q2 10 11 10q38 3 61 32.5t29 79.5l68 555q2 10 11 10h18q9 0 9 -10l-68 -555q-18 -143 -132 -147q-10 0 -8 10zM52 592l76 101q5 7 12 7h26q8 0 11 -6l53 -102q1 -2 1 -5q0 -7 -9 -7h-20q-6 0 -11 7l-37 80q-1 2 -3 2t-3 -2l-59 -80q-5 -7 -12 -7h-20
q-12 0 -5 12z" />
    <glyph glyph-name="uni0136" unicode="&#x136;" horiz-adv-x="421" 
d="M63 10l84 680q2 10 11 10h18q9 0 9 -10l-44 -357q-1 -3 1 -3.5t4 2.5l259 361q7 7 13 7h22q6 0 7.5 -3.5t-2.5 -8.5l-186 -263q-3 -3 -2 -6l123 -407v-3q0 -4 -2.5 -6.5t-6.5 -2.5h-24q-8 0 -9 8l-111 375q0 4 -4 0l-88 -115q-3 -3 -3 -5l-31 -253q-2 -10 -11 -10h-18
q-9 0 -9 10zM161.5 -193.5q-1.5 3.5 2.5 8.5l74 111q5 7 12 7h16q5 0 7 -3.5t-2 -8.5l-79 -111q-5 -7 -12 -7h-11q-6 0 -7.5 3.5z" />
    <glyph glyph-name="uni0137" unicode="&#x137;" horiz-adv-x="373" 
d="M51 10l83 680q2 10 11 10h19q4 0 6.5 -3t1.5 -7l-53 -434q-1 -2 1 -2.5t3 1.5l202 241q4 6 13 6h19q6 0 7.5 -3.5t-2.5 -8.5l-108 -130q0 -1 -1.5 -2.5t-0.5 -2.5l70 -344l1 -3q0 -8 -10 -8h-19q-8 0 -11 8l-58 313q-1 6 -6 1l-106 -127q-2 -2 -2 -5l-22 -180
q-1 -4 -4 -7t-7 -3h-19q-10 0 -8 10zM128.5 -193.5q-1.5 3.5 2.5 8.5l74 111q5 7 12 7h16q5 0 7 -3.5t-2 -8.5l-79 -111q-5 -7 -12 -7h-11q-6 0 -7.5 3.5z" />
    <glyph glyph-name="Lacute" unicode="&#x139;" horiz-adv-x="371" 
d="M63 10l84 680q2 10 11 10h18q9 0 9 -10l-80 -651q-1 -1 0 -2.5t3 -1.5h230q10 0 8 -10l-1 -15q-2 -10 -11 -10h-262q-9 0 -9 10zM142.5 771.5q-1.5 3.5 2.5 8.5l74 111q5 7 12 7h16q5 0 7 -3.5t-2 -8.5l-79 -111q-5 -7 -12 -7h-11q-6 0 -7.5 3.5z" />
    <glyph glyph-name="lacute" unicode="&#x13a;" horiz-adv-x="164" 
d="M46.5 3q-2.5 3 -1.5 7l83 680q2 10 11 10h19q10 0 8 -10l-83 -680q-2 -10 -11 -10h-19q-4 0 -6.5 3zM125.5 771.5q-1.5 3.5 2.5 8.5l74 111q5 7 12 7h16q5 0 7 -3.5t-2 -8.5l-79 -111q-5 -7 -12 -7h-11q-6 0 -7.5 3.5z" />
    <glyph glyph-name="uni013B" unicode="&#x13b;" horiz-adv-x="371" 
d="M63 10l84 680q2 10 11 10h18q9 0 9 -10l-80 -651q-1 -1 0 -2.5t3 -1.5h230q10 0 8 -10l-1 -15q-2 -10 -11 -10h-262q-9 0 -9 10zM118.5 -193.5q-1.5 3.5 2.5 8.5l74 111q5 7 12 7h16q5 0 7 -3.5t-2 -8.5l-79 -111q-5 -7 -12 -7h-11q-6 0 -7.5 3.5z" />
    <glyph glyph-name="uni013C" unicode="&#x13c;" horiz-adv-x="164" 
d="M46.5 3q-2.5 3 -1.5 7l83 680q2 10 11 10h19q10 0 8 -10l-83 -680q-2 -10 -11 -10h-19q-4 0 -6.5 3zM-47.5 -193.5q-1.5 3.5 2.5 8.5l74 111q5 7 12 7h16q5 0 7 -3.5t-2 -8.5l-79 -111q-5 -7 -12 -7h-11q-6 0 -7.5 3.5z" />
    <glyph glyph-name="Lcaron" unicode="&#x13d;" horiz-adv-x="371" 
d="M63 10l84 680q2 10 11 10h18q9 0 9 -10l-80 -651q-1 -1 0 -2.5t3 -1.5h230q10 0 8 -10l-1 -15q-2 -10 -11 -10h-262q-9 0 -9 10zM230.5 573.5q-1.5 3.5 2.5 8.5l74 111q5 7 12 7h16q5 0 7 -3.5t-2 -8.5l-79 -111q-5 -7 -12 -7h-11q-6 0 -7.5 3.5z" />
    <glyph glyph-name="lcaron" unicode="&#x13e;" horiz-adv-x="287" 
d="M46.5 3q-2.5 3 -1.5 7l83 680q2 10 11 10h19q10 0 8 -10l-83 -680q-2 -10 -11 -10h-19q-4 0 -6.5 3zM198.5 573.5q-1.5 3.5 2.5 8.5l74 111q5 7 12 7h16q5 0 7 -3.5t-2 -8.5l-79 -111q-5 -7 -12 -7h-11q-6 0 -7.5 3.5z" />
    <glyph glyph-name="ldot" unicode="&#x140;" horiz-adv-x="214" 
d="M71.5 3q-2.5 3 -1.5 7l83 680q2 10 11 10h19q10 0 8 -10l-83 -680q-2 -10 -11 -10h-19q-4 0 -6.5 3zM159.5 819q-10.5 11 -10.5 28q0 22 14.5 37t34.5 15q17 0 28.5 -10.5t11.5 -27.5q0 -23 -14.5 -38t-36.5 -15q-17 0 -27.5 11z" />
    <glyph glyph-name="Lslash" unicode="&#x141;" horiz-adv-x="380" 
d="M118 35h230q4 0 6.5 -3t1.5 -7l-2 -15q0 -4 -3 -7t-8 -3h-262q-4 0 -6.5 3t-1.5 7l32 258q0 2 -2 3t-3 0l-82 -53q-2 -2 -6 -2t-7 4l-7 11q-1 2 -1 5q0 4 5 9l105 68q4 4 4 5l46 372q0 4 3 7t7 3h19q10 0 8 -10l-42 -343q0 -2 2 -3t3 0l187 122q5 3 7 3q4 0 7 -5l6 -12
q2 -4 2 -6q0 -3 -6 -8l-210 -136q-4 -4 -4 -5l-32 -258q0 -4 4 -4z" />
    <glyph glyph-name="lslash" unicode="&#x142;" horiz-adv-x="241" 
d="M247 385q0 -6 -7 -10l-80 -47q-4 -2 -4 -5l-38 -313q-2 -10 -11 -10h-19q-10 0 -8 10l35 287q0 5 -4 3l-53 -31q-2 -2 -7 -2t-6 5l-6 12q-1 2 -1 5q0 5 6 9l74 43q3 2 3 5l42 344q2 10 11 10h19q4 0 6.5 -3t1.5 -7l-39 -317q0 -2 1.5 -3t3.5 0l59 35q3 2 7 2q5 0 6 -5
l7 -13q1 -1 1 -4z" />
    <glyph glyph-name="Nacute" unicode="&#x143;" horiz-adv-x="469" 
d="M419 697q3 3 7 3h19q10 0 8 -10l-83 -680q-2 -10 -11 -10h-23q-9 0 -10 8l-148 592q0 3 -2 2.5t-3 -3.5l-72 -589q-2 -10 -11 -10h-18q-9 0 -9 10l84 680q2 10 11 10h22q9 0 10 -8l149 -589q0 -3 2 -2.5t3 3.5l71 586q1 4 4 7zM279.5 780.5q-1.5 3.5 2.5 8.5l74 111
q5 7 12 7h16q5 0 7 -3.5t-2 -8.5l-79 -111q-5 -7 -12 -7h-11q-6 0 -7.5 3.5z" />
    <glyph glyph-name="nacute" unicode="&#x144;" horiz-adv-x="401" 
d="M337.5 477.5q27.5 -31.5 27.5 -88.5q0 -9 -2 -33l-43 -346q0 -4 -3 -7t-8 -3h-18q-10 0 -8 10l42 342q2 18 2 26q0 46 -21.5 71t-61.5 25q-45 0 -76 -34.5t-38 -94.5l-41 -335q-1 -4 -4 -7t-7 -3h-19q-10 0 -8 10l59 482q2 10 11 10h18q9 0 9 -10l-6 -44q0 -3 1.5 -3
t3.5 2q20 31 49 46.5t63 15.5q51 0 78.5 -31.5zM224.5 573.5q-1.5 3.5 2.5 8.5l74 111q5 7 12 7h16q5 0 7 -3.5t-2 -8.5l-79 -111q-5 -7 -12 -7h-11q-6 0 -7.5 3.5z" />
    <glyph glyph-name="uni0145" unicode="&#x145;" horiz-adv-x="469" 
d="M419 697q3 3 7 3h19q10 0 8 -10l-83 -680q-2 -10 -11 -10h-23q-9 0 -10 8l-148 592q0 3 -2 2.5t-3 -3.5l-72 -589q-2 -10 -11 -10h-18q-9 0 -9 10l84 680q2 10 11 10h22q9 0 10 -8l149 -589q0 -3 2 -2.5t3 3.5l71 586q1 4 4 7zM160.5 -193.5q-1.5 3.5 2.5 8.5l74 111
q5 7 12 7h16q5 0 7 -3.5t-2 -8.5l-79 -111q-5 -7 -12 -7h-11q-6 0 -7.5 3.5z" />
    <glyph glyph-name="uni0146" unicode="&#x146;" horiz-adv-x="401" 
d="M337.5 477.5q27.5 -31.5 27.5 -88.5q0 -9 -2 -33l-43 -346q0 -4 -3 -7t-8 -3h-18q-10 0 -8 10l42 342q2 18 2 26q0 46 -21.5 71t-61.5 25q-45 0 -76 -34.5t-38 -94.5l-41 -335q-1 -4 -4 -7t-7 -3h-19q-10 0 -8 10l59 482q2 10 11 10h18q9 0 9 -10l-6 -44q0 -3 1.5 -3
t3.5 2q20 31 49 46.5t63 15.5q51 0 78.5 -31.5zM135.5 -193.5q-1.5 3.5 2.5 8.5l74 111q5 7 12 7h16q5 0 7 -3.5t-2 -8.5l-79 -111q-5 -7 -12 -7h-11q-6 0 -7.5 3.5z" />
    <glyph glyph-name="Ncaron" unicode="&#x147;" horiz-adv-x="469" 
d="M419 697q3 3 7 3h19q10 0 8 -10l-83 -680q-2 -10 -11 -10h-23q-9 0 -10 8l-148 592q0 3 -2 2.5t-3 -3.5l-72 -589q-2 -10 -11 -10h-18q-9 0 -9 10l84 680q2 10 11 10h22q9 0 10 -8l149 -589q0 -3 2 -2.5t3 3.5l71 586q1 4 4 7zM237 900q0 7 8 7h21q7 0 10 -7l39 -80
q1 -1 3 -1t3 1l57 80q7 7 13 7h20q12 0 5 -12l-78 -102q-4 -6 -12 -6h-27q-6 0 -10 7l-51 101q-1 2 -1 5z" />
    <glyph glyph-name="ncaron" unicode="&#x148;" horiz-adv-x="401" 
d="M337.5 477.5q27.5 -31.5 27.5 -88.5q0 -9 -2 -33l-43 -346q0 -4 -3 -7t-8 -3h-18q-10 0 -8 10l42 342q2 18 2 26q0 46 -21.5 71t-61.5 25q-45 0 -76 -34.5t-38 -94.5l-41 -335q-1 -4 -4 -7t-7 -3h-19q-10 0 -8 10l59 482q2 10 11 10h18q9 0 9 -10l-6 -44q0 -3 1.5 -3
t3.5 2q20 31 49 46.5t63 15.5q51 0 78.5 -31.5zM182 693q0 7 8 7h21q7 0 10 -7l39 -80q1 -1 3 -1t3 1l57 80q7 7 13 7h20q12 0 5 -12l-78 -102q-4 -6 -12 -6h-27q-6 0 -10 7l-51 101q-1 2 -1 5z" />
    <glyph glyph-name="Eng" unicode="&#x14a;" horiz-adv-x="469" 
d="M419 697q3 3 7 3h19q10 0 8 -10l-84 -690q-7 -52 -15.5 -79t-31 -44t-67.5 -18q-10 0 -8 10l2 15q0 4 3 7t8 3q28 1 41.5 13.5t17.5 31t9 58.5l1 3h-1l-150 600q0 3 -2 2.5t-3 -3.5l-72 -589q-2 -10 -11 -10h-18q-9 0 -9 10l84 680q2 10 11 10h22q9 0 10 -8l147 -584
q1 -3 3 -2.5t2 3.5l52 421l2 10h1l18 150q1 4 4 7z" />
    <glyph glyph-name="eng" unicode="&#x14b;" horiz-adv-x="401" 
d="M337.5 477.5q27.5 -31.5 27.5 -88.5q0 -9 -2 -33l-46 -375q-8 -64 -35.5 -99.5t-85.5 -37.5q-10 0 -8 10l2 15q0 10 10 10q67 5 79 102l46 371q2 18 2 26q0 46 -21.5 71t-61.5 25q-45 0 -76 -34.5t-38 -94.5l-41 -335q-1 -4 -4 -7t-7 -3h-19q-10 0 -8 10l59 482
q2 10 11 10h18q9 0 9 -10l-6 -44q0 -3 1.5 -3t3.5 2q20 31 49 46.5t63 15.5q51 0 78.5 -31.5z" />
    <glyph glyph-name="Omacron" unicode="&#x14c;" horiz-adv-x="435" 
d="M97.5 29.5q-36.5 37.5 -36.5 100.5q0 8 2 26l47 387q9 73 57.5 119t116.5 46q63 0 100 -38t37 -101q0 -8 -2 -26l-48 -387q-9 -73 -57.5 -118.5t-117.5 -45.5q-62 0 -98.5 37.5zM289 62.5q37 35.5 44 91.5l48 391q1 7 1 22q0 48 -28 77t-74 29q-51 0 -88 -35.5t-44 -92.5
l-48 -391q-1 -7 -1 -20q0 -48 27.5 -77.5t73.5 -29.5q52 0 89 35.5zM201 809l2 11q0 4 3 7t8 3h169q5 0 7.5 -3t1.5 -7l-2 -11q0 -4 -3 -7t-7 -3h-170q-9 0 -9 10z" />
    <glyph glyph-name="omacron" unicode="&#x14d;" horiz-adv-x="390" 
d="M85.5 26q-33.5 34 -33.5 90q0 7 2 23l27 224q8 65 51.5 106t104.5 41q57 0 89.5 -34.5t32.5 -90.5q0 -14 -1 -22l-28 -224q-8 -65 -51 -106t-105 -41q-55 0 -88.5 34zM255 58.5q32 31.5 38 81.5l27 222q1 6 1 18q0 42 -24 68.5t-64 26.5q-44 0 -76 -32t-38 -81l-27 -222
q-1 -6 -1 -18q0 -42 24 -68.5t63 -26.5q45 0 77 31.5zM155 612l2 11q0 4 3 7t8 3h169q5 0 7.5 -3t1.5 -7l-2 -11q0 -4 -3 -7t-7 -3h-170q-9 0 -9 10z" />
    <glyph glyph-name="obreve" unicode="&#x14f;" horiz-adv-x="390" 
d="M85.5 26q-33.5 34 -33.5 90q0 7 2 23l27 224q8 65 51.5 106t104.5 41q57 0 89.5 -34.5t32.5 -90.5q0 -14 -1 -22l-28 -224q-8 -65 -51 -106t-105 -41q-55 0 -88.5 34zM255 58.5q32 31.5 38 81.5l27 222q1 6 1 18q0 42 -24 68.5t-64 26.5q-44 0 -76 -32t-38 -81l-27 -222
q-1 -6 -1 -18q0 -42 24 -68.5t63 -26.5q45 0 77 31.5zM186 611.5q-24 25.5 -23 64.5q2 10 11 10h8q10 0 10 -12q0 -26 16.5 -43.5t41.5 -17.5q26 0 47 18t27 45q3 10 12 10h8q5 0 7 -3t1 -7q-8 -39 -38 -64.5t-67 -25.5t-61 25.5z" />
    <glyph glyph-name="Ohungarumlaut" unicode="&#x150;" horiz-adv-x="435" 
d="M97.5 29.5q-36.5 37.5 -36.5 100.5q0 8 2 26l47 387q9 73 57.5 119t116.5 46q63 0 100 -38t37 -101q0 -8 -2 -26l-48 -387q-9 -73 -57.5 -118.5t-117.5 -45.5q-62 0 -98.5 37.5zM289 62.5q37 35.5 44 91.5l48 391q1 7 1 22q0 48 -28 77t-74 29q-51 0 -88 -35.5t-44 -92.5
l-48 -391q-1 -7 -1 -20q0 -48 27.5 -77.5t73.5 -29.5q52 0 89 35.5zM224 770.5q-2 3.5 2 8.5l72 111q3 7 12 7h16q6 0 7.5 -3.5t-2.5 -8.5l-75 -111q-5 -7 -12 -7h-13q-5 0 -7 3.5zM330.5 770.5q-1.5 3.5 2.5 8.5l73 111q3 7 12 7h15q5 0 7 -3.5t-2 -8.5l-75 -111
q-5 -7 -12 -7h-13q-6 0 -7.5 3.5z" />
    <glyph glyph-name="ohungarumlaut" unicode="&#x151;" horiz-adv-x="390" 
d="M85.5 26q-33.5 34 -33.5 90q0 7 2 23l27 224q8 65 51.5 106t104.5 41q57 0 89.5 -34.5t32.5 -90.5q0 -14 -1 -22l-28 -224q-8 -65 -51 -106t-105 -41q-55 0 -88.5 34zM255 58.5q32 31.5 38 81.5l27 222q1 6 1 18q0 42 -24 68.5t-64 26.5q-44 0 -76 -32t-38 -81l-27 -222
q-1 -6 -1 -18q0 -42 24 -68.5t63 -26.5q45 0 77 31.5zM178 573.5q-2 3.5 2 8.5l72 111q3 7 12 7h16q6 0 7.5 -3.5t-2.5 -8.5l-75 -111q-5 -7 -12 -7h-13q-5 0 -7 3.5zM284.5 573.5q-1.5 3.5 2.5 8.5l73 111q3 7 12 7h15q5 0 7 -3.5t-2 -8.5l-75 -111q-5 -7 -12 -7h-13
q-6 0 -7.5 3.5z" />
    <glyph glyph-name="OE" unicode="&#x152;" horiz-adv-x="664" 
d="M679 668q-3 -3 -8 -3h-233q-3 0 -5 -4l-35 -289q0 -4 3 -4h152q5 0 7.5 -3t1.5 -7l-2 -15q-2 -10 -11 -10h-152q-4 0 -4 -4l-36 -290q0 -4 3 -4h234q9 0 9 -10l-2 -15q-2 -10 -11 -10h-266q-10 0 -8 10l4 39q1 2 -0.5 3t-3.5 -1q-23 -28 -55 -43.5t-70 -15.5
q-59 0 -94.5 37.5t-35.5 99.5q0 9 2 27l47 387q9 73 56.5 119t112.5 46q38 0 66 -15.5t44 -44.5q1 -2 3 -1t2 3l5 40q2 10 11 10h266q10 0 8 -10l-2 -15q0 -4 -3 -7zM289 62.5q37 35.5 44 91.5l48 391q1 7 1 22q0 48 -28 77t-74 29q-51 0 -88 -35.5t-44 -92.5l-48 -391
q-1 -7 -1 -20q0 -48 27.5 -77.5t73.5 -29.5q52 0 89 35.5z" />
    <glyph glyph-name="oe" unicode="&#x153;" horiz-adv-x="624" 
d="M574 243h-224q-4 0 -4 -4l-13 -99q-1 -6 -1 -18q0 -43 23.5 -69t62.5 -26q38 0 66.5 22t41.5 59q5 9 12 9l18 -1q4 0 6.5 -3t0.5 -8q-15 -52 -55 -82.5t-94 -30.5q-40 0 -67.5 20t-39.5 55q-3 5 -6 0q-22 -35 -54 -55t-73 -20q-55 0 -88.5 34t-33.5 90q0 7 2 23l27 224
q8 65 51.5 106t104.5 41q41 0 68.5 -20t40.5 -55q3 -4 6 0q21 35 53.5 55t72.5 20q56 0 89 -34t33 -89q0 -8 -2 -24l-13 -110q-2 -10 -11 -10zM321 380q0 42 -24 68.5t-64 26.5q-44 0 -76 -32t-38 -81l-27 -222q-1 -6 -1 -18q0 -42 24 -68.5t63 -26.5q45 0 77 31.5t38 81.5
l27 222q1 6 1 18zM398.5 443.5q-31.5 -31.5 -37.5 -81.5l-11 -86q0 -2 1 -3t2 -1h193q1 0 2.5 1t1.5 3l10 86q1 7 1 20q0 42 -23.5 67.5t-64.5 25.5q-43 0 -74.5 -31.5z" />
    <glyph glyph-name="Racute" unicode="&#x154;" horiz-adv-x="418" 
d="M327 8l-73 324q0 3 -3 3h-106q-4 0 -4 -4l-40 -321q-2 -10 -11 -10h-18q-9 0 -9 10l84 680q2 10 11 10h143q58 0 92 -40t34 -108q0 -24 -2 -36q-8 -69 -43.5 -116t-87.5 -60q-4 -2 -4 -5l74 -324v-2q0 -9 -9 -9h-17q-10 0 -11 8zM182.5 664q-1.5 -1 -1.5 -3l-35 -289
q-1 -1 0 -2.5t3 -1.5h108q51 0 86.5 40.5t43.5 106.5q2 22 2 30q0 55 -25.5 87.5t-70.5 32.5h-108q-1 0 -2.5 -1zM258.5 771.5q-1.5 3.5 2.5 8.5l74 111q5 7 12 7h16q5 0 7 -3.5t-2 -8.5l-79 -111q-5 -7 -12 -7h-11q-6 0 -7.5 3.5z" />
    <glyph glyph-name="racute" unicode="&#x155;" horiz-adv-x="269" 
d="M292 496q7 -5 2 -13l-8 -20q-5 -9 -13 -5q-14 6 -35 5q-41 0 -72 -41t-39 -102l-38 -310q-1 -4 -4 -7t-7 -3h-19q-10 0 -8 10l59 482q2 10 11 10h18q9 0 9 -10l-8 -65q-1 -3 1 -3t3 3q19 37 46.5 58t60.5 21q24 0 41 -10zM183.5 573.5q-1.5 3.5 2.5 8.5l74 111q5 7 12 7
h16q5 0 7 -3.5t-2 -8.5l-79 -111q-5 -7 -12 -7h-11q-6 0 -7.5 3.5z" />
    <glyph glyph-name="uni0156" unicode="&#x156;" horiz-adv-x="418" 
d="M327 8l-73 324q0 3 -3 3h-106q-4 0 -4 -4l-40 -321q-2 -10 -11 -10h-18q-9 0 -9 10l84 680q2 10 11 10h143q58 0 92 -40t34 -108q0 -24 -2 -36q-8 -69 -43.5 -116t-87.5 -60q-4 -2 -4 -5l74 -324v-2q0 -9 -9 -9h-17q-10 0 -11 8zM182.5 664q-1.5 -1 -1.5 -3l-35 -289
q-1 -1 0 -2.5t3 -1.5h108q51 0 86.5 40.5t43.5 106.5q2 22 2 30q0 55 -25.5 87.5t-70.5 32.5h-108q-1 0 -2.5 -1zM152.5 -193.5q-1.5 3.5 2.5 8.5l74 111q5 7 12 7h16q5 0 7 -3.5t-2 -8.5l-79 -111q-5 -7 -12 -7h-11q-6 0 -7.5 3.5z" />
    <glyph glyph-name="uni0157" unicode="&#x157;" horiz-adv-x="269" 
d="M292 496q7 -5 2 -13l-8 -20q-5 -9 -13 -5q-14 6 -35 5q-41 0 -72 -41t-39 -102l-38 -310q-1 -4 -4 -7t-7 -3h-19q-10 0 -8 10l59 482q2 10 11 10h18q9 0 9 -10l-8 -65q-1 -3 1 -3t3 3q19 37 46.5 58t60.5 21q24 0 41 -10zM-40.5 -193.5q-1.5 3.5 2.5 8.5l74 111q5 7 12 7
h16q5 0 7 -3.5t-2 -8.5l-79 -111q-5 -7 -12 -7h-11q-6 0 -7.5 3.5z" />
    <glyph glyph-name="Rcaron" unicode="&#x158;" horiz-adv-x="418" 
d="M327 8l-73 324q0 3 -3 3h-106q-4 0 -4 -4l-40 -321q-2 -10 -11 -10h-18q-9 0 -9 10l84 680q2 10 11 10h143q58 0 92 -40t34 -108q0 -24 -2 -36q-8 -69 -43.5 -116t-87.5 -60q-4 -2 -4 -5l74 -324v-2q0 -9 -9 -9h-17q-10 0 -11 8zM182.5 664q-1.5 -1 -1.5 -3l-35 -289
q-1 -1 0 -2.5t3 -1.5h108q51 0 86.5 40.5t43.5 106.5q2 22 2 30q0 55 -25.5 87.5t-70.5 32.5h-108q-1 0 -2.5 -1zM215 891q0 7 8 7h21q7 0 10 -7l39 -80q1 -1 3 -1t3 1l57 80q7 7 13 7h20q12 0 5 -12l-78 -102q-4 -6 -12 -6h-27q-6 0 -10 7l-51 101q-1 2 -1 5z" />
    <glyph glyph-name="rcaron" unicode="&#x159;" horiz-adv-x="269" 
d="M292 496q7 -5 2 -13l-8 -20q-5 -9 -13 -5q-14 6 -35 5q-41 0 -72 -41t-39 -102l-38 -310q-1 -4 -4 -7t-7 -3h-19q-10 0 -8 10l59 482q2 10 11 10h18q9 0 9 -10l-8 -65q-1 -3 1 -3t3 3q19 37 46.5 58t60.5 21q24 0 41 -10zM141 693q0 7 8 7h21q7 0 10 -7l39 -80q1 -1 3 -1
t3 1l57 80q7 7 13 7h20q12 0 5 -12l-78 -102q-4 -6 -12 -6h-27q-6 0 -10 7l-51 101q-1 2 -1 5z" />
    <glyph glyph-name="Sacute" unicode="&#x15a;" horiz-adv-x="392" 
d="M80 31q-35 39 -35 104q0 9 2 31l2 19q2 10 11 10h17q5 0 7.5 -3t1.5 -7l-2 -18q-2 -18 -2 -27q0 -52 26 -83t70 -31q35 0 65 20t48 56t18 82q0 33 -12.5 57.5t-31.5 43t-61 54.5q-40 35 -62.5 58t-36.5 53t-14 69q0 8 2 28q10 75 55 118t109 43q60 0 95 -39t35 -105
q0 -10 -2 -32l-3 -25q0 -4 -3 -7t-8 -3h-18q-10 0 -8 10l3 25q2 18 2 26q0 53 -26.5 84.5t-70.5 31.5q-47 0 -81.5 -34t-41.5 -95q-1 -8 -1 -22q0 -42 22 -72t78 -77q46 -39 70 -63.5t37 -51.5t13 -62q0 -8 -2 -28q-10 -80 -58 -128.5t-114 -48.5q-60 0 -95 39zM232.5 771.5
q-1.5 3.5 2.5 8.5l74 111q5 7 12 7h16q5 0 7 -3.5t-2 -8.5l-79 -111q-5 -7 -12 -7h-11q-6 0 -7.5 3.5z" />
    <glyph glyph-name="sacute" unicode="&#x15b;" horiz-adv-x="347" 
d="M75 25.5q-32 29.5 -32 76.5q0 11 1 17v5q2 10 11 10h18q10 0 8 -10v-5q-1 -5 -1 -13q0 -34 23 -55.5t63 -21.5q46 0 75.5 31t29.5 80q0 37 -23 56.5t-70 40.5q-49 22 -75.5 47t-26.5 73q0 12 1 19q7 59 47 94.5t98 35.5q53 0 84 -29.5t31 -78.5q0 -14 -1 -21v-3
q-2 -10 -11 -10h-16q-5 0 -7.5 3t-1.5 7l1 4l1 12q0 36 -23 59.5t-61 23.5q-46 0 -75.5 -31.5t-29.5 -78.5q0 -35 21.5 -53.5t65.5 -39.5q36 -16 57 -29t36.5 -36t15.5 -58q0 -68 -41 -109.5t-107 -41.5q-54 0 -86 29.5zM198.5 573.5q-1.5 3.5 2.5 8.5l74 111q5 7 12 7h16
q5 0 7 -3.5t-2 -8.5l-79 -111q-5 -7 -12 -7h-11q-6 0 -7.5 3.5z" />
    <glyph glyph-name="Scircumflex" unicode="&#x15c;" horiz-adv-x="392" 
d="M80 31q-35 39 -35 104q0 9 2 31l2 19q2 10 11 10h17q5 0 7.5 -3t1.5 -7l-2 -18q-2 -18 -2 -27q0 -52 26 -83t70 -31q35 0 65 20t48 56t18 82q0 33 -12.5 57.5t-31.5 43t-61 54.5q-40 35 -62.5 58t-36.5 53t-14 69q0 8 2 28q10 75 55 118t109 43q60 0 95 -39t35 -105
q0 -10 -2 -32l-3 -25q0 -4 -3 -7t-8 -3h-18q-10 0 -8 10l3 25q2 18 2 26q0 53 -26.5 84.5t-70.5 31.5q-47 0 -81.5 -34t-41.5 -95q-1 -8 -1 -22q0 -42 22 -72t78 -77q46 -39 70 -63.5t37 -51.5t13 -62q0 -8 -2 -28q-10 -80 -58 -128.5t-114 -48.5q-60 0 -95 39zM177 790
l76 101q5 7 12 7h26q8 0 11 -6l53 -102q1 -2 1 -5q0 -7 -9 -7h-20q-6 0 -11 7l-37 80q-1 2 -3 2t-3 -2l-59 -80q-5 -7 -12 -7h-20q-12 0 -5 12z" />
    <glyph glyph-name="scircumflex" unicode="&#x15d;" horiz-adv-x="347" 
d="M75 25.5q-32 29.5 -32 76.5q0 11 1 17v5q2 10 11 10h18q10 0 8 -10v-5q-1 -5 -1 -13q0 -34 23 -55.5t63 -21.5q46 0 75.5 31t29.5 80q0 37 -23 56.5t-70 40.5q-49 22 -75.5 47t-26.5 73q0 12 1 19q7 59 47 94.5t98 35.5q53 0 84 -29.5t31 -78.5q0 -14 -1 -21v-3
q-2 -10 -11 -10h-16q-5 0 -7.5 3t-1.5 7l1 4l1 12q0 36 -23 59.5t-61 23.5q-46 0 -75.5 -31.5t-29.5 -78.5q0 -35 21.5 -53.5t65.5 -39.5q36 -16 57 -29t36.5 -36t15.5 -58q0 -68 -41 -109.5t-107 -41.5q-54 0 -86 29.5zM143 592l76 101q5 7 12 7h26q8 0 11 -6l53 -102
q1 -2 1 -5q0 -7 -9 -7h-20q-6 0 -11 7l-37 80q-1 2 -3 2t-3 -2l-59 -80q-5 -7 -12 -7h-20q-12 0 -5 12z" />
    <glyph glyph-name="Scedilla" unicode="&#x15e;" horiz-adv-x="392" 
d="M296 48q-41 -47 -100 -54q-5 -2 -2 -5q31 -37 31 -79q0 -18 -6 -36q-9 -31 -29.5 -45t-45.5 -14q-14 0 -24 3q-8 2 -5 12l3 7q1 5 4.5 6.5t7.5 0.5t13 -1q22 0 36.5 15t14.5 50q0 40 -34 83l-4 2q-52 7 -81.5 44.5t-29.5 97.5q0 9 2 31l2 19q2 10 11 10h17q5 0 7.5 -3
t1.5 -7l-2 -18q-2 -18 -2 -27q0 -52 26 -83t70 -31q35 0 65 20t48 56t18 82q0 33 -12.5 57.5t-31.5 43t-61 54.5q-40 35 -62.5 58t-36.5 53t-14 69q0 8 2 28q10 75 55 118t109 43q60 0 95 -39t35 -105q0 -10 -2 -32l-3 -25q0 -4 -3 -7t-8 -3h-18q-10 0 -8 10l3 25q2 18 2 26
q0 53 -26.5 84.5t-70.5 31.5q-47 0 -81.5 -34t-41.5 -95q-1 -8 -1 -22q0 -42 22 -72t78 -77q46 -39 70 -63.5t37 -51.5t13 -62q0 -8 -2 -28q-10 -74 -51 -121z" />
    <glyph glyph-name="scedilla" unicode="&#x15f;" horiz-adv-x="347" 
d="M275 45.5q-34 -40.5 -91 -47.5q-5 -2 -2 -5q31 -37 31 -80q0 -16 -5 -36q-10 -31 -30.5 -44.5t-46.5 -13.5q-8 0 -22 2q-9 1 -6 12l3 8q1 5 4.5 6.5t7.5 0.5t13 -1q22 0 36.5 15t14.5 50q0 39 -33 83q-2 2 -5 2q-47 4 -74 33t-27 72q0 11 1 17v5q2 10 11 10h18
q10 0 8 -10v-5q-1 -5 -1 -13q0 -34 23 -55.5t63 -21.5q46 0 75.5 31t29.5 80q0 37 -23 56.5t-70 40.5q-49 22 -75.5 47t-26.5 73q0 12 1 19q7 59 47 94.5t98 35.5q53 0 84 -29.5t31 -78.5q0 -14 -1 -21v-3q-2 -10 -11 -10h-16q-5 0 -7.5 3t-1.5 7l1 4l1 12q0 36 -23 59.5
t-61 23.5q-46 0 -75.5 -31.5t-29.5 -78.5q0 -35 21.5 -53.5t65.5 -39.5q36 -16 57 -29t36.5 -36t15.5 -58q0 -61 -34 -101.5z" />
    <glyph glyph-name="Scaron" unicode="&#x160;" horiz-adv-x="392" 
d="M80 31q-35 39 -35 104q0 9 2 31l2 19q2 10 11 10h17q5 0 7.5 -3t1.5 -7l-2 -18q-2 -18 -2 -27q0 -52 26 -83t70 -31q35 0 65 20t48 56t18 82q0 33 -12.5 57.5t-31.5 43t-61 54.5q-40 35 -62.5 58t-36.5 53t-14 69q0 8 2 28q10 75 55 118t109 43q60 0 95 -39t35 -105
q0 -10 -2 -32l-3 -25q0 -4 -3 -7t-8 -3h-18q-10 0 -8 10l3 25q2 18 2 26q0 53 -26.5 84.5t-70.5 31.5q-47 0 -81.5 -34t-41.5 -95q-1 -8 -1 -22q0 -42 22 -72t78 -77q46 -39 70 -63.5t37 -51.5t13 -62q0 -8 -2 -28q-10 -80 -58 -128.5t-114 -48.5q-60 0 -95 39zM190 891
q0 7 8 7h21q7 0 10 -7l39 -80q1 -1 3 -1t3 1l57 80q7 7 13 7h20q12 0 5 -12l-78 -102q-4 -6 -12 -6h-27q-6 0 -10 7l-51 101q-1 2 -1 5z" />
    <glyph glyph-name="scaron" unicode="&#x161;" horiz-adv-x="347" 
d="M75 25.5q-32 29.5 -32 76.5q0 11 1 17v5q2 10 11 10h18q10 0 8 -10v-5q-1 -5 -1 -13q0 -34 23 -55.5t63 -21.5q46 0 75.5 31t29.5 80q0 37 -23 56.5t-70 40.5q-49 22 -75.5 47t-26.5 73q0 12 1 19q7 59 47 94.5t98 35.5q53 0 84 -29.5t31 -78.5q0 -14 -1 -21v-3
q-2 -10 -11 -10h-16q-5 0 -7.5 3t-1.5 7l1 4l1 12q0 36 -23 59.5t-61 23.5q-46 0 -75.5 -31.5t-29.5 -78.5q0 -35 21.5 -53.5t65.5 -39.5q36 -16 57 -29t36.5 -36t15.5 -58q0 -68 -41 -109.5t-107 -41.5q-54 0 -86 29.5zM155 693q0 7 8 7h21q7 0 10 -7l39 -80q1 -1 3 -1t3 1
l57 80q7 7 13 7h20q12 0 5 -12l-78 -102q-4 -6 -12 -6h-27q-6 0 -10 7l-51 101q-1 2 -1 5z" />
    <glyph glyph-name="uni0162" unicode="&#x162;" horiz-adv-x="390" 
d="M418 690l-1 -15q-1 -4 -4 -7t-7 -3h-130q-3 0 -5 -4l-80 -651q0 -4 -3 -7t-8 -3h-18q-10 0 -8 10l79 651q1 1 0 2.5t-3 1.5h-121q-9 0 -9 10l2 15q2 10 11 10h297q10 0 8 -10zM121 -169l2 8q1 4 4.5 6.5t7.5 0.5q5 -1 14 -1q22 0 36.5 15t14.5 49q0 38 -30 79q-2 2 -2 6
q0 6 7 6h9q5 0 10 -3l3 -4q33 -36 33 -82q0 -16 -5 -36q-9 -31 -29.5 -44.5t-46.5 -13.5q-12 0 -23 3q-8 2 -5 11z" />
    <glyph glyph-name="uni0163" unicode="&#x163;" horiz-adv-x="248" 
d="M245 470h-81q-4 0 -4 -4l-41 -336q-2 -22 -2 -29q0 -37 15.5 -51.5t47.5 -14.5h11q4 0 6.5 -3t1.5 -7l-2 -15q-2 -10 -11 -10h-23q-5 0 -2 -5q20 -28 20 -65q0 -17 -5 -37q-9 -31 -29.5 -44.5t-46.5 -13.5q-12 0 -23 3q-8 1 -5 11l2 8q1 4 4.5 6.5t7.5 0.5q4 -1 13 -1
q37 0 48 41q3 12 3 24q0 39 -31 79q-1 1 -4 3q-37 17 -37 79q0 8 2 34l42 343q0 4 -3 4h-40q-10 0 -8 10l1 12q2 10 11 10h40q4 0 4 4l14 112q2 10 11 10h18q9 0 9 -10l-14 -112q0 -4 3 -4h81q10 0 8 -10l-1 -12q-2 -10 -11 -10z" />
    <glyph glyph-name="Tcaron" unicode="&#x164;" horiz-adv-x="390" 
d="M418 690l-1 -15q-1 -4 -4 -7t-7 -3h-130q-3 0 -5 -4l-80 -651q0 -4 -3 -7t-8 -3h-18q-10 0 -8 10l79 651q1 1 0 2.5t-3 1.5h-121q-9 0 -9 10l2 15q2 10 11 10h297q10 0 8 -10zM192 888q0 7 8 7h21q7 0 10 -7l39 -80q1 -1 3 -1t3 1l57 80q7 7 13 7h20q12 0 5 -12l-78 -102
q-4 -6 -12 -6h-27q-6 0 -10 7l-51 101q-1 2 -1 5z" />
    <glyph glyph-name="tcaron" unicode="&#x165;" horiz-adv-x="248" 
d="M245 470h-81q-4 0 -4 -4l-41 -336q-2 -22 -2 -29q0 -37 15.5 -51.5t47.5 -14.5h11q4 0 6.5 -3t1.5 -7l-2 -15q-2 -10 -11 -10h-16q-45 0 -68.5 19.5t-23.5 70.5q0 9 2 33l42 343q0 4 -3 4h-40q-10 0 -8 10l1 12q2 10 11 10h40q4 0 4 4l14 112q2 10 11 10h18q9 0 9 -10
l-14 -112q0 -4 3 -4h81q10 0 8 -10l-1 -12q-2 -10 -11 -10zM194.5 573.5q-1.5 3.5 2.5 8.5l74 111q5 7 12 7h16q5 0 7 -3.5t-2 -8.5l-79 -111q-5 -7 -12 -7h-11q-6 0 -7.5 3.5z" />
    <glyph glyph-name="Tbar" unicode="&#x166;" horiz-adv-x="390" 
d="M413 668q-3 -3 -7 -3h-130q-3 0 -5 -4l-29 -235q0 -4 4 -4h87q9 0 9 -10l-2 -10q0 -4 -3 -7t-8 -3h-87q-4 0 -4 -4l-47 -378q0 -4 -3 -7t-8 -3h-18q-10 0 -8 10l46 378q0 2 -1 3t-2 1h-98q-5 0 -7.5 3t-1.5 7l1 10q2 10 11 10h98q3 0 5 4l28 235q1 1 0 2.5t-3 1.5h-121
q-9 0 -9 10l2 15q2 10 11 10h297q10 0 8 -10l-1 -15q-1 -4 -4 -7z" />
    <glyph glyph-name="tbar" unicode="&#x167;" horiz-adv-x="248" 
d="M245 470h-81q-4 0 -4 -4l-14 -116q0 -4 3 -4h81q10 0 8 -10l-1 -10q-2 -10 -11 -10h-81q-1 0 -2.5 -1t-1.5 -3l-22 -182q-2 -22 -2 -29q0 -37 15.5 -51.5t47.5 -14.5h11q4 0 6.5 -3t1.5 -7l-2 -15q-2 -10 -11 -10h-16q-45 0 -68.5 19.5t-23.5 70.5q0 9 2 33l23 189
q1 1 0 2.5t-3 1.5h-38q-10 0 -8 10l1 10q2 10 11 10h38q4 0 4 4l14 116q0 4 -3 4h-40q-10 0 -8 10l1 12q2 10 11 10h40q4 0 4 4l14 112q2 10 11 10h18q9 0 9 -10l-14 -112q0 -4 3 -4h81q10 0 8 -10l-1 -12q-2 -10 -11 -10z" />
    <glyph glyph-name="Utilde" unicode="&#x168;" horiz-adv-x="460" 
d="M111.5 33q-35.5 41 -35.5 110q0 23 2 35l63 512q2 10 11 10h18q5 0 7.5 -3t1.5 -7l-64 -516q-2 -18 -2 -26q0 -56 27 -88.5t74 -32.5q52 0 89.5 40.5t45.5 106.5l64 516q0 4 3 7t8 3h18q10 0 8 -10l-62 -512q-10 -84 -59.5 -135t-118.5 -51q-63 0 -98.5 41zM343 823
q-11 6 -24 17l-12 9t-15 9t-15 3q-15 0 -26 -5.5t-24 -21.5q-8 -9 -14 -3l-5 4q-8 5 -2 14q32 44 74 44q14 0 25 -6t25 -17q3 -2 11.5 -9t16 -10.5t15.5 -3.5q14 0 25 6.5t23 24.5q3 4 7 5t7 -1l6 -3q3 -1 3 -7q0 -8 -5 -14q-16 -21 -35.5 -31t-36.5 -10q-13 0 -24 6z" />
    <glyph glyph-name="utilde" unicode="&#x169;" horiz-adv-x="401" 
d="M346 502h18q9 0 9 -10l-59 -482q-1 -4 -4 -7t-7 -3h-19q-10 0 -8 10l5 40q0 3 -2 3.5t-3 -2.5q-37 -58 -108 -58q-52 0 -80.5 29t-28.5 86q0 9 2 31l43 353q2 10 11 10h18q5 0 7.5 -3t1.5 -7l-42 -345q-2 -20 -2 -28q0 -45 21 -68t60 -23q46 0 77 34.5t38 94.5l41 335
q2 10 11 10zM287 625q-11 6 -24 17l-12 9t-15 9t-15 3q-15 0 -26 -5.5t-24 -21.5q-8 -9 -14 -3l-5 4q-8 5 -2 14q32 44 74 44q14 0 25 -6t25 -17q3 -2 11.5 -9t16 -10.5t15.5 -3.5q14 0 25 6.5t23 24.5q3 4 7 5t7 -1l6 -3q3 -1 3 -7q0 -8 -5 -14q-16 -21 -35.5 -31
t-36.5 -10q-13 0 -24 6z" />
    <glyph glyph-name="Umacron" unicode="&#x16a;" horiz-adv-x="460" 
d="M111.5 33q-35.5 41 -35.5 110q0 23 2 35l63 512q2 10 11 10h18q5 0 7.5 -3t1.5 -7l-64 -516q-2 -18 -2 -26q0 -56 27 -88.5t74 -32.5q52 0 89.5 40.5t45.5 106.5l64 516q0 4 3 7t8 3h18q10 0 8 -10l-62 -512q-10 -84 -59.5 -135t-118.5 -51q-63 0 -98.5 41zM214 810l2 11
q0 4 3 7t8 3h169q5 0 7.5 -3t1.5 -7l-2 -11q0 -4 -3 -7t-7 -3h-170q-9 0 -9 10z" />
    <glyph glyph-name="umacron" unicode="&#x16b;" horiz-adv-x="401" 
d="M346 502h18q9 0 9 -10l-59 -482q-1 -4 -4 -7t-7 -3h-19q-10 0 -8 10l5 40q0 3 -2 3.5t-3 -2.5q-37 -58 -108 -58q-52 0 -80.5 29t-28.5 86q0 9 2 31l43 353q2 10 11 10h18q5 0 7.5 -3t1.5 -7l-42 -345q-2 -20 -2 -28q0 -45 21 -68t60 -23q46 0 77 34.5t38 94.5l41 335
q2 10 11 10zM157 612l2 11q0 4 3 7t8 3h169q5 0 7.5 -3t1.5 -7l-2 -11q0 -4 -3 -7t-7 -3h-170q-9 0 -9 10z" />
    <glyph glyph-name="Ubreve" unicode="&#x16c;" horiz-adv-x="460" 
d="M111.5 33q-35.5 41 -35.5 110q0 23 2 35l63 512q2 10 11 10h18q5 0 7.5 -3t1.5 -7l-64 -516q-2 -18 -2 -26q0 -56 27 -88.5t74 -32.5q52 0 89.5 40.5t45.5 106.5l64 516q0 4 3 7t8 3h18q10 0 8 -10l-62 -512q-10 -84 -59.5 -135t-118.5 -51q-63 0 -98.5 41zM246 809.5
q-24 25.5 -23 64.5q2 10 11 10h8q10 0 10 -12q0 -26 16.5 -43.5t41.5 -17.5q26 0 47 18t27 45q3 10 12 10h8q5 0 7 -3t1 -7q-8 -39 -38 -64.5t-67 -25.5t-61 25.5z" />
    <glyph glyph-name="ubreve" unicode="&#x16d;" horiz-adv-x="401" 
d="M346 502h18q9 0 9 -10l-59 -482q-1 -4 -4 -7t-7 -3h-19q-10 0 -8 10l5 40q0 3 -2 3.5t-3 -2.5q-37 -58 -108 -58q-52 0 -80.5 29t-28.5 86q0 9 2 31l43 353q2 10 11 10h18q5 0 7.5 -3t1.5 -7l-42 -345q-2 -20 -2 -28q0 -45 21 -68t60 -23q46 0 77 34.5t38 94.5l41 335
q2 10 11 10zM189 611.5q-24 25.5 -23 64.5q2 10 11 10h8q10 0 10 -12q0 -26 16.5 -43.5t41.5 -17.5q26 0 47 18t27 45q3 10 12 10h8q5 0 7 -3t1 -7q-8 -39 -38 -64.5t-67 -25.5t-61 25.5z" />
    <glyph glyph-name="Uring" unicode="&#x16e;" horiz-adv-x="460" 
d="M111.5 33q-35.5 41 -35.5 110q0 23 2 35l63 512q2 10 11 10h18q5 0 7.5 -3t1.5 -7l-64 -516q-2 -18 -2 -26q0 -56 27 -88.5t74 -32.5q52 0 89.5 40.5t45.5 106.5l64 516q0 4 3 7t8 3h18q10 0 8 -10l-62 -512q-10 -84 -59.5 -135t-118.5 -51q-63 0 -98.5 41zM247 809
q-24 25 -24 62q0 30 15 56.5t40 42.5t53 16q36 0 60 -25t24 -62q0 -30 -15 -56.5t-40 -42.5t-53 -16q-36 0 -60 25zM364 837q23 24 23 58q0 27 -16.5 44.5t-42.5 17.5q-31 0 -54.5 -24t-23.5 -58q0 -27 17 -44.5t43 -17.5q31 0 54 24z" />
    <glyph glyph-name="uring" unicode="&#x16f;" horiz-adv-x="401" 
d="M346 502h18q9 0 9 -10l-59 -482q-1 -4 -4 -7t-7 -3h-19q-10 0 -8 10l5 40q0 3 -2 3.5t-3 -2.5q-37 -58 -108 -58q-52 0 -80.5 29t-28.5 86q0 9 2 31l43 353q2 10 11 10h18q5 0 7.5 -3t1.5 -7l-42 -345q-2 -20 -2 -28q0 -45 21 -68t60 -23q46 0 77 34.5t38 94.5l41 335
q2 10 11 10zM190 611q-24 25 -24 62q0 30 15 56.5t40 42.5t53 16q36 0 60 -25t24 -62q0 -30 -15 -56.5t-40 -42.5t-53 -16q-36 0 -60 25zM307 639q23 24 23 58q0 27 -16.5 44.5t-42.5 17.5q-31 0 -54.5 -24t-23.5 -58q0 -27 17 -44.5t43 -17.5q31 0 54 24z" />
    <glyph glyph-name="Uhungarumlaut" unicode="&#x170;" horiz-adv-x="460" 
d="M111.5 33q-35.5 41 -35.5 110q0 23 2 35l63 512q2 10 11 10h18q5 0 7.5 -3t1.5 -7l-64 -516q-2 -18 -2 -26q0 -56 27 -88.5t74 -32.5q52 0 89.5 40.5t45.5 106.5l64 516q0 4 3 7t8 3h18q10 0 8 -10l-62 -512q-10 -84 -59.5 -135t-118.5 -51q-63 0 -98.5 41zM237 771.5
q-2 3.5 2 8.5l72 111q3 7 12 7h16q6 0 7.5 -3.5t-2.5 -8.5l-75 -111q-5 -7 -12 -7h-13q-5 0 -7 3.5zM343.5 771.5q-1.5 3.5 2.5 8.5l73 111q3 7 12 7h15q5 0 7 -3.5t-2 -8.5l-75 -111q-5 -7 -12 -7h-13q-6 0 -7.5 3.5z" />
    <glyph glyph-name="uhungarumlaut" unicode="&#x171;" horiz-adv-x="401" 
d="M346 502h18q9 0 9 -10l-59 -482q-1 -4 -4 -7t-7 -3h-19q-10 0 -8 10l5 40q0 3 -2 3.5t-3 -2.5q-37 -58 -108 -58q-52 0 -80.5 29t-28.5 86q0 9 2 31l43 353q2 10 11 10h18q5 0 7.5 -3t1.5 -7l-42 -345q-2 -20 -2 -28q0 -45 21 -68t60 -23q46 0 77 34.5t38 94.5l41 335
q2 10 11 10zM181 573.5q-2 3.5 2 8.5l72 111q3 7 12 7h16q6 0 7.5 -3.5t-2.5 -8.5l-75 -111q-5 -7 -12 -7h-13q-5 0 -7 3.5zM287.5 573.5q-1.5 3.5 2.5 8.5l73 111q3 7 12 7h15q5 0 7 -3.5t-2 -8.5l-75 -111q-5 -7 -12 -7h-13q-6 0 -7.5 3.5z" />
    <glyph glyph-name="Uogonek" unicode="&#x172;" horiz-adv-x="460" 
d="M416 697q3 3 8 3h18q10 0 8 -10l-62 -512q-10 -80 -55.5 -130.5t-111.5 -55.5q-3 0 -5 -2q-48 -52 -48 -98q1 -22 11.5 -32t26.5 -10q9 0 13 1l4 1q7 0 7 -8l1 -7q0 -11 -9 -12q-11 -3 -24 -3q-26 0 -43 16t-17 51q0 55 45 100q4 4 -1 5q-50 8 -78 48t-28 102q0 10 2 34
l63 512q2 10 11 10h18q5 0 7.5 -3t1.5 -7l-64 -516q-2 -18 -2 -26q0 -56 27 -88.5t74 -32.5q52 0 89.5 40.5t45.5 106.5l64 516q0 4 3 7z" />
    <glyph glyph-name="uogonek" unicode="&#x173;" horiz-adv-x="401" 
d="M303 -153q7 0 7 -8l1 -7q0 -11 -9 -12q-12 -3 -24 -3q-26 0 -43.5 13.5t-18.5 44.5q0 73 62 122q2 2 0 4q-3 3 -2 9l5 40q0 3 -2 3.5t-3 -2.5q-37 -58 -108 -58q-52 0 -80.5 29t-28.5 86q0 9 2 31l43 353q2 10 11 10h18q5 0 7.5 -3t1.5 -7l-42 -345q-2 -20 -2 -28
q0 -45 21 -68t60 -23q46 0 77 34.5t38 94.5l41 335q2 10 11 10h18q9 0 9 -10l-60 -485q0 -4 -6 -12q-26 -24 -42.5 -51.5t-16.5 -55.5q0 -43 38 -43q9 0 13 1z" />
    <glyph glyph-name="Wcircumflex" unicode="&#x174;" horiz-adv-x="574" 
d="M140 9l-43 680q0 11 10 11h20q9 0 9 -9l34 -598q0 -2 1 -2t2 2l164 598q3 9 11 9h18q9 0 9 -9l20 -598q0 -2 1 -2t2 2l171 598q3 9 12 9h20q5 0 7 -3t0 -8l-202 -680q-3 -9 -12 -9h-20q-8 0 -8 9l-18 596q-1 2 -2 2t-2 -2l-165 -596q-3 -9 -11 -9h-19q-9 0 -9 9zM278 790
l76 101q5 7 12 7h26q8 0 11 -6l53 -102q1 -2 1 -5q0 -7 -9 -7h-20q-6 0 -11 7l-37 80q-1 2 -3 2t-3 -2l-59 -80q-5 -7 -12 -7h-20q-12 0 -5 12z" />
    <glyph glyph-name="wcircumflex" unicode="&#x175;" horiz-adv-x="512" 
d="M111 9l-43 482q0 11 10 11h18q9 0 9 -9l31 -428q0 -3 1.5 -3t2.5 3l136 428q3 9 12 9h17q9 0 10 -9l32 -428q1 -3 2 -3t2 3l137 428q3 9 12 9h18q4 0 6.5 -3t0.5 -8l-162 -482q-3 -9 -12 -9h-19q-10 0 -10 9l-33 414q-1 3 -2 3t-2 -3l-134 -414q-1 -9 -11 -9h-20
q-9 0 -9 9zM218 592l76 101q5 7 12 7h26q8 0 11 -6l53 -102q1 -2 1 -5q0 -7 -9 -7h-20q-6 0 -11 7l-37 80q-1 2 -3 2t-3 -2l-59 -80q-5 -7 -12 -7h-20q-12 0 -5 12z" />
    <glyph glyph-name="Ycircumflex" unicode="&#x176;" horiz-adv-x="389" 
d="M157 10l39 317q0 1 0.5 2.5t-0.5 2.5l-89 356l-1 3q0 9 10 9h19q10 0 11 -8l73 -315q1 -2 3 -2t3 2l149 315q4 8 13 8h19q5 0 7 -3.5t-1 -8.5l-176 -356q-2 -2 -2 -5l-39 -317q-2 -10 -11 -10h-18q-9 0 -9 10zM183 790l76 101q5 7 12 7h26q8 0 11 -6l53 -102q1 -2 1 -5
q0 -7 -9 -7h-20q-6 0 -11 7l-37 80q-1 2 -3 2t-3 -2l-59 -80q-5 -7 -12 -7h-20q-12 0 -5 12z" />
    <glyph glyph-name="ycircumflex" unicode="&#x177;" horiz-adv-x="332" 
d="M-2 -197q-2 3 -1 7l2 15q2 10 11 10q29 1 46 13.5t32 45t39 103.5q1 2 0.5 3.5t-0.5 2.5l-65 488v2q0 4 3 6.5t7 2.5h21q9 0 9 -9l51 -434q0 -3 1.5 -3t2.5 3l156 434q2 9 12 9h19q12 0 7 -11l-205 -547q-24 -63 -42.5 -93t-40 -40.5t-57.5 -10.5h-4q-2 0 -4 3zM130 592
l76 101q5 7 12 7h26q8 0 11 -6l53 -102q1 -2 1 -5q0 -7 -9 -7h-20q-6 0 -11 7l-37 80q-1 2 -3 2t-3 -2l-59 -80q-5 -7 -12 -7h-20q-12 0 -5 12z" />
    <glyph glyph-name="Ydieresis" unicode="&#x178;" horiz-adv-x="389" 
d="M157 10l39 317q0 1 0.5 2.5t-0.5 2.5l-89 356l-1 3q0 9 10 9h19q10 0 11 -8l73 -315q1 -2 3 -2t3 2l149 315q4 8 13 8h19q5 0 7 -3.5t-1 -8.5l-176 -356q-2 -2 -2 -5l-39 -317q-2 -10 -11 -10h-18q-9 0 -9 10zM311.5 819q-10.5 11 -10.5 28q0 22 14.5 37t34.5 15
q17 0 28.5 -10.5t11.5 -27.5q0 -23 -14.5 -38t-36.5 -15q-17 0 -27.5 11zM181.5 819q-10.5 11 -10.5 28q0 22 14.5 37t34.5 15q17 0 28.5 -10.5t11.5 -27.5q0 -23 -14.5 -38t-36.5 -15q-17 0 -27.5 11z" />
    <glyph glyph-name="Zacute" unicode="&#x179;" horiz-adv-x="376" 
d="M20 10l2 19q0 5 3 12l326 619q1 2 0 3.5t-3 1.5h-238q-9 0 -9 10l2 15q2 10 11 10h275q4 0 6.5 -3t1.5 -7l-2 -19q-2 -9 -4 -12l-325 -619q-1 -2 -0.5 -3.5t2.5 -1.5h239q10 0 8 -10l-1 -15q-1 -4 -4 -7t-7 -3h-275q-10 0 -8 10zM230.5 771.5q-1.5 3.5 2.5 8.5l74 111
q5 7 12 7h16q5 0 7 -3.5t-2 -8.5l-79 -111q-5 -7 -12 -7h-11q-6 0 -7.5 3.5z" />
    <glyph glyph-name="zacute" unicode="&#x17a;" horiz-adv-x="344" 
d="M21 10l2 19q0 3 4 13l271 419q1 2 1 3.5t-2 1.5h-208q-10 0 -8 10l2 16q0 4 3 7t8 3h246q9 0 9 -10l-3 -19q0 -3 -4 -13l-271 -419q-1 -2 -1 -3.5t2 -1.5h210q10 0 8 -10l-2 -16q0 -4 -3 -7t-8 -3h-248q-10 0 -8 10zM195.5 573.5q-1.5 3.5 2.5 8.5l74 111q5 7 12 7h16
q5 0 7 -3.5t-2 -8.5l-79 -111q-5 -7 -12 -7h-11q-6 0 -7.5 3.5z" />
    <glyph glyph-name="Zdotaccent" unicode="&#x17b;" horiz-adv-x="376" 
d="M20 10l2 19q0 5 3 12l326 619q1 2 0 3.5t-3 1.5h-238q-9 0 -9 10l2 15q2 10 11 10h275q4 0 6.5 -3t1.5 -7l-2 -19q-2 -9 -4 -12l-325 -619q-1 -2 -0.5 -3.5t2.5 -1.5h239q10 0 8 -10l-1 -15q-1 -4 -4 -7t-7 -3h-275q-10 0 -8 10zM238.5 819q-10.5 11 -10.5 28
q0 22 14.5 37t34.5 15q17 0 28.5 -10.5t11.5 -27.5q0 -23 -14.5 -38t-36.5 -15q-17 0 -27.5 11z" />
    <glyph glyph-name="zdotaccent" unicode="&#x17c;" horiz-adv-x="344" 
d="M21 10l2 19q0 3 4 13l271 419q1 2 1 3.5t-2 1.5h-208q-10 0 -8 10l2 16q0 4 3 7t8 3h246q9 0 9 -10l-3 -19q0 -3 -4 -13l-271 -419q-1 -2 -1 -3.5t2 -1.5h210q10 0 8 -10l-2 -16q0 -4 -3 -7t-8 -3h-248q-10 0 -8 10zM203.5 621q-10.5 11 -10.5 28q0 22 14.5 37t34.5 15
q17 0 28.5 -10.5t11.5 -27.5q0 -23 -14.5 -38t-36.5 -15q-17 0 -27.5 11z" />
    <glyph glyph-name="Zcaron" unicode="&#x17d;" horiz-adv-x="376" 
d="M20 10l2 19q0 5 3 12l326 619q1 2 0 3.5t-3 1.5h-238q-9 0 -9 10l2 15q2 10 11 10h275q4 0 6.5 -3t1.5 -7l-2 -19q-2 -9 -4 -12l-325 -619q-1 -2 -0.5 -3.5t2.5 -1.5h239q10 0 8 -10l-1 -15q-1 -4 -4 -7t-7 -3h-275q-10 0 -8 10zM188 891q0 7 8 7h21q7 0 10 -7l39 -80
q1 -1 3 -1t3 1l57 80q7 7 13 7h20q12 0 5 -12l-78 -102q-4 -6 -12 -6h-27q-6 0 -10 7l-51 101q-1 2 -1 5z" />
    <glyph glyph-name="zcaron" unicode="&#x17e;" horiz-adv-x="344" 
d="M21 10l2 19q0 3 4 13l271 419q1 2 1 3.5t-2 1.5h-208q-10 0 -8 10l2 16q0 4 3 7t8 3h246q9 0 9 -10l-3 -19q0 -3 -4 -13l-271 -419q-1 -2 -1 -3.5t2 -1.5h210q10 0 8 -10l-2 -16q0 -4 -3 -7t-8 -3h-248q-10 0 -8 10zM153 693q0 7 8 7h21q7 0 10 -7l39 -80q1 -1 3 -1t3 1
l57 80q7 7 13 7h20q12 0 5 -12l-78 -102q-4 -6 -12 -6h-27q-6 0 -10 7l-51 101q-1 2 -1 5z" />
    <glyph glyph-name="uni018F" unicode="&#x18f;" horiz-adv-x="493" 
d="M430.5 661q44.5 -47 44.5 -123q0 -9 -2 -31l-39 -317q-7 -58 -36.5 -103.5t-75 -71.5t-99.5 -26q-76 0 -120.5 47t-44.5 123q0 11 2 31l19 157q1 4 4 7t7 3h322q2 0 3.5 1t1.5 3l18 145q2 18 2 27q0 63 -35.5 101.5t-94.5 38.5q-54 0 -97 -34t-61 -89q-4 -9 -12 -9h-20
q-5 0 -7 3t-1 8q22 70 76.5 113t125.5 43q75 0 119.5 -47zM339.5 71q47.5 47 56.5 121l15 124q1 1 0 2.5t-3 1.5h-290q-3 0 -5 -4l-15 -124q-2 -18 -2 -27q0 -63 36 -102t95 -39q65 0 112.5 47z" />
    <glyph glyph-name="florin" unicode="&#x192;" horiz-adv-x="446" 
d="M334.5 647.5q21.5 34.5 53 48.5t81.5 13q10 0 8 -10l-3 -16q-1 -4 -4 -7t-8 -3h-17q-45 0 -69.5 -31t-41.5 -97l-46 -165q0 -4 3 -4h75q9 0 9 -10l-2 -12q0 -4 -3 -7t-8 -3h-80q-5 0 -6 -4l-109 -391q-17 -62 -38 -96.5t-52.5 -48.5t-80.5 -13q-5 0 -7 3t-1 7l3 16
q1 4 4 7t8 3h16q45 0 70 31.5t42 96.5l107 385q0 4 -3 4h-57q-10 0 -8 10l1 12q2 10 11 10h62q5 0 5 4l48 171q16 62 37.5 96.5z" />
    <glyph glyph-name="Ohorn" unicode="&#x1a0;" horiz-adv-x="435" 
d="M374 679q22 -19 34 -47.5t12 -63.5q0 -17 -1 -25l-48 -387q-9 -73 -57.5 -118.5t-117.5 -45.5q-62 0 -98.5 37.5t-36.5 100.5q0 8 2 26l47 387q9 73 57.5 119t116.5 46q23 0 49 -7q1 -1 5 -1q24 2 43.5 20.5t25.5 46.5q3 10 12 10h9q10 0 8 -12q-6 -27 -22 -48.5
t-39 -32.5q-4 -1 -1 -5zM381 545q1 7 1 22q0 48 -28 77t-74 29q-51 0 -88 -35.5t-44 -92.5l-48 -391q-1 -7 -1 -20q0 -48 27.5 -77.5t73.5 -29.5q52 0 89 35.5t44 91.5z" />
    <glyph glyph-name="ohorn" unicode="&#x1a1;" horiz-adv-x="390" 
d="M323 480q36 -33 36 -94q0 -15 -1 -23l-28 -224q-8 -65 -51 -106t-105 -41q-55 0 -88.5 34t-33.5 90q0 7 2 23l27 224q8 65 51.5 106t104.5 41q21 0 47 -7q1 -1 4 -1q24 2 44.5 20.5t27.5 46.5q3 10 12 10h9q4 0 6 -3t1 -9q-6 -28 -23 -49.5t-41 -32.5q-4 -1 -1 -5z
M321 380q0 42 -24 68.5t-64 26.5q-44 0 -76 -32t-38 -81l-27 -222q-1 -6 -1 -18q0 -42 24 -68.5t63 -26.5q45 0 77 31.5t38 81.5l27 222q1 6 1 18z" />
    <glyph glyph-name="Uhorn" unicode="&#x1af;" horiz-adv-x="460" 
d="M535 767q-7 -35 -29.5 -59t-53.5 -32q-4 -2 -4 -5l-60 -493q-10 -84 -59.5 -135t-118.5 -51q-63 0 -98.5 41t-35.5 110q0 23 2 35l63 512q2 10 11 10h18q5 0 7.5 -3t1.5 -7l-64 -516q-2 -18 -2 -26q0 -56 27 -88.5t74 -32.5q52 0 89.5 40.5t45.5 106.5l64 516q0 4 3 7
t8 3h6q26 0 48 19t28 48q3 10 12 10h9q10 0 8 -10z" />
    <glyph glyph-name="uhorn" unicode="&#x1b0;" horiz-adv-x="401" 
d="M453.5 576q2.5 -3 1.5 -7q-7 -34 -29 -58t-52 -32q-3 -1 -3 -5l-57 -464q-1 -4 -4 -7t-7 -3h-19q-10 0 -8 10l5 40q0 3 -2 3.5t-3 -2.5q-37 -58 -108 -58q-52 0 -80.5 29t-28.5 86q0 9 2 31l43 353q2 10 11 10h18q5 0 7.5 -3t1.5 -7l-42 -345q-2 -20 -2 -28q0 -45 21 -68
t60 -23q46 0 77 34.5t38 94.5l41 335q2 10 11 10h5q26 0 47.5 18.5t28.5 48.5q3 10 12 10h7q5 0 7.5 -3z" />
    <glyph glyph-name="uni01CD" unicode="&#x1cd;" horiz-adv-x="365" 
d="M297 9l-11 136q0 2 -1.5 3t-3.5 1h-200q-2 0 -3.5 -1t-1.5 -3l-45 -136q-3 -9 -12 -9h-18q-5 0 -7 3t0 8l231 680q2 9 11 9h25q9 0 9 -9l65 -680q0 -11 -10 -11h-18q-10 0 -10 9zM90 183.5q1 -1.5 2 -1.5h186q2 0 3.5 1.5t0.5 2.5l-39 447q-1 3 -2 3t-2 -3l-149 -447
q-1 -1 0 -2.5zM182 888q0 7 8 7h21q7 0 10 -7l39 -80q1 -1 3 -1t3 1l57 80q7 7 13 7h20q12 0 5 -12l-78 -102q-4 -6 -12 -6h-27q-6 0 -10 7l-51 101q-1 2 -1 5z" />
    <glyph glyph-name="uni01CE" unicode="&#x1ce;" horiz-adv-x="384" 
d="M345 502h18q5 0 7.5 -3t1.5 -7l-59 -482q-1 -4 -4 -7t-7 -3h-19q-10 0 -8 10l5 39q0 3 -2 3.5t-3 -2.5q-20 -28 -48 -43t-60 -15q-53 0 -84 33.5t-31 88.5q0 7 2 25l27 224q8 66 49 106.5t100 40.5q33 0 57.5 -15t36.5 -43q1 -3 3 -2.5t2 3.5l5 39q2 10 11 10zM254 58.5
q31 31.5 37 81.5l27 222q1 7 1 19q0 43 -23 68.5t-61 25.5q-45 0 -77.5 -31.5t-38.5 -81.5l-27 -222q-1 -6 -1 -18q0 -42 24.5 -68.5t64.5 -26.5q43 0 74 31.5zM168 690q0 7 8 7h21q7 0 10 -7l39 -80q1 -1 3 -1t3 1l57 80q7 7 13 7h20q12 0 5 -12l-78 -102q-4 -6 -12 -6h-27
q-6 0 -10 7l-51 101q-1 2 -1 5z" />
    <glyph glyph-name="uni01D4" unicode="&#x1d4;" horiz-adv-x="401" 
d="M346 502h18q9 0 9 -10l-59 -482q-1 -4 -4 -7t-7 -3h-19q-10 0 -8 10l5 40q0 3 -2 3.5t-3 -2.5q-37 -58 -108 -58q-52 0 -80.5 29t-28.5 86q0 9 2 31l43 353q2 10 11 10h18q5 0 7.5 -3t1.5 -7l-42 -345q-2 -20 -2 -28q0 -45 21 -68t60 -23q46 0 77 34.5t38 94.5l41 335
q2 10 11 10zM173 690q0 7 8 7h21q7 0 10 -7l39 -80q1 -1 3 -1t3 1l57 80q7 7 13 7h20q12 0 5 -12l-78 -102q-4 -6 -12 -6h-27q-6 0 -10 7l-51 101q-1 2 -1 5z" />
    <glyph glyph-name="uni01E5" unicode="&#x1e5;" horiz-adv-x="394" 
d="M405 253l-2 -10q0 -4 -3 -7t-8 -3h-47q-3 0 -5 -4l-27 -226q-26 -204 -200 -204q-8 0 -11 2.5t-2 7.5l2 16q0 10 13 10q73 0 111 43t48 127l6 45q0 3 -1.5 3t-3.5 -2q-19 -28 -47 -42.5t-61 -14.5q-53 0 -83.5 33.5t-30.5 89.5q0 15 1 23l27 223q8 65 49.5 106t99.5 41
q33 0 57 -14.5t37 -42.5q2 -2 3.5 -2t1.5 3l5 38q2 10 11 10h19q9 0 9 -10l-28 -225q0 -4 4 -4h47q9 0 9 -10zM254 60.5q31 31.5 37 81.5l11 87q0 4 -4 4h-98q-10 0 -8 10l1 10q2 10 11 10h98q4 0 4 4l12 95q1 7 1 19q0 43 -23 68.5t-61 25.5q-45 0 -77.5 -31.5t-38.5 -81.5
l-27 -220q-1 -6 -1 -18q0 -43 24.5 -69t64.5 -26q43 0 74 31.5z" />
    <glyph glyph-name="gcaron" unicode="&#x1e7;" horiz-adv-x="389" 
d="M345 502h19q9 0 9 -10l-60 -489q-26 -204 -200 -204q-8 0 -11 2.5t-2 7.5l2 16q0 10 13 10q73 0 111 43t48 127l6 45q0 3 -1.5 3t-3.5 -2q-19 -28 -47 -42.5t-61 -14.5q-53 0 -83.5 33.5t-30.5 89.5q0 15 1 23l27 223q8 65 49.5 106t99.5 41q33 0 57 -14.5t37 -42.5
q2 -2 3.5 -2t1.5 3l5 38q2 10 11 10zM254 60.5q31 31.5 37 81.5l27 220q1 7 1 19q0 43 -23 68.5t-61 25.5q-45 0 -77.5 -31.5t-38.5 -81.5l-27 -220q-1 -6 -1 -18q0 -43 24.5 -69t64.5 -26q43 0 74 31.5zM170 690q0 7 8 7h21q7 0 10 -7l39 -80q1 -1 3 -1t3 1l57 80q7 7 13 7
h20q12 0 5 -12l-78 -102q-4 -6 -12 -6h-27q-6 0 -10 7l-51 101q-1 2 -1 5z" />
    <glyph glyph-name="uni01E9" unicode="&#x1e9;" horiz-adv-x="373" 
d="M51 10l83 680q2 10 11 10h19q4 0 6.5 -3t1.5 -7l-53 -434q-1 -2 1 -2.5t3 1.5l202 241q4 6 13 6h19q6 0 7.5 -3.5t-2.5 -8.5l-108 -130q0 -1 -1.5 -2.5t-0.5 -2.5l70 -344l1 -3q0 -8 -10 -8h-19q-8 0 -11 8l-58 313q-1 6 -6 1l-106 -127q-2 -2 -2 -5l-22 -180
q-1 -4 -4 -7t-7 -3h-19q-10 0 -8 10zM194 888q0 7 8 7h21q7 0 10 -7l39 -80q1 -1 3 -1t3 1l57 80q7 7 13 7h20q12 0 5 -12l-78 -102q-4 -6 -12 -6h-27q-6 0 -10 7l-51 101q-1 2 -1 5z" />
    <glyph glyph-name="uni01EF" unicode="&#x1ef;" horiz-adv-x="437" 
d="M156 232q111 0 164.5 -48.5t53.5 -132.5q0 -11 -2 -35q-10 -77 -50 -128.5t-96.5 -76t-117.5 -24.5q-47 0 -87 14q-6 3 -5 12l3 15q1 5 4 7.5t8 0.5q36 -12 77 -12q82 0 148 45.5t78 146.5q2 20 2 31q0 67 -43.5 109t-149.5 42q-24 0 -36 -1h-3q-8 0 -8 8l-1 11q0 7 5 14
l241 231q3 5 -2 5h-206q-9 0 -9 10l2 16q2 10 11 10h251q4 0 6.5 -3t1.5 -7l-2 -19q-2 -8 -7 -12l-232 -224q-3 -5 1 -5zM200 690q0 7 8 7h21q7 0 10 -7l39 -80q1 -1 3 -1t3 1l57 80q7 7 13 7h20q12 0 5 -12l-78 -102q-4 -6 -12 -6h-27q-6 0 -10 7l-51 101q-1 2 -1 5z" />
    <glyph glyph-name="oslashacute" unicode="&#x1ff;" horiz-adv-x="390" 
d="M339 463q21 -31 21 -77q0 -15 -1 -23l-28 -224q-8 -65 -51 -106t-105 -41q-39 0 -68 18q-4 1 -6 -2l-25 -49q-3 -10 -13 -5l-12 7q-6 4 -3 13l30 57q1 3 -1 5q-23 32 -23 80q0 15 1 23l27 224q8 65 51.5 106t104.5 41q43 0 71 -20q4 -1 7 2l28 56q1 4 5 5.5t8 -0.5l12 -7
q7 -5 3 -13l-33 -65q-2 -3 0 -5zM92 120q0 -20 6 -38q4 -5 5 0l190 368q1 3 -1 5q-23 20 -58 20q-44 0 -76 -31.5t-38 -81.5l-27 -222q-1 -7 -1 -20zM322 380q0 18 -5 36q-4 5 -5 0l-188 -366q-2 -3 1 -5q20 -18 54 -18q45 0 77 31.5t38 81.5l27 222q1 6 1 18zM213.5 573.5
q-1.5 3.5 2.5 8.5l74 111q5 7 12 7h16q5 0 7 -3.5t-2 -8.5l-79 -111q-5 -7 -12 -7h-11q-6 0 -7.5 3.5z" />
    <glyph glyph-name="uni0218" unicode="&#x218;" horiz-adv-x="392" 
d="M80 31q-35 39 -35 104q0 9 2 31l2 19q2 10 11 10h17q5 0 7.5 -3t1.5 -7l-2 -18q-2 -18 -2 -27q0 -52 26 -83t70 -31q35 0 65 20t48 56t18 82q0 33 -12.5 57.5t-31.5 43t-61 54.5q-40 35 -62.5 58t-36.5 53t-14 69q0 8 2 28q10 75 55 118t109 43q60 0 95 -39t35 -105
q0 -10 -2 -32l-3 -25q0 -4 -3 -7t-8 -3h-18q-10 0 -8 10l3 25q2 18 2 26q0 53 -26.5 84.5t-70.5 31.5q-47 0 -81.5 -34t-41.5 -95q-1 -8 -1 -22q0 -42 22 -72t78 -77q46 -39 70 -63.5t37 -51.5t13 -62q0 -8 -2 -28q-10 -80 -58 -128.5t-114 -48.5q-60 0 -95 39z
M122.5 -201.5q-1.5 3.5 2.5 8.5l74 111q5 7 12 7h16q5 0 7 -3.5t-2 -8.5l-79 -111q-5 -7 -12 -7h-11q-6 0 -7.5 3.5z" />
    <glyph glyph-name="uni0219" unicode="&#x219;" horiz-adv-x="347" 
d="M75 25.5q-32 29.5 -32 76.5q0 11 1 17v5q2 10 11 10h18q10 0 8 -10v-5q-1 -5 -1 -13q0 -34 23 -55.5t63 -21.5q46 0 75.5 31t29.5 80q0 37 -23 56.5t-70 40.5q-49 22 -75.5 47t-26.5 73q0 12 1 19q7 59 47 94.5t98 35.5q53 0 84 -29.5t31 -78.5q0 -14 -1 -21v-3
q-2 -10 -11 -10h-16q-5 0 -7.5 3t-1.5 7l1 4l1 12q0 36 -23 59.5t-61 23.5q-46 0 -75.5 -31.5t-29.5 -78.5q0 -35 21.5 -53.5t65.5 -39.5q36 -16 57 -29t36.5 -36t15.5 -58q0 -68 -41 -109.5t-107 -41.5q-54 0 -86 29.5zM109.5 -197.5q-1.5 3.5 2.5 8.5l74 111q5 7 12 7h16
q5 0 7 -3.5t-2 -8.5l-79 -111q-5 -7 -12 -7h-11q-6 0 -7.5 3.5z" />
    <glyph glyph-name="uni021A" unicode="&#x21a;" horiz-adv-x="390" 
d="M418 690l-1 -15q-1 -4 -4 -7t-7 -3h-130q-3 0 -5 -4l-80 -651q0 -4 -3 -7t-8 -3h-18q-10 0 -8 10l79 651q1 1 0 2.5t-3 1.5h-121q-9 0 -9 10l2 15q2 10 11 10h297q10 0 8 -10zM56.5 -197.5q-1.5 3.5 2.5 8.5l74 111q5 7 12 7h16q5 0 7 -3.5t-2 -8.5l-79 -111
q-5 -7 -12 -7h-11q-6 0 -7.5 3.5z" />
    <glyph glyph-name="uni021B" unicode="&#x21b;" horiz-adv-x="248" 
d="M245 470h-81q-4 0 -4 -4l-41 -336q-2 -22 -2 -29q0 -37 15.5 -51.5t47.5 -14.5h11q4 0 6.5 -3t1.5 -7l-2 -15q-2 -10 -11 -10h-16q-45 0 -68.5 19.5t-23.5 70.5q0 9 2 33l42 343q0 4 -3 4h-40q-10 0 -8 10l1 12q2 10 11 10h40q4 0 4 4l14 112q2 10 11 10h18q9 0 9 -10
l-14 -112q0 -4 3 -4h81q10 0 8 -10l-1 -12q-2 -10 -11 -10zM78.5 -181.5q-1.5 3.5 2.5 8.5l74 111q5 7 12 7h16q5 0 7 -3.5t-2 -8.5l-79 -111q-5 -7 -12 -7h-11q-6 0 -7.5 3.5z" />
    <glyph glyph-name="uni021F" unicode="&#x21f;" horiz-adv-x="401" 
d="M337.5 477.5q27.5 -31.5 27.5 -88.5q0 -9 -2 -33l-43 -346q0 -4 -3 -7t-8 -3h-18q-10 0 -8 10l42 342q2 18 2 26q0 46 -21.5 71t-61.5 25q-45 0 -76 -34.5t-38 -94.5l-41 -335q-1 -4 -4 -7t-7 -3h-19q-10 0 -8 10l83 680q2 10 11 10h19q4 0 6.5 -3t1.5 -7l-30 -242
q0 -3 1.5 -3t3.5 2q20 31 49 46.5t63 15.5q51 0 78.5 -31.5zM209 888q0 7 8 7h21q7 0 10 -7l39 -80q1 -1 3 -1t3 1l57 80q7 7 13 7h20q12 0 5 -12l-78 -102q-4 -6 -12 -6h-27q-6 0 -10 7l-51 101q-1 2 -1 5z" />
    <glyph glyph-name="uni0228" unicode="&#x228;" horiz-adv-x="412" 
d="M419 665h-234q-1 0 -2.5 -1t-1.5 -3l-35 -289q-1 -1 0 -2.5t3 -1.5h153q9 0 9 -10l-2 -15q-2 -10 -11 -10h-153q-3 0 -5 -4l-35 -290q-1 -1 0 -2.5t3 -1.5h234q10 0 8 -10l-2 -15q0 -4 -3 -7t-7 -3h-112q-5 0 -2 -5q29 -35 29 -76q0 -19 -6 -37q-8 -31 -28.5 -45
t-46.5 -14q-14 0 -24 3q-8 2 -5 12l3 7q3 10 12 7q5 -1 13 -1q38 0 49 41q3 12 3 23q0 42 -34 83q-2 2 -5 2h-112q-9 0 -9 10l84 680q2 10 11 10h266q4 0 6.5 -3t1.5 -7l-2 -15q-2 -10 -11 -10z" />
    <glyph glyph-name="uni0229" unicode="&#x229;" horiz-adv-x="383" 
d="M333 240h-225q-4 0 -4 -4l-12 -96q-1 -6 -1 -18q0 -43 23.5 -69t63.5 -26q36 0 65.5 22.5t42.5 58.5q5 9 12 9l17 -1q5 0 7 -3t1 -8q-13 -44 -45.5 -73.5t-76.5 -37.5q-5 -1 -3 -5q25 -32 25 -70q0 -19 -6 -37q-9 -31 -29.5 -45t-46.5 -14q-12 0 -23 3q-8 2 -5 11l2 8
q2 5 5 6.5t7 0.5t13 -1q22 0 36.5 15.5t14.5 49.5t-27 74q-2 2 -5 2q-49 4 -77.5 37.5t-28.5 85.5q0 15 1 23l27 225q8 65 51.5 106t104.5 41q57 0 89.5 -34.5t32.5 -90.5q0 -14 -1 -22l-14 -113q-2 -10 -11 -10zM157 443.5q-32 -31.5 -38 -81.5l-10 -85q-1 -1 0 -2.5
t3 -1.5h193q4 0 4 4l11 85q1 6 1 18q0 43 -24 69t-64 26q-44 0 -76 -31.5z" />
    <glyph glyph-name="uni0237" unicode="&#x237;" horiz-adv-x="183" 
d="M-60 -200l1 15q2 10 11 10q38 3 61 32.5t29 79.5l68 555q2 10 11 10h18q9 0 9 -10l-68 -555q-18 -143 -132 -147q-10 0 -8 10z" />
    <glyph glyph-name="uni0259" unicode="&#x259;" horiz-adv-x="383" 
d="M320 476.5q33 -33.5 33 -88.5q0 -8 -2 -24l-27 -225q-8 -65 -51 -106t-104 -41q-57 0 -89.5 34.5t-32.5 90.5q0 14 1 22l14 113q2 10 11 10h224q4 0 4 4l12 96q1 6 1 19q0 42 -23.5 68t-62.5 26q-36 0 -65.5 -22.5t-42.5 -58.5q-4 -9 -12 -9l-17 1q-5 0 -7 3t-1 7
q16 52 55.5 83t93.5 31q55 0 88 -33.5zM248.5 59q31.5 32 37.5 81l10 85q1 1 0 2.5t-3 1.5h-192q-3 0 -5 -4l-10 -85q-1 -6 -1 -18q0 -42 24 -68.5t64 -26.5q44 0 75.5 32z" />
    <glyph glyph-name="uni0292" unicode="&#x292;" horiz-adv-x="437" 
d="M156 232q111 0 164.5 -48.5t53.5 -132.5q0 -11 -2 -35q-10 -77 -50 -128.5t-96.5 -76t-117.5 -24.5q-47 0 -87 14q-6 3 -5 12l3 15q1 5 4 7.5t8 0.5q36 -12 77 -12q82 0 148 45.5t78 146.5q2 20 2 31q0 67 -43.5 109t-149.5 42q-24 0 -36 -1h-3q-8 0 -8 8l-1 11q0 7 5 14
l241 231q3 5 -2 5h-206q-9 0 -9 10l2 16q2 10 11 10h251q4 0 6.5 -3t1.5 -7l-2 -19q-2 -8 -7 -12l-232 -224q-3 -5 1 -5z" />
    <glyph glyph-name="uni02BB" unicode="&#x2bb;" horiz-adv-x="91" 
d="M69 691q0 9 9 9h21q4 0 6.5 -2.5t2.5 -6.5l24 -175v-2q0 -9 -10 -9h-11q-4 0 -7 2t-4 6l-31 176v2z" />
    <glyph glyph-name="uni02BC" unicode="&#x2bc;" horiz-adv-x="91" 
d="M152 689l-74 -176q-5 -8 -13 -8h-11q-12 0 -7 11l67 175q4 9 12 9h20q11 0 6 -11z" />
    <glyph glyph-name="circumflex" unicode="&#x2c6;" horiz-adv-x="193" 
d="M86 592l76 101q5 7 12 7h26q8 0 11 -6l53 -102q1 -2 1 -5q0 -7 -9 -7h-20q-6 0 -11 7l-37 80q-1 2 -3 2t-3 -2l-59 -80q-5 -7 -12 -7h-20q-12 0 -5 12z" />
    <glyph glyph-name="caron" unicode="&#x2c7;" horiz-adv-x="244" 
d="M97 693q0 7 8 7h21q7 0 10 -7l39 -80q1 -1 3 -1t3 1l57 80q7 7 13 7h20q12 0 5 -12l-78 -102q-4 -6 -12 -6h-27q-6 0 -10 7l-51 101q-1 2 -1 5z" />
    <glyph glyph-name="uni02C9" unicode="&#x2c9;" horiz-adv-x="189" 
d="M65.5 671q-2.5 3 -1.5 7l1 12q2 10 11 10h170q10 0 8 -10l-1 -12q-2 -10 -11 -10h-170q-4 0 -6.5 3z" />
    <glyph glyph-name="breve" unicode="&#x2d8;" horiz-adv-x="240" 
d="M109 587.5q-24 25.5 -23 64.5q2 10 11 10h9q9 0 9 -12q0 -27 16.5 -44t41.5 -17q26 0 47 18t27 45q3 10 12 10h9q4 0 6 -3t1 -7q-8 -39 -38 -64.5t-67 -25.5t-61 25.5z" />
    <glyph glyph-name="dotaccent" unicode="&#x2d9;" horiz-adv-x="139" 
d="M96.5 621q-10.5 11 -10.5 28q0 22 14.5 37t34.5 15q17 0 28.5 -10.5t11.5 -27.5q0 -23 -14.5 -38t-36.5 -15q-17 0 -27.5 11z" />
    <glyph glyph-name="ring" unicode="&#x2da;" horiz-adv-x="241" 
d="M114 611q-24 25 -24 62q0 30 15 56.5t40 42.5t53 16q36 0 60 -25t24 -62q0 -30 -15 -56.5t-40 -42.5t-53 -16q-36 0 -60 25zM231 639q23 24 23 58q0 27 -16.5 44.5t-42.5 17.5q-31 0 -54.5 -24t-23.5 -58q0 -27 17 -44.5t43 -17.5q31 0 54 24z" />
    <glyph glyph-name="ogonek" unicode="&#x2db;" horiz-adv-x="103" 
d="M52 -180q-12 -3 -24 -3q-26 0 -44 14.5t-18 47.5q0 67 58 114q4 3 4 4q5 3 11 3h8q5 0 6 -4t-3 -8q-52 -52 -52 -100q0 -43 37 -43q9 0 14 1l4 1q7 0 7 -8l1 -7q0 -11 -9 -12z" />
    <glyph glyph-name="tilde" unicode="&#x2dc;" horiz-adv-x="295" 
d="M227 625q-11 6 -24 17l-12 9t-15 9t-15 3q-15 0 -26 -5.5t-24 -21.5q-8 -9 -14 -3l-5 4q-8 5 -2 14q32 44 74 44q14 0 25 -6t25 -17q3 -2 11.5 -9t16 -10.5t15.5 -3.5q14 0 25 6.5t23 24.5q3 4 7 5t7 -1l6 -3q3 -1 3 -7q0 -8 -5 -14q-16 -21 -35.5 -31t-36.5 -10
q-13 0 -24 6z" />
    <glyph glyph-name="hungarumlaut" unicode="&#x2dd;" horiz-adv-x="264" 
d="M83 581.5q-2 3.5 2 8.5l74 111q5 7 12 7h15q6 0 7.5 -3.5t-2.5 -8.5l-77 -111q-7 -7 -13 -7h-11q-5 0 -7 3.5zM189.5 581.5q-1.5 3.5 2.5 8.5l74 111q5 7 12 7h15q5 0 7 -3.5t-2 -8.5l-78 -111q-5 -7 -12 -7h-11q-6 0 -7.5 3.5z" />
    <glyph glyph-name="gravecomb" unicode="&#x300;" 
d="M46 578q0 -8 -9 -8h-12q-6 0 -11 7l-50 111q-1 2 -1 5q0 7 9 7h16q6 0 10 -7l47 -111z" />
    <glyph glyph-name="acutecomb" unicode="&#x301;" 
d="M-51.5 573.5q-1.5 3.5 2.5 8.5l74 111q5 7 12 7h16q5 0 7 -3.5t-2 -8.5l-79 -111q-5 -7 -12 -7h-11q-6 0 -7.5 3.5z" />
    <glyph glyph-name="uni0302" unicode="&#x302;" 
d="M-158 592l76 101q5 7 12 7h26q8 0 11 -6l53 -102q1 -2 1 -5q0 -7 -9 -7h-20q-6 0 -11 7l-37 80q-1 2 -3 2t-3 -2l-59 -80q-5 -7 -12 -7h-20q-12 0 -5 12z" />
    <glyph glyph-name="tildecomb" unicode="&#x303;" 
d="M-42 625q-11 6 -24 17l-12 9t-15 9t-15 3q-15 0 -26 -5.5t-24 -21.5q-8 -9 -14 -3l-5 4q-8 5 -2 14q32 44 74 44q14 0 25 -6t25 -17q3 -2 11.5 -9t16 -10.5t15.5 -3.5q14 0 25 6.5t23 24.5q3 4 7 5t7 -1l6 -3q3 -1 3 -7q0 -8 -5 -14q-16 -21 -35.5 -31t-36.5 -10
q-13 0 -24 6z" />
    <glyph glyph-name="uni0304" unicode="&#x304;" 
d="M-129 643l1 12q2 10 11 10h170q10 0 8 -10l-1 -12q-2 -10 -11 -10h-170q-10 0 -8 10z" />
    <glyph glyph-name="uni0306" unicode="&#x306;" 
d="M-128 611.5q-24 25.5 -23 64.5q2 10 11 10h8q10 0 10 -12q0 -26 16.5 -43.5t41.5 -17.5q26 0 47 18t27 45q3 10 12 10h8q5 0 7 -3t1 -7q-8 -39 -38 -64.5t-67 -25.5t-61 25.5z" />
    <glyph glyph-name="uni0307" unicode="&#x307;" 
d="M-19.5 621q-10.5 11 -10.5 28q0 22 14.5 37t34.5 15q17 0 28.5 -10.5t11.5 -27.5q0 -23 -14.5 -38t-36.5 -15q-17 0 -27.5 11z" />
    <glyph glyph-name="uni0308" unicode="&#x308;" 
d="M-17.5 621q-10.5 11 -10.5 28q0 22 14.5 37t34.5 15q17 0 28.5 -10.5t11.5 -27.5q0 -23 -14.5 -38t-36.5 -15q-17 0 -27.5 11zM-147.5 621q-10.5 11 -10.5 28q0 22 14.5 37t34.5 15q17 0 28.5 -10.5t11.5 -27.5q0 -23 -14.5 -38t-36.5 -15q-17 0 -27.5 11z" />
    <glyph glyph-name="hookabovecomb" unicode="&#x309;" 
d="M-270.5 551.5q-1.5 3.5 1.5 7.5q13 23 39 45q16 14 23.5 24t9.5 25q2 17 -10.5 29.5t-31.5 12.5t-31.5 -8.5t-29.5 -29.5q-7 -8 -13 -2l-6 4q-7 7 0 13q20 27 37.5 38.5t46.5 11.5t48 -17t19 -43q0 -25 -12 -42t-35 -37q-3 -2 -13 -11.5t-16 -18.5q-2 -1 -2 -2t-1 -2
q-3 -7 -11 -5l-7 2q-4 2 -5.5 5.5z" />
    <glyph glyph-name="uni030A" unicode="&#x30a;" 
d="M-100 611q-24 25 -24 62q0 30 15 56.5t40 42.5t53 16q36 0 60 -25t24 -62q0 -30 -15 -56.5t-40 -42.5t-53 -16q-36 0 -60 25zM17 639q23 24 23 58q0 27 -16.5 44.5t-42.5 17.5q-31 0 -54.5 -24t-23.5 -58q0 -27 17 -44.5t43 -17.5q31 0 54 24z" />
    <glyph glyph-name="uni030B" unicode="&#x30b;" 
d="M-181 573.5q-2 3.5 2 8.5l72 111q3 7 12 7h16q6 0 7.5 -3.5t-2.5 -8.5l-75 -111q-5 -7 -12 -7h-13q-5 0 -7 3.5zM-74.5 573.5q-1.5 3.5 2.5 8.5l73 111q3 7 12 7h15q5 0 7 -3.5t-2 -8.5l-75 -111q-5 -7 -12 -7h-13q-6 0 -7.5 3.5z" />
    <glyph glyph-name="uni030C" unicode="&#x30c;" 
d="M-147 693q0 7 8 7h21q7 0 10 -7l39 -80q1 -1 3 -1t3 1l57 80q7 7 13 7h20q12 0 5 -12l-78 -102q-4 -6 -12 -6h-27q-6 0 -10 7l-51 101q-1 2 -1 5z" />
    <glyph glyph-name="uni0312" unicode="&#x312;" 
d="M35.5 696.5q1.5 -3.5 -2.5 -8.5l-74 -111q-5 -7 -12 -7h-16q-5 0 -7 3.5t2 8.5l78 111q5 7 12 7h12q6 0 7.5 -3.5z" />
    <glyph glyph-name="uni0313" unicode="&#x313;" 
d="M-51.5 573.5q-1.5 3.5 2.5 8.5l74 111q5 7 12 7h16q5 0 7 -3.5t-2 -8.5l-79 -111q-5 -7 -12 -7h-11q-6 0 -7.5 3.5z" />
    <glyph glyph-name="uni031B" unicode="&#x31b;" 
d="M-73 476q-7 0 -7 9l1 7q2 10 11 11q23 3 42 21t25 45q1 10 12 10h8q10 0 8 -11q-8 -38 -35.5 -63.5t-62.5 -28.5h-2z" />
    <glyph glyph-name="dotbelowcomb" unicode="&#x323;" 
d="M-113 -159q-10 10 -10 27q0 21 13.5 35t33.5 14q16 0 26 -10t10 -27q0 -21 -13.5 -35t-33.5 -14q-16 0 -26 10z" />
    <glyph glyph-name="uni0326" unicode="&#x326;" 
d="M-172.5 -193.5q-1.5 3.5 2.5 8.5l74 111q5 7 12 7h16q5 0 7 -3.5t-2 -8.5l-79 -111q-5 -7 -12 -7h-11q-6 0 -7.5 3.5z" />
    <glyph glyph-name="uni0327" unicode="&#x327;" 
d="M-140 -169l2 8q1 4 4.5 6.5t7.5 0.5q5 -1 14 -1q22 0 36.5 15t14.5 49q0 38 -30 79q-2 2 -2 6q0 6 7 6h9q5 0 10 -3l3 -4q33 -36 33 -82q0 -16 -5 -36q-9 -31 -29.5 -44.5t-46.5 -13.5q-12 0 -23 3q-8 2 -5 11z" />
    <glyph glyph-name="uni0328" unicode="&#x328;" 
d="M-51 -180q-12 -3 -24 -3q-26 0 -44 14.5t-18 47.5q0 66 57 114q4 3 4 4q4 3 11 3h8q5 0 6.5 -4t-3.5 -8q-51 -51 -51 -100q0 -43 37 -43q9 0 14 1l4 1q7 0 7 -8l1 -7q0 -11 -9 -12z" />
    <glyph glyph-name="uni0335" unicode="&#x335;" 
d="M-187 603h230q9 0 9 -10l-2 -10q0 -4 -3 -7t-7 -3h-230q-5 0 -7.5 3t-1.5 7l1 10q2 10 11 10z" />
    <glyph glyph-name="uni0336" unicode="&#x336;" 
d="M-338 528l2 12q2 10 11 10h364q4 0 6.5 -3t1.5 -7l-1 -12q-1 -4 -4 -7t-7 -3h-364q-9 0 -9 10z" />
    <glyph glyph-name="uni0337" unicode="&#x337;" 
d="M-257 143q-5 0 -8 5l-7 11q-1 2 -1 5q0 4 5 9l342 221q3 3 7 3q3 0 6 -5l6 -12q2 -4 2 -6q0 -3 -5 -8l-342 -221z" />
    <glyph glyph-name="uni0338" unicode="&#x338;" 
d="M-354 -29.5q-2 3.5 1 8.5l387 754q4 8 12 8h13q5 0 7 -3.5t-1 -8.5l-388 -754q-3 -8 -11 -8h-13q-5 0 -7 3.5z" />
    <glyph glyph-name="uni0394" unicode="&#x394;" horiz-adv-x="466" 
d="M-8 10l2 19q0 4 1 7t2 5l282 651q5 8 13 8h15q8 0 11 -8l121 -652q1 -4 1 -12l-2 -18q-2 -10 -11 -10h-427q-10 0 -8 10zM34 36.5q1 -1.5 3 -1.5h361q2 0 3.5 1.5t1.5 3.5l-108 603q0 2 -2 2t-4 -2l-255 -603q-1 -2 0 -3.5z" />
    <glyph glyph-name="uni03A9" unicode="&#x3a9;" horiz-adv-x="460" 
d="M46.5 3q-2.5 3 -1.5 7l2 15q0 4 3 7t8 3h61q5 0 2 5q-44 36 -44 104q0 8 2 26l46 373q9 74 57 119.5t116 45.5q63 0 100 -38t37 -101q0 -8 -2 -26l-45 -373q-5 -42 -25 -76t-51 -54q-2 -2 -1 -3.5t3 -1.5h59q10 0 8 -10l-1 -15q-1 -4 -4 -7t-7 -3h-122q-4 0 -6.5 3
t-1.5 7l2 16q1 9 10 10q35 8 63 43t35 83l47 383q1 7 1 20q0 49 -28 78.5t-75 29.5q-52 0 -88 -35.5t-43 -92.5l-47 -383q-1 -7 -1 -21q0 -41 18.5 -69t47.5 -36q8 -1 7 -10l-2 -16q0 -4 -3 -7t-7 -3h-123q-4 0 -6.5 3z" />
    <glyph glyph-name="uni03BC" unicode="&#x3bc;" horiz-adv-x="407" 
d="M345 499q3 3 8 3h18q9 0 9 -10l-60 -482q0 -4 -3 -7t-8 -3h-18q-10 0 -8 10l4 40q1 3 -1 3.5t-3 -2.5q-39 -58 -108 -58q-51 0 -80 29q-2 1 -3.5 0t-1.5 -3l-26 -209q-2 -10 -11 -10h-18q-5 0 -7.5 3t-1.5 7l84 682q2 10 11 10h18q9 0 9 -10l-43 -345q-2 -18 -2 -26
q0 -46 21.5 -69.5t61.5 -23.5q45 0 76.5 34.5t38.5 94.5l41 335q0 4 3 7z" />
    <glyph glyph-name="pi" unicode="&#x3c0;" horiz-adv-x="479" 
d="M480 471q-3 -3 -7 -3h-50q-4 0 -4 -4l-48 -389q-3 -22 7 -29t35 -8q9 0 9 -10l-3 -18q0 -4 -3 -7t-8 -3q-38 1 -57.5 11.5t-19.5 38.5q0 9 1 14l49 400q0 4 -3 4h-193q-2 0 -3.5 -1t-1.5 -3l-56 -454q0 -4 -3 -7t-8 -3h-18q-10 0 -8 10l55 454q1 1 0 2.5t-3 1.5h-56
q-5 0 -7.5 3t-1.5 7l2 14q2 10 11 10h390q10 0 8 -10l-1 -14q-1 -4 -4 -7z" />
    <glyph glyph-name="Wgrave" unicode="&#x1e80;" horiz-adv-x="574" 
d="M140 9l-43 680q0 11 10 11h20q9 0 9 -9l34 -598q0 -2 1 -2t2 2l164 598q3 9 11 9h18q9 0 9 -9l20 -598q0 -2 1 -2t2 2l171 598q3 9 12 9h20q5 0 7 -3t0 -8l-202 -680q-3 -9 -12 -9h-20q-8 0 -8 9l-18 596q-1 2 -2 2t-2 -2l-165 -596q-3 -9 -11 -9h-19q-9 0 -9 9zM378 776
q0 -8 -9 -8h-12q-6 0 -11 7l-50 111q-1 2 -1 5q0 7 9 7h16q6 0 10 -7l47 -111z" />
    <glyph glyph-name="wgrave" unicode="&#x1e81;" horiz-adv-x="512" 
d="M111 9l-43 482q0 11 10 11h18q9 0 9 -9l31 -428q0 -3 1.5 -3t2.5 3l136 428q3 9 12 9h17q9 0 10 -9l32 -428q1 -3 2 -3t2 3l137 428q3 9 12 9h18q4 0 6.5 -3t0.5 -8l-162 -482q-3 -9 -12 -9h-19q-10 0 -10 9l-33 414q-1 3 -2 3t-2 -3l-134 -414q-1 -9 -11 -9h-20
q-9 0 -9 9zM318 578q0 -8 -9 -8h-12q-6 0 -11 7l-50 111q-1 2 -1 5q0 7 9 7h16q6 0 10 -7l47 -111z" />
    <glyph glyph-name="Wacute" unicode="&#x1e82;" horiz-adv-x="574" 
d="M140 9l-43 680q0 11 10 11h20q9 0 9 -9l34 -598q0 -2 1 -2t2 2l164 598q3 9 11 9h18q9 0 9 -9l20 -598q0 -2 1 -2t2 2l171 598q3 9 12 9h20q5 0 7 -3t0 -8l-202 -680q-3 -9 -12 -9h-20q-8 0 -8 9l-18 596q-1 2 -2 2t-2 -2l-165 -596q-3 -9 -11 -9h-19q-9 0 -9 9z
M333.5 771.5q-1.5 3.5 2.5 8.5l74 111q5 7 12 7h16q5 0 7 -3.5t-2 -8.5l-79 -111q-5 -7 -12 -7h-11q-6 0 -7.5 3.5z" />
    <glyph glyph-name="wacute" unicode="&#x1e83;" horiz-adv-x="512" 
d="M111 9l-43 482q0 11 10 11h18q9 0 9 -9l31 -428q0 -3 1.5 -3t2.5 3l136 428q3 9 12 9h17q9 0 10 -9l32 -428q1 -3 2 -3t2 3l137 428q3 9 12 9h18q4 0 6.5 -3t0.5 -8l-162 -482q-3 -9 -12 -9h-19q-10 0 -10 9l-33 414q-1 3 -2 3t-2 -3l-134 -414q-1 -9 -11 -9h-20
q-9 0 -9 9zM273.5 573.5q-1.5 3.5 2.5 8.5l74 111q5 7 12 7h16q5 0 7 -3.5t-2 -8.5l-79 -111q-5 -7 -12 -7h-11q-6 0 -7.5 3.5z" />
    <glyph glyph-name="Wdieresis" unicode="&#x1e84;" horiz-adv-x="574" 
d="M140 9l-43 680q0 11 10 11h20q9 0 9 -9l34 -598q0 -2 1 -2t2 2l164 598q3 9 11 9h18q9 0 9 -9l20 -598q0 -2 1 -2t2 2l171 598q3 9 12 9h20q5 0 7 -3t0 -8l-202 -680q-3 -9 -12 -9h-20q-8 0 -8 9l-18 596q-1 2 -2 2t-2 -2l-165 -596q-3 -9 -11 -9h-19q-9 0 -9 9z
M405.5 819q-10.5 11 -10.5 28q0 22 14.5 37t34.5 15q17 0 28.5 -10.5t11.5 -27.5q0 -23 -14.5 -38t-36.5 -15q-17 0 -27.5 11zM275.5 819q-10.5 11 -10.5 28q0 22 14.5 37t34.5 15q17 0 28.5 -10.5t11.5 -27.5q0 -23 -14.5 -38t-36.5 -15q-17 0 -27.5 11z" />
    <glyph glyph-name="wdieresis" unicode="&#x1e85;" horiz-adv-x="512" 
d="M111 9l-43 482q0 11 10 11h18q9 0 9 -9l31 -428q0 -3 1.5 -3t2.5 3l136 428q3 9 12 9h17q9 0 10 -9l32 -428q1 -3 2 -3t2 3l137 428q3 9 12 9h18q4 0 6.5 -3t0.5 -8l-162 -482q-3 -9 -12 -9h-19q-10 0 -10 9l-33 414q-1 3 -2 3t-2 -3l-134 -414q-1 -9 -11 -9h-20
q-9 0 -9 9zM346.5 621q-10.5 11 -10.5 28q0 22 14.5 37t34.5 15q17 0 28.5 -10.5t11.5 -27.5q0 -23 -14.5 -38t-36.5 -15q-17 0 -27.5 11zM216.5 621q-10.5 11 -10.5 28q0 22 14.5 37t34.5 15q17 0 28.5 -10.5t11.5 -27.5q0 -23 -14.5 -38t-36.5 -15q-17 0 -27.5 11z" />
    <glyph glyph-name="uni1EA0" unicode="&#x1ea0;" horiz-adv-x="365" 
d="M297 9l-11 136q0 2 -1.5 3t-3.5 1h-200q-2 0 -3.5 -1t-1.5 -3l-45 -136q-3 -9 -12 -9h-18q-5 0 -7 3t0 8l231 680q2 9 11 9h25q9 0 9 -9l65 -680q0 -11 -10 -11h-18q-10 0 -10 9zM90 183.5q1 -1.5 2 -1.5h186q2 0 3.5 1.5t0.5 2.5l-39 447q-1 3 -2 3t-2 -3l-149 -447
q-1 -1 0 -2.5zM117 -159q-10 10 -10 27q0 21 13.5 35t33.5 14q16 0 26 -10t10 -27q0 -21 -13.5 -35t-33.5 -14q-16 0 -26 10z" />
    <glyph glyph-name="uni1EA1" unicode="&#x1ea1;" horiz-adv-x="384" 
d="M345 502h18q5 0 7.5 -3t1.5 -7l-59 -482q-1 -4 -4 -7t-7 -3h-19q-10 0 -8 10l5 39q0 3 -2 3.5t-3 -2.5q-20 -28 -48 -43t-60 -15q-53 0 -84 33.5t-31 88.5q0 7 2 25l27 224q8 66 49 106.5t100 40.5q33 0 57.5 -15t36.5 -43q1 -3 3 -2.5t2 3.5l5 39q2 10 11 10zM254 58.5
q31 31.5 37 81.5l27 222q1 7 1 19q0 43 -23 68.5t-61 25.5q-45 0 -77.5 -31.5t-38.5 -81.5l-27 -222q-1 -6 -1 -18q0 -42 24.5 -68.5t64.5 -26.5q43 0 74 31.5zM126 -159q-10 10 -10 27q0 21 13.5 35t33.5 14q16 0 26 -10t10 -27q0 -21 -13.5 -35t-33.5 -14q-16 0 -26 10z
" />
    <glyph glyph-name="uni1EA2" unicode="&#x1ea2;" horiz-adv-x="365" 
d="M297 9l-11 136q0 2 -1.5 3t-3.5 1h-200q-2 0 -3.5 -1t-1.5 -3l-45 -136q-3 -9 -12 -9h-18q-5 0 -7 3t0 8l231 680q2 9 11 9h25q9 0 9 -9l65 -680q0 -11 -10 -11h-18q-10 0 -10 9zM90 183.5q1 -1.5 2 -1.5h186q2 0 3.5 1.5t0.5 2.5l-39 447q-1 3 -2 3t-2 -3l-149 -447
q-1 -1 0 -2.5zM244.5 749.5q-1.5 3.5 1.5 7.5q13 23 39 45q16 14 23.5 24t9.5 25q2 17 -10.5 29.5t-31.5 12.5t-31.5 -8.5t-29.5 -29.5q-7 -8 -13 -2l-6 4q-7 7 0 13q20 27 37.5 38.5t46.5 11.5t48 -17t19 -43q0 -25 -12 -42t-35 -37q-3 -2 -13 -11.5t-16 -18.5q-2 -1 -2 -2
t-1 -2q-3 -7 -11 -5l-7 2q-4 2 -5.5 5.5z" />
    <glyph glyph-name="uni1EA3" unicode="&#x1ea3;" horiz-adv-x="384" 
d="M345 502h18q5 0 7.5 -3t1.5 -7l-59 -482q-1 -4 -4 -7t-7 -3h-19q-10 0 -8 10l5 39q0 3 -2 3.5t-3 -2.5q-20 -28 -48 -43t-60 -15q-53 0 -84 33.5t-31 88.5q0 7 2 25l27 224q8 66 49 106.5t100 40.5q33 0 57.5 -15t36.5 -43q1 -3 3 -2.5t2 3.5l5 39q2 10 11 10zM254 58.5
q31 31.5 37 81.5l27 222q1 7 1 19q0 43 -23 68.5t-61 25.5q-45 0 -77.5 -31.5t-38.5 -81.5l-27 -222q-1 -6 -1 -18q0 -42 24.5 -68.5t64.5 -26.5q43 0 74 31.5zM229.5 551.5q-1.5 3.5 1.5 7.5q13 23 39 45q16 14 23.5 24t9.5 25q2 17 -10.5 29.5t-31.5 12.5t-31.5 -8.5
t-29.5 -29.5q-7 -8 -13 -2l-6 4q-7 7 0 13q20 27 37.5 38.5t46.5 11.5t48 -17t19 -43q0 -25 -12 -42t-35 -37q-3 -2 -13 -11.5t-16 -18.5q-2 -1 -2 -2t-1 -2q-3 -7 -11 -5l-7 2q-4 2 -5.5 5.5z" />
    <glyph glyph-name="uni1EA4" unicode="&#x1ea4;" horiz-adv-x="365" 
d="M297 9l-11 136q0 2 -1.5 3t-3.5 1h-200q-2 0 -3.5 -1t-1.5 -3l-45 -136q-3 -9 -12 -9h-18q-5 0 -7 3t0 8l231 680q2 9 11 9h25q9 0 9 -9l65 -680q0 -11 -10 -11h-18q-10 0 -10 9zM90 183.5q1 -1.5 2 -1.5h186q2 0 3.5 1.5t0.5 2.5l-39 447q-1 3 -2 3t-2 -3l-149 -447
q-1 -1 0 -2.5zM170 790l76 101q5 7 12 7h26q8 0 11 -6l53 -102q1 -2 1 -5q0 -7 -9 -7h-20q-6 0 -11 7l-37 80q-1 2 -3 2t-3 -2l-59 -80q-5 -7 -12 -7h-20q-12 0 -5 12zM362.5 847.5q-1.5 3.5 2.5 8.5l74 111q5 7 12 7h16q5 0 7 -3.5t-2 -8.5l-79 -111q-5 -7 -12 -7h-11
q-6 0 -7.5 3.5z" />
    <glyph glyph-name="uni1EA5" unicode="&#x1ea5;" horiz-adv-x="384" 
d="M345 502h18q5 0 7.5 -3t1.5 -7l-59 -482q-1 -4 -4 -7t-7 -3h-19q-10 0 -8 10l5 39q0 3 -2 3.5t-3 -2.5q-20 -28 -48 -43t-60 -15q-53 0 -84 33.5t-31 88.5q0 7 2 25l27 224q8 66 49 106.5t100 40.5q33 0 57.5 -15t36.5 -43q1 -3 3 -2.5t2 3.5l5 39q2 10 11 10zM254 58.5
q31 31.5 37 81.5l27 222q1 7 1 19q0 43 -23 68.5t-61 25.5q-45 0 -77.5 -31.5t-38.5 -81.5l-27 -222q-1 -6 -1 -18q0 -42 24.5 -68.5t64.5 -26.5q43 0 74 31.5zM156 592l76 101q5 7 12 7h26q8 0 11 -6l53 -102q1 -2 1 -5q0 -7 -9 -7h-20q-6 0 -11 7l-37 80q-1 2 -3 2t-3 -2
l-59 -80q-5 -7 -12 -7h-20q-12 0 -5 12zM348.5 649.5q-1.5 3.5 2.5 8.5l74 111q5 7 12 7h16q5 0 7 -3.5t-2 -8.5l-79 -111q-5 -7 -12 -7h-11q-6 0 -7.5 3.5z" />
    <glyph glyph-name="uni1EA6" unicode="&#x1ea6;" horiz-adv-x="365" 
d="M297 9l-11 136q0 2 -1.5 3t-3.5 1h-200q-2 0 -3.5 -1t-1.5 -3l-45 -136q-3 -9 -12 -9h-18q-5 0 -7 3t0 8l231 680q2 9 11 9h25q9 0 9 -9l65 -680q0 -11 -10 -11h-18q-10 0 -10 9zM90 183.5q1 -1.5 2 -1.5h186q2 0 3.5 1.5t0.5 2.5l-39 447q-1 3 -2 3t-2 -3l-149 -447
q-1 -1 0 -2.5zM170 790l76 101q5 7 12 7h26q8 0 11 -6l53 -102q1 -2 1 -5q0 -7 -9 -7h-20q-6 0 -11 7l-37 80q-1 2 -3 2t-3 -2l-59 -80q-5 -7 -12 -7h-20q-12 0 -5 12zM412 897q0 -8 -9 -8h-12q-6 0 -11 7l-50 111q-1 2 -1 5q0 7 9 7h16q6 0 10 -7l47 -111z" />
    <glyph glyph-name="uni1EA7" unicode="&#x1ea7;" horiz-adv-x="384" 
d="M345 502h18q5 0 7.5 -3t1.5 -7l-59 -482q-1 -4 -4 -7t-7 -3h-19q-10 0 -8 10l5 39q0 3 -2 3.5t-3 -2.5q-20 -28 -48 -43t-60 -15q-53 0 -84 33.5t-31 88.5q0 7 2 25l27 224q8 66 49 106.5t100 40.5q33 0 57.5 -15t36.5 -43q1 -3 3 -2.5t2 3.5l5 39q2 10 11 10zM254 58.5
q31 31.5 37 81.5l27 222q1 7 1 19q0 43 -23 68.5t-61 25.5q-45 0 -77.5 -31.5t-38.5 -81.5l-27 -222q-1 -6 -1 -18q0 -42 24.5 -68.5t64.5 -26.5q43 0 74 31.5zM156 592l76 101q5 7 12 7h26q8 0 11 -6l53 -102q1 -2 1 -5q0 -7 -9 -7h-20q-6 0 -11 7l-37 80q-1 2 -3 2t-3 -2
l-59 -80q-5 -7 -12 -7h-20q-12 0 -5 12zM398 699q0 -8 -9 -8h-12q-6 0 -11 7l-50 111q-1 2 -1 5q0 7 9 7h16q6 0 10 -7l47 -111z" />
    <glyph glyph-name="uni1EA8" unicode="&#x1ea8;" horiz-adv-x="365" 
d="M297 9l-11 136q0 2 -1.5 3t-3.5 1h-200q-2 0 -3.5 -1t-1.5 -3l-45 -136q-3 -9 -12 -9h-18q-5 0 -7 3t0 8l231 680q2 9 11 9h25q9 0 9 -9l65 -680q0 -11 -10 -11h-18q-10 0 -10 9zM90 183.5q1 -1.5 2 -1.5h186q2 0 3.5 1.5t0.5 2.5l-39 447q-1 3 -2 3t-2 -3l-149 -447
q-1 -1 0 -2.5zM368 868q-4 1 -5 4t2 7q11 23 39 46q15 14 22 23.5t9 24.5q2 17 -9.5 29t-30.5 12q-20 0 -32 -8t-28 -29q-8 -9 -14 -3l-5 4q-4 3 -4 6q0 4 3 8q19 26 36.5 37.5t46.5 11.5q30 0 48 -16.5t18 -42.5q0 -25 -12 -42t-34 -36q-3 -2 -13 -11.5t-16 -18.5l-2 -4
q-5 -8 -12 -5l-3 1zM170 790l76 101q5 7 12 7h26q8 0 11 -6l53 -102q1 -2 1 -5q0 -7 -9 -7h-20q-6 0 -11 7l-37 80q-1 2 -3 2t-3 -2l-59 -80q-5 -7 -12 -7h-20q-12 0 -5 12z" />
    <glyph glyph-name="uni1EA9" unicode="&#x1ea9;" horiz-adv-x="384" 
d="M345 502h18q5 0 7.5 -3t1.5 -7l-59 -482q-1 -4 -4 -7t-7 -3h-19q-10 0 -8 10l5 39q0 3 -2 3.5t-3 -2.5q-20 -28 -48 -43t-60 -15q-53 0 -84 33.5t-31 88.5q0 7 2 25l27 224q8 66 49 106.5t100 40.5q33 0 57.5 -15t36.5 -43q1 -3 3 -2.5t2 3.5l5 39q2 10 11 10zM254 58.5
q31 31.5 37 81.5l27 222q1 7 1 19q0 43 -23 68.5t-61 25.5q-45 0 -77.5 -31.5t-38.5 -81.5l-27 -222q-1 -6 -1 -18q0 -42 24.5 -68.5t64.5 -26.5q43 0 74 31.5zM354 670q-4 1 -5 4t2 7q11 23 39 46q15 14 22 23.5t9 24.5q2 17 -9.5 29t-30.5 12q-20 0 -32 -8t-28 -29
q-8 -9 -14 -3l-5 4q-4 3 -4 6q0 4 3 8q19 26 36.5 37.5t46.5 11.5q30 0 48 -16.5t18 -42.5q0 -25 -12 -42t-34 -36q-3 -2 -13 -11.5t-16 -18.5l-2 -4q-5 -8 -12 -5l-3 1zM156 592l76 101q5 7 12 7h26q8 0 11 -6l53 -102q1 -2 1 -5q0 -7 -9 -7h-20q-6 0 -11 7l-37 80
q-1 2 -3 2t-3 -2l-59 -80q-5 -7 -12 -7h-20q-12 0 -5 12z" />
    <glyph glyph-name="uni1EAA" unicode="&#x1eaa;" horiz-adv-x="365" 
d="M297 9l-11 136q0 2 -1.5 3t-3.5 1h-200q-2 0 -3.5 -1t-1.5 -3l-45 -136q-3 -9 -12 -9h-18q-5 0 -7 3t0 8l231 680q2 9 11 9h25q9 0 9 -9l65 -680q0 -11 -10 -11h-18q-10 0 -10 9zM90 183.5q1 -1.5 2 -1.5h186q2 0 3.5 1.5t0.5 2.5l-39 447q-1 3 -2 3t-2 -3l-149 -447
q-1 -1 0 -2.5zM170 790l76 101q5 7 12 7h26q8 0 11 -6l53 -102q1 -2 1 -5q0 -7 -9 -7h-20q-6 0 -11 7l-37 80q-1 2 -3 2t-3 -2l-59 -80q-5 -7 -12 -7h-20q-12 0 -5 12zM307 934q-11 6 -24 17l-12 9t-15 9t-15 3q-15 0 -26 -5.5t-24 -21.5q-8 -9 -14 -3l-5 4q-8 5 -2 14
q32 44 74 44q14 0 25 -6t25 -17q3 -2 11.5 -9t16 -10.5t15.5 -3.5q14 0 25 6.5t23 24.5q3 4 7 5t7 -1l6 -3q3 -1 3 -7q0 -8 -5 -14q-16 -21 -35.5 -31t-36.5 -10q-13 0 -24 6z" />
    <glyph glyph-name="uni1EAB" unicode="&#x1eab;" horiz-adv-x="384" 
d="M345 502h18q5 0 7.5 -3t1.5 -7l-59 -482q-1 -4 -4 -7t-7 -3h-19q-10 0 -8 10l5 39q0 3 -2 3.5t-3 -2.5q-20 -28 -48 -43t-60 -15q-53 0 -84 33.5t-31 88.5q0 7 2 25l27 224q8 66 49 106.5t100 40.5q33 0 57.5 -15t36.5 -43q1 -3 3 -2.5t2 3.5l5 39q2 10 11 10zM254 58.5
q31 31.5 37 81.5l27 222q1 7 1 19q0 43 -23 68.5t-61 25.5q-45 0 -77.5 -31.5t-38.5 -81.5l-27 -222q-1 -6 -1 -18q0 -42 24.5 -68.5t64.5 -26.5q43 0 74 31.5zM156 592l76 101q5 7 12 7h26q8 0 11 -6l53 -102q1 -2 1 -5q0 -7 -9 -7h-20q-6 0 -11 7l-37 80q-1 2 -3 2t-3 -2
l-59 -80q-5 -7 -12 -7h-20q-12 0 -5 12zM293 736q-11 6 -24 17l-12 9t-15 9t-15 3q-15 0 -26 -5.5t-24 -21.5q-8 -9 -14 -3l-5 4q-8 5 -2 14q32 44 74 44q14 0 25 -6t25 -17q3 -2 11.5 -9t16 -10.5t15.5 -3.5q14 0 25 6.5t23 24.5q3 4 7 5t7 -1l6 -3q3 -1 3 -7q0 -8 -5 -14
q-16 -21 -35.5 -31t-36.5 -10q-13 0 -24 6z" />
    <glyph glyph-name="uni1EAC" unicode="&#x1eac;" horiz-adv-x="365" 
d="M297 9l-11 136q0 2 -1.5 3t-3.5 1h-200q-2 0 -3.5 -1t-1.5 -3l-45 -136q-3 -9 -12 -9h-18q-5 0 -7 3t0 8l231 680q2 9 11 9h25q9 0 9 -9l65 -680q0 -11 -10 -11h-18q-10 0 -10 9zM90 183.5q1 -1.5 2 -1.5h186q2 0 3.5 1.5t0.5 2.5l-39 447q-1 3 -2 3t-2 -3l-149 -447
q-1 -1 0 -2.5zM117 -159q-10 10 -10 27q0 21 13.5 35t33.5 14q16 0 26 -10t10 -27q0 -21 -13.5 -35t-33.5 -14q-16 0 -26 10zM170 790l76 101q5 7 12 7h26q8 0 11 -6l53 -102q1 -2 1 -5q0 -7 -9 -7h-20q-6 0 -11 7l-37 80q-1 2 -3 2t-3 -2l-59 -80q-5 -7 -12 -7h-20
q-12 0 -5 12z" />
    <glyph glyph-name="uni1EAD" unicode="&#x1ead;" horiz-adv-x="384" 
d="M345 502h18q5 0 7.5 -3t1.5 -7l-59 -482q-1 -4 -4 -7t-7 -3h-19q-10 0 -8 10l5 39q0 3 -2 3.5t-3 -2.5q-20 -28 -48 -43t-60 -15q-53 0 -84 33.5t-31 88.5q0 7 2 25l27 224q8 66 49 106.5t100 40.5q33 0 57.5 -15t36.5 -43q1 -3 3 -2.5t2 3.5l5 39q2 10 11 10zM254 58.5
q31 31.5 37 81.5l27 222q1 7 1 19q0 43 -23 68.5t-61 25.5q-45 0 -77.5 -31.5t-38.5 -81.5l-27 -222q-1 -6 -1 -18q0 -42 24.5 -68.5t64.5 -26.5q43 0 74 31.5zM126 -159q-10 10 -10 27q0 21 13.5 35t33.5 14q16 0 26 -10t10 -27q0 -21 -13.5 -35t-33.5 -14q-16 0 -26 10z
M156 592l76 101q5 7 12 7h26q8 0 11 -6l53 -102q1 -2 1 -5q0 -7 -9 -7h-20q-6 0 -11 7l-37 80q-1 2 -3 2t-3 -2l-59 -80q-5 -7 -12 -7h-20q-12 0 -5 12z" />
    <glyph glyph-name="uni1EAE" unicode="&#x1eae;" horiz-adv-x="365" 
d="M297 9l-11 136q0 2 -1.5 3t-3.5 1h-200q-2 0 -3.5 -1t-1.5 -3l-45 -136q-3 -9 -12 -9h-18q-5 0 -7 3t0 8l231 680q2 9 11 9h25q9 0 9 -9l65 -680q0 -11 -10 -11h-18q-10 0 -10 9zM90 183.5q1 -1.5 2 -1.5h186q2 0 3.5 1.5t0.5 2.5l-39 447q-1 3 -2 3t-2 -3l-149 -447
q-1 -1 0 -2.5zM199 809.5q-24 25.5 -23 64.5q2 10 11 10h8q10 0 10 -12q0 -26 16.5 -43.5t41.5 -17.5q26 0 47 18t27 45q3 10 12 10h8q5 0 7 -3t1 -7q-8 -39 -38 -64.5t-67 -25.5t-61 25.5zM245.5 929.5q-1.5 3.5 2.5 8.5l74 111q5 7 12 7h16q5 0 7 -3.5t-2 -8.5l-79 -111
q-5 -7 -12 -7h-11q-6 0 -7.5 3.5z" />
    <glyph glyph-name="uni1EAF" unicode="&#x1eaf;" horiz-adv-x="384" 
d="M345 502h18q5 0 7.5 -3t1.5 -7l-59 -482q-1 -4 -4 -7t-7 -3h-19q-10 0 -8 10l5 39q0 3 -2 3.5t-3 -2.5q-20 -28 -48 -43t-60 -15q-53 0 -84 33.5t-31 88.5q0 7 2 25l27 224q8 66 49 106.5t100 40.5q33 0 57.5 -15t36.5 -43q1 -3 3 -2.5t2 3.5l5 39q2 10 11 10zM254 58.5
q31 31.5 37 81.5l27 222q1 7 1 19q0 43 -23 68.5t-61 25.5q-45 0 -77.5 -31.5t-38.5 -81.5l-27 -222q-1 -6 -1 -18q0 -42 24.5 -68.5t64.5 -26.5q43 0 74 31.5zM184 611.5q-24 25.5 -23 64.5q2 10 11 10h8q10 0 10 -12q0 -26 16.5 -43.5t41.5 -17.5q26 0 47 18t27 45
q3 10 12 10h8q5 0 7 -3t1 -7q-8 -39 -38 -64.5t-67 -25.5t-61 25.5zM230.5 731.5q-1.5 3.5 2.5 8.5l74 111q5 7 12 7h16q5 0 7 -3.5t-2 -8.5l-79 -111q-5 -7 -12 -7h-11q-6 0 -7.5 3.5z" />
    <glyph glyph-name="uni1EB0" unicode="&#x1eb0;" horiz-adv-x="365" 
d="M297 9l-11 136q0 2 -1.5 3t-3.5 1h-200q-2 0 -3.5 -1t-1.5 -3l-45 -136q-3 -9 -12 -9h-18q-5 0 -7 3t0 8l231 680q2 9 11 9h25q9 0 9 -9l65 -680q0 -11 -10 -11h-18q-10 0 -10 9zM90 183.5q1 -1.5 2 -1.5h186q2 0 3.5 1.5t0.5 2.5l-39 447q-1 3 -2 3t-2 -3l-149 -447
q-1 -1 0 -2.5zM199 809.5q-24 25.5 -23 64.5q2 10 11 10h8q10 0 10 -12q0 -26 16.5 -43.5t41.5 -17.5q26 0 47 18t27 45q3 10 12 10h8q5 0 7 -3t1 -7q-8 -39 -38 -64.5t-67 -25.5t-61 25.5zM290 934q0 -8 -9 -8h-12q-6 0 -11 7l-50 111q-1 2 -1 5q0 7 9 7h16q6 0 10 -7
l47 -111z" />
    <glyph glyph-name="uni1EB1" unicode="&#x1eb1;" horiz-adv-x="384" 
d="M345 502h18q5 0 7.5 -3t1.5 -7l-59 -482q-1 -4 -4 -7t-7 -3h-19q-10 0 -8 10l5 39q0 3 -2 3.5t-3 -2.5q-20 -28 -48 -43t-60 -15q-53 0 -84 33.5t-31 88.5q0 7 2 25l27 224q8 66 49 106.5t100 40.5q33 0 57.5 -15t36.5 -43q1 -3 3 -2.5t2 3.5l5 39q2 10 11 10zM254 58.5
q31 31.5 37 81.5l27 222q1 7 1 19q0 43 -23 68.5t-61 25.5q-45 0 -77.5 -31.5t-38.5 -81.5l-27 -222q-1 -6 -1 -18q0 -42 24.5 -68.5t64.5 -26.5q43 0 74 31.5zM184 611.5q-24 25.5 -23 64.5q2 10 11 10h8q10 0 10 -12q0 -26 16.5 -43.5t41.5 -17.5q26 0 47 18t27 45
q3 10 12 10h8q5 0 7 -3t1 -7q-8 -39 -38 -64.5t-67 -25.5t-61 25.5zM275 736q0 -8 -9 -8h-12q-6 0 -11 7l-50 111q-1 2 -1 5q0 7 9 7h16q6 0 10 -7l47 -111z" />
    <glyph glyph-name="uni1EB2" unicode="&#x1eb2;" horiz-adv-x="365" 
d="M297 9l-11 136q0 2 -1.5 3t-3.5 1h-200q-2 0 -3.5 -1t-1.5 -3l-45 -136q-3 -9 -12 -9h-18q-5 0 -7 3t0 8l231 680q2 9 11 9h25q9 0 9 -9l65 -680q0 -11 -10 -11h-18q-10 0 -10 9zM90 183.5q1 -1.5 2 -1.5h186q2 0 3.5 1.5t0.5 2.5l-39 447q-1 3 -2 3t-2 -3l-149 -447
q-1 -1 0 -2.5zM264.5 906.5q-1.5 3.5 1.5 7.5q11 22 39 45q15 14 22 23.5t9 24.5q2 17 -10 29t-30 12q-19 0 -31.5 -8t-28.5 -28q-6 -9 -14 -3l-3 3q-7 6 -2 14q21 27 37.5 38t44.5 11q29 0 47.5 -16.5t18.5 -42.5q0 -25 -12 -41.5t-34 -35.5q-22 -18 -30 -32q-3 -9 -12 -7
l-7 2q-4 1 -5.5 4.5zM199 809.5q-24 25.5 -23 64.5q2 10 11 10h8q10 0 10 -12q0 -26 16.5 -43.5t41.5 -17.5q26 0 47 18t27 45q3 10 12 10h8q5 0 7 -3t1 -7q-8 -39 -38 -64.5t-67 -25.5t-61 25.5z" />
    <glyph glyph-name="uni1EB3" unicode="&#x1eb3;" horiz-adv-x="384" 
d="M345 502h18q5 0 7.5 -3t1.5 -7l-59 -482q-1 -4 -4 -7t-7 -3h-19q-10 0 -8 10l5 39q0 3 -2 3.5t-3 -2.5q-20 -28 -48 -43t-60 -15q-53 0 -84 33.5t-31 88.5q0 7 2 25l27 224q8 66 49 106.5t100 40.5q33 0 57.5 -15t36.5 -43q1 -3 3 -2.5t2 3.5l5 39q2 10 11 10zM254 58.5
q31 31.5 37 81.5l27 222q1 7 1 19q0 43 -23 68.5t-61 25.5q-45 0 -77.5 -31.5t-38.5 -81.5l-27 -222q-1 -6 -1 -18q0 -42 24.5 -68.5t64.5 -26.5q43 0 74 31.5zM249.5 708.5q-1.5 3.5 1.5 7.5q11 22 39 45q15 14 22 23.5t9 24.5q2 17 -10 29t-30 12q-19 0 -31.5 -8
t-28.5 -28q-6 -9 -14 -3l-3 3q-7 6 -2 14q21 27 37.5 38t44.5 11q29 0 47.5 -16.5t18.5 -42.5q0 -25 -12 -41.5t-34 -35.5q-22 -18 -30 -32q-3 -9 -12 -7l-7 2q-4 1 -5.5 4.5zM184 611.5q-24 25.5 -23 64.5q2 10 11 10h8q10 0 10 -12q0 -26 16.5 -43.5t41.5 -17.5
q26 0 47 18t27 45q3 10 12 10h8q5 0 7 -3t1 -7q-8 -39 -38 -64.5t-67 -25.5t-61 25.5z" />
    <glyph glyph-name="uni1EB4" unicode="&#x1eb4;" horiz-adv-x="365" 
d="M297 9l-11 136q0 2 -1.5 3t-3.5 1h-200q-2 0 -3.5 -1t-1.5 -3l-45 -136q-3 -9 -12 -9h-18q-5 0 -7 3t0 8l231 680q2 9 11 9h25q9 0 9 -9l65 -680q0 -11 -10 -11h-18q-10 0 -10 9zM90 183.5q1 -1.5 2 -1.5h186q2 0 3.5 1.5t0.5 2.5l-39 447q-1 3 -2 3t-2 -3l-149 -447
q-1 -1 0 -2.5zM199 809.5q-24 25.5 -23 64.5q2 10 11 10h8q10 0 10 -12q0 -26 16.5 -43.5t41.5 -17.5q26 0 47 18t27 45q3 10 12 10h8q5 0 7 -3t1 -7q-8 -39 -38 -64.5t-67 -25.5t-61 25.5zM298 932q-11 6 -24 17l-12 9t-15 9t-15 3q-15 0 -26 -5.5t-24 -21.5q-8 -9 -14 -3
l-5 4q-8 5 -2 14q32 44 74 44q14 0 25 -6t25 -17q3 -2 11.5 -9t16 -10.5t15.5 -3.5q14 0 25 6.5t23 24.5q3 4 7 5t7 -1l6 -3q3 -1 3 -7q0 -8 -5 -14q-16 -21 -35.5 -31t-36.5 -10q-13 0 -24 6z" />
    <glyph glyph-name="uni1EB5" unicode="&#x1eb5;" horiz-adv-x="384" 
d="M345 502h18q5 0 7.5 -3t1.5 -7l-59 -482q-1 -4 -4 -7t-7 -3h-19q-10 0 -8 10l5 39q0 3 -2 3.5t-3 -2.5q-20 -28 -48 -43t-60 -15q-53 0 -84 33.5t-31 88.5q0 7 2 25l27 224q8 66 49 106.5t100 40.5q33 0 57.5 -15t36.5 -43q1 -3 3 -2.5t2 3.5l5 39q2 10 11 10zM254 58.5
q31 31.5 37 81.5l27 222q1 7 1 19q0 43 -23 68.5t-61 25.5q-45 0 -77.5 -31.5t-38.5 -81.5l-27 -222q-1 -6 -1 -18q0 -42 24.5 -68.5t64.5 -26.5q43 0 74 31.5zM184 611.5q-24 25.5 -23 64.5q2 10 11 10h8q10 0 10 -12q0 -26 16.5 -43.5t41.5 -17.5q26 0 47 18t27 45
q3 10 12 10h8q5 0 7 -3t1 -7q-8 -39 -38 -64.5t-67 -25.5t-61 25.5zM283 734q-11 6 -24 17l-12 9t-15 9t-15 3q-15 0 -26 -5.5t-24 -21.5q-8 -9 -14 -3l-5 4q-8 5 -2 14q32 44 74 44q14 0 25 -6t25 -17q3 -2 11.5 -9t16 -10.5t15.5 -3.5q14 0 25 6.5t23 24.5q3 4 7 5t7 -1
l6 -3q3 -1 3 -7q0 -8 -5 -14q-16 -21 -35.5 -31t-36.5 -10q-13 0 -24 6z" />
    <glyph glyph-name="uni1EB6" unicode="&#x1eb6;" horiz-adv-x="365" 
d="M297 9l-11 136q0 2 -1.5 3t-3.5 1h-200q-2 0 -3.5 -1t-1.5 -3l-45 -136q-3 -9 -12 -9h-18q-5 0 -7 3t0 8l231 680q2 9 11 9h25q9 0 9 -9l65 -680q0 -11 -10 -11h-18q-10 0 -10 9zM90 183.5q1 -1.5 2 -1.5h186q2 0 3.5 1.5t0.5 2.5l-39 447q-1 3 -2 3t-2 -3l-149 -447
q-1 -1 0 -2.5zM117 -159q-10 10 -10 27q0 21 13.5 35t33.5 14q16 0 26 -10t10 -27q0 -21 -13.5 -35t-33.5 -14q-16 0 -26 10zM199 809.5q-24 25.5 -23 64.5q2 10 11 10h8q10 0 10 -12q0 -26 16.5 -43.5t41.5 -17.5q26 0 47 18t27 45q3 10 12 10h8q5 0 7 -3t1 -7
q-8 -39 -38 -64.5t-67 -25.5t-61 25.5z" />
    <glyph glyph-name="uni1EB7" unicode="&#x1eb7;" horiz-adv-x="384" 
d="M345 502h18q5 0 7.5 -3t1.5 -7l-59 -482q-1 -4 -4 -7t-7 -3h-19q-10 0 -8 10l5 39q0 3 -2 3.5t-3 -2.5q-20 -28 -48 -43t-60 -15q-53 0 -84 33.5t-31 88.5q0 7 2 25l27 224q8 66 49 106.5t100 40.5q33 0 57.5 -15t36.5 -43q1 -3 3 -2.5t2 3.5l5 39q2 10 11 10zM254 58.5
q31 31.5 37 81.5l27 222q1 7 1 19q0 43 -23 68.5t-61 25.5q-45 0 -77.5 -31.5t-38.5 -81.5l-27 -222q-1 -6 -1 -18q0 -42 24.5 -68.5t64.5 -26.5q43 0 74 31.5zM126 -159q-10 10 -10 27q0 21 13.5 35t33.5 14q16 0 26 -10t10 -27q0 -21 -13.5 -35t-33.5 -14q-16 0 -26 10z
M184 611.5q-24 25.5 -23 64.5q2 10 11 10h8q10 0 10 -12q0 -26 16.5 -43.5t41.5 -17.5q26 0 47 18t27 45q3 10 12 10h8q5 0 7 -3t1 -7q-8 -39 -38 -64.5t-67 -25.5t-61 25.5z" />
    <glyph glyph-name="uni1EB8" unicode="&#x1eb8;" horiz-adv-x="412" 
d="M419 665h-234q-1 0 -2.5 -1t-1.5 -3l-35 -289q-1 -1 0 -2.5t3 -1.5h153q9 0 9 -10l-2 -15q-2 -10 -11 -10h-153q-3 0 -5 -4l-35 -290q-1 -1 0 -2.5t3 -1.5h234q10 0 8 -10l-2 -15q0 -4 -3 -7t-7 -3h-266q-9 0 -9 10l84 680q2 10 11 10h266q4 0 6.5 -3t1.5 -7l-2 -15
q-2 -10 -11 -10zM156 -159q-10 10 -10 27q0 21 13.5 35t33.5 14q16 0 26 -10t10 -27q0 -21 -13.5 -35t-33.5 -14q-16 0 -26 10z" />
    <glyph glyph-name="uni1EB9" unicode="&#x1eb9;" horiz-adv-x="383" 
d="M333 240h-225q-4 0 -4 -4l-12 -96q-1 -6 -1 -18q0 -43 23.5 -69t63.5 -26q36 0 65.5 22.5t42.5 58.5q5 9 12 9l17 -1q5 0 7 -3t1 -8q-16 -52 -56 -82.5t-93 -30.5q-55 0 -88.5 33.5t-33.5 89.5q0 7 2 23l27 225q8 65 51.5 106t104.5 41q57 0 89.5 -34.5t32.5 -90.5
q0 -14 -1 -22l-14 -113q-2 -10 -11 -10zM157 443.5q-32 -31.5 -38 -81.5l-10 -85q-1 -1 0 -2.5t3 -1.5h193q4 0 4 4l11 85q1 6 1 18q0 43 -24 69t-64 26q-44 0 -76 -31.5zM126 -159q-10 10 -10 27q0 21 13.5 35t33.5 14q16 0 26 -10t10 -27q0 -21 -13.5 -35t-33.5 -14
q-16 0 -26 10z" />
    <glyph glyph-name="uni1EBA" unicode="&#x1eba;" horiz-adv-x="412" 
d="M419 665h-234q-1 0 -2.5 -1t-1.5 -3l-35 -289q-1 -1 0 -2.5t3 -1.5h153q9 0 9 -10l-2 -15q-2 -10 -11 -10h-153q-3 0 -5 -4l-35 -290q-1 -1 0 -2.5t3 -1.5h234q10 0 8 -10l-2 -15q0 -4 -3 -7t-7 -3h-266q-9 0 -9 10l84 680q2 10 11 10h266q4 0 6.5 -3t1.5 -7l-2 -15
q-2 -10 -11 -10zM286.5 749.5q-1.5 3.5 1.5 7.5q13 23 39 45q16 14 23.5 24t9.5 25q2 17 -10.5 29.5t-31.5 12.5t-31.5 -8.5t-29.5 -29.5q-7 -8 -13 -2l-6 4q-7 7 0 13q20 27 37.5 38.5t46.5 11.5t48 -17t19 -43q0 -25 -12 -42t-35 -37q-3 -2 -13 -11.5t-16 -18.5
q-2 -1 -2 -2t-1 -2q-3 -7 -11 -5l-7 2q-4 2 -5.5 5.5z" />
    <glyph glyph-name="uni1EBB" unicode="&#x1ebb;" horiz-adv-x="383" 
d="M333 240h-225q-4 0 -4 -4l-12 -96q-1 -6 -1 -18q0 -43 23.5 -69t63.5 -26q36 0 65.5 22.5t42.5 58.5q5 9 12 9l17 -1q5 0 7 -3t1 -8q-16 -52 -56 -82.5t-93 -30.5q-55 0 -88.5 33.5t-33.5 89.5q0 7 2 23l27 225q8 65 51.5 106t104.5 41q57 0 89.5 -34.5t32.5 -90.5
q0 -14 -1 -22l-14 -113q-2 -10 -11 -10zM157 443.5q-32 -31.5 -38 -81.5l-10 -85q-1 -1 0 -2.5t3 -1.5h193q4 0 4 4l11 85q1 6 1 18q0 43 -24 69t-64 26q-44 0 -76 -31.5zM229.5 551.5q-1.5 3.5 1.5 7.5q13 23 39 45q16 14 23.5 24t9.5 25q2 17 -10.5 29.5t-31.5 12.5
t-31.5 -8.5t-29.5 -29.5q-7 -8 -13 -2l-6 4q-7 7 0 13q20 27 37.5 38.5t46.5 11.5t48 -17t19 -43q0 -25 -12 -42t-35 -37q-3 -2 -13 -11.5t-16 -18.5q-2 -1 -2 -2t-1 -2q-3 -7 -11 -5l-7 2q-4 2 -5.5 5.5z" />
    <glyph glyph-name="uni1EBC" unicode="&#x1ebc;" horiz-adv-x="412" 
d="M419 665h-234q-1 0 -2.5 -1t-1.5 -3l-35 -289q-1 -1 0 -2.5t3 -1.5h153q9 0 9 -10l-2 -15q-2 -10 -11 -10h-153q-3 0 -5 -4l-35 -290q-1 -1 0 -2.5t3 -1.5h234q10 0 8 -10l-2 -15q0 -4 -3 -7t-7 -3h-266q-9 0 -9 10l84 680q2 10 11 10h266q4 0 6.5 -3t1.5 -7l-2 -15
q-2 -10 -11 -10zM339 823q-11 6 -24 17l-12 9t-15 9t-15 3q-15 0 -26 -5.5t-24 -21.5q-8 -9 -14 -3l-5 4q-8 5 -2 14q32 44 74 44q14 0 25 -6t25 -17q3 -2 11.5 -9t16 -10.5t15.5 -3.5q14 0 25 6.5t23 24.5q3 4 7 5t7 -1l6 -3q3 -1 3 -7q0 -8 -5 -14q-16 -21 -35.5 -31
t-36.5 -10q-13 0 -24 6z" />
    <glyph glyph-name="uni1EBD" unicode="&#x1ebd;" horiz-adv-x="383" 
d="M333 240h-225q-4 0 -4 -4l-12 -96q-1 -6 -1 -18q0 -43 23.5 -69t63.5 -26q36 0 65.5 22.5t42.5 58.5q5 9 12 9l17 -1q5 0 7 -3t1 -8q-16 -52 -56 -82.5t-93 -30.5q-55 0 -88.5 33.5t-33.5 89.5q0 7 2 23l27 225q8 65 51.5 106t104.5 41q57 0 89.5 -34.5t32.5 -90.5
q0 -14 -1 -22l-14 -113q-2 -10 -11 -10zM157 443.5q-32 -31.5 -38 -81.5l-10 -85q-1 -1 0 -2.5t3 -1.5h193q4 0 4 4l11 85q1 6 1 18q0 43 -24 69t-64 26q-44 0 -76 -31.5zM281 625q-11 6 -24 17l-12 9t-15 9t-15 3q-15 0 -26 -5.5t-24 -21.5q-8 -9 -14 -3l-5 4q-8 5 -2 14
q32 44 74 44q14 0 25 -6t25 -17q3 -2 11.5 -9t16 -10.5t15.5 -3.5q14 0 25 6.5t23 24.5q3 4 7 5t7 -1l6 -3q3 -1 3 -7q0 -8 -5 -14q-16 -21 -35.5 -31t-36.5 -10q-13 0 -24 6z" />
    <glyph glyph-name="uni1EBE" unicode="&#x1ebe;" horiz-adv-x="412" 
d="M419 665h-234q-1 0 -2.5 -1t-1.5 -3l-35 -289q-1 -1 0 -2.5t3 -1.5h153q9 0 9 -10l-2 -15q-2 -10 -11 -10h-153q-3 0 -5 -4l-35 -290q-1 -1 0 -2.5t3 -1.5h234q10 0 8 -10l-2 -15q0 -4 -3 -7t-7 -3h-266q-9 0 -9 10l84 680q2 10 11 10h266q4 0 6.5 -3t1.5 -7l-2 -15
q-2 -10 -11 -10zM213 790l76 101q5 7 12 7h26q8 0 11 -6l53 -102q1 -2 1 -5q0 -7 -9 -7h-20q-6 0 -11 7l-37 80q-1 2 -3 2t-3 -2l-59 -80q-5 -7 -12 -7h-20q-12 0 -5 12zM405.5 847.5q-1.5 3.5 2.5 8.5l74 111q5 7 12 7h16q5 0 7 -3.5t-2 -8.5l-79 -111q-5 -7 -12 -7h-11
q-6 0 -7.5 3.5z" />
    <glyph glyph-name="uni1EBF" unicode="&#x1ebf;" horiz-adv-x="383" 
d="M333 240h-225q-4 0 -4 -4l-12 -96q-1 -6 -1 -18q0 -43 23.5 -69t63.5 -26q36 0 65.5 22.5t42.5 58.5q5 9 12 9l17 -1q5 0 7 -3t1 -8q-16 -52 -56 -82.5t-93 -30.5q-55 0 -88.5 33.5t-33.5 89.5q0 7 2 23l27 225q8 65 51.5 106t104.5 41q57 0 89.5 -34.5t32.5 -90.5
q0 -14 -1 -22l-14 -113q-2 -10 -11 -10zM157 443.5q-32 -31.5 -38 -81.5l-10 -85q-1 -1 0 -2.5t3 -1.5h193q4 0 4 4l11 85q1 6 1 18q0 43 -24 69t-64 26q-44 0 -76 -31.5zM155 592l76 101q5 7 12 7h26q8 0 11 -6l53 -102q1 -2 1 -5q0 -7 -9 -7h-20q-6 0 -11 7l-37 80
q-1 2 -3 2t-3 -2l-59 -80q-5 -7 -12 -7h-20q-12 0 -5 12zM347.5 649.5q-1.5 3.5 2.5 8.5l74 111q5 7 12 7h16q5 0 7 -3.5t-2 -8.5l-79 -111q-5 -7 -12 -7h-11q-6 0 -7.5 3.5z" />
    <glyph glyph-name="uni1EC0" unicode="&#x1ec0;" horiz-adv-x="412" 
d="M419 665h-234q-1 0 -2.5 -1t-1.5 -3l-35 -289q-1 -1 0 -2.5t3 -1.5h153q9 0 9 -10l-2 -15q-2 -10 -11 -10h-153q-3 0 -5 -4l-35 -290q-1 -1 0 -2.5t3 -1.5h234q10 0 8 -10l-2 -15q0 -4 -3 -7t-7 -3h-266q-9 0 -9 10l84 680q2 10 11 10h266q4 0 6.5 -3t1.5 -7l-2 -15
q-2 -10 -11 -10zM213 790l76 101q5 7 12 7h26q8 0 11 -6l53 -102q1 -2 1 -5q0 -7 -9 -7h-20q-6 0 -11 7l-37 80q-1 2 -3 2t-3 -2l-59 -80q-5 -7 -12 -7h-20q-12 0 -5 12zM455 897q0 -8 -9 -8h-12q-6 0 -11 7l-50 111q-1 2 -1 5q0 7 9 7h16q6 0 10 -7l47 -111z" />
    <glyph glyph-name="uni1EC1" unicode="&#x1ec1;" horiz-adv-x="383" 
d="M333 240h-225q-4 0 -4 -4l-12 -96q-1 -6 -1 -18q0 -43 23.5 -69t63.5 -26q36 0 65.5 22.5t42.5 58.5q5 9 12 9l17 -1q5 0 7 -3t1 -8q-16 -52 -56 -82.5t-93 -30.5q-55 0 -88.5 33.5t-33.5 89.5q0 7 2 23l27 225q8 65 51.5 106t104.5 41q57 0 89.5 -34.5t32.5 -90.5
q0 -14 -1 -22l-14 -113q-2 -10 -11 -10zM157 443.5q-32 -31.5 -38 -81.5l-10 -85q-1 -1 0 -2.5t3 -1.5h193q4 0 4 4l11 85q1 6 1 18q0 43 -24 69t-64 26q-44 0 -76 -31.5zM155 592l76 101q5 7 12 7h26q8 0 11 -6l53 -102q1 -2 1 -5q0 -7 -9 -7h-20q-6 0 -11 7l-37 80
q-1 2 -3 2t-3 -2l-59 -80q-5 -7 -12 -7h-20q-12 0 -5 12zM397 699q0 -8 -9 -8h-12q-6 0 -11 7l-50 111q-1 2 -1 5q0 7 9 7h16q6 0 10 -7l47 -111z" />
    <glyph glyph-name="uni1EC2" unicode="&#x1ec2;" horiz-adv-x="412" 
d="M419 665h-234q-1 0 -2.5 -1t-1.5 -3l-35 -289q-1 -1 0 -2.5t3 -1.5h153q9 0 9 -10l-2 -15q-2 -10 -11 -10h-153q-3 0 -5 -4l-35 -290q-1 -1 0 -2.5t3 -1.5h234q10 0 8 -10l-2 -15q0 -4 -3 -7t-7 -3h-266q-9 0 -9 10l84 680q2 10 11 10h266q4 0 6.5 -3t1.5 -7l-2 -15
q-2 -10 -11 -10zM411 868q-4 1 -5 4t2 7q11 23 39 46q15 14 22 23.5t9 24.5q2 17 -9.5 29t-30.5 12q-20 0 -32 -8t-28 -29q-8 -9 -14 -3l-5 4q-4 3 -4 6q0 4 3 8q19 26 36.5 37.5t46.5 11.5q30 0 48 -16.5t18 -42.5q0 -25 -12 -42t-34 -36q-3 -2 -13 -11.5t-16 -18.5l-2 -4
q-5 -8 -12 -5l-3 1zM213 790l76 101q5 7 12 7h26q8 0 11 -6l53 -102q1 -2 1 -5q0 -7 -9 -7h-20q-6 0 -11 7l-37 80q-1 2 -3 2t-3 -2l-59 -80q-5 -7 -12 -7h-20q-12 0 -5 12z" />
    <glyph glyph-name="uni1EC3" unicode="&#x1ec3;" horiz-adv-x="383" 
d="M333 240h-225q-4 0 -4 -4l-12 -96q-1 -6 -1 -18q0 -43 23.5 -69t63.5 -26q36 0 65.5 22.5t42.5 58.5q5 9 12 9l17 -1q5 0 7 -3t1 -8q-16 -52 -56 -82.5t-93 -30.5q-55 0 -88.5 33.5t-33.5 89.5q0 7 2 23l27 225q8 65 51.5 106t104.5 41q57 0 89.5 -34.5t32.5 -90.5
q0 -14 -1 -22l-14 -113q-2 -10 -11 -10zM157 443.5q-32 -31.5 -38 -81.5l-10 -85q-1 -1 0 -2.5t3 -1.5h193q4 0 4 4l11 85q1 6 1 18q0 43 -24 69t-64 26q-44 0 -76 -31.5zM353 670q-4 1 -5 4t2 7q11 23 39 46q15 14 22 23.5t9 24.5q2 17 -9.5 29t-30.5 12q-20 0 -32 -8
t-28 -29q-8 -9 -14 -3l-5 4q-4 3 -4 6q0 4 3 8q19 26 36.5 37.5t46.5 11.5q30 0 48 -16.5t18 -42.5q0 -25 -12 -42t-34 -36q-3 -2 -13 -11.5t-16 -18.5l-2 -4q-5 -8 -12 -5l-3 1zM155 592l76 101q5 7 12 7h26q8 0 11 -6l53 -102q1 -2 1 -5q0 -7 -9 -7h-20q-6 0 -11 7l-37 80
q-1 2 -3 2t-3 -2l-59 -80q-5 -7 -12 -7h-20q-12 0 -5 12z" />
    <glyph glyph-name="uni1EC4" unicode="&#x1ec4;" horiz-adv-x="412" 
d="M419 665h-234q-1 0 -2.5 -1t-1.5 -3l-35 -289q-1 -1 0 -2.5t3 -1.5h153q9 0 9 -10l-2 -15q-2 -10 -11 -10h-153q-3 0 -5 -4l-35 -290q-1 -1 0 -2.5t3 -1.5h234q10 0 8 -10l-2 -15q0 -4 -3 -7t-7 -3h-266q-9 0 -9 10l84 680q2 10 11 10h266q4 0 6.5 -3t1.5 -7l-2 -15
q-2 -10 -11 -10zM213 790l76 101q5 7 12 7h26q8 0 11 -6l53 -102q1 -2 1 -5q0 -7 -9 -7h-20q-6 0 -11 7l-37 80q-1 2 -3 2t-3 -2l-59 -80q-5 -7 -12 -7h-20q-12 0 -5 12zM350 934q-11 6 -24 17l-12 9t-15 9t-15 3q-15 0 -26 -5.5t-24 -21.5q-8 -9 -14 -3l-5 4q-8 5 -2 14
q32 44 74 44q14 0 25 -6t25 -17q3 -2 11.5 -9t16 -10.5t15.5 -3.5q14 0 25 6.5t23 24.5q3 4 7 5t7 -1l6 -3q3 -1 3 -7q0 -8 -5 -14q-16 -21 -35.5 -31t-36.5 -10q-13 0 -24 6z" />
    <glyph glyph-name="uni1EC5" unicode="&#x1ec5;" horiz-adv-x="383" 
d="M333 240h-225q-4 0 -4 -4l-12 -96q-1 -6 -1 -18q0 -43 23.5 -69t63.5 -26q36 0 65.5 22.5t42.5 58.5q5 9 12 9l17 -1q5 0 7 -3t1 -8q-16 -52 -56 -82.5t-93 -30.5q-55 0 -88.5 33.5t-33.5 89.5q0 7 2 23l27 225q8 65 51.5 106t104.5 41q57 0 89.5 -34.5t32.5 -90.5
q0 -14 -1 -22l-14 -113q-2 -10 -11 -10zM157 443.5q-32 -31.5 -38 -81.5l-10 -85q-1 -1 0 -2.5t3 -1.5h193q4 0 4 4l11 85q1 6 1 18q0 43 -24 69t-64 26q-44 0 -76 -31.5zM155 592l76 101q5 7 12 7h26q8 0 11 -6l53 -102q1 -2 1 -5q0 -7 -9 -7h-20q-6 0 -11 7l-37 80
q-1 2 -3 2t-3 -2l-59 -80q-5 -7 -12 -7h-20q-12 0 -5 12zM292 736q-11 6 -24 17l-12 9t-15 9t-15 3q-15 0 -26 -5.5t-24 -21.5q-8 -9 -14 -3l-5 4q-8 5 -2 14q32 44 74 44q14 0 25 -6t25 -17q3 -2 11.5 -9t16 -10.5t15.5 -3.5q14 0 25 6.5t23 24.5q3 4 7 5t7 -1l6 -3
q3 -1 3 -7q0 -8 -5 -14q-16 -21 -35.5 -31t-36.5 -10q-13 0 -24 6z" />
    <glyph glyph-name="uni1EC6" unicode="&#x1ec6;" horiz-adv-x="412" 
d="M419 665h-234q-1 0 -2.5 -1t-1.5 -3l-35 -289q-1 -1 0 -2.5t3 -1.5h153q9 0 9 -10l-2 -15q-2 -10 -11 -10h-153q-3 0 -5 -4l-35 -290q-1 -1 0 -2.5t3 -1.5h234q10 0 8 -10l-2 -15q0 -4 -3 -7t-7 -3h-266q-9 0 -9 10l84 680q2 10 11 10h266q4 0 6.5 -3t1.5 -7l-2 -15
q-2 -10 -11 -10zM156 -159q-10 10 -10 27q0 21 13.5 35t33.5 14q16 0 26 -10t10 -27q0 -21 -13.5 -35t-33.5 -14q-16 0 -26 10zM213 790l76 101q5 7 12 7h26q8 0 11 -6l53 -102q1 -2 1 -5q0 -7 -9 -7h-20q-6 0 -11 7l-37 80q-1 2 -3 2t-3 -2l-59 -80q-5 -7 -12 -7h-20
q-12 0 -5 12z" />
    <glyph glyph-name="uni1EC7" unicode="&#x1ec7;" horiz-adv-x="383" 
d="M333 240h-225q-4 0 -4 -4l-12 -96q-1 -6 -1 -18q0 -43 23.5 -69t63.5 -26q36 0 65.5 22.5t42.5 58.5q5 9 12 9l17 -1q5 0 7 -3t1 -8q-16 -52 -56 -82.5t-93 -30.5q-55 0 -88.5 33.5t-33.5 89.5q0 7 2 23l27 225q8 65 51.5 106t104.5 41q57 0 89.5 -34.5t32.5 -90.5
q0 -14 -1 -22l-14 -113q-2 -10 -11 -10zM157 443.5q-32 -31.5 -38 -81.5l-10 -85q-1 -1 0 -2.5t3 -1.5h193q4 0 4 4l11 85q1 6 1 18q0 43 -24 69t-64 26q-44 0 -76 -31.5zM126 -159q-10 10 -10 27q0 21 13.5 35t33.5 14q16 0 26 -10t10 -27q0 -21 -13.5 -35t-33.5 -14
q-16 0 -26 10zM155 592l76 101q5 7 12 7h26q8 0 11 -6l53 -102q1 -2 1 -5q0 -7 -9 -7h-20q-6 0 -11 7l-37 80q-1 2 -3 2t-3 -2l-59 -80q-5 -7 -12 -7h-20q-12 0 -5 12z" />
    <glyph glyph-name="uni1EC8" unicode="&#x1ec8;" horiz-adv-x="201" 
d="M63 10l84 680q2 10 11 10h18q9 0 9 -10l-84 -680q-2 -10 -11 -10h-18q-9 0 -9 10zM162.5 749.5q-1.5 3.5 1.5 7.5q13 23 39 45q16 14 23.5 24t9.5 25q2 17 -10.5 29.5t-31.5 12.5t-31.5 -8.5t-29.5 -29.5q-7 -8 -13 -2l-6 4q-7 7 0 13q20 27 37.5 38.5t46.5 11.5t48 -17
t19 -43q0 -25 -12 -42t-35 -37q-3 -2 -13 -11.5t-16 -18.5q-2 -1 -2 -2t-1 -2q-3 -7 -11 -5l-7 2q-4 2 -5.5 5.5z" />
    <glyph glyph-name="uni1EC9" unicode="&#x1ec9;" horiz-adv-x="154" 
d="M41.5 3q-2.5 3 -1.5 7l59 482q2 10 11 10h19q4 0 6.5 -3t1.5 -7l-59 -482q-2 -10 -11 -10h-19q-4 0 -6.5 3zM115.5 551.5q-1.5 3.5 1.5 7.5q13 23 39 45q16 14 23.5 24t9.5 25q2 17 -10.5 29.5t-31.5 12.5t-31.5 -8.5t-29.5 -29.5q-7 -8 -13 -2l-6 4q-7 7 0 13
q20 27 37.5 38.5t46.5 11.5t48 -17t19 -43q0 -25 -12 -42t-35 -37q-3 -2 -13 -11.5t-16 -18.5q-2 -1 -2 -2t-1 -2q-3 -7 -11 -5l-7 2q-4 2 -5.5 5.5z" />
    <glyph glyph-name="uni1ECA" unicode="&#x1eca;" horiz-adv-x="201" 
d="M63 10l84 680q2 10 11 10h18q9 0 9 -10l-84 -680q-2 -10 -11 -10h-18q-9 0 -9 10zM35 -159q-10 10 -10 27q0 21 13.5 35t33.5 14q16 0 26 -10t10 -27q0 -21 -13.5 -35t-33.5 -14q-16 0 -26 10z" />
    <glyph glyph-name="uni1ECB" unicode="&#x1ecb;" horiz-adv-x="197" 
d="M125.5 621q-10.5 11 -10.5 28q0 22 14.5 37t35.5 15q18 0 28.5 -11t10.5 -29q0 -22 -15 -36.5t-36 -14.5q-17 0 -27.5 11zM61 10l60 482q0 4 3 7t7 3h19q10 0 8 -10l-59 -482q-2 -10 -11 -10h-18q-9 0 -9 10zM32 -159q-10 10 -10 27q0 21 13.5 35t33.5 14q16 0 26 -10
t10 -27q0 -21 -13.5 -35t-33.5 -14q-16 0 -26 10z" />
    <glyph glyph-name="uni1ECC" unicode="&#x1ecc;" horiz-adv-x="435" 
d="M97.5 29.5q-36.5 37.5 -36.5 100.5q0 8 2 26l47 387q9 73 57.5 119t116.5 46q63 0 100 -38t37 -101q0 -8 -2 -26l-48 -387q-9 -73 -57.5 -118.5t-117.5 -45.5q-62 0 -98.5 37.5zM289 62.5q37 35.5 44 91.5l48 391q1 7 1 22q0 48 -28 77t-74 29q-51 0 -88 -35.5t-44 -92.5
l-48 -391q-1 -7 -1 -20q0 -48 27.5 -77.5t73.5 -29.5q52 0 89 35.5zM151 -159q-10 10 -10 27q0 21 13.5 35t33.5 14q16 0 26 -10t10 -27q0 -21 -13.5 -35t-33.5 -14q-16 0 -26 10z" />
    <glyph glyph-name="uni1ECD" unicode="&#x1ecd;" horiz-adv-x="390" 
d="M85.5 26q-33.5 34 -33.5 90q0 7 2 23l27 224q8 65 51.5 106t104.5 41q57 0 89.5 -34.5t32.5 -90.5q0 -14 -1 -22l-28 -224q-8 -65 -51 -106t-105 -41q-55 0 -88.5 34zM255 58.5q32 31.5 38 81.5l27 222q1 6 1 18q0 42 -24 68.5t-64 26.5q-44 0 -76 -32t-38 -81l-27 -222
q-1 -6 -1 -18q0 -42 24 -68.5t63 -26.5q45 0 77 31.5zM129 -159q-10 10 -10 27q0 21 13.5 35t33.5 14q16 0 26 -10t10 -27q0 -21 -13.5 -35t-33.5 -14q-16 0 -26 10z" />
    <glyph glyph-name="uni1ECE" unicode="&#x1ece;" horiz-adv-x="435" 
d="M97.5 29.5q-36.5 37.5 -36.5 100.5q0 8 2 26l47 387q9 73 57.5 119t116.5 46q63 0 100 -38t37 -101q0 -8 -2 -26l-48 -387q-9 -73 -57.5 -118.5t-117.5 -45.5q-62 0 -98.5 37.5zM289 62.5q37 35.5 44 91.5l48 391q1 7 1 22q0 48 -28 77t-74 29q-51 0 -88 -35.5t-44 -92.5
l-48 -391q-1 -7 -1 -20q0 -48 27.5 -77.5t73.5 -29.5q52 0 89 35.5zM278.5 748.5q-1.5 3.5 1.5 7.5q13 23 39 45q16 14 23.5 24t9.5 25q2 17 -10.5 29.5t-31.5 12.5t-31.5 -8.5t-29.5 -29.5q-7 -8 -13 -2l-6 4q-7 7 0 13q20 27 37.5 38.5t46.5 11.5t48 -17t19 -43
q0 -25 -12 -42t-35 -37q-3 -2 -13 -11.5t-16 -18.5q-2 -1 -2 -2t-1 -2q-3 -7 -11 -5l-7 2q-4 2 -5.5 5.5z" />
    </font>
</defs>
</svg>
