<?xml version="1.0" standalone="no"?>
<!DOCTYPE svg PUBLIC "-//W3C//DTD SVG 1.1//EN" "http://www.w3.org/Graphics/SVG/1.1/DTD/svg11.dtd" >
<svg xmlns="http://www.w3.org/2000/svg" xmlns:xlink="http://www.w3.org/1999/xlink" version="1.1">
<metadata>
Created by FontForge 20201107 at Wed Nov  7 06:08:18 2018
 By 
Copyright 2017 The Barlow Project Authors (https://github.com/jpt/barlow)
</metadata>
<defs>
<font id="BarlowCondensed-ExtraLight" horiz-adv-x="0" >
  <font-face 
    font-family="Barlow Condensed ExtraLight"
    font-weight="275"
    font-stretch="condensed"
    units-per-em="1000"
    panose-1="0 0 3 6 0 0 0 0 0 0"
    ascent="800"
    descent="-200"
    x-height="502"
    cap-height="700"
    bbox="-602.4 -213 969 1075"
    underline-thickness="50"
    underline-position="-100"
    unicode-range="U+000D-FB02"
  />
<missing-glyph horiz-adv-x="312" 
d="M4 0h304q4 0 4 4v692q0 4 -4 4h-304q-4 0 -4 -4v-692q0 -4 4 -4zM135 235v47q0 29 11 47.5t33 42.5q24 25 36.5 47t12.5 58q0 42 -19 67.5t-49 25.5q-32 0 -51 -25.5t-19 -67.5v-23q0 -10 -10 -10h-8q-4 0 -7 3t-3 8v22q0 53 27 86t71 33t70 -32.5t26 -87.5
q0 -45 -14.5 -72t-40.5 -53q-19 -20 -28 -34.5t-9 -35.5v-46q0 -10 -10 -10h-9q-10 0 -10 10zM127.5 101q-9.5 9 -9.5 23t9.5 23.5t23.5 9.5t23 -9.5t9 -23.5q0 -13 -9 -22.5t-23 -9.5t-23.5 9z" />
    <glyph glyph-name="fi" unicode="fi" horiz-adv-x="470" 
d="M145.5 643.5q-16.5 -30.5 -16.5 -96.5v-41q0 -4 4 -4h85q10 0 10 -10v-12q0 -10 -10 -10h-85q-4 0 -4 -4v-456q0 -10 -10 -10h-19q-10 0 -10 10v456q0 4 -4 4h-44q-10 0 -10 10v12q0 10 10 10h44q4 0 4 4v41q0 82 26 122t90 40h15q10 0 10 -10v-15q0 -10 -10 -10h-14
q-45 0 -61.5 -30.5zM336 623q-13 13 -13 32q0 20 12.5 33t32.5 13t33 -13t13 -33q0 -19 -13 -32t-33 -13q-19 0 -32 13zM349 10v482q0 10 10 10h19q10 0 10 -10v-482q0 -10 -10 -10h-19q-10 0 -10 10z" />
    <glyph glyph-name="fl" unicode="fl" horiz-adv-x="436" 
d="M145.5 643.5q-16.5 -30.5 -16.5 -96.5v-41q0 -4 4 -4h85q10 0 10 -10v-12q0 -10 -10 -10h-85q-4 0 -4 -4v-456q0 -10 -10 -10h-19q-10 0 -10 10v456q0 4 -4 4h-44q-10 0 -10 10v12q0 10 10 10h44q4 0 4 4v41q0 82 26 122t90 40h15q10 0 10 -10v-15q0 -10 -10 -10h-14
q-45 0 -61.5 -30.5zM332 10v680q0 10 10 10h19q10 0 10 -10v-680q0 -10 -10 -10h-19q-10 0 -10 10z" />
    <glyph glyph-name="I_J.liga" unicode="IJ" horiz-adv-x="621" 
d="M84 10v680q0 10 10 10h19q10 0 10 -10v-680q0 -10 -10 -10h-19q-10 0 -10 10zM275.5 36q-41.5 44 -41.5 117v89q0 10 10 10h19q10 0 10 -10v-91q0 -56 31 -90t81 -34q51 0 82 34t31 90v539q0 10 10 10h19q10 0 10 -10v-537q0 -73 -42 -117t-110 -44t-109.5 44z" />
    <glyph glyph-name="f_f_i.liga" unicode="ffi" horiz-adv-x="727" 
d="M129 506q0 -4 4 -4h95q10 0 10 -10v-12q0 -10 -10 -10h-95q-4 0 -4 -4v-456q0 -10 -10 -10h-19q-10 0 -10 10v456q0 4 -4 4h-44q-10 0 -10 10v12q0 10 10 10h44q4 0 4 4v45q0 80 26.5 119.5t89.5 38.5h14q10 0 10 -10v-12q0 -10 -10 -10h-13q-46 0 -62 -31t-16 -97v-43z
M378.5 670.5q26.5 39.5 90.5 38.5h14q10 0 10 -10v-12q0 -10 -10 -10h-13q-46 0 -62.5 -31t-16.5 -97v-43q0 -4 4 -4h86q10 0 10 -10v-12q0 -10 -10 -10h-86q-4 0 -4 -4v-456q0 -10 -10 -10h-19q-10 0 -10 10v456q0 4 -4 4h-54q-10 0 -10 10v12q0 10 10 10h54q4 0 4 4v45
q0 80 26.5 119.5zM658 688q13 -13 13 -33q0 -19 -13 -32t-33 -13q-19 0 -32 13t-13 32q0 20 12.5 33t32.5 13t33 -13zM606 10v482q0 10 10 10h19q10 0 10 -10v-482q0 -10 -10 -10h-19q-10 0 -10 10z" />
    <glyph glyph-name="f_f_l.liga" unicode="ffl" horiz-adv-x="699" 
d="M129 506q0 -4 4 -4h95q10 0 10 -10v-12q0 -10 -10 -10h-95q-4 0 -4 -4v-456q0 -10 -10 -10h-19q-10 0 -10 10v456q0 4 -4 4h-44q-10 0 -10 10v12q0 10 10 10h44q4 0 4 4v45q0 80 26.5 119.5t89.5 38.5h14q10 0 10 -10v-12q0 -10 -10 -10h-13q-46 0 -62 -31t-16 -97v-43z
M379.5 670.5q26.5 39.5 89.5 38.5h14q10 0 10 -10v-12q0 -10 -10 -10h-13q-46 0 -62 -31t-16 -97v-43q0 -4 4 -4h85q10 0 10 -10v-12q0 -10 -10 -10h-85q-4 0 -4 -4v-456q0 -10 -10 -10h-19q-10 0 -10 10v456q0 4 -4 4h-54q-10 0 -10 10v12q0 10 10 10h54q4 0 4 4v45
q0 80 26.5 119.5zM605 700h19q10 0 10 -10v-680q0 -10 -10 -10h-19q-10 0 -10 10v680q0 10 10 10z" />
    <glyph glyph-name="g_j.liga" unicode="gj" horiz-adv-x="592" 
d="M523.5 688q12.5 -13 12.5 -33q0 -19 -12.5 -32t-32.5 -13t-33 12.5t-13 32.5t13 33t33 13t32.5 -13zM300.5 451q1.5 0 1.5 3v38q0 10 10 10h20q10 0 10 -10v-489q0 -204 -180 -204q-15 0 -15 10v16q0 10 13 10q75 0 108.5 43t33.5 127v45q0 3 -1.5 3t-3.5 -2
q-16 -28 -43 -42.5t-61 -14.5q-61 0 -98 41t-37 105v223q0 65 37 106t98 41q34 0 61 -14.5t43 -42.5q2 -2 3.5 -2zM471 492q0 10 10 10h19q10 0 10 -10v-556q0 -67 -28.5 -105t-86.5 -41q-10 0 -10 10l1 15q0 10 8 10q37 2 57 31.5t20 79.5v556zM274 60.5q28 31.5 28 81.5
v220q0 50 -28 81.5t-72 31.5q-46 0 -75.5 -31.5t-29.5 -81.5v-220q0 -50 29.5 -81.5t75.5 -31.5q44 0 72 31.5z" />
    <glyph glyph-name="i_j.liga" unicode="ij" horiz-adv-x="391" 
d="M69 623q-13 13 -13 32q0 20 12.5 33t32.5 13t33 -13t13 -33q0 -19 -13 -32t-33 -13q-19 0 -32 13zM258 623q-13 13 -13 32q0 20 12.5 33t32.5 13t33 -13t13 -33q0 -19 -13 -32t-33 -13q-19 0 -32 13zM82 10v482q0 10 10 10h19q10 0 10 -10v-482q0 -10 -10 -10h-19
q-10 0 -10 10zM181 -200v15q0 10 10 10q38 3 58.5 32.5t20.5 79.5v555q0 10 10 10h19q10 0 10 -10v-555q0 -69 -28 -107t-90 -40q-10 0 -10 10z" />
    <glyph glyph-name="hyphen_hyphen.liga" unicode="&#x2d;&#x2d;" horiz-adv-x="592" 
d="M36 301v16q0 10 10 10h500q10 0 10 -10v-16q0 -10 -10 -10h-500q-10 0 -10 10z" />
    <glyph glyph-name=".notdef" horiz-adv-x="312" 
d="M4 0h304q4 0 4 4v692q0 4 -4 4h-304q-4 0 -4 -4v-692q0 -4 4 -4zM135 235v47q0 29 11 47.5t33 42.5q24 25 36.5 47t12.5 58q0 42 -19 67.5t-49 25.5q-32 0 -51 -25.5t-19 -67.5v-23q0 -10 -10 -10h-8q-4 0 -7 3t-3 8v22q0 53 27 86t71 33t70 -32.5t26 -87.5
q0 -45 -14.5 -72t-40.5 -53q-19 -20 -28 -34.5t-9 -35.5v-46q0 -10 -10 -10h-9q-10 0 -10 10zM127.5 101q-9.5 9 -9.5 23t9.5 23.5t23.5 9.5t23 -9.5t9 -23.5q0 -13 -9 -22.5t-23 -9.5t-23.5 9z" />
    <glyph glyph-name=".null" 
 />
    <glyph glyph-name="nonmarkingreturn" unicode="&#xd;" horiz-adv-x="200" 
 />
    <glyph glyph-name="NULL" 
 />
    <glyph glyph-name="NULL" 
 />
    <glyph glyph-name="space" unicode=" " horiz-adv-x="200" 
 />
    <glyph glyph-name="exclam" unicode="!" horiz-adv-x="239" 
d="M104 233l-3 457q0 10 10 10h19q10 0 10 -10l-2 -457q0 -10 -10 -10h-14q-10 0 -10 10zM87 17q-13 13 -13 33t13 33t32 13q20 0 33 -13t13 -33t-13 -33t-33 -13q-19 0 -32 13z" />
    <glyph glyph-name="quotedbl" unicode="&#x22;" horiz-adv-x="184" 
d="M31 506l-5 177q0 10 10 10h21q10 0 10 -10l-5 -177q0 -10 -10 -10h-11q-10 0 -10 10zM119 506l-3 177q0 10 10 10h20q10 0 10 -10l-5 -177q0 -10 -10 -10h-12q-10 0 -10 10z" />
    <glyph glyph-name="numbersign" unicode="#" horiz-adv-x="577" 
d="M502 441h-63q-5 0 -5 -4l-27 -187q0 -4 3 -4h60q10 0 10 -10v-15q0 -10 -10 -10h-65q-5 0 -5 -4l-28 -186q-1 -9 -10 -9l-19 1q-5 0 -7.5 3t-1.5 7l26 184q0 4 -3 4h-174q-5 0 -5 -4l-27 -186q-1 -9 -10 -9l-19 1q-5 0 -7.5 3t-1.5 7l26 184q0 4 -3 4h-61q-10 0 -10 10
v15q0 10 10 10h66q5 0 5 4l27 187q0 4 -3 4h-64q-10 0 -10 10v15q0 10 10 10h69q5 0 5 4l28 187q1 9 10 9l19 -1q5 0 7.5 -3t1.5 -7l-26 -185q0 -4 3 -4h173q5 0 5 4l28 187q1 9 10 9l20 -1q4 0 7 -3t2 -8l-27 -184q0 -4 3 -4h58q10 0 10 -10v-15q0 -10 -10 -10zM367 250
l27 187q0 4 -3 4h-174q-5 0 -5 -4l-26 -187q0 -4 3 -4h173q5 0 5 4z" />
    <glyph glyph-name="dollar" unicode="$" horiz-adv-x="404" 
d="M321.5 51.5q-34.5 -46.5 -91.5 -56.5q-4 -1 -4 -5l1 -75q0 -10 -10 -10h-12q-10 0 -10 10v73q0 4 -4 4q-65 4 -104.5 51.5t-39.5 122.5v19q0 10 10 10h18q10 0 10 -10v-18q0 -63 32 -102t83 -39q50 0 83.5 37.5t33.5 98.5q0 40 -15.5 68.5t-39.5 49.5t-75 59t-78.5 64
t-44.5 61t-17 83q0 73 39 115.5t101 45.5q4 0 4 4l-1 78q0 10 10 10h12q10 0 10 -10v-80q0 -4 4 -5q57 -10 90.5 -56.5t33.5 -116.5v-25q0 -10 -10 -10h-19q-10 0 -10 10v25q0 64 -32 103t-84 39q-48 0 -79 -34t-31 -95q0 -36 13 -62.5t37.5 -49.5t73.5 -59
q59 -44 87.5 -70.5t44 -58t15.5 -76.5q0 -71 -34.5 -117.5z" />
    <glyph glyph-name="percent" unicode="%" horiz-adv-x="788" 
d="M150.5 457.5q-30.5 18.5 -48.5 49.5t-18 68t18 68t48.5 49t66.5 18t66 -18.5t48 -49.5t18 -67q0 -37 -17.5 -68t-48 -49.5t-66.5 -18.5t-66.5 18.5zM193.5 3.5q-2.5 3.5 0.5 8.5l367 681q3 7 12 7h12q6 0 8.5 -3.5t-0.5 -8.5l-367 -681q-3 -7 -12 -7h-12q-6 0 -8.5 3.5z
M289.5 499.5q29.5 31.5 29.5 75.5t-29.5 75t-72.5 31t-73 -31t-30 -75q0 -45 30 -76t73 -31t72.5 31.5zM505.5 8.5q-30.5 18.5 -48.5 49.5t-18 68t18 68t48.5 49t66.5 18t66 -18.5t48 -49.5t18 -67q0 -37 -17.5 -68t-48 -49.5t-66.5 -18.5t-66.5 18.5zM644.5 50.5
q29.5 31.5 29.5 75.5t-29.5 75t-72.5 31t-73 -31t-30 -75q0 -45 30 -76t73 -31t72.5 31.5z" />
    <glyph glyph-name="ampersand" unicode="&#x26;" horiz-adv-x="515" 
d="M461 7q0 -7 -9 -7h-19q-8 0 -12 7q-37 54 -52 78q-3 3 -6 0q-39 -50 -76.5 -71.5t-85.5 -21.5q-71 0 -112.5 41.5t-41.5 116.5q0 69 32 118t93 105q3 1 1 5q-38 58 -55 89t-22.5 52t-5.5 47q0 65 35 103.5t92 38.5q56 0 92 -38.5t36 -100.5q0 -42 -16.5 -76.5
t-40.5 -61.5t-63 -63q-3 -1 -1 -5l71 -107l68 -101q3 -3 6 0q19 31 32 54l18 30q5 10 14 4l14 -9q8 -5 3 -14q-37 -64 -61 -98q-1 -3 0 -6l70 -104zM153.5 643q-24.5 -29 -24.5 -78q0 -32 12.5 -62.5t56.5 -100.5q3 -4 6 -1q50 47 76 84t26 84q0 46 -25 74.5t-64 28.5
t-63.5 -29zM276.5 49q31.5 21 66.5 69q2 3 0 6l-52 77l-92 137q-2 4 -5 1q-52 -48 -80 -91.5t-28 -98.5q0 -57 31.5 -89.5t87.5 -32.5q40 1 71.5 22z" />
    <glyph glyph-name="quotesingle" unicode="'" horiz-adv-x="95" 
d="M31 512l-5 175q0 10 10 10h22q10 0 10 -10l-5 -175q0 -10 -10 -10h-12q-10 0 -10 10z" />
    <glyph glyph-name="parenleft" unicode="(" horiz-adv-x="181" 
d="M74 -103q-35 74 -56.5 189t-21.5 236q0 125 21.5 243t57.5 193q4 7 12 7h17q5 0 7.5 -3.5t0.5 -7.5q-31 -77 -51 -194t-20 -236t19.5 -233.5t51.5 -189.5q1 -1 1 -4t-2.5 -5t-6.5 -2h-19q-8 0 -11 7z" />
    <glyph glyph-name="parenright" unicode=")" horiz-adv-x="181" 
d="M107 758q35 -74 56.5 -189t21.5 -236q0 -125 -22 -243t-58 -193q-4 -7 -12 -7h-17q-5 0 -7.5 3.5t-0.5 7.5q32 77 52 193.5t20 237.5q0 118 -20 232.5t-52 189.5q-1 1 -1 4t2.5 5t6.5 2h20q8 0 11 -7z" />
    <glyph glyph-name="asterisk" unicode="*" horiz-adv-x="360" 
d="M165 403v135q0 2 -1.5 3t-3.5 0l-111 -69l-5 -2q-5 0 -9 6l-4 8q-2 4 -2 6q0 6 5 8l112 69q2 1 2 3t-2 3l-112 69q-8 5 -3 14l4 8q5 10 14 4l111 -69q2 -1 3.5 0t1.5 3v135q0 10 10 10h10q10 0 10 -10v-135q0 -2 1.5 -3t3.5 0l111 69l5 2q5 0 9 -6l4 -8q2 -4 2 -6
q0 -5 -5 -8l-112 -69q-1 -1 -1 -3t1 -3l112 -69q8 -5 3 -14l-4 -8q-5 -10 -14 -4l-111 69q-2 1 -3.5 0t-1.5 -3v-135q0 -10 -10 -10h-10q-10 0 -10 10z" />
    <glyph glyph-name="plus" unicode="+" horiz-adv-x="443" 
d="M407 328v-12q0 -10 -10 -10h-155q-4 0 -4 -4v-155q0 -10 -10 -10h-13q-10 0 -10 10v155q0 4 -4 4h-155q-10 0 -10 10v12q0 10 10 10h155q4 0 4 4v156q0 10 10 10h13q10 0 10 -10v-156q0 -4 4 -4h155q10 0 10 -10z" />
    <glyph glyph-name="comma" unicode="," horiz-adv-x="162" 
d="M43.5 -68q-2.5 3 -1.5 8l36 205q2 9 11 9h16q5 0 7.5 -3t1.5 -8l-41 -205q-1 -9 -11 -9h-11q-5 0 -7.5 3z" />
    <glyph glyph-name="hyphen" unicode="-" horiz-adv-x="305" 
d="M36 310v15q0 10 10 10h213q10 0 10 -10v-15q0 -10 -10 -10h-213q-10 0 -10 10z" />
    <glyph glyph-name="period" unicode="." horiz-adv-x="174" 
d="M54.5 18q-12.5 13 -12.5 32q0 20 12.5 33t32.5 13t33 -13t13 -33t-13 -32.5t-33 -12.5t-32.5 13z" />
    <glyph glyph-name="slash" unicode="/" horiz-adv-x="297" 
d="M29.5 3q-2.5 3 -0.5 8l162 680q2 9 11 9h19q5 0 7.5 -3t0.5 -8l-162 -680q-2 -9 -11 -9h-19q-5 0 -7.5 3z" />
    <glyph glyph-name="zero" unicode="0" horiz-adv-x="440" 
d="M105 37q-43 46 -43 122v382q0 76 43 122t114 46t115 -46t44 -122v-382q0 -76 -44 -122t-115 -46t-114 46zM306.5 61.5q32.5 35.5 32.5 94.5v388q0 59 -32.5 94.5t-87.5 35.5q-53 0 -85.5 -35.5t-32.5 -94.5v-388q0 -59 32.5 -94.5t85.5 -35.5q55 0 87.5 35.5z" />
    <glyph glyph-name="one" unicode="1" horiz-adv-x="243" 
d="M141 700h22q10 0 10 -10v-680q0 -10 -10 -10h-19q-10 0 -10 10v636q0 2 -1.5 3t-3.5 0l-99 -45q-2 -1 -5 -1t-5 2t-3 5l-4 14q-1 1 -1 4q0 6 6 9l110 60q6 3 13 3z" />
    <glyph glyph-name="two" unicode="2" horiz-adv-x="385" 
d="M98 35h244q10 0 10 -10v-15q0 -10 -10 -10h-286q-10 0 -10 10v18q0 7 3 13l64 110q25 44 52 91t56 98q68 122 68 200q0 60 -28.5 96.5t-75.5 36.5q-46 0 -73 -36.5t-26 -95.5v-36q0 -10 -10 -10h-21q-10 0 -10 10v37q1 74 40 120t101 46q64 0 103.5 -46.5t39.5 -121.5
q0 -90 -72 -218l-84 -148l-77 -134q-3 -5 2 -5z" />
    <glyph glyph-name="three" unicode="3" horiz-adv-x="396" 
d="M333 207q0 -59 -11 -103q-31 -112 -134 -112q-55 0 -89.5 30.5t-46.5 88.5q-7 36 -9 84q0 10 10 10h19q10 0 10 -10q1 -39 8 -74q10 -46 35 -70t63 -24q36 0 60.5 21.5t35.5 62.5q11 42 11 99q0 73 -16 118q-25 72 -91 72q-9 0 -19 -2q-2 -1 -5 -1q-5 0 -9 4l-9 9
q-6 6 -2 14l138 236q1 2 0 3.5t-3 1.5h-224q-10 0 -10 10v15q0 10 10 10h266q10 0 10 -10v-18q0 -7 -3 -13l-131 -226q-1 -2 -0.5 -3.5t2.5 -1.5q40 0 69.5 -23.5t44.5 -65.5q20 -49 20 -132z" />
    <glyph glyph-name="four" unicode="4" horiz-adv-x="384" 
d="M358 224v-16q0 -10 -10 -10h-29q-4 0 -4 -4v-184q0 -10 -10 -10h-19q-10 0 -10 10v184q0 4 -4 4h-236q-10 0 -10 10v16q0 4 2 12l157 456q3 8 12 8h21q11 0 8 -11l-154 -450q-1 -2 0 -3.5t3 -1.5h197q4 0 4 4v174q0 10 10 10h19q10 0 10 -10v-174q0 -4 4 -4h29
q10 0 10 -10z" />
    <glyph glyph-name="five" unicode="5" horiz-adv-x="395" 
d="M353 211q0 -51 -9 -92q-12 -62 -47 -94.5t-90 -32.5q-58 0 -93.5 33t-45.5 99l-4 30v2q0 8 9 8h19q10 0 11 -10q2 -18 4 -28q18 -99 100 -99q75 0 98 93q9 39 9 91q0 58 -13 103q-23 80 -94 80q-83 0 -103 -83q-3 -9 -11 -9h-20q-10 0 -10 10v378q0 10 10 10h249
q10 0 10 -10v-15q0 -10 -10 -10h-216q-4 0 -4 -4l-1 -285q0 -3 1.5 -3t3.5 2q16 27 43.5 41t64.5 14q47 0 79 -27t46 -80q14 -47 14 -112z" />
    <glyph glyph-name="six" unicode="6" horiz-adv-x="396" 
d="M353 211q0 -51 -6 -80q-10 -69 -45.5 -104t-93.5 -35q-55 0 -90 32.5t-47 96.5q-8 40 -8 89v330q0 76 40 122t105 46q59 0 97 -46.5t38 -121.5v-7q0 -10 -10 -10h-19q-10 0 -10 10v9q0 57 -27.5 93.5t-68.5 36.5q-47 0 -76.5 -36t-29.5 -94v-169q0 -3 1.5 -3t2.5 2
q16 30 43 45t60 15q52 0 86 -30.5t48 -87.5q10 -40 10 -103zM314 213q0 58 -10 98q-23 86 -96 86q-76 0 -97 -92q-9 -40 -9 -92q0 -41 7 -85q21 -101 99 -101q81 0 101 108q5 38 5 78z" />
    <glyph glyph-name="seven" unicode="7" horiz-adv-x="347" 
d="M112.5 3q-2.5 3 -1.5 8l174 650q1 1 -0.5 2.5t-3.5 1.5h-215q-4 0 -4 -4v-43q0 -10 -10 -10h-14q-10 0 -10 10v72q0 10 10 10h280q10 0 10 -10v-19q0 -2 -2 -12l-173 -650q-2 -9 -11 -9h-22q-5 0 -7.5 3z" />
    <glyph glyph-name="eight" unicode="8" horiz-adv-x="414" 
d="M275 372q34 -18 53 -57q25 -50 25 -123q0 -50 -14 -97q-17 -50 -51 -76.5t-82 -26.5q-47 0 -80.5 26.5t-50.5 76.5q-13 46 -13 98q0 65 19 112q20 47 58 66q5 3 0 5q-33 17 -53 52q-24 42 -24 107q0 66 23 105q18 33 49 51t72 18q83 0 121 -66q26 -43 26 -109
q0 -64 -24 -103q-18 -34 -54 -53q-5 -3 0 -6zM206 392q31 0 54 14.5t36 41.5q18 35 18 85q0 57 -22 92q-28 48 -86 48q-59 0 -87 -52q-19 -36 -19 -89q0 -52 20 -89q28 -51 86 -51zM313 193q0 63 -18 103q-26 62 -89 62q-64 0 -90 -68q-16 -40 -16 -97q0 -49 12 -85
q11 -39 35.5 -60t58.5 -21q36 0 61 22t36 63q10 38 10 81z" />
    <glyph glyph-name="nine" unicode="9" horiz-adv-x="389" 
d="M326 490v-330q0 -76 -40 -122t-106 -46q-59 0 -96.5 46t-37.5 122v7q0 10 10 10h19q10 0 10 -10v-9q0 -58 27.5 -94t67.5 -36q48 0 77.5 36t29.5 94v170q0 3 -1.5 3t-3.5 -2q-15 -30 -42 -45.5t-61 -15.5q-52 0 -85.5 30.5t-47.5 87.5q-11 44 -11 103q0 44 6 80
q10 69 46 104t94 35q55 0 89.5 -32.5t46.5 -96.5q9 -37 9 -89zM278 395q9 41 9 92q0 41 -7 85q-21 101 -99 101q-41 0 -66.5 -27.5t-34.5 -80.5q-6 -34 -6 -78q0 -54 11 -98q23 -86 96 -86q74 0 97 92z" />
    <glyph glyph-name="colon" unicode=":" horiz-adv-x="182" 
d="M57.5 359q-12.5 13 -12.5 32q0 20 12.5 33t32.5 13t33 -13t13 -33t-13 -32.5t-33 -12.5t-32.5 13zM57.5 19q-12.5 13 -12.5 32q0 20 12.5 33t32.5 13t33 -13t13 -33t-13 -32.5t-33 -12.5t-32.5 13z" />
    <glyph glyph-name="semicolon" unicode=";" horiz-adv-x="175" 
d="M58 375.5q-12 13.5 -12 33.5q0 19 12.5 33t29.5 14q16 0 28.5 -14t12.5 -33t-12 -33t-29 -14q-18 0 -30 13.5zM50 -61.5q-3 3.5 -2 7.5l22 193q1 9 10 9h18q4 0 7 -3t2 -8l-28 -193q-1 -9 -10 -9h-11q-5 0 -8 3.5z" />
    <glyph glyph-name="less" unicode="&#x3c;" horiz-adv-x="443" 
d="M403.5 68q-3.5 -2 -8.5 0l-352 179q-7 3 -7 12v22q0 9 7 12l352 179q2 1 5 1q7 0 7 -8v-19q0 -9 -7 -12l-323 -161q-2 -1 -2 -3t2 -3l323 -161q7 -3 7 -12v-19q0 -5 -3.5 -7z" />
    <glyph glyph-name="equal" unicode="=" horiz-adv-x="443" 
d="M36 438v12q0 10 10 10h351q10 0 10 -10v-12q0 -10 -10 -10h-351q-10 0 -10 10zM36 223v12q0 10 10 10h351q10 0 10 -10v-12q0 -10 -10 -10h-351q-10 0 -10 10z" />
    <glyph glyph-name="greater" unicode="&#x3e;" horiz-adv-x="443" 
d="M43 67q-7 0 -7 8v19q0 9 7 12l323 161q2 1 2 3t-2 3l-323 161q-7 3 -7 12v19q0 5 3.5 7t8.5 0l352 -179q7 -3 7 -12v-22q0 -9 -7 -12l-352 -179q-2 -1 -5 -1z" />
    <glyph glyph-name="question" unicode="?" horiz-adv-x="338" 
d="M135 200v70q0 41 15 66.5t46 58.5q23 25 36 42.5t22.5 44t9.5 61.5q0 59 -26 94.5t-68 35.5q-44 0 -71.5 -35.5t-27.5 -93.5v-37q0 -10 -10 -10l-19 1q-10 0 -10 10v36q0 74 38.5 119.5t99.5 45.5q60 0 96.5 -45.5t36.5 -121.5q0 -63 -20 -100.5t-56 -74.5
q-27 -29 -39 -49t-12 -49v-69q0 -10 -10 -10h-21q-10 0 -10 10zM123.5 17q-12.5 13 -12.5 33t13 32.5t32 12.5q20 0 33 -13t13 -32q0 -20 -13 -33t-33 -13t-32.5 13z" />
    <glyph glyph-name="at" unicode="@" horiz-adv-x="764" 
d="M571 564.5q64 -33.5 99 -95.5t35 -145q0 -16 -4 -54q-12 -92 -56 -144t-111 -52q-33 0 -57 13.5t-36 37.5q-2 5 -5 0q-13 -25 -37 -38.5t-51 -13.5q-41 0 -66 25t-25 66l1 13l10 78l10 77q6 47 35 75.5t73 28.5q20 0 37.5 -9t28.5 -25q1 -2 3 -1.5t2 2.5l2 18q1 9 10 9
h12q5 0 8 -3.5t2 -7.5l-28 -216q-1 -6 -1 -16q0 -38 20.5 -60.5t57.5 -22.5q49 0 83 42.5t44 121.5q4 36 4 52q0 76 -31.5 132t-88.5 86t-133 30q-80 0 -150 -40t-116.5 -112.5t-57.5 -165.5q-3 -25 -3 -49q0 -79 31.5 -138.5t87.5 -91t127 -31.5q52 0 97 14t72 34q2 2 6 2
q5 0 8 -4l6 -7q3 -3 3 -7t-5 -7q-31 -24 -82 -40t-111 -16q-80 0 -142 35t-96.5 99.5t-34.5 150.5q0 18 4 56q13 102 64.5 181t129 123t167.5 44q84 0 148 -33.5zM402 123q21 21 26 55q4 26 10 76l7 56l3 24q3 32 -13.5 52.5t-45.5 20.5q-30 0 -52 -21.5t-27 -54.5
q-4 -22 -10 -77q-2 -20 -4 -28q-4 -35 -5 -48q-1 -4 -1 -13q0 -28 17 -45.5t44 -17.5q30 0 51 21z" />
    <glyph glyph-name="A" unicode="A" horiz-adv-x="377" 
d="M325 9l-29 136q0 2 -1.5 3t-3.5 1h-206q-2 0 -3.5 -1t-1.5 -3l-29 -136q-1 -9 -11 -9h-19q-5 0 -7.5 3t-1.5 8l152 680q2 9 11 9h25q10 0 11 -9l153 -680v-2q0 -9 -9 -9h-19q-9 0 -11 9zM89 183.5q1 -1.5 3 -1.5h192q2 0 3 1.5t0 2.5l-97 447q-1 3 -2 3t-2 -3l-97 -447
q-1 -1 0 -2.5z" />
    <glyph glyph-name="B" unicode="B" horiz-adv-x="439" 
d="M309 360q43 -21 66.5 -65t24.5 -107q0 -89 -45.5 -138.5t-124.5 -49.5h-136q-10 0 -10 10v680q0 10 10 10h132q81 0 126 -46.5t45 -132.5q0 -58 -22.5 -97.5t-65.5 -58.5q-5 -2 0 -5zM123 661v-278q0 -4 4 -4h100q62 0 97 37t35 103q0 69 -35 107.5t-97 38.5h-100
q-4 0 -4 -4zM325.5 76.5q35.5 40.5 35.5 113.5t-35.5 114.5t-97.5 41.5h-101q-4 0 -4 -4v-302q0 -4 4 -4h101q62 0 97.5 40.5z" />
    <glyph glyph-name="C" unicode="C" horiz-adv-x="437" 
d="M108 36.5q-43 44.5 -43 117.5v393q0 73 43 117t113 44q71 0 114.5 -44t43.5 -117v-20q0 -10 -10 -10l-20 -1q-10 0 -10 10v23q0 56 -32.5 90t-85.5 34t-85 -34t-32 -90v-398q0 -56 32.5 -90t84.5 -34q53 0 85.5 34t32.5 90v22q0 10 10 10l20 -1q10 0 10 -10v-18
q0 -73 -43.5 -117.5t-114.5 -44.5q-70 0 -113 44.5z" />
    <glyph glyph-name="D" unicode="D" horiz-adv-x="461" 
d="M84 10v680q0 10 10 10h141q71 0 112.5 -48.5t41.5 -133.5v-336q0 -85 -41.5 -133.5t-112.5 -48.5h-141q-10 0 -10 10zM127 35h109q52 1 82.5 40t30.5 107v335q0 69 -30 108.5t-83 39.5h-109q-4 0 -4 -4v-622q0 -4 4 -4z" />
    <glyph glyph-name="E" unicode="E" horiz-adv-x="425" 
d="M368 665h-241q-4 0 -4 -4v-289q0 -4 4 -4h158q10 0 10 -10v-15q0 -10 -10 -10h-158q-4 0 -4 -4v-290q0 -4 4 -4h241q10 0 10 -10v-15q0 -10 -10 -10h-274q-10 0 -10 10v680q0 10 10 10h274q10 0 10 -10v-15q0 -10 -10 -10z" />
    <glyph glyph-name="F" unicode="F" horiz-adv-x="396" 
d="M367 665h-240q-4 0 -4 -4v-289q0 -4 4 -4h157q10 0 10 -10v-15q0 -10 -10 -10h-157q-4 0 -4 -4v-319q0 -10 -10 -10h-19q-10 0 -10 10v680q0 10 10 10h273q10 0 10 -10v-15q0 -10 -10 -10z" />
    <glyph glyph-name="G" unicode="G" horiz-adv-x="443" 
d="M108 35q-43 43 -43 114v402q0 71 43 114t113 43q71 0 114 -43t43 -114v-46q0 -10 -10 -10h-19q-10 0 -10 10v47q0 54 -32.5 87.5t-85.5 33.5q-52 0 -84.5 -33.5t-32.5 -87.5v-404q0 -54 32.5 -87.5t84.5 -33.5q53 0 85.5 33.5t32.5 87.5v152q0 4 -4 4h-100q-10 0 -10 10
v15q0 10 10 10h133q10 0 10 -10v-180q0 -71 -43 -114t-114 -43q-70 0 -113 43z" />
    <glyph glyph-name="H" unicode="H" horiz-adv-x="468" 
d="M355 700h19q10 0 10 -10v-680q0 -10 -10 -10h-19q-10 0 -10 10v319q0 4 -4 4h-214q-4 0 -4 -4v-319q0 -10 -10 -10h-19q-10 0 -10 10v680q0 10 10 10h19q10 0 10 -10v-318q0 -4 4 -4h214q4 0 4 4v318q0 10 10 10z" />
    <glyph glyph-name="I" unicode="I" horiz-adv-x="208" 
d="M84 10v680q0 10 10 10h19q10 0 10 -10v-680q0 -10 -10 -10h-19q-10 0 -10 10z" />
    <glyph glyph-name="J" unicode="J" horiz-adv-x="413" 
d="M67.5 36q-41.5 44 -41.5 117v89q0 10 10 10h19q10 0 10 -10v-91q0 -56 31 -90t81 -34q51 0 82 34t31 90v539q0 10 10 10h19q10 0 10 -10v-537q0 -73 -42 -117t-110 -44t-109.5 44z" />
    <glyph glyph-name="K" unicode="K" horiz-adv-x="434" 
d="M84 10v680q0 10 10 10h19q10 0 10 -10v-357q0 -3 2 -3.5t3 2.5l222 361q5 7 12 7h23q6 0 8 -3.5t-1 -8.5l-159 -263q-3 -3 -1 -6l178 -407l1 -4q0 -8 -9 -8h-24q-8 0 -11 8l-161 375q-1 4 -5 0l-76 -115q-2 -2 -2 -5v-253q0 -10 -10 -10h-19q-10 0 -10 10z" />
    <glyph glyph-name="L" unicode="L" horiz-adv-x="382" 
d="M84 10v680q0 10 10 10h19q10 0 10 -10v-651q0 -4 4 -4h237q10 0 10 -10v-15q0 -10 -10 -10h-270q-10 0 -10 10z" />
    <glyph glyph-name="M" unicode="M" horiz-adv-x="509" 
d="M394 700h21q10 0 10 -10v-680q0 -10 -10 -10h-19q-10 0 -10 10v591q0 3 -2 3t-3 -2l-115 -266q-3 -8 -11 -8t-11 8l-116 264q-1 2 -3 2t-2 -3v-589q0 -10 -10 -10h-19q-10 0 -10 10v680q0 10 10 10h20q8 0 11 -8l127 -288q1 -2 3 -2t3 2l125 288q3 8 11 8z" />
    <glyph glyph-name="N" unicode="N" horiz-adv-x="484" 
d="M371 700h19q10 0 10 -10v-680q0 -10 -10 -10h-24q-8 0 -11 8l-227 592q-1 3 -3 2.5t-2 -3.5v-589q0 -10 -10 -10h-19q-10 0 -10 10v680q0 10 10 10h23q8 0 11 -8l228 -589q1 -3 3 -2.5t2 3.5v586q0 10 10 10z" />
    <glyph glyph-name="O" unicode="O" horiz-adv-x="448" 
d="M108.5 37.5q-43.5 45.5 -43.5 118.5v387q0 74 44 119.5t114 45.5q71 0 115.5 -46t44.5 -119v-387q0 -73 -44.5 -118.5t-115.5 -45.5t-114.5 45.5zM310.5 62.5q33.5 35.5 33.5 91.5v391q0 57 -33.5 92.5t-87.5 35.5q-53 0 -86 -35.5t-33 -92.5v-391q0 -56 33 -91.5
t86 -35.5q54 0 87.5 35.5z" />
    <glyph glyph-name="P" unicode="P" horiz-adv-x="432" 
d="M351.5 650.5q41.5 -51.5 41.5 -135.5q0 -82 -41 -132.5t-109 -50.5h-116q-4 0 -4 -4v-318q0 -10 -10 -10h-19q-10 0 -10 10v682q0 10 10 10h148q68 0 109.5 -51.5zM322.5 407q31.5 41 31.5 108q0 69 -31.5 110t-84.5 41h-111q-4 0 -4 -4v-292q0 -4 4 -4h111q53 0 84.5 41
z" />
    <glyph glyph-name="Q" unicode="Q" horiz-adv-x="435" 
d="M328 662q42 -46 42 -120v-384q0 -68 -34.5 -112.5t-93.5 -52.5q-4 0 -4 -4v-102q0 -10 -10 -10h-20q-10 0 -10 10v102q0 4 -4 4q-58 8 -93.5 53t-35.5 112v384q0 74 42.5 120t110.5 46t110 -46zM331 545q0 57 -31.5 92.5t-81.5 35.5t-82 -35.5t-32 -92.5v-390
q0 -57 32 -92.5t82 -35.5t81.5 35.5t31.5 92.5v390z" />
    <glyph glyph-name="R" unicode="R" horiz-adv-x="431" 
d="M356 8l-116 324q-1 3 -4 3h-109q-4 0 -4 -4v-321q0 -10 -10 -10h-19q-10 0 -10 10v680q0 10 10 10h148q68 0 109.5 -51t41.5 -133q0 -69 -30.5 -116t-82.5 -60q-4 -2 -3 -5l117 -324l1 -4q0 -7 -9 -7h-18q-9 0 -12 8zM123 661v-289q0 -4 4 -4h111q52 0 84 40.5t32 106.5
q0 68 -32 109t-84 41h-111q-4 0 -4 -4z" />
    <glyph glyph-name="S" unicode="S" horiz-adv-x="404" 
d="M89.5 40q-42.5 48 -42.5 126v19q0 10 10 10h18q10 0 10 -10v-18q0 -63 32 -102t83 -39q50 0 83.5 37.5t33.5 98.5q0 40 -15.5 68.5t-39.5 49.5t-75 59t-78.5 64t-44.5 61t-17 83q0 75 41 118t107 43q70 0 112.5 -48.5t42.5 -127.5v-25q0 -10 -10 -10h-19q-10 0 -10 10v25
q0 64 -32 103t-84 39q-48 0 -79 -34t-31 -95q0 -36 13 -62.5t37.5 -49.5t73.5 -59q59 -44 87.5 -70.5t44 -58t15.5 -76.5q0 -80 -43.5 -128.5t-111.5 -48.5q-69 0 -111.5 48z" />
    <glyph glyph-name="T" unicode="T" horiz-adv-x="402" 
d="M364 690v-15q0 -10 -10 -10h-134q-4 0 -4 -4v-651q0 -10 -10 -10h-19q-10 0 -10 10v651q0 4 -4 4h-125q-10 0 -10 10v15q0 10 10 10h306q10 0 10 -10z" />
    <glyph glyph-name="U" unicode="U" horiz-adv-x="475" 
d="M121.5 43q-43.5 51 -43.5 135v512q0 10 10 10h19q10 0 10 -10v-516q0 -66 33 -106.5t87 -40.5t87.5 40.5t33.5 106.5v516q0 10 10 10h19q10 0 10 -10v-512q0 -84 -44.5 -135t-115.5 -51q-72 0 -115.5 51z" />
    <glyph glyph-name="V" unicode="V" horiz-adv-x="417" 
d="M187 9l-146 680v2q0 9 9 9h21q10 0 11 -9l125 -610q1 -3 2 -3t2 3l125 610q2 9 11 9h20q11 0 9 -11l-145 -680q-1 -9 -11 -9h-22q-9 0 -11 9z" />
    <glyph glyph-name="W" unicode="W" horiz-adv-x="593" 
d="M163 9l-130 680v2q0 9 9 9h20q10 0 11 -9l110 -598q1 -2 2 -2t2 2l93 598q2 9 10 9h19q9 0 10 -9l96 -598q1 -2 2 -2t2 2l100 598q2 9 11 9h21q5 0 7.5 -3t1.5 -8l-123 -680q-1 -9 -11 -9h-20q-8 0 -10 9l-94 596q-1 2 -2 2t-2 -2l-95 -596q-1 -9 -10 -9h-19q-9 0 -11 9z
" />
    <glyph glyph-name="X" unicode="X" horiz-adv-x="415" 
d="M44.5 3.5q-2.5 3.5 -0.5 8.5l142 335q2 3 0 6l-142 335l-1 4q0 8 9 8h21q8 0 11 -8l121 -299q1 -2 3 -2.5t3 2.5l120 299q3 8 11 8h21q5 0 7.5 -3.5t0.5 -8.5l-143 -336q-1 -3 0 -6l143 -334l1 -4q0 -8 -9 -8h-21q-8 0 -11 8l-120 298q-1 2 -3 2t-3 -2l-121 -298
q-3 -8 -11 -8h-21q-5 0 -7.5 3.5z" />
    <glyph glyph-name="Y" unicode="Y" horiz-adv-x="401" 
d="M181 10v317q0 4 -1 5l-137 356l-1 4q0 8 9 8h20q9 0 12 -8l115 -315q1 -2 3 -2t3 2l114 315q3 8 12 8h20q5 0 7.5 -3.5t0.5 -8.5l-137 -356q-1 -1 -1 -5v-317q0 -10 -10 -10h-19q-10 0 -10 10z" />
    <glyph glyph-name="Z" unicode="Z" horiz-adv-x="387" 
d="M39 10v19q0 7 2 12l257 619q1 2 0 3.5t-3 1.5h-246q-10 0 -10 10v15q0 10 10 10h283q10 0 10 -10v-19q0 -7 -2 -12l-257 -619q-1 -2 0 -3.5t3 -1.5h246q10 0 10 -10v-15q0 -10 -10 -10h-283q-10 0 -10 10z" />
    <glyph glyph-name="bracketleft" unicode="[" horiz-adv-x="283" 
d="M25 -99v851q0 10 10 10h131q10 0 10 -10v-15q0 -10 -10 -10h-98q-4 0 -4 -4v-793q0 -4 4 -4h99q10 0 10 -10v-15q0 -10 -10 -10h-132q-10 0 -10 10z" />
    <glyph glyph-name="backslash" unicode="\" horiz-adv-x="297" 
d="M269 7q0 -7 -9 -7h-19q-9 0 -11 9l-162 680l-1 4q0 7 9 7h19q9 0 11 -9l162 -680z" />
    <glyph glyph-name="bracketright" unicode="]" horiz-adv-x="283" 
d="M249 -109h-133q-10 0 -10 10v15q0 10 10 10h100q4 0 4 4v793q0 4 -4 4h-99q-10 0 -10 10v15q0 10 10 10h132q10 0 10 -10v-851q0 -10 -10 -10z" />
    <glyph glyph-name="asciicircum" unicode="^" horiz-adv-x="384" 
d="M40 323l130 369q3 8 12 8h20q9 0 12 -8l130 -369l1 -4q0 -7 -9 -7h-14q-9 0 -12 8l-115 332q-1 2 -3 2t-3 -2l-114 -332q-3 -8 -12 -8h-15q-11 0 -8 11z" />
    <glyph glyph-name="underscore" unicode="_" horiz-adv-x="356" 
d="M26 10v14q0 10 10 10h284q10 0 10 -10v-14q0 -10 -10 -10h-284q-10 0 -10 10z" />
    <glyph glyph-name="grave" unicode="`" horiz-adv-x="163" 
d="M132 576q0 -6 -9 -6h-12q-7 0 -12 7l-66 111q-2 4 -2 6q0 6 9 6h16q7 0 12 -7l62 -111q2 -4 2 -6z" />
    <glyph glyph-name="a" unicode="a" horiz-adv-x="397" 
d="M301.5 465q36.5 -45 36.5 -121v-334q0 -10 -10 -10h-19q-10 0 -10 10v41q0 3 -1.5 3t-3.5 -2q-19 -30 -50.5 -45t-69.5 -15q-52 0 -89 30.5t-37 106.5q0 81 44 120.5t118 39.5h85q4 0 4 4v51q0 60 -26 95.5t-74 35.5q-38 0 -66.5 -23.5t-32.5 -61.5q0 -10 -10 -10l-21 1
q-4 0 -7 3t-2 8q6 53 45.5 85.5t94.5 32.5q65 0 101.5 -45zM264.5 57.5q34.5 30.5 34.5 88.5v105q0 4 -4 4h-84q-56 0 -89.5 -31t-33.5 -92q0 -53 25.5 -79t67.5 -26q49 0 83.5 30.5z" />
    <glyph glyph-name="b" unicode="b" horiz-adv-x="412" 
d="M316.5 469.5q37.5 -40.5 37.5 -106.5v-225q0 -64 -37.5 -105t-98.5 -41q-32 0 -59 14t-44 40q-2 2 -3.5 1.5t-1.5 -3.5v-34q0 -10 -10 -10h-19q-10 0 -10 10v680q0 10 10 10h19q10 0 10 -10v-232q0 -7 5 -2q17 26 44 40t59 14q61 0 98.5 -40.5zM286 443.5
q-29 31.5 -75 31.5q-44 0 -72.5 -31.5t-28.5 -81.5v-222q0 -50 28.5 -81.5t72.5 -31.5q46 0 75 31.5t29 81.5v222q0 50 -29 81.5z" />
    <glyph glyph-name="c" unicode="c" horiz-adv-x="388" 
d="M97.5 33q-39.5 41 -39.5 106v224q0 65 39.5 106t102.5 41q42 0 74.5 -18t50.5 -47.5t18 -63.5v-4q0 -10 -10 -10l-19 -1q-10 0 -10 10v4q0 38 -29.5 66.5t-74.5 28.5t-74 -31.5t-29 -81.5v-222q0 -49 29 -81t74 -32t74.5 28.5t29.5 66.5v4q0 10 10 10h19q10 0 10 -10v-5
q0 -34 -18 -63.5t-50.5 -47.5t-74.5 -18q-63 0 -102.5 41z" />
    <glyph glyph-name="d" unicode="d" horiz-adv-x="412" 
d="M312 700h19q10 0 10 -10v-680q0 -10 -10 -10h-19q-10 0 -10 10v34q0 3 -1.5 3.5t-3.5 -1.5q-17 -26 -44 -40t-59 -14q-61 0 -98.5 41t-37.5 105v225q0 65 37.5 106t98.5 41q32 0 59 -14t44 -40q2 -2 3.5 -1.5t1.5 3.5v232q0 10 10 10zM274 58.5q28 31.5 28 81.5v222
q0 50 -28 81.5t-72 31.5q-47 0 -76 -31.5t-29 -81.5v-222q0 -50 29 -81.5t76 -31.5q44 0 72 31.5z" />
    <glyph glyph-name="e" unicode="e" horiz-adv-x="395" 
d="M333 240h-232q-4 0 -4 -4v-96q0 -50 29 -81.5t74 -31.5q38 0 65 22t36 59q3 9 11 9l18 -1q5 0 7.5 -3t1.5 -8q-9 -51 -46.5 -82t-92.5 -31q-63 0 -102.5 40.5t-39.5 105.5v225q0 65 39.5 106t102.5 41q64 0 103.5 -41t39.5 -106v-113q0 -10 -10 -10zM126 443.5
q-29 -31.5 -29 -81.5v-85q0 -4 4 -4h199q4 0 4 4v85q0 50 -29 81.5t-75 31.5q-45 0 -74 -31.5z" />
    <glyph glyph-name="f" unicode="f" horiz-adv-x="267" 
d="M145.5 643.5q-16.5 -30.5 -16.5 -96.5v-41q0 -4 4 -4h85q10 0 10 -10v-12q0 -10 -10 -10h-85q-4 0 -4 -4v-456q0 -10 -10 -10h-19q-10 0 -10 10v456q0 4 -4 4h-44q-10 0 -10 10v12q0 10 10 10h44q4 0 4 4v41q0 82 26 122t90 40h15q10 0 10 -10v-15q0 -10 -10 -10h-14
q-45 0 -61.5 -30.5z" />
    <glyph glyph-name="g" unicode="g" horiz-adv-x="401" 
d="M312 502h20q10 0 10 -10v-489q0 -204 -180 -204q-15 0 -15 10v16q0 10 13 10q75 0 108.5 43t33.5 127v45q0 3 -1.5 3t-3.5 -2q-16 -28 -43 -42.5t-61 -14.5q-61 0 -98 41t-37 105v223q0 65 37 106t98 41q34 0 61 -14.5t43 -42.5q2 -2 3.5 -2t1.5 3v38q0 10 10 10z
M274 60.5q28 31.5 28 81.5v220q0 50 -28 81.5t-72 31.5q-46 0 -75.5 -31.5t-29.5 -81.5v-220q0 -50 29.5 -81.5t75.5 -31.5q44 0 72 31.5z" />
    <glyph glyph-name="h" unicode="h" horiz-adv-x="414" 
d="M316 468.5q33 -40.5 33 -112.5v-346q0 -10 -10 -10h-19q-10 0 -10 10v342q0 58 -26 90t-72 32q-47 0 -74.5 -34.5t-27.5 -94.5v-335q0 -10 -10 -10h-19q-10 0 -10 10v680q0 10 10 10h19q10 0 10 -10v-242q0 -3 1.5 -3t3.5 2q34 62 108 62q60 0 93 -40.5z" />
    <glyph glyph-name="i" unicode="i" horiz-adv-x="203" 
d="M69 623q-13 13 -13 32q0 20 12.5 33t32.5 13t33 -13t13 -33q0 -19 -13 -32t-33 -13q-19 0 -32 13zM82 10v482q0 10 10 10h19q10 0 10 -10v-482q0 -10 -10 -10h-19q-10 0 -10 10z" />
    <glyph glyph-name="j" unicode="j" horiz-adv-x="192" 
d="M58 623q-13 13 -13 32q0 20 13 33t33 13t32.5 -13t12.5 -33q0 -19 -12.5 -32t-32.5 -13t-33 13zM-17 -200v15q0 10 10 10q38 3 58 32.5t20 79.5v555q0 10 10 10h19q10 0 10 -10v-555q0 -70 -27.5 -107.5t-89.5 -39.5q-10 0 -10 10z" />
    <glyph glyph-name="k" unicode="k" horiz-adv-x="385" 
d="M71 10v680q0 10 10 10h19q10 0 10 -10v-434q0 -2 2 -2.5t3 1.5l177 241q4 6 13 6h20q6 0 8 -3.5t-2 -8.5l-95 -130q-2 -3 -1 -5l116 -344l1 -4q0 -7 -9 -7h-20q-9 0 -12 8l-100 313q-1 6 -6 1l-93 -127q-2 -2 -2 -5v-180q0 -10 -10 -10h-19q-10 0 -10 10z" />
    <glyph glyph-name="l" unicode="l" horiz-adv-x="169" 
d="M65 10v680q0 10 10 10h19q10 0 10 -10v-680q0 -10 -10 -10h-19q-10 0 -10 10z" />
    <glyph glyph-name="m" unicode="m" horiz-adv-x="636" 
d="M537.5 465q33.5 -44 33.5 -118v-337q0 -10 -10 -10h-19q-10 0 -10 10v333q0 60 -26 95.5t-68 35.5q-45 0 -71.5 -34.5t-26.5 -94.5v-335q0 -10 -10 -10h-18q-10 0 -10 10v333q0 60 -26 95.5t-67 35.5q-45 0 -72 -34.5t-27 -94.5v-335q0 -10 -10 -10h-19q-10 0 -10 10v482
q0 10 10 10h19q10 0 10 -10v-41q0 -3 1.5 -3t3.5 2q18 29 45 44t59 15q38 0 66.5 -21t42.5 -60q2 -6 5 1q15 39 46 59.5t70 20.5q55 0 88.5 -44z" />
    <glyph glyph-name="n" unicode="n" horiz-adv-x="414" 
d="M316 468.5q33 -40.5 33 -112.5v-346q0 -10 -10 -10h-19q-10 0 -10 10v342q0 58 -26 90t-72 32q-47 0 -74.5 -34.5t-27.5 -94.5v-335q0 -10 -10 -10h-19q-10 0 -10 10v482q0 10 10 10h19q10 0 10 -10v-44q0 -3 1.5 -3t3.5 2q34 62 108 62q60 0 93 -40.5z" />
    <glyph glyph-name="o" unicode="o" horiz-adv-x="402" 
d="M97.5 33q-39.5 41 -39.5 106v224q0 65 39.5 106t102.5 41q64 0 103.5 -41t39.5 -106v-224q0 -65 -39.5 -106t-103.5 -41q-63 0 -102.5 41zM275 58.5q29 31.5 29 81.5v222q0 50 -29 81.5t-75 31.5q-45 0 -74 -32t-29 -81v-222q0 -49 29 -81t74 -32q46 0 75 31.5z" />
    <glyph glyph-name="p" unicode="p" horiz-adv-x="419" 
d="M322.5 469q37.5 -41 37.5 -105v-225q0 -66 -37.5 -106.5t-98.5 -40.5q-32 0 -58.5 14t-43.5 40q-2 2 -3.5 1.5t-1.5 -3.5v-232q0 -10 -10 -10h-19q-10 0 -10 10v680q0 10 10 10h19q10 0 10 -10v-34q0 -3 1.5 -3.5t3.5 1.5q17 26 43.5 40t58.5 14q61 0 98.5 -41z
M293 443.5q-29 31.5 -76 31.5q-44 0 -72 -31.5t-28 -81.5v-222q0 -50 28 -81.5t72 -31.5q46 0 75.5 31.5t29.5 81.5v222q0 50 -29 81.5z" />
    <glyph glyph-name="q" unicode="q" horiz-adv-x="419" 
d="M312 502h19q10 0 10 -10v-680q0 -10 -10 -10h-19q-10 0 -10 10v232q0 3 -1.5 3.5t-3.5 -1.5q-17 -26 -44 -40t-59 -14q-61 0 -98.5 41t-37.5 106v225q0 64 37.5 105t98.5 41q32 0 59 -14t44 -40q2 -2 3.5 -1.5t1.5 3.5v34q0 10 10 10zM274 58.5q28 31.5 28 81.5v222
q0 50 -28 81.5t-72 31.5q-47 0 -76 -31.5t-29 -81.5v-222q0 -50 29.5 -81.5t75.5 -31.5q44 0 72 31.5z" />
    <glyph glyph-name="r" unicode="r" horiz-adv-x="278" 
d="M258 496q7 -4 4 -13l-6 -20q-3 -9 -13 -5q-14 6 -36 5q-42 0 -69.5 -41t-27.5 -102v-310q0 -10 -10 -10h-19q-10 0 -10 10v482q0 10 10 10h19q10 0 10 -10v-65q0 -3 2 -3t3 3q15 37 40 58t60 21q25 0 43 -10z" />
    <glyph glyph-name="s" unicode="s" horiz-adv-x="357" 
d="M87.5 30.5q-37.5 34.5 -37.5 88.5v5q0 10 10 10h18q10 0 10 -10v-5q0 -38 27 -64t72 -26q44 0 70 26.5t26 69.5q0 31 -14.5 51.5t-36 33t-58.5 27.5q-38 16 -63 31t-42 41t-17 67q0 60 36.5 95t96.5 35q61 0 97.5 -36t36.5 -93v-3q0 -10 -10 -10h-17q-10 0 -10 10v4
q0 40 -27 67.5t-70 27.5t-69 -27t-26 -69q0 -29 13.5 -48.5t33.5 -31.5t55 -27q42 -17 67.5 -32t44 -42.5t18.5 -69.5q0 -59 -36.5 -94.5t-98.5 -35.5t-99.5 34.5z" />
    <glyph glyph-name="t" unicode="t" horiz-adv-x="256" 
d="M213 470h-83q-4 0 -4 -4v-336q0 -53 18 -74t57 -21h11q10 0 10 -10v-15q0 -10 -10 -10h-17q-53 0 -80.5 26t-27.5 97v343q0 4 -4 4h-41q-10 0 -10 10v12q0 10 10 10h41q4 0 4 4v112q0 10 10 10h19q10 0 10 -10v-112q0 -4 4 -4h83q10 0 10 -10v-12q0 -10 -10 -10z" />
    <glyph glyph-name="u" unicode="u" horiz-adv-x="413" 
d="M313 502h19q10 0 10 -10v-482q0 -10 -10 -10h-19q-10 0 -10 10v40q0 3 -2 3.5t-3 -2.5q-31 -58 -104 -58q-60 0 -94.5 37t-34.5 109v353q0 10 10 10h19q10 0 10 -10v-345q0 -58 25.5 -88.5t71.5 -30.5q47 0 74.5 34.5t27.5 94.5v335q0 10 10 10z" />
    <glyph glyph-name="v" unicode="v" horiz-adv-x="353" 
d="M154 9l-125 482l-1 3q0 8 10 8h22q10 0 11 -9l104 -424q1 -3 2 -3t2 3l102 424q2 9 11 9h24q11 0 8 -11l-124 -482q-1 -9 -11 -9h-24q-9 0 -11 9z" />
    <glyph glyph-name="w" unicode="w" horiz-adv-x="527" 
d="M133 9l-105 482v2q0 9 9 9h18q10 0 11 -9l86 -428q1 -3 2 -3t2 3l86 428q2 9 11 9h18q10 0 11 -9l88 -428q1 -3 2 -3t2 3l87 428q2 9 11 9h18q5 0 7.5 -3t1.5 -8l-106 -482q-1 -9 -11 -9h-20q-9 0 -11 9l-87 414q-1 3 -2 3t-2 -3l-85 -414q-1 -9 -11 -9h-20q-9 0 -11 9z
" />
    <glyph glyph-name="x" unicode="x" horiz-adv-x="346" 
d="M25 3.5q-2 3.5 0 8.5l126 236q2 3 0 6l-126 236q-1 2 -1 5q0 7 8 7h23q9 0 12 -7l104 -206q1 -2 3 -2t3 2l104 206q3 7 12 7h21q5 0 7 -3.5t0 -8.5l-125 -236q-1 -3 0 -6l125 -236q1 -2 1 -5q0 -7 -8 -7h-21q-9 0 -12 7l-104 207q-1 2 -3 2t-3 -2l-104 -207q-3 -7 -12 -7
h-23q-5 0 -7 3.5z" />
    <glyph glyph-name="y" unicode="y" horiz-adv-x="342" 
d="M43 -197q-2 3 -2 7v15q0 10 10 10q30 1 46 13.5t27 45t27 103.5q1 2 0.5 3.5t-0.5 2.5l-129 488l-1 3q0 8 10 8h21q10 0 11 -9l107 -434q1 -3 2 -3t2 3l106 434q2 9 11 9h20q5 0 7.5 -3t1.5 -8l-142 -547q-17 -63 -32.5 -93t-36 -40.5t-57.5 -10.5h-5q-2 0 -4 3z" />
    <glyph glyph-name="z" unicode="z" horiz-adv-x="355" 
d="M40 10v19q0 6 3 13l226 419q2 5 -2 5h-214q-10 0 -10 10v16q0 10 10 10h254q10 0 10 -10v-19q0 -5 -3 -13l-226 -419q-2 -5 2 -5h216q10 0 10 -10v-16q0 -10 -10 -10h-256q-10 0 -10 10z" />
    <glyph glyph-name="braceleft" unicode="{" horiz-adv-x="240" 
d="M102 -83.5q-21 25.5 -21 83.5v222q0 42 -11.5 63.5t-35.5 26.5q-9 2 -9 10v16q0 9 9 10q24 6 35.5 27.5t11.5 62.5v215q0 58 21 83.5t68 25.5h36q10 0 10 -10v-15q0 -10 -10 -10h-29q-30 0 -43.5 -18.5t-13.5 -60.5v-208q0 -45 -10.5 -70.5t-33.5 -36.5q-5 -2 0 -5
q23 -13 33.5 -38.5t10.5 -69.5v-215q0 -42 13.5 -60.5t43.5 -18.5h29q10 0 10 -10v-15q0 -10 -10 -10h-36q-47 0 -68 25.5z" />
    <glyph glyph-name="bar" unicode="|" horiz-adv-x="124" 
d="M43 -70v820q0 10 10 10h19q10 0 10 -10v-820q0 -10 -10 -10h-19q-10 0 -10 10z" />
    <glyph glyph-name="braceright" unicode="}" horiz-adv-x="240" 
d="M35 -109q-10 0 -10 10v15q0 10 10 10h28q30 0 44 18.5t14 60.5v215q0 44 10.5 69.5t33.5 38.5q5 3 0 5q-23 11 -33.5 36.5t-10.5 70.5v208q0 42 -14 60.5t-44 18.5h-28q-10 0 -10 10v15q0 10 10 10h36q47 0 68 -25.5t21 -83.5v-215q0 -42 11 -63.5t36 -26.5q9 -1 9 -10
v-16q0 -8 -9 -10q-25 -5 -36 -26.5t-11 -63.5v-222q0 -58 -21 -83.5t-68 -25.5h-36z" />
    <glyph glyph-name="asciitilde" unicode="~" horiz-adv-x="448" 
d="M267.5 254q-19.5 8 -54.5 28q-19 11 -35.5 17.5t-35.5 6.5q-26 0 -44 -10.5t-32 -31.5q-2 -4 -6 -5t-8 1l-8 6q-8 6 -4 13q15 30 40 46.5t60 16.5q24 0 42.5 -6.5t39.5 -19.5q28 -17 47.5 -25.5t46.5 -8.5q21 0 34.5 10t30.5 30q7 9 14 3l9 -6q8 -6 3 -14
q-19 -28 -40 -43.5t-51 -15.5q-29 0 -48.5 8z" />
    <glyph glyph-name="uni00A0" unicode="&#xa0;" horiz-adv-x="200" 
 />
    <glyph glyph-name="exclamdown" unicode="&#xa1;" horiz-adv-x="239" 
d="M152 695q13 -13 13 -33t-13 -32.5t-33 -12.5q-19 0 -32 13t-13 32q0 20 12.5 33t32.5 13t33 -13zM114 490h14q10 0 10 -10l2 -458q0 -10 -10 -10h-19q-10 0 -10 10l3 458q0 10 10 10z" />
    <glyph glyph-name="cent" unicode="&#xa2;" horiz-adv-x="388" 
d="M333 457l-19 -1q-10 0 -10 10v4q0 38 -29.5 66.5t-74.5 28.5t-74 -31.5t-29 -81.5v-222q0 -49 29 -81t74 -32t74.5 28.5t29.5 66.5v4q0 10 10 10h19q10 0 10 -10v-5q0 -48 -34 -84.5t-88 -43.5q-4 0 -4 -4l1 -69q0 -10 -10 -10h-16q-10 0 -10 10l1 69q0 4 -4 4
q-55 8 -88 47.5t-33 98.5v224q0 59 33 98.5t88 47.5q4 0 4 4l-1 69q0 10 10 10h16q10 0 10 -10l-1 -69q0 -4 4 -4q54 -7 88 -43.5t34 -84.5v-7q0 -7 -10 -7z" />
    <glyph glyph-name="sterling" unicode="&#xa3;" horiz-adv-x="496" 
d="M161 34h286q10 0 10 -10v-14q0 -10 -10 -10h-328q-10 0 -10 10v16q0 8 6 12q19 16 31 52t12 81v143q0 4 -4 4h-60q-10 0 -10 10v13q0 10 10 10h60q4 0 4 4v167q0 87 41.5 136.5t112.5 49.5q103 0 135 -122v-2q0 -8 -8 -10l-17 -3h-3q-8 0 -9 8q-23 95 -102 95
q-53 0 -82.5 -40t-29.5 -111v-168q0 -4 4 -4h148q10 0 10 -10v-13q0 -10 -10 -10h-148q-4 0 -4 -4v-141q0 -42 -10 -77t-27 -57q-3 -5 2 -5z" />
    <glyph glyph-name="currency" unicode="&#xa4;" horiz-adv-x="486" 
d="M387 184q-2 -3 1 -6l64 -64q3 -3 3 -6q0 -4 -4 -8l-11 -10q-3 -3 -6 -3q-4 0 -8 4l-63 62q-3 3 -6 1q-50 -41 -118 -41q-64 0 -113 38q-3 2 -6 -1l-60 -59q-7 -7 -14 -1l-12 10q-7 8 -1 14l61 60q3 3 0 6q-44 54 -44 120q0 65 42 117q2 3 -1 6l-65 65q-3 3 -3 6q0 4 4 8
l12 10q3 3 6 3q4 0 8 -4l63 -63q3 -3 6 -1q50 42 117 42t121 -44q3 -3 6 0l66 66q7 7 14 1l12 -10q8 -7 1 -14l-68 -68q-3 -3 -1 -6q38 -51 38 -114q0 -66 -41 -116zM106.5 224q20.5 -35 56 -55.5t76.5 -20.5q42 0 77 20t55.5 55t20.5 77t-20.5 77.5t-56 56t-76.5 20.5
t-76.5 -20.5t-56 -56t-20.5 -77.5q0 -41 20.5 -76z" />
    <glyph glyph-name="yen" unicode="&#xa5;" horiz-adv-x="520" 
d="M423 314h-143q-4 0 -4 -4v-79q0 -4 4 -4h143q10 0 10 -10v-8q0 -10 -10 -10h-143q-4 0 -4 -4v-185q0 -10 -10 -10h-19q-10 0 -10 10v185q0 4 -4 4h-137q-10 0 -10 10v8q0 10 10 10h137q4 0 4 4v79q0 4 -4 4h-137q-10 0 -10 10v9q0 10 10 10h131q2 0 3 1.5t0 3.5l-132 340
l-1 4q0 8 9 8h20q9 0 12 -8l115 -315q1 -3 3 -3t3 3l115 315q3 8 12 8h20q5 0 7.5 -3.5t0.5 -8.5l-131 -340q-1 -2 0 -3.5t3 -1.5h137q10 0 10 -10v-9q0 -10 -10 -10z" />
    <glyph glyph-name="brokenbar" unicode="&#xa6;" horiz-adv-x="124" 
d="M43 395v355q0 10 10 10h19q10 0 10 -10v-355q0 -10 -10 -10h-19q-10 0 -10 10zM43 -70v346q0 10 10 10h19q10 0 10 -10v-346q0 -10 -10 -10h-19q-10 0 -10 10z" />
    <glyph glyph-name="section" unicode="&#xa7;" horiz-adv-x="365" 
d="M89 -164.5q-35 42.5 -35 110.5v13q0 10 10 10h19q10 0 10 -10v-11q1 -53 25.5 -86.5t62.5 -33.5q40 0 65 33.5t25 83.5q0 40 -17 66.5t-39.5 40t-53.5 25.5q-38 15 -60.5 31.5t-36.5 49.5q-17 39 -17 87q0 47 23 95q26 49 66 61q5 2 0 5q-37 17 -60.5 57.5t-23.5 93.5
q0 66 35.5 108.5t92.5 42.5t92 -43t35 -112v-11q0 -10 -10 -10h-19q-10 0 -10 10v10q0 54 -24.5 87.5t-63.5 33.5q-40 0 -64.5 -34t-24.5 -86q0 -53 26.5 -83.5t81.5 -52.5q32 -14 53 -27t39 -40q26 -43 26 -100q0 -56 -20 -96q-25 -50 -70 -62q-5 -2 0 -5
q36 -16 59.5 -53.5t23.5 -90.5q0 -65 -35.5 -107.5t-93.5 -42.5q-57 0 -92 42.5zM230.5 131.5q19.5 13.5 32.5 41.5q16 37 16 77q0 49 -24 85q-13 19 -33 30t-43 11q-28 0 -48 -16.5t-30 -41.5q-14 -31 -14 -72q0 -42 14 -74q24 -54 81 -54q29 0 48.5 13.5z" />
    <glyph glyph-name="dieresis" unicode="&#xa8;" horiz-adv-x="277" 
d="M172.5 623q-12.5 13 -12.5 32q0 20 12.5 33t32.5 13t33 -13t13 -33t-13 -32.5t-33 -12.5t-32.5 13zM38.5 623q-12.5 13 -12.5 32q0 20 12.5 33t32.5 13t33 -13t13 -33t-13 -32.5t-33 -12.5t-32.5 13z" />
    <glyph glyph-name="copyright" unicode="&#xa9;" horiz-adv-x="854" 
d="M243 39.5q-83 47.5 -130.5 129t-47.5 179.5q0 100 47.5 182.5t130.5 130t184 47.5t184 -47.5t131 -130t48 -182.5q0 -98 -48 -179.5t-131 -129t-184 -47.5t-184 47.5zM595 65q76 44 119.5 119t43.5 164q0 91 -43.5 167t-119.5 120t-168 44q-93 0 -169 -44t-119.5 -120
t-43.5 -167q0 -89 43.5 -164t119.5 -119t169 -44q92 0 168 44zM369.5 202q-21.5 20 -21.5 53v183q0 33 21.5 53t57.5 20q37 0 59 -20t22 -53v-8q0 -10 -10 -10h-9q-10 0 -10 10v10q0 20 -14 32t-38 12q-23 0 -37 -12t-14 -32v-186q0 -20 14 -32.5t37 -12.5q24 0 38 12.5
t14 32.5v10q0 10 10 10h9q4 0 7 -3t3 -8v-8q0 -33 -22 -53t-59 -20q-36 0 -57.5 20z" />
    <glyph glyph-name="ordfeminine" unicode="&#xaa;" horiz-adv-x="268" 
d="M188 561q4 0 4 4v32q0 38 -17 60.5t-47 22.5q-23 0 -40 -14t-21 -36q-2 -11 -11 -9l-13 2q-10 2 -9 11q5 33 31.5 53.5t62.5 20.5q46 0 71 -29.5t25 -79.5v-218q0 -10 -10 -10h-12q-10 0 -10 10v19q0 3 -1.5 3.5t-3.5 -2.5q-12 -17 -31.5 -26t-42.5 -9q-36 0 -61.5 20.5
t-25.5 71.5q0 53 29.5 78t79.5 25h53zM169.5 412.5q22.5 19.5 22.5 55.5v62q0 4 -4 4h-52q-36 0 -56.5 -19t-20.5 -56q0 -34 16 -50t42 -16q30 0 52.5 19.5zM34 316h194q10 0 10 -10v-11q0 -10 -10 -10h-194q-10 0 -10 10v11q0 10 10 10z" />
    <glyph glyph-name="guillemotleft" unicode="&#xab;" horiz-adv-x="478" 
d="M244 113q0 -2 -2 -4t-6 -2h-16q-9 0 -13 6l-119 161q-2 3 -2 7t2 7l119 161q4 6 13 6h16q6 0 8 -3.5t-2 -8.5l-119 -159q-1 -3 0 -6l119 -159q2 -2 2 -6zM387 113q0 -2 -2 -4t-6 -2h-16q-9 0 -13 6l-119 161q-2 3 -2 7t2 7l119 161q4 6 13 6h16q6 0 8 -3.5t-2 -8.5
l-118 -159q-1 -3 0 -6l118 -159q2 -2 2 -6z" />
    <glyph glyph-name="logicalnot" unicode="&#xac;" horiz-adv-x="443" 
d="M407 326v-12l-1 -10h-1v-111q0 -10 -10 -10h-14q-10 0 -10 10v107q0 4 -4 4h-321q-10 0 -10 10v12q0 10 10 10h351q10 0 10 -10z" />
    <glyph glyph-name="uni00AD" unicode="&#xad;" horiz-adv-x="305" 
d="M36 310v15q0 10 10 10h213q10 0 10 -10v-15q0 -10 -10 -10h-213q-10 0 -10 10z" />
    <glyph glyph-name="registered" unicode="&#xae;" horiz-adv-x="439" 
d="M317 689.5q44 -25.5 70 -69.5t26 -96q0 -53 -26 -97t-70 -69.5t-97 -25.5t-97.5 25.5t-70.5 69.5t-26 97q0 52 26 96t70.5 69.5t97.5 25.5t97 -25.5zM303 380.5q38 22.5 60.5 60.5t22.5 83t-22.5 83t-60.5 60t-83 22q-46 0 -84 -22t-60.5 -60t-22.5 -83t22.5 -83
t60.5 -60.5t84 -22.5q45 0 83 22.5zM272 531.5q-7 -11.5 -20 -16.5q-3 -1 -2 -5l28 -64l1 -4q0 -8 -9 -8h-6q-8 0 -11 8l-28 66q-1 3 -4 3h-22q-4 0 -4 -4v-63q0 -10 -10 -10h-3q-10 0 -10 10v157q0 10 10 10h48q22 0 35.5 -14.5t13.5 -37.5q0 -16 -7 -27.5zM195 586v-52
q0 -4 4 -4h28q13 0 21 8t8 21q0 14 -8 22.5t-21 8.5h-28q-4 0 -4 -4z" />
    <glyph glyph-name="macron" unicode="&#xaf;" horiz-adv-x="562" 
d="M182 612v11q0 10 10 10h175q10 0 10 -10v-11q0 -10 -10 -10h-175q-10 0 -10 10z" />
    <glyph glyph-name="degree" unicode="&#xb0;" horiz-adv-x="358" 
d="M102 518.5q-35 20.5 -55.5 56t-20.5 78.5t20.5 78.5t55.5 56t77 20.5t77 -20.5t55.5 -56t20.5 -78.5t-20.5 -78.5t-55.5 -56t-77 -20.5t-77 20.5zM265 565q35 36 35 88t-35 88t-86 36t-86 -36t-35 -88t35 -88t86 -36t86 36z" />
    <glyph glyph-name="plusminus" unicode="&#xb1;" horiz-adv-x="443" 
d="M407 339v-12q0 -10 -10 -10h-155q-4 0 -4 -4v-155q0 -10 -10 -10h-13q-10 0 -10 10v155q0 4 -4 4h-155q-10 0 -10 10v12q0 10 10 10h155q4 0 4 4v156q0 10 10 10h13q10 0 10 -10v-156q0 -4 4 -4h155q10 0 10 -10zM36 46v12q0 10 10 10h351q10 0 10 -10v-12q0 -10 -10 -10
h-351q-10 0 -10 10z" />
    <glyph glyph-name="uni00B2" unicode="&#xb2;" horiz-adv-x="235" 
d="M25 464v11q0 7 3 13l11 18q41 67 93 155q39 69 39 115q0 34 -16 54t-42 20q-25 0 -40 -20t-15 -53v-19q0 -10 -10 -10h-13q-10 0 -10 10v20q0 46 24.5 73.5t64.5 27.5q41 0 65.5 -27.5t24.5 -76.5q0 -53 -40 -127q-34 -61 -62 -107l-31 -54q-1 -2 0 -3.5t3 -1.5h133
q10 0 10 -10v-8q0 -10 -10 -10h-172q-10 0 -10 10z" />
    <glyph glyph-name="uni00B3" unicode="&#xb3;" horiz-adv-x="255" 
d="M211 579q0 -40 -11 -70q-10 -29 -31.5 -45t-52.5 -16q-36 0 -60 23.5t-30 61.5q-3 18 -3 35q0 10 10 10h12q10 0 10 -10q0 -11 2 -27q5 -29 20.5 -46t38.5 -17q39 0 54 41q10 28 10 63q0 31 -6 56q-7 25 -22 38t-36 13q-6 0 -9 -1l-5 -1q-5 0 -9 4l-5 6q-5 6 -1 13
l81 130q1 2 0 3.5t-3 1.5h-130q-10 0 -10 10v8q0 10 10 10h163q10 0 10 -10v-11q0 -5 -4 -13l-74 -120q-1 -2 -0.5 -3.5t2.5 -1.5q27 -2 45.5 -21t26.5 -51q7 -31 7 -63z" />
    <glyph glyph-name="acute" unicode="&#xb4;" horiz-adv-x="163" 
d="M32 573.5q-2 3.5 1 8.5l62 111q5 7 12 7h16q6 0 8 -3.5t-1 -8.5l-67 -111q-5 -7 -12 -7h-11q-6 0 -8 3.5z" />
    <glyph glyph-name="uni00B5" unicode="&#xb5;" horiz-adv-x="420" 
d="M320 502h19q10 0 10 -10v-482q0 -10 -10 -10h-19q-10 0 -10 10v40q0 3 -2 3.5t-3 -2.5q-16 -29 -42.5 -43.5t-61.5 -14.5q-52 0 -86 29q-2 1 -3.5 0t-1.5 -3v-209q0 -10 -10 -10h-19q-10 0 -10 10v682q0 10 10 10h19q10 0 10 -10v-345q0 -59 25.5 -89t72.5 -30t74.5 34.5
t27.5 94.5v335q0 10 10 10z" />
    <glyph glyph-name="paragraph" unicode="&#xb6;" horiz-adv-x="450" 
d="M355 700q10 0 10 -10v-880q0 -10 -10 -10h-14q-10 0 -10 10v852q0 4 -4 4h-92q-4 0 -4 -4v-852q0 -10 -10 -10h-16q-10 0 -10 10v436q0 4 -4 4q-45 3 -79.5 33.5t-53.5 80.5t-19 111q0 63 20 114t56.5 81t84.5 30h155z" />
    <glyph glyph-name="periodcentered" unicode="&#xb7;" horiz-adv-x="183" 
d="M58.5 241q-12.5 13 -12.5 32q0 20 12.5 33t32.5 13t33 -13t13 -33t-13 -32.5t-33 -12.5t-32.5 13z" />
    <glyph glyph-name="cedilla" unicode="&#xb8;" horiz-adv-x="106" 
d="M3 -169l1 8q1 5 4.5 6.5t7.5 0.5q5 -1 14 -1q46 0 46 53q0 43 -42 90q-3 3 -3 7q0 5 7 5h9q7 0 10 -3l4 -4q46 -43 46 -96q0 -42 -21 -61t-52 -19q-12 0 -24 3q-8 1 -7 11z" />
    <glyph glyph-name="uni00B9" unicode="&#xb9;" horiz-adv-x="140" 
d="M77 874h17q10 0 10 -10v-400q0 -10 -10 -10h-13q-10 0 -10 10v371q0 2 -2 3.5t-3 0.5l-32 -10l-4 -1q-7 0 -7 9v6q0 8 7 12l35 16q6 3 12 3z" />
    <glyph glyph-name="ordmasculine" unicode="&#xba;" horiz-adv-x="273" 
d="M66.5 393q-26.5 27 -26.5 71v146q0 43 26.5 70.5t70.5 27.5t70.5 -27.5t26.5 -70.5v-146q0 -44 -26.5 -71t-70.5 -27t-70.5 27zM184 414q18 20 18 51v143q0 32 -18.5 52t-46.5 20t-46.5 -20t-18.5 -52v-143q0 -31 18 -51t47 -20t47 20zM30 295v11q0 10 10 10h194
q10 0 10 -10v-11q0 -10 -10 -10h-194q-10 0 -10 10z" />
    <glyph glyph-name="guillemotright" unicode="&#xbb;" horiz-adv-x="478" 
d="M91 110.5q-2 3.5 2 8.5l118 159q2 3 0 6l-118 159q-2 2 -2 6q0 2 2 4t6 2h16q9 0 13 -6l119 -161q2 -3 2 -7t-2 -7l-119 -161q-4 -6 -13 -6h-16q-6 0 -8 3.5zM234 110.5q-2 3.5 2 8.5l118 159q2 3 0 6l-118 159q-2 2 -2 6q0 2 2 4t6 2h16q9 0 13 -6l119 -161q2 -3 2 -7
t-2 -7l-119 -161q-4 -6 -13 -6h-16q-6 0 -8 3.5z" />
    <glyph glyph-name="onequarter" unicode="&#xbc;" horiz-adv-x="638" 
d="M77 700h17q10 0 10 -10v-400q0 -10 -10 -10h-13q-10 0 -10 10v371q0 2 -2 3.5t-3 0.5l-32 -10l-4 -1q-7 0 -7 9v6q0 8 7 12l35 16q6 3 12 3zM71.5 3.5q-1.5 3.5 1.5 8.5l439 681q5 7 12 7h13q6 0 7.5 -3.5t-1.5 -8.5l-440 -681q-5 -7 -12 -7h-12q-6 0 -7.5 3.5zM623 137
v-10q0 -10 -10 -10h-13q-4 0 -4 -4v-103q0 -10 -10 -10h-11q-10 0 -10 10v103q0 4 -4 4h-128q-10 0 -10 10v10q0 4 2 12l90 263q3 8 12 8h14q11 0 8 -11l-88 -257q-1 -2 0 -3.5t3 -1.5h97q4 0 4 4v92q0 10 10 10h11q10 0 10 -10v-92q0 -4 4 -4h13q10 0 10 -10z" />
    <glyph glyph-name="onehalf" unicode="&#xbd;" horiz-adv-x="652" 
d="M77 700h17q10 0 10 -10v-400q0 -10 -10 -10h-13q-10 0 -10 10v371q0 2 -2 3.5t-3 0.5l-32 -10l-4 -1q-7 0 -7 9v6q0 8 7 12l35 16q6 3 12 3zM71.5 3.5q-1.5 3.5 1.5 8.5l439 681q5 7 12 7h13q6 0 7.5 -3.5t-1.5 -8.5l-440 -681q-5 -7 -12 -7h-12q-6 0 -7.5 3.5zM442 10
v11q0 7 3 13l11 18q41 67 93 155q39 69 39 115q0 34 -16 54t-42 20q-25 0 -40 -20t-15 -53v-19q0 -10 -10 -10h-13q-10 0 -10 10v20q0 46 24.5 73.5t64.5 27.5q41 0 65.5 -27.5t24.5 -76.5q0 -53 -40 -127q-34 -61 -62 -107l-31 -54q-1 -2 0 -3.5t3 -1.5h133q10 0 10 -10v-8
q0 -10 -10 -10h-172q-10 0 -10 10z" />
    <glyph glyph-name="threequarters" unicode="&#xbe;" horiz-adv-x="704" 
d="M211 403q0 -40 -11 -70q-10 -29 -31.5 -45t-52.5 -16q-36 0 -60 23.5t-30 61.5q-3 18 -3 35q0 10 10 10h12q10 0 10 -10q0 -11 2 -27q5 -29 20.5 -46t38.5 -17q39 0 54 41q10 28 10 63q0 31 -6 56q-7 25 -22 38t-36 13q-6 0 -9 -1l-5 -1q-5 0 -9 4l-5 6q-5 6 -1 13
l81 130q1 2 0 3.5t-3 1.5h-130q-10 0 -10 10v8q0 10 10 10h163q10 0 10 -10v-11q0 -5 -4 -13l-74 -120q-1 -2 -0.5 -3.5t2.5 -1.5q27 -2 45.5 -21t26.5 -51q7 -31 7 -63zM137.5 3.5q-1.5 3.5 1.5 8.5l439 681q5 7 12 7h13q6 0 7.5 -3.5t-1.5 -8.5l-440 -681q-5 -7 -12 -7
h-12q-6 0 -7.5 3.5zM689 137v-10q0 -10 -10 -10h-13q-4 0 -4 -4v-103q0 -10 -10 -10h-11q-10 0 -10 10v103q0 4 -4 4h-128q-10 0 -10 10v10q0 4 2 12l90 263q3 8 12 8h14q11 0 8 -11l-88 -257q-1 -2 0 -3.5t3 -1.5h97q4 0 4 4v92q0 10 10 10h11q10 0 10 -10v-92q0 -4 4 -4
h13q10 0 10 -10z" />
    <glyph glyph-name="questiondown" unicode="&#xbf;" horiz-adv-x="338" 
d="M215 483q13 -13 13 -33t-13 -32.5t-33 -12.5q-19 0 -32 13t-13 32q0 20 12.5 33t32.5 13t33 -13zM203 300v-70q0 -41 -15 -66.5t-46 -58.5q-23 -25 -36 -42.5t-22.5 -44t-9.5 -61.5q0 -59 26.5 -94.5t68.5 -35.5q44 0 71 35.5t27 93.5v37q0 10 10 10l19 -1q10 0 10 -10
v-36q0 -74 -38.5 -119.5t-99.5 -45.5q-60 0 -96.5 45.5t-36.5 121.5q0 44 11 76t26 52.5t39 46.5q27 28 39.5 48t12.5 50v69q0 10 10 10h20q10 0 10 -10z" />
    <glyph glyph-name="Agrave" unicode="&#xc0;" horiz-adv-x="377" 
d="M325 9l-29 136q0 2 -1.5 3t-3.5 1h-206q-2 0 -3.5 -1t-1.5 -3l-29 -136q-1 -9 -11 -9h-19q-5 0 -7.5 3t-1.5 8l152 680q2 9 11 9h25q10 0 11 -9l153 -680v-2q0 -9 -9 -9h-19q-9 0 -11 9zM89 183.5q1 -1.5 3 -1.5h192q2 0 3 1.5t0 2.5l-97 447q-1 3 -2 3t-2 -3l-97 -447
q-1 -1 0 -2.5zM201 774q0 -6 -9 -6h-12q-7 0 -12 7l-66 111q-2 4 -2 6q0 6 9 6h16q7 0 12 -7l62 -111q2 -4 2 -6z" />
    <glyph glyph-name="Aacute" unicode="&#xc1;" horiz-adv-x="377" 
d="M325 9l-29 136q0 2 -1.5 3t-3.5 1h-206q-2 0 -3.5 -1t-1.5 -3l-29 -136q-1 -9 -11 -9h-19q-5 0 -7.5 3t-1.5 8l152 680q2 9 11 9h25q10 0 11 -9l153 -680v-2q0 -9 -9 -9h-19q-9 0 -11 9zM89 183.5q1 -1.5 3 -1.5h192q2 0 3 1.5t0 2.5l-97 447q-1 3 -2 3t-2 -3l-97 -447
q-1 -1 0 -2.5zM155 771.5q-2 3.5 1 8.5l62 111q5 7 12 7h16q6 0 8 -3.5t-1 -8.5l-67 -111q-5 -7 -12 -7h-11q-6 0 -8 3.5z" />
    <glyph glyph-name="Acircumflex" unicode="&#xc2;" horiz-adv-x="377" 
d="M325 9l-29 136q0 2 -1.5 3t-3.5 1h-206q-2 0 -3.5 -1t-1.5 -3l-29 -136q-1 -9 -11 -9h-19q-5 0 -7.5 3t-1.5 8l152 680q2 9 11 9h25q10 0 11 -9l153 -680v-2q0 -9 -9 -9h-19q-9 0 -11 9zM89 183.5q1 -1.5 3 -1.5h192q2 0 3 1.5t0 2.5l-97 447q-1 3 -2 3t-2 -3l-97 -447
q-1 -1 0 -2.5zM94.5 781.5q-1.5 3.5 1.5 8.5l65 101q5 7 12 7h27q8 0 12 -6l67 -102q2 -4 2 -6q0 -6 -8 -6h-21q-7 0 -12 7l-49 80q-1 2 -3 2t-3 -2l-50 -80q-5 -7 -12 -7h-21q-6 0 -7.5 3.5z" />
    <glyph glyph-name="Atilde" unicode="&#xc3;" horiz-adv-x="377" 
d="M325 9l-29 136q0 2 -1.5 3t-3.5 1h-206q-2 0 -3.5 -1t-1.5 -3l-29 -136q-1 -9 -11 -9h-19q-5 0 -7.5 3t-1.5 8l152 680q2 9 11 9h25q10 0 11 -9l153 -680v-2q0 -9 -9 -9h-19q-9 0 -11 9zM89 183.5q1 -1.5 3 -1.5h192q2 0 3 1.5t0 2.5l-97 447q-1 3 -2 3t-2 -3l-97 -447
q-1 -1 0 -2.5zM221 823q-12 6 -27 17q-5 3 -13.5 9t-16 9t-16.5 3q-15 0 -26 -5.5t-22 -21.5q-6 -9 -14 -3l-6 4q-9 6 -3 14q26 44 70 44q15 0 26.5 -6t28.5 -17q4 -3 13.5 -9.5t17.5 -10t16 -3.5q14 0 24.5 6.5t21.5 24.5q2 4 6 5t8 -1l6 -3q5 -3 5 -9q0 -7 -4 -12
q-14 -21 -33 -31t-36 -10q-14 0 -26 6z" />
    <glyph glyph-name="Adieresis" unicode="&#xc4;" horiz-adv-x="377" 
d="M325 9l-29 136q0 2 -1.5 3t-3.5 1h-206q-2 0 -3.5 -1t-1.5 -3l-29 -136q-1 -9 -11 -9h-19q-5 0 -7.5 3t-1.5 8l152 680q2 9 11 9h25q10 0 11 -9l153 -680v-2q0 -9 -9 -9h-19q-9 0 -11 9zM89 183.5q1 -1.5 3 -1.5h192q2 0 3 1.5t0 2.5l-97 447q-1 3 -2 3t-2 -3l-97 -447
q-1 -1 0 -2.5zM222.5 821q-12.5 13 -12.5 32q0 20 12.5 33t32.5 13t33 -13t13 -33t-13 -32.5t-33 -12.5t-32.5 13zM88.5 821q-12.5 13 -12.5 32q0 20 12.5 33t32.5 13t33 -13t13 -33t-13 -32.5t-33 -12.5t-32.5 13z" />
    <glyph glyph-name="Aring" unicode="&#xc5;" horiz-adv-x="377" 
d="M325 9l-29 136q0 2 -1.5 3t-3.5 1h-206q-2 0 -3.5 -1t-1.5 -3l-29 -136q-1 -9 -11 -9h-19q-5 0 -7.5 3t-1.5 8l152 680q2 9 11 9h25q10 0 11 -9l153 -680v-2q0 -9 -9 -9h-19q-9 0 -11 9zM89 183.5q1 -1.5 3 -1.5h192q2 0 3 1.5t0 2.5l-97 447q-1 3 -2 3t-2 -3l-97 -447
q-1 -1 0 -2.5zM119.5 813.5q-28.5 29.5 -28.5 71.5t28.5 71.5t69.5 29.5t69.5 -29.5t28.5 -71.5t-28.5 -71.5t-69.5 -29.5t-69.5 29.5zM238 833.5q20 20.5 20 51.5t-20 51.5t-49 20.5t-49.5 -21t-20.5 -51t20.5 -51t49.5 -21t49 20.5z" />
    <glyph glyph-name="AE" unicode="&#xc6;" horiz-adv-x="674" 
d="M617 665h-241q-4 0 -4 -4v-289q0 -4 4 -4h157q10 0 10 -10v-15q0 -10 -10 -10h-157q-4 0 -4 -4v-290q0 -4 4 -4h241q10 0 10 -10v-15q0 -10 -10 -10h-275q-10 0 -10 10v135q0 4 -4 4h-209q-2 0 -4 -3l-62 -138q-3 -8 -11 -8h-19q-5 0 -7.5 3.5t-0.5 8.5l305 680q3 8 11 8
h286q10 0 10 -10v-15q0 -10 -10 -10zM132 183.5q1 -1.5 3 -1.5h193q4 0 4 4l1 442q0 3 -2 3t-3 -2l-196 -442q-1 -2 0 -3.5z" />
    <glyph glyph-name="Ccedilla" unicode="&#xc7;" horiz-adv-x="437" 
d="M369 517l-20 -1q-10 0 -10 10v23q0 56 -32.5 90t-85.5 34t-85 -34t-32 -90v-398q0 -56 32.5 -90t84.5 -34q53 0 85.5 34t32.5 90v22q0 10 10 10l20 -1q10 0 10 -10v-18q0 -67 -37 -110t-99 -50q-6 -2 -1 -5q43 -42 43 -94q0 -42 -21 -61t-52 -19q-13 0 -25 3q-9 1 -7 12
l2 7q2 10 12 7q5 -1 14 -1q20 0 32.5 12.5t12.5 41.5q0 45 -47 94q-2 2 -5 2q-61 6 -98.5 49.5t-37.5 111.5v393q0 73 43 117t113 44q71 0 114.5 -44t43.5 -117v-20q0 -10 -10 -10z" />
    <glyph glyph-name="Egrave" unicode="&#xc8;" horiz-adv-x="425" 
d="M368 665h-241q-4 0 -4 -4v-289q0 -4 4 -4h158q10 0 10 -10v-15q0 -10 -10 -10h-158q-4 0 -4 -4v-290q0 -4 4 -4h241q10 0 10 -10v-15q0 -10 -10 -10h-274q-10 0 -10 10v680q0 10 10 10h274q10 0 10 -10v-15q0 -10 -10 -10zM244 774q0 -6 -9 -6h-12q-7 0 -12 7l-66 111
q-2 4 -2 6q0 6 9 6h16q7 0 12 -7l62 -111q2 -4 2 -6z" />
    <glyph glyph-name="Eacute" unicode="&#xc9;" horiz-adv-x="425" 
d="M368 665h-241q-4 0 -4 -4v-289q0 -4 4 -4h158q10 0 10 -10v-15q0 -10 -10 -10h-158q-4 0 -4 -4v-290q0 -4 4 -4h241q10 0 10 -10v-15q0 -10 -10 -10h-274q-10 0 -10 10v680q0 10 10 10h274q10 0 10 -10v-15q0 -10 -10 -10zM199 771.5q-2 3.5 1 8.5l62 111q5 7 12 7h16
q6 0 8 -3.5t-1 -8.5l-67 -111q-5 -7 -12 -7h-11q-6 0 -8 3.5z" />
    <glyph glyph-name="Ecircumflex" unicode="&#xca;" horiz-adv-x="425" 
d="M368 665h-241q-4 0 -4 -4v-289q0 -4 4 -4h158q10 0 10 -10v-15q0 -10 -10 -10h-158q-4 0 -4 -4v-290q0 -4 4 -4h241q10 0 10 -10v-15q0 -10 -10 -10h-274q-10 0 -10 10v680q0 10 10 10h274q10 0 10 -10v-15q0 -10 -10 -10zM138.5 781.5q-1.5 3.5 1.5 8.5l65 101q5 7 12 7
h27q8 0 12 -6l67 -102q2 -4 2 -6q0 -6 -8 -6h-21q-7 0 -12 7l-49 80q-1 2 -3 2t-3 -2l-50 -80q-5 -7 -12 -7h-21q-6 0 -7.5 3.5z" />
    <glyph glyph-name="Edieresis" unicode="&#xcb;" horiz-adv-x="425" 
d="M368 665h-241q-4 0 -4 -4v-289q0 -4 4 -4h158q10 0 10 -10v-15q0 -10 -10 -10h-158q-4 0 -4 -4v-290q0 -4 4 -4h241q10 0 10 -10v-15q0 -10 -10 -10h-274q-10 0 -10 10v680q0 10 10 10h274q10 0 10 -10v-15q0 -10 -10 -10zM265.5 821q-12.5 13 -12.5 32q0 20 12.5 33
t32.5 13t33 -13t13 -33t-13 -32.5t-33 -12.5t-32.5 13zM131.5 821q-12.5 13 -12.5 32q0 20 12.5 33t32.5 13t33 -13t13 -33t-13 -32.5t-33 -12.5t-32.5 13z" />
    <glyph glyph-name="Igrave" unicode="&#xcc;" horiz-adv-x="208" 
d="M84 10v680q0 10 10 10h19q10 0 10 -10v-680q0 -10 -10 -10h-19q-10 0 -10 10zM117 774q0 -6 -9 -6h-12q-7 0 -12 7l-66 111q-2 4 -2 6q0 6 9 6h16q7 0 12 -7l62 -111q2 -4 2 -6z" />
    <glyph glyph-name="Iacute" unicode="&#xcd;" horiz-adv-x="208" 
d="M84 10v680q0 10 10 10h19q10 0 10 -10v-680q0 -10 -10 -10h-19q-10 0 -10 10zM71 771.5q-2 3.5 1 8.5l62 111q5 7 12 7h16q6 0 8 -3.5t-1 -8.5l-67 -111q-5 -7 -12 -7h-11q-6 0 -8 3.5z" />
    <glyph glyph-name="Icircumflex" unicode="&#xce;" horiz-adv-x="208" 
d="M84 10v680q0 10 10 10h19q10 0 10 -10v-680q0 -10 -10 -10h-19q-10 0 -10 10zM10.5 781.5q-1.5 3.5 1.5 8.5l65 101q5 7 12 7h27q8 0 12 -6l67 -102q2 -4 2 -6q0 -6 -8 -6h-21q-7 0 -12 7l-49 80q-1 2 -3 2t-3 -2l-50 -80q-5 -7 -12 -7h-21q-6 0 -7.5 3.5z" />
    <glyph glyph-name="Idieresis" unicode="&#xcf;" horiz-adv-x="208" 
d="M84 10v680q0 10 10 10h19q10 0 10 -10v-680q0 -10 -10 -10h-19q-10 0 -10 10zM137.5 821q-12.5 13 -12.5 32q0 20 12.5 33t32.5 13t33 -13t13 -33t-13 -32.5t-33 -12.5t-32.5 13zM3.5 821q-12.5 13 -12.5 32q0 20 12.5 33t32.5 13t33 -13t13 -33t-13 -32.5t-33 -12.5
t-32.5 13z" />
    <glyph glyph-name="Eth" unicode="&#xd0;" horiz-adv-x="509" 
d="M396.5 651.5q41.5 -48.5 41.5 -133.5v-336q0 -85 -41.5 -133.5t-112.5 -48.5h-141q-10 0 -10 10v337q0 4 -4 4h-35q-10 0 -10 10v9q0 10 10 10h35q4 0 4 4v306q0 10 10 10h141q71 0 112.5 -48.5zM398 517q0 69 -30 108.5t-83 39.5h-109q-4 0 -4 -4v-277q0 -4 4 -4h92
q10 0 10 -10v-9q0 -10 -10 -10h-92q-4 0 -4 -4v-308q0 -4 4 -4h109q52 1 82.5 40t30.5 107v335z" />
    <glyph glyph-name="Ntilde" unicode="&#xd1;" horiz-adv-x="484" 
d="M371 700h19q10 0 10 -10v-680q0 -10 -10 -10h-24q-8 0 -11 8l-227 592q-1 3 -3 2.5t-2 -3.5v-589q0 -10 -10 -10h-19q-10 0 -10 10v680q0 10 10 10h23q8 0 11 -8l228 -589q1 -3 3 -2.5t2 3.5v586q0 10 10 10zM275 832q-12 6 -27 17q-5 3 -13.5 9t-16 9t-16.5 3
q-15 0 -26 -5.5t-22 -21.5q-6 -9 -14 -3l-6 4q-9 6 -3 14q26 44 70 44q15 0 26.5 -6t28.5 -17q4 -3 13.5 -9.5t17.5 -10t16 -3.5q14 0 24.5 6.5t21.5 24.5q2 4 6 5t8 -1l6 -3q5 -3 5 -9q0 -7 -4 -12q-14 -21 -33 -31t-36 -10q-14 0 -26 6z" />
    <glyph glyph-name="Ograve" unicode="&#xd2;" horiz-adv-x="448" 
d="M108.5 37.5q-43.5 45.5 -43.5 118.5v387q0 74 44 119.5t114 45.5q71 0 115.5 -46t44.5 -119v-387q0 -73 -44.5 -118.5t-115.5 -45.5t-114.5 45.5zM310.5 62.5q33.5 35.5 33.5 91.5v391q0 57 -33.5 92.5t-87.5 35.5q-53 0 -86 -35.5t-33 -92.5v-391q0 -56 33 -91.5
t86 -35.5q54 0 87.5 35.5zM236 773q0 -6 -9 -6h-12q-7 0 -12 7l-66 111q-2 4 -2 6q0 6 9 6h16q7 0 12 -7l62 -111q2 -4 2 -6z" />
    <glyph glyph-name="Oacute" unicode="&#xd3;" horiz-adv-x="448" 
d="M108.5 37.5q-43.5 45.5 -43.5 118.5v387q0 74 44 119.5t114 45.5q71 0 115.5 -46t44.5 -119v-387q0 -73 -44.5 -118.5t-115.5 -45.5t-114.5 45.5zM310.5 62.5q33.5 35.5 33.5 91.5v391q0 57 -33.5 92.5t-87.5 35.5q-53 0 -86 -35.5t-33 -92.5v-391q0 -56 33 -91.5
t86 -35.5q54 0 87.5 35.5zM190 770.5q-2 3.5 1 8.5l62 111q5 7 12 7h16q6 0 8 -3.5t-1 -8.5l-67 -111q-5 -7 -12 -7h-11q-6 0 -8 3.5z" />
    <glyph glyph-name="Ocircumflex" unicode="&#xd4;" horiz-adv-x="448" 
d="M108.5 37.5q-43.5 45.5 -43.5 118.5v387q0 74 44 119.5t114 45.5q71 0 115.5 -46t44.5 -119v-387q0 -73 -44.5 -118.5t-115.5 -45.5t-114.5 45.5zM310.5 62.5q33.5 35.5 33.5 91.5v391q0 57 -33.5 92.5t-87.5 35.5q-53 0 -86 -35.5t-33 -92.5v-391q0 -56 33 -91.5
t86 -35.5q54 0 87.5 35.5zM130.5 780.5q-1.5 3.5 1.5 8.5l65 101q5 7 12 7h27q8 0 12 -6l67 -102q2 -4 2 -6q0 -6 -8 -6h-21q-7 0 -12 7l-49 80q-1 2 -3 2t-3 -2l-50 -80q-5 -7 -12 -7h-21q-6 0 -7.5 3.5z" />
    <glyph glyph-name="Otilde" unicode="&#xd5;" horiz-adv-x="448" 
d="M108.5 37.5q-43.5 45.5 -43.5 118.5v387q0 74 44 119.5t114 45.5q71 0 115.5 -46t44.5 -119v-387q0 -73 -44.5 -118.5t-115.5 -45.5t-114.5 45.5zM310.5 62.5q33.5 35.5 33.5 91.5v391q0 57 -33.5 92.5t-87.5 35.5q-53 0 -86 -35.5t-33 -92.5v-391q0 -56 33 -91.5
t86 -35.5q54 0 87.5 35.5zM256 822q-12 6 -27 17q-5 3 -13.5 9t-16 9t-16.5 3q-15 0 -26 -5.5t-22 -21.5q-6 -9 -14 -3l-6 4q-9 6 -3 14q26 44 70 44q15 0 26.5 -6t28.5 -17q4 -3 13.5 -9.5t17.5 -10t16 -3.5q14 0 24.5 6.5t21.5 24.5q2 4 6 5t8 -1l6 -3q5 -3 5 -9
q0 -7 -4 -12q-14 -21 -33 -31t-36 -10q-14 0 -26 6z" />
    <glyph glyph-name="Odieresis" unicode="&#xd6;" horiz-adv-x="448" 
d="M108.5 37.5q-43.5 45.5 -43.5 118.5v387q0 74 44 119.5t114 45.5q71 0 115.5 -46t44.5 -119v-387q0 -73 -44.5 -118.5t-115.5 -45.5t-114.5 45.5zM310.5 62.5q33.5 35.5 33.5 91.5v391q0 57 -33.5 92.5t-87.5 35.5q-53 0 -86 -35.5t-33 -92.5v-391q0 -56 33 -91.5
t86 -35.5q54 0 87.5 35.5zM257.5 820q-12.5 13 -12.5 32q0 20 12.5 33t32.5 13t33 -13t13 -33t-13 -32.5t-33 -12.5t-32.5 13zM123.5 820q-12.5 13 -12.5 32q0 20 12.5 33t32.5 13t33 -13t13 -33t-13 -32.5t-33 -12.5t-32.5 13z" />
    <glyph glyph-name="multiply" unicode="&#xd7;" horiz-adv-x="357" 
d="M317 432q0 -4 -3 -7l-110 -110q-3 -3 0 -6l110 -110q3 -3 3 -7t-3 -7l-9 -9q-3 -3 -7 -3t-7 3l-110 110q-3 3 -6 0l-110 -110q-3 -3 -7 -3t-7 3l-8 9q-6 8 0 14l110 110q3 3 0 6l-110 110q-3 3 -3 7t3 7l8 8q3 3 7 3t7 -3l110 -110q3 -3 6 0l110 110q7 7 14 0l9 -8
q3 -3 3 -7z" />
    <glyph glyph-name="Oslash" unicode="&#xd8;" horiz-adv-x="472" 
d="M385 705l-26 -64q-1 -2 1 -6q24 -37 24 -92v-387q0 -73 -44.5 -118.5t-115.5 -45.5q-63 0 -106 37q-4 3 -6 -1l-19 -48q-2 -5 -5.5 -6.5t-7.5 0.5l-12 6q-8 5 -5 13l26 65q2 3 -1 6q-23 38 -23 92v387q0 73 44 119t115 46q64 0 107 -38q4 -2 6 2l19 47q3 10 13 5l12 -6
q7 -4 4 -13zM108 118q1 -3 2.5 -3t2.5 3l205 507q1 3 -1 5q-16 20 -40 31.5t-53 11.5q-53 0 -86.5 -35.5t-33.5 -92.5v-391q0 -21 4 -36zM341 581q-1 3 -2.5 3t-2.5 -3l-205 -507q-1 -2 1 -6q33 -41 92 -41q53 0 87 35.5t34 91.5v391q0 21 -4 36z" />
    <glyph glyph-name="Ugrave" unicode="&#xd9;" horiz-adv-x="475" 
d="M121.5 43q-43.5 51 -43.5 135v512q0 10 10 10h19q10 0 10 -10v-516q0 -66 33 -106.5t87 -40.5t87.5 40.5t33.5 106.5v516q0 10 10 10h19q10 0 10 -10v-512q0 -84 -44.5 -135t-115.5 -51q-72 0 -115.5 51zM249 774q0 -6 -9 -6h-12q-7 0 -12 7l-66 111q-2 4 -2 6q0 6 9 6
h16q7 0 12 -7l62 -111q2 -4 2 -6z" />
    <glyph glyph-name="Uacute" unicode="&#xda;" horiz-adv-x="475" 
d="M121.5 43q-43.5 51 -43.5 135v512q0 10 10 10h19q10 0 10 -10v-516q0 -66 33 -106.5t87 -40.5t87.5 40.5t33.5 106.5v516q0 10 10 10h19q10 0 10 -10v-512q0 -84 -44.5 -135t-115.5 -51q-72 0 -115.5 51zM204 771.5q-2 3.5 1 8.5l62 111q5 7 12 7h16q6 0 8 -3.5t-1 -8.5
l-67 -111q-5 -7 -12 -7h-11q-6 0 -8 3.5z" />
    <glyph glyph-name="Ucircumflex" unicode="&#xdb;" horiz-adv-x="475" 
d="M121.5 43q-43.5 51 -43.5 135v512q0 10 10 10h19q10 0 10 -10v-516q0 -66 33 -106.5t87 -40.5t87.5 40.5t33.5 106.5v516q0 10 10 10h19q10 0 10 -10v-512q0 -84 -44.5 -135t-115.5 -51q-72 0 -115.5 51zM143.5 781.5q-1.5 3.5 1.5 8.5l65 101q5 7 12 7h27q8 0 12 -6
l67 -102q2 -4 2 -6q0 -6 -8 -6h-21q-7 0 -12 7l-49 80q-1 2 -3 2t-3 -2l-50 -80q-5 -7 -12 -7h-21q-6 0 -7.5 3.5z" />
    <glyph glyph-name="Udieresis" unicode="&#xdc;" horiz-adv-x="475" 
d="M121.5 43q-43.5 51 -43.5 135v512q0 10 10 10h19q10 0 10 -10v-516q0 -66 33 -106.5t87 -40.5t87.5 40.5t33.5 106.5v516q0 10 10 10h19q10 0 10 -10v-512q0 -84 -44.5 -135t-115.5 -51q-72 0 -115.5 51zM270.5 821q-12.5 13 -12.5 32q0 20 12.5 33t32.5 13t33 -13
t13 -33t-13 -32.5t-33 -12.5t-32.5 13zM136.5 821q-12.5 13 -12.5 32q0 20 12.5 33t32.5 13t33 -13t13 -33t-13 -32.5t-33 -12.5t-32.5 13z" />
    <glyph glyph-name="Yacute" unicode="&#xdd;" horiz-adv-x="401" 
d="M181 10v317q0 4 -1 5l-137 356l-1 4q0 8 9 8h20q9 0 12 -8l115 -315q1 -2 3 -2t3 2l114 315q3 8 12 8h20q5 0 7.5 -3.5t0.5 -8.5l-137 -356q-1 -1 -1 -5v-317q0 -10 -10 -10h-19q-10 0 -10 10zM168 771.5q-2 3.5 1 8.5l62 111q5 7 12 7h16q6 0 8 -3.5t-1 -8.5l-67 -111
q-5 -7 -12 -7h-11q-6 0 -8 3.5z" />
    <glyph glyph-name="Thorn" unicode="&#xde;" horiz-adv-x="432" 
d="M351 485.5q42 -51.5 42 -135.5q0 -82 -41.5 -132.5t-109.5 -50.5h-115q-4 0 -4 -4v-153q0 -10 -10 -10h-19q-10 0 -10 10v680q0 10 10 10h19q10 0 10 -10v-149q0 -4 4 -4h114q68 0 110 -51.5zM322 242q32 41 32 108q0 69 -32 110.5t-84 41.5h-111q-4 0 -4 -4v-293
q0 -4 4 -4h111q52 0 84 41z" />
    <glyph glyph-name="germandbls" unicode="&#xdf;" horiz-adv-x="416" 
d="M71 10v512q0 88 36.5 137.5t100.5 49.5q67 0 106 -51t39 -139q0 -56 -18.5 -95t-51.5 -55q-5 -2 0 -5q35 -19 55 -64.5t20 -109.5q0 -88 -41 -139t-115 -51h-40q-10 0 -10 10v14q0 10 10 10l41 1q56 1 86 41.5t30 115.5t-26 116t-73 43h-42q-10 0 -10 10v14q0 10 10 10
h42q45 0 69.5 34.5t24.5 98.5q0 74 -28 115t-78 41q-46 0 -72 -39t-26 -110v-515q0 -10 -10 -10h-19q-10 0 -10 10z" />
    <glyph glyph-name="agrave" unicode="&#xe0;" horiz-adv-x="396" 
d="M301.5 465q36.5 -45 36.5 -121v-334q0 -10 -10 -10h-19q-10 0 -10 10v41q0 3 -1.5 3t-3.5 -2q-19 -30 -50.5 -45t-69.5 -15q-52 0 -89 30.5t-37 106.5q0 81 44 120.5t118 39.5h85q4 0 4 4v51q0 60 -26 95.5t-74 35.5q-38 0 -66.5 -23.5t-32.5 -61.5q0 -10 -10 -10l-21 1
q-4 0 -7 3t-2 8q6 53 45.5 85.5t94.5 32.5q65 0 101.5 -45zM264.5 57.5q34.5 30.5 34.5 88.5v105q0 4 -4 4h-84q-56 0 -89.5 -31t-33.5 -92q0 -53 25.5 -79t67.5 -26q49 0 83.5 30.5zM211 576q0 -6 -9 -6h-12q-7 0 -12 7l-66 111q-2 4 -2 6q0 6 9 6h16q7 0 12 -7l62 -111
q2 -4 2 -6z" />
    <glyph glyph-name="aacute" unicode="&#xe1;" horiz-adv-x="396" 
d="M301.5 465q36.5 -45 36.5 -121v-334q0 -10 -10 -10h-19q-10 0 -10 10v41q0 3 -1.5 3t-3.5 -2q-19 -30 -50.5 -45t-69.5 -15q-52 0 -89 30.5t-37 106.5q0 81 44 120.5t118 39.5h85q4 0 4 4v51q0 60 -26 95.5t-74 35.5q-38 0 -66.5 -23.5t-32.5 -61.5q0 -10 -10 -10l-21 1
q-4 0 -7 3t-2 8q6 53 45.5 85.5t94.5 32.5q65 0 101.5 -45zM264.5 57.5q34.5 30.5 34.5 88.5v105q0 4 -4 4h-84q-56 0 -89.5 -31t-33.5 -92q0 -53 25.5 -79t67.5 -26q49 0 83.5 30.5zM165 573.5q-2 3.5 1 8.5l62 111q5 7 12 7h16q6 0 8 -3.5t-1 -8.5l-67 -111q-5 -7 -12 -7
h-11q-6 0 -8 3.5z" />
    <glyph glyph-name="acircumflex" unicode="&#xe2;" horiz-adv-x="396" 
d="M301.5 465q36.5 -45 36.5 -121v-334q0 -10 -10 -10h-19q-10 0 -10 10v41q0 3 -1.5 3t-3.5 -2q-19 -30 -50.5 -45t-69.5 -15q-52 0 -89 30.5t-37 106.5q0 81 44 120.5t118 39.5h85q4 0 4 4v51q0 60 -26 95.5t-74 35.5q-38 0 -66.5 -23.5t-32.5 -61.5q0 -10 -10 -10l-21 1
q-4 0 -7 3t-2 8q6 53 45.5 85.5t94.5 32.5q65 0 101.5 -45zM264.5 57.5q34.5 30.5 34.5 88.5v105q0 4 -4 4h-84q-56 0 -89.5 -31t-33.5 -92q0 -53 25.5 -79t67.5 -26q49 0 83.5 30.5zM105.5 583.5q-1.5 3.5 1.5 8.5l65 101q5 7 12 7h27q8 0 12 -6l67 -102q2 -4 2 -6
q0 -6 -8 -6h-21q-7 0 -12 7l-49 80q-1 2 -3 2t-3 -2l-50 -80q-5 -7 -12 -7h-21q-6 0 -7.5 3.5z" />
    <glyph glyph-name="atilde" unicode="&#xe3;" horiz-adv-x="396" 
d="M301.5 465q36.5 -45 36.5 -121v-334q0 -10 -10 -10h-19q-10 0 -10 10v41q0 3 -1.5 3t-3.5 -2q-19 -30 -50.5 -45t-69.5 -15q-52 0 -89 30.5t-37 106.5q0 81 44 120.5t118 39.5h85q4 0 4 4v51q0 60 -26 95.5t-74 35.5q-38 0 -66.5 -23.5t-32.5 -61.5q0 -10 -10 -10l-21 1
q-4 0 -7 3t-2 8q6 53 45.5 85.5t94.5 32.5q65 0 101.5 -45zM264.5 57.5q34.5 30.5 34.5 88.5v105q0 4 -4 4h-84q-56 0 -89.5 -31t-33.5 -92q0 -53 25.5 -79t67.5 -26q49 0 83.5 30.5zM231 625q-12 6 -27 17q-5 3 -13.5 9t-16 9t-16.5 3q-15 0 -26 -5.5t-22 -21.5
q-6 -9 -14 -3l-6 4q-9 6 -3 14q26 44 70 44q15 0 26.5 -6t28.5 -17q4 -3 13.5 -9.5t17.5 -10t16 -3.5q14 0 24.5 6.5t21.5 24.5q2 4 6 5t8 -1l6 -3q5 -3 5 -9q0 -7 -4 -12q-14 -21 -33 -31t-36 -10q-14 0 -26 6z" />
    <glyph glyph-name="adieresis" unicode="&#xe4;" horiz-adv-x="396" 
d="M301.5 465q36.5 -45 36.5 -121v-334q0 -10 -10 -10h-19q-10 0 -10 10v41q0 3 -1.5 3t-3.5 -2q-19 -30 -50.5 -45t-69.5 -15q-52 0 -89 30.5t-37 106.5q0 81 44 120.5t118 39.5h85q4 0 4 4v51q0 60 -26 95.5t-74 35.5q-38 0 -66.5 -23.5t-32.5 -61.5q0 -10 -10 -10l-21 1
q-4 0 -7 3t-2 8q6 53 45.5 85.5t94.5 32.5q65 0 101.5 -45zM264.5 57.5q34.5 30.5 34.5 88.5v105q0 4 -4 4h-84q-56 0 -89.5 -31t-33.5 -92q0 -53 25.5 -79t67.5 -26q49 0 83.5 30.5zM232.5 623q-12.5 13 -12.5 32q0 20 12.5 33t32.5 13t33 -13t13 -33t-13 -32.5t-33 -12.5
t-32.5 13zM98.5 623q-12.5 13 -12.5 32q0 20 12.5 33t32.5 13t33 -13t13 -33t-13 -32.5t-33 -12.5t-32.5 13z" />
    <glyph glyph-name="aring" unicode="&#xe5;" horiz-adv-x="396" 
d="M301.5 465q36.5 -45 36.5 -121v-334q0 -10 -10 -10h-19q-10 0 -10 10v41q0 3 -1.5 3t-3.5 -2q-19 -30 -50.5 -45t-69.5 -15q-52 0 -89 30.5t-37 106.5q0 81 44 120.5t118 39.5h85q4 0 4 4v51q0 60 -26 95.5t-74 35.5q-38 0 -66.5 -23.5t-32.5 -61.5q0 -10 -10 -10l-21 1
q-4 0 -7 3t-2 8q6 53 45.5 85.5t94.5 32.5q65 0 101.5 -45zM264.5 57.5q34.5 30.5 34.5 88.5v105q0 4 -4 4h-84q-56 0 -89.5 -31t-33.5 -92q0 -53 25.5 -79t67.5 -26q49 0 83.5 30.5zM129.5 615.5q-28.5 29.5 -28.5 71.5t28.5 71.5t69.5 29.5t69.5 -29.5t28.5 -71.5
t-28.5 -71.5t-69.5 -29.5t-69.5 29.5zM248 635.5q20 20.5 20 51.5t-20 51.5t-49 20.5t-49.5 -21t-20.5 -51t20.5 -51t49.5 -21t49 20.5z" />
    <glyph glyph-name="ae" unicode="&#xe6;" horiz-adv-x="637" 
d="M84 22q-36 30 -36 107q0 150 160 150h87q4 0 4 4v61q0 60 -26.5 95.5t-74.5 35.5q-38 0 -67 -24t-33 -61q-2 -10 -11 -9l-20 1q-4 0 -7 3t-2 8q6 53 45.5 85t94.5 32q42 0 71.5 -19.5t45.5 -55.5q3 -4 6 0q16 35 48 55t74 20q63 0 102.5 -41t39.5 -106v-108
q0 -10 -10 -10h-231q-4 0 -4 -4v-101q0 -49 28.5 -80t74.5 -31q37 0 64 21.5t36 57.5q3 9 11 9l19 -1q5 0 7 -3.5t1 -7.5q-9 -51 -46 -82t-91 -31q-46 0 -80 23t-47 61q-1 2 -2 2t-2 -2q-15 -41 -53 -62.5t-87 -21.5q-53 0 -89 30zM344 278h198q4 0 4 4v80q0 50 -28.5 81.5
t-74.5 31.5t-74.5 -31.5t-28.5 -81.5v-80q0 -4 4 -4zM264 56q35 30 35 87v97q0 4 -4 4h-84q-57 0 -90.5 -27.5t-33.5 -86.5q0 -53 26 -78.5t68 -25.5q48 0 83 30z" />
    <glyph glyph-name="ccedilla" unicode="&#xe7;" horiz-adv-x="388" 
d="M333 367l-19 -1q-10 0 -10 10v4q0 38 -29.5 66.5t-74.5 28.5t-74 -31.5t-29 -81.5v-222q0 -49 29 -81t74 -32t74.5 28.5t29.5 66.5v4q0 10 10 10h19q10 0 10 -10v-5q0 -48 -33.5 -84t-87.5 -43q-6 -2 -1 -5q43 -42 43 -94q0 -42 -21 -61t-52 -19q-13 0 -25 3q-9 1 -7 12
l2 7q2 10 12 7q5 -1 14 -1q20 0 32.5 12.5t12.5 41.5q0 45 -47 94q-2 2 -5 2q-55 6 -88.5 46.5t-33.5 99.5v224q0 65 39.5 106t102.5 41q42 0 74.5 -18t50.5 -47.5t18 -63.5v-7q0 -7 -10 -7z" />
    <glyph glyph-name="egrave" unicode="&#xe8;" horiz-adv-x="395" 
d="M333 240h-232q-4 0 -4 -4v-96q0 -50 29 -81.5t74 -31.5q38 0 65 22t36 59q3 9 11 9l18 -1q5 0 7.5 -3t1.5 -8q-9 -51 -46.5 -82t-92.5 -31q-63 0 -102.5 40.5t-39.5 105.5v225q0 65 39.5 106t102.5 41q64 0 103.5 -41t39.5 -106v-113q0 -10 -10 -10zM126 443.5
q-29 -31.5 -29 -81.5v-85q0 -4 4 -4h199q4 0 4 4v85q0 50 -29 81.5t-75 31.5q-45 0 -74 -31.5zM210 576q0 -6 -9 -6h-12q-7 0 -12 7l-66 111q-2 4 -2 6q0 6 9 6h16q7 0 12 -7l62 -111q2 -4 2 -6z" />
    <glyph glyph-name="eacute" unicode="&#xe9;" horiz-adv-x="395" 
d="M333 240h-232q-4 0 -4 -4v-96q0 -50 29 -81.5t74 -31.5q38 0 65 22t36 59q3 9 11 9l18 -1q5 0 7.5 -3t1.5 -8q-9 -51 -46.5 -82t-92.5 -31q-63 0 -102.5 40.5t-39.5 105.5v225q0 65 39.5 106t102.5 41q64 0 103.5 -41t39.5 -106v-113q0 -10 -10 -10zM126 443.5
q-29 -31.5 -29 -81.5v-85q0 -4 4 -4h199q4 0 4 4v85q0 50 -29 81.5t-75 31.5q-45 0 -74 -31.5zM165 573.5q-2 3.5 1 8.5l62 111q5 7 12 7h16q6 0 8 -3.5t-1 -8.5l-67 -111q-5 -7 -12 -7h-11q-6 0 -8 3.5z" />
    <glyph glyph-name="ecircumflex" unicode="&#xea;" horiz-adv-x="395" 
d="M333 240h-232q-4 0 -4 -4v-96q0 -50 29 -81.5t74 -31.5q38 0 65 22t36 59q3 9 11 9l18 -1q5 0 7.5 -3t1.5 -8q-9 -51 -46.5 -82t-92.5 -31q-63 0 -102.5 40.5t-39.5 105.5v225q0 65 39.5 106t102.5 41q64 0 103.5 -41t39.5 -106v-113q0 -10 -10 -10zM126 443.5
q-29 -31.5 -29 -81.5v-85q0 -4 4 -4h199q4 0 4 4v85q0 50 -29 81.5t-75 31.5q-45 0 -74 -31.5zM104.5 583.5q-1.5 3.5 1.5 8.5l65 101q5 7 12 7h27q8 0 12 -6l67 -102q2 -4 2 -6q0 -6 -8 -6h-21q-7 0 -12 7l-49 80q-1 2 -3 2t-3 -2l-50 -80q-5 -7 -12 -7h-21q-6 0 -7.5 3.5z
" />
    <glyph glyph-name="edieresis" unicode="&#xeb;" horiz-adv-x="395" 
d="M333 240h-232q-4 0 -4 -4v-96q0 -50 29 -81.5t74 -31.5q38 0 65 22t36 59q3 9 11 9l18 -1q5 0 7.5 -3t1.5 -8q-9 -51 -46.5 -82t-92.5 -31q-63 0 -102.5 40.5t-39.5 105.5v225q0 65 39.5 106t102.5 41q64 0 103.5 -41t39.5 -106v-113q0 -10 -10 -10zM126 443.5
q-29 -31.5 -29 -81.5v-85q0 -4 4 -4h199q4 0 4 4v85q0 50 -29 81.5t-75 31.5q-45 0 -74 -31.5zM231.5 623q-12.5 13 -12.5 32q0 20 12.5 33t32.5 13t33 -13t13 -33t-13 -32.5t-33 -12.5t-32.5 13zM97.5 623q-12.5 13 -12.5 32q0 20 12.5 33t32.5 13t33 -13t13 -33t-13 -32.5
t-33 -12.5t-32.5 13z" />
    <glyph glyph-name="igrave" unicode="&#xec;" horiz-adv-x="159" 
d="M60 10v482q0 10 10 10h19q10 0 10 -10v-482q0 -10 -10 -10h-19q-10 0 -10 10zM92 576q0 -6 -9 -6h-12q-7 0 -12 7l-66 111q-2 4 -2 6q0 6 9 6h16q7 0 12 -7l62 -111q2 -4 2 -6z" />
    <glyph glyph-name="iacute" unicode="&#xed;" horiz-adv-x="159" 
d="M60 10v482q0 10 10 10h19q10 0 10 -10v-482q0 -10 -10 -10h-19q-10 0 -10 10zM47 573.5q-2 3.5 1 8.5l62 111q5 7 12 7h16q6 0 8 -3.5t-1 -8.5l-67 -111q-5 -7 -12 -7h-11q-6 0 -8 3.5z" />
    <glyph glyph-name="icircumflex" unicode="&#xee;" horiz-adv-x="159" 
d="M60 10v482q0 10 10 10h19q10 0 10 -10v-482q0 -10 -10 -10h-19q-10 0 -10 10zM-13.5 583.5q-1.5 3.5 1.5 8.5l65 101q5 7 12 7h27q8 0 12 -6l67 -102q2 -4 2 -6q0 -6 -8 -6h-21q-7 0 -12 7l-49 80q-1 2 -3 2t-3 -2l-50 -80q-5 -7 -12 -7h-21q-6 0 -7.5 3.5z" />
    <glyph glyph-name="idieresis" unicode="&#xef;" horiz-adv-x="159" 
d="M60 10v482q0 10 10 10h19q10 0 10 -10v-482q0 -10 -10 -10h-19q-10 0 -10 10zM113.5 623q-12.5 13 -12.5 32q0 20 12.5 33t32.5 13t33 -13t13 -33t-13 -32.5t-33 -12.5t-32.5 13zM-20.5 623q-12.5 13 -12.5 32q0 20 12.5 33t32.5 13t33 -13t13 -33t-13 -32.5t-33 -12.5
t-32.5 13z" />
    <glyph glyph-name="eth" unicode="&#xf0;" horiz-adv-x="424" 
d="M282 600q57 -96 61 -241v-35v-75v-110q0 -65 -39.5 -106t-103.5 -41q-63 0 -102.5 41t-39.5 106v220q0 64 39 105.5t100 41.5q58 0 96 -41q2 -2 3.5 -1.5t0.5 2.5q-10 68 -45 125q-2 4 -5 2l-72 -23l-4 -1q-6 0 -9 8l-1 6l-1 5q0 5 7 7l63 21q5 2 2 5q-30 39 -59 67
q-3 3 -3 7q0 5 8 5h16q7 0 12 -5q38 -38 57 -65q2 -4 5 -2l80 26l4 1q6 0 9 -8l2 -5l1 -4q0 -6 -8 -9l-72 -24q-3 -2 -2 -5zM275 439.5q-29 31.5 -75 31.5q-45 0 -74 -32t-29 -81v-218q0 -49 29 -81t74 -32q46 0 75 31.5t29 81.5v218q0 50 -29 81.5z" />
    <glyph glyph-name="ntilde" unicode="&#xf1;" horiz-adv-x="414" 
d="M156 657.5q-9 -5.5 -18 -20.5q-6 -9 -14 -3l-3 2q-3 2 -4 6t1 8q22 45 59 45q13 0 23 -6t23 -17q2 -2 10 -9t15.5 -10.5t14.5 -3.5q11 0 20.5 6.5t17.5 23.5q7 10 14 4l3 -2q8 -5 4 -14q-11 -25 -28 -36.5t-33 -11.5q-12 0 -22 6t-23 17q-3 2 -10 8.5t-14 9.5t-14 3
q-13 0 -22 -5.5zM316 468.5q33 -40.5 33 -112.5v-346q0 -10 -10 -10h-19q-10 0 -10 10v342q0 58 -26 90t-72 32q-47 0 -74.5 -34.5t-27.5 -94.5v-335q0 -10 -10 -10h-19q-10 0 -10 10v482q0 10 10 10h19q10 0 10 -10v-44q0 -3 1.5 -3t3.5 2q34 62 108 62q60 0 93 -40.5z" />
    <glyph glyph-name="ograve" unicode="&#xf2;" horiz-adv-x="402" 
d="M97.5 33q-39.5 41 -39.5 106v224q0 65 39.5 106t102.5 41q64 0 103.5 -41t39.5 -106v-224q0 -65 -39.5 -106t-103.5 -41q-63 0 -102.5 41zM275 58.5q29 31.5 29 81.5v222q0 50 -29 81.5t-75 31.5q-45 0 -74 -32t-29 -81v-222q0 -49 29 -81t74 -32q46 0 75 31.5zM213 576
q0 -6 -9 -6h-12q-7 0 -12 7l-66 111q-2 4 -2 6q0 6 9 6h16q7 0 12 -7l62 -111q2 -4 2 -6z" />
    <glyph glyph-name="oacute" unicode="&#xf3;" horiz-adv-x="402" 
d="M97.5 33q-39.5 41 -39.5 106v224q0 65 39.5 106t102.5 41q64 0 103.5 -41t39.5 -106v-224q0 -65 -39.5 -106t-103.5 -41q-63 0 -102.5 41zM275 58.5q29 31.5 29 81.5v222q0 50 -29 81.5t-75 31.5q-45 0 -74 -32t-29 -81v-222q0 -49 29 -81t74 -32q46 0 75 31.5z
M168 573.5q-2 3.5 1 8.5l62 111q5 7 12 7h16q6 0 8 -3.5t-1 -8.5l-67 -111q-5 -7 -12 -7h-11q-6 0 -8 3.5z" />
    <glyph glyph-name="ocircumflex" unicode="&#xf4;" horiz-adv-x="402" 
d="M97.5 33q-39.5 41 -39.5 106v224q0 65 39.5 106t102.5 41q64 0 103.5 -41t39.5 -106v-224q0 -65 -39.5 -106t-103.5 -41q-63 0 -102.5 41zM275 58.5q29 31.5 29 81.5v222q0 50 -29 81.5t-75 31.5q-45 0 -74 -32t-29 -81v-222q0 -49 29 -81t74 -32q46 0 75 31.5z
M107.5 583.5q-1.5 3.5 1.5 8.5l65 101q5 7 12 7h27q8 0 12 -6l67 -102q2 -4 2 -6q0 -6 -8 -6h-21q-7 0 -12 7l-49 80q-1 2 -3 2t-3 -2l-50 -80q-5 -7 -12 -7h-21q-6 0 -7.5 3.5z" />
    <glyph glyph-name="otilde" unicode="&#xf5;" horiz-adv-x="402" 
d="M97.5 33q-39.5 41 -39.5 106v224q0 65 39.5 106t102.5 41q64 0 103.5 -41t39.5 -106v-224q0 -65 -39.5 -106t-103.5 -41q-63 0 -102.5 41zM275 58.5q29 31.5 29 81.5v222q0 50 -29 81.5t-75 31.5q-45 0 -74 -32t-29 -81v-222q0 -49 29 -81t74 -32q46 0 75 31.5zM234 625
q-12 6 -27 17q-5 3 -13.5 9t-16 9t-16.5 3q-15 0 -26 -5.5t-22 -21.5q-6 -9 -14 -3l-6 4q-9 6 -3 14q26 44 70 44q15 0 26.5 -6t28.5 -17q4 -3 13.5 -9.5t17.5 -10t16 -3.5q14 0 24.5 6.5t21.5 24.5q2 4 6 5t8 -1l6 -3q5 -3 5 -9q0 -7 -4 -12q-14 -21 -33 -31t-36 -10
q-14 0 -26 6z" />
    <glyph glyph-name="odieresis" unicode="&#xf6;" horiz-adv-x="402" 
d="M97.5 33q-39.5 41 -39.5 106v224q0 65 39.5 106t102.5 41q64 0 103.5 -41t39.5 -106v-224q0 -65 -39.5 -106t-103.5 -41q-63 0 -102.5 41zM275 58.5q29 31.5 29 81.5v222q0 50 -29 81.5t-75 31.5q-45 0 -74 -32t-29 -81v-222q0 -49 29 -81t74 -32q46 0 75 31.5z
M234.5 623q-12.5 13 -12.5 32q0 20 12.5 33t32.5 13t33 -13t13 -33t-13 -32.5t-33 -12.5t-32.5 13zM100.5 623q-12.5 13 -12.5 32q0 20 12.5 33t32.5 13t33 -13t13 -33t-13 -32.5t-33 -12.5t-32.5 13z" />
    <glyph glyph-name="divide" unicode="&#xf7;" horiz-adv-x="443" 
d="M189 446q-13 13 -13 32q0 18 13.5 31t31.5 13t32 -13t14 -31q0 -19 -14 -32t-32 -13q-19 0 -32 13zM36 325v13q0 10 10 10h351q10 0 10 -10v-13q0 -10 -10 -10h-351q-10 0 -10 10zM189 156q-13 13 -13 32q0 18 13.5 31t31.5 13t32 -13t14 -31t-14 -31.5t-32 -13.5
q-19 0 -32 13z" />
    <glyph glyph-name="oslash" unicode="&#xf8;" horiz-adv-x="407" 
d="M311 463q33 -41 33 -100v-224q0 -65 -39.5 -106t-103.5 -41q-40 0 -72 18q-4 1 -6 -2l-19 -49q-3 -10 -13 -5l-13 7q-8 5 -5 13l23 57q1 3 -1 5q-36 41 -36 103v224q0 65 39.5 106t102.5 41q44 0 76 -20q4 -1 6 2l22 56q3 10 13 5l13 -7q8 -5 5 -13l-26 -65q-1 -3 1 -5z
M111 82q4 -5 5 0l149 368q1 3 -2 5q-25 20 -62 20q-46 0 -74.5 -31.5t-28.5 -81.5v-222q0 -30 13 -58zM294 416q-4 5 -5 0l-148 -366q-1 -3 2 -5q23 -18 58 -18q46 0 75 31.5t29 81.5v222q0 29 -11 54z" />
    <glyph glyph-name="ugrave" unicode="&#xf9;" horiz-adv-x="414" 
d="M313 502h19q10 0 10 -10v-482q0 -10 -10 -10h-19q-10 0 -10 10v40q0 3 -2 3.5t-3 -2.5q-31 -58 -104 -58q-60 0 -94.5 37t-34.5 109v353q0 10 10 10h19q10 0 10 -10v-345q0 -58 25.5 -88.5t71.5 -30.5q47 0 74.5 34.5t27.5 94.5v335q0 10 10 10zM216 576q0 -6 -9 -6h-12
q-7 0 -12 7l-66 111q-2 4 -2 6q0 6 9 6h16q7 0 12 -7l62 -111q2 -4 2 -6z" />
    <glyph glyph-name="uacute" unicode="&#xfa;" horiz-adv-x="414" 
d="M313 502h19q10 0 10 -10v-482q0 -10 -10 -10h-19q-10 0 -10 10v40q0 3 -2 3.5t-3 -2.5q-31 -58 -104 -58q-60 0 -94.5 37t-34.5 109v353q0 10 10 10h19q10 0 10 -10v-345q0 -58 25.5 -88.5t71.5 -30.5q47 0 74.5 34.5t27.5 94.5v335q0 10 10 10zM170 573.5q-2 3.5 1 8.5
l62 111q5 7 12 7h16q6 0 8 -3.5t-1 -8.5l-67 -111q-5 -7 -12 -7h-11q-6 0 -8 3.5z" />
    <glyph glyph-name="ucircumflex" unicode="&#xfb;" horiz-adv-x="414" 
d="M313 502h19q10 0 10 -10v-482q0 -10 -10 -10h-19q-10 0 -10 10v40q0 3 -2 3.5t-3 -2.5q-31 -58 -104 -58q-60 0 -94.5 37t-34.5 109v353q0 10 10 10h19q10 0 10 -10v-345q0 -58 25.5 -88.5t71.5 -30.5q47 0 74.5 34.5t27.5 94.5v335q0 10 10 10zM109.5 583.5
q-1.5 3.5 1.5 8.5l65 101q5 7 12 7h27q8 0 12 -6l67 -102q2 -4 2 -6q0 -6 -8 -6h-21q-7 0 -12 7l-49 80q-1 2 -3 2t-3 -2l-50 -80q-5 -7 -12 -7h-21q-6 0 -7.5 3.5z" />
    <glyph glyph-name="udieresis" unicode="&#xfc;" horiz-adv-x="414" 
d="M313 502h19q10 0 10 -10v-482q0 -10 -10 -10h-19q-10 0 -10 10v40q0 3 -2 3.5t-3 -2.5q-31 -58 -104 -58q-60 0 -94.5 37t-34.5 109v353q0 10 10 10h19q10 0 10 -10v-345q0 -58 25.5 -88.5t71.5 -30.5q47 0 74.5 34.5t27.5 94.5v335q0 10 10 10zM237.5 623
q-12.5 13 -12.5 32q0 20 12.5 33t32.5 13t33 -13t13 -33t-13 -32.5t-33 -12.5t-32.5 13zM103.5 623q-12.5 13 -12.5 32q0 20 12.5 33t32.5 13t33 -13t13 -33t-13 -32.5t-33 -12.5t-32.5 13z" />
    <glyph glyph-name="yacute" unicode="&#xfd;" horiz-adv-x="342" 
d="M43 -197q-2 3 -2 7v15q0 10 10 10q30 1 46 13.5t27 45t27 103.5q1 2 0.5 3.5t-0.5 2.5l-129 488l-1 3q0 8 10 8h21q10 0 11 -9l107 -434q1 -3 2 -3t2 3l106 434q2 9 11 9h20q5 0 7.5 -3t1.5 -8l-142 -547q-17 -63 -32.5 -93t-36 -40.5t-57.5 -10.5h-5q-2 0 -4 3z
M139 573.5q-2 3.5 1 8.5l62 111q5 7 12 7h16q6 0 8 -3.5t-1 -8.5l-67 -111q-5 -7 -12 -7h-11q-6 0 -8 3.5z" />
    <glyph glyph-name="thorn" unicode="&#xfe;" horiz-adv-x="406" 
d="M311 469.5q37 -40.5 37 -106.5v-224q0 -65 -37 -106t-98 -41q-34 0 -60.5 15t-43.5 43q-1 3 -3 2.5t-2 -3.5v-239q0 -10 -10 -10h-19q-10 0 -10 10v880q0 10 10 10h19q10 0 10 -10v-237q0 -3 2 -3.5t3 2.5q16 28 43 43t61 15q61 0 98 -40.5zM280 443.5q-29 31.5 -76 31.5
q-44 0 -72 -31.5t-28 -81.5v-222q0 -50 28 -81.5t72 -31.5q46 0 75.5 31.5t29.5 81.5v222q0 50 -29 81.5z" />
    <glyph glyph-name="ydieresis" unicode="&#xff;" horiz-adv-x="342" 
d="M43 -197q-2 3 -2 7v15q0 10 10 10q30 1 46 13.5t27 45t27 103.5q1 2 0.5 3.5t-0.5 2.5l-129 488l-1 3q0 8 10 8h21q10 0 11 -9l107 -434q1 -3 2 -3t2 3l106 434q2 9 11 9h20q5 0 7.5 -3t1.5 -8l-142 -547q-17 -63 -32.5 -93t-36 -40.5t-57.5 -10.5h-5q-2 0 -4 3z
M205.5 623q-12.5 13 -12.5 32q0 20 12.5 33t32.5 13t33 -13t13 -33t-13 -32.5t-33 -12.5t-32.5 13zM71.5 623q-12.5 13 -12.5 32q0 20 12.5 33t32.5 13t33 -13t13 -33t-13 -32.5t-33 -12.5t-32.5 13z" />
    <glyph glyph-name="Amacron" unicode="&#x100;" horiz-adv-x="377" 
d="M325 9l-29 136q0 2 -1.5 3t-3.5 1h-206q-2 0 -3.5 -1t-1.5 -3l-29 -136q-1 -9 -11 -9h-19q-5 0 -7.5 3t-1.5 8l152 680q2 9 11 9h25q10 0 11 -9l153 -680v-2q0 -9 -9 -9h-19q-9 0 -11 9zM89 183.5q1 -1.5 3 -1.5h192q2 0 3 1.5t0 2.5l-97 447q-1 3 -2 3t-2 -3l-97 -447
q-1 -1 0 -2.5zM90 810v11q0 10 10 10h175q10 0 10 -10v-11q0 -10 -10 -10h-175q-10 0 -10 10z" />
    <glyph glyph-name="amacron" unicode="&#x101;" horiz-adv-x="396" 
d="M301.5 465q36.5 -45 36.5 -121v-334q0 -10 -10 -10h-19q-10 0 -10 10v41q0 3 -1.5 3t-3.5 -2q-19 -30 -50.5 -45t-69.5 -15q-52 0 -89 30.5t-37 106.5q0 81 44 120.5t118 39.5h85q4 0 4 4v51q0 60 -26 95.5t-74 35.5q-38 0 -66.5 -23.5t-32.5 -61.5q0 -10 -10 -10l-21 1
q-4 0 -7 3t-2 8q6 53 45.5 85.5t94.5 32.5q65 0 101.5 -45zM264.5 57.5q34.5 30.5 34.5 88.5v105q0 4 -4 4h-84q-56 0 -89.5 -31t-33.5 -92q0 -53 25.5 -79t67.5 -26q49 0 83.5 30.5zM100 612v11q0 10 10 10h175q10 0 10 -10v-11q0 -10 -10 -10h-175q-10 0 -10 10z" />
    <glyph glyph-name="Abreve" unicode="&#x102;" horiz-adv-x="377" 
d="M325 9l-29 136q0 2 -1.5 3t-3.5 1h-206q-2 0 -3.5 -1t-1.5 -3l-29 -136q-1 -9 -11 -9h-19q-5 0 -7.5 3t-1.5 8l152 680q2 9 11 9h25q10 0 11 -9l153 -680v-2q0 -9 -9 -9h-19q-9 0 -11 9zM89 183.5q1 -1.5 3 -1.5h192q2 0 3 1.5t0 2.5l-97 447q-1 3 -2 3t-2 -3l-97 -447
q-1 -1 0 -2.5zM121.5 785.5q-27.5 25.5 -31.5 64.5q0 10 10 10h9q10 0 11 -10q3 -28 22.5 -45.5t45.5 -17.5t45.5 17.5t22.5 45.5q1 10 11 10h9q5 0 7.5 -3t1.5 -7q-3 -38 -30.5 -64t-66.5 -26t-66.5 25.5z" />
    <glyph glyph-name="abreve" unicode="&#x103;" horiz-adv-x="396" 
d="M301.5 465q36.5 -45 36.5 -121v-334q0 -10 -10 -10h-19q-10 0 -10 10v41q0 3 -1.5 3t-3.5 -2q-19 -30 -50.5 -45t-69.5 -15q-52 0 -89 30.5t-37 106.5q0 81 44 120.5t118 39.5h85q4 0 4 4v51q0 60 -26 95.5t-74 35.5q-38 0 -66.5 -23.5t-32.5 -61.5q0 -10 -10 -10l-21 1
q-4 0 -7 3t-2 8q6 53 45.5 85.5t94.5 32.5q65 0 101.5 -45zM264.5 57.5q34.5 30.5 34.5 88.5v105q0 4 -4 4h-84q-56 0 -89.5 -31t-33.5 -92q0 -53 25.5 -79t67.5 -26q49 0 83.5 30.5zM131.5 587.5q-27.5 25.5 -31.5 64.5q0 10 10 10h9q10 0 11 -10q3 -28 22.5 -45.5
t45.5 -17.5t45.5 17.5t22.5 45.5q1 10 11 10h9q5 0 7.5 -3t1.5 -7q-3 -38 -30.5 -64t-66.5 -26t-66.5 25.5z" />
    <glyph glyph-name="Aogonek" unicode="&#x104;" horiz-adv-x="377" 
d="M325 9l-29 136q0 2 -1.5 3t-3.5 1h-206q-2 0 -3.5 -1t-1.5 -3l-29 -136q-1 -9 -11 -9h-19q-5 0 -7.5 3t-1.5 8l152 680q2 9 11 9h25q10 0 11 -9l153 -680v-2q0 -9 -9 -9h-19q-9 0 -11 9zM89 183.5q1 -1.5 3 -1.5h192q2 0 3 1.5t0 2.5l-97 447q-1 3 -2 3t-2 -3l-97 -447
q-1 -1 0 -2.5zM385 -171q0 -8 -7 -9q-12 -3 -25 -3q-31 0 -52 18.5t-21 60.5q0 56 47 97l4 4q3 3 10 3h8q6 0 7.5 -4t-2.5 -8q-42 -47 -42 -90q0 -53 46 -53q8 0 13 1l4 1q6 0 8 -8l2 -7v-3z" />
    <glyph glyph-name="aogonek" unicode="&#x105;" horiz-adv-x="396" 
d="M347 -153q6 0 8 -8l1 -8v-3q0 -7 -7 -8q-12 -3 -25 -3q-31 0 -51.5 18.5t-20.5 61.5q0 55 50 101q2 1 0 3q-3 3 -3 9v41q0 3 -1.5 3t-3.5 -2q-19 -30 -50.5 -45t-69.5 -15q-52 0 -89 30.5t-37 106.5q0 81 44 120.5t118 39.5h85q4 0 4 4v51q0 60 -26 95.5t-74 35.5
q-38 0 -66.5 -23.5t-32.5 -61.5q0 -10 -10 -10l-21 1q-4 0 -7 3t-2 8q6 53 45.5 85.5t94.5 32.5q65 0 101.5 -45t36.5 -121v-337q0 -5 -5 -12q-49 -49 -49 -97q0 -8 1 -12q2 -21 14.5 -31t30.5 -10q9 0 13 1zM264.5 57.5q34.5 30.5 34.5 88.5v105q0 4 -4 4h-84
q-56 0 -89.5 -31t-33.5 -92q0 -53 25.5 -79t67.5 -26q49 0 83.5 30.5z" />
    <glyph glyph-name="Cacute" unicode="&#x106;" horiz-adv-x="437" 
d="M108 36.5q-43 44.5 -43 117.5v393q0 73 43 117t113 44q71 0 114.5 -44t43.5 -117v-20q0 -10 -10 -10l-20 -1q-10 0 -10 10v23q0 56 -32.5 90t-85.5 34t-85 -34t-32 -90v-398q0 -56 32.5 -90t84.5 -34q53 0 85.5 34t32.5 90v22q0 10 10 10l20 -1q10 0 10 -10v-18
q0 -73 -43.5 -117.5t-114.5 -44.5q-70 0 -113 44.5zM188 771.5q-2 3.5 1 8.5l62 111q5 7 12 7h16q6 0 8 -3.5t-1 -8.5l-67 -111q-5 -7 -12 -7h-11q-6 0 -8 3.5z" />
    <glyph glyph-name="cacute" unicode="&#x107;" horiz-adv-x="388" 
d="M97.5 33q-39.5 41 -39.5 106v224q0 65 39.5 106t102.5 41q42 0 74.5 -18t50.5 -47.5t18 -63.5v-4q0 -10 -10 -10l-19 -1q-10 0 -10 10v4q0 38 -29.5 66.5t-74.5 28.5t-74 -31.5t-29 -81.5v-222q0 -49 29 -81t74 -32t74.5 28.5t29.5 66.5v4q0 10 10 10h19q10 0 10 -10v-5
q0 -34 -18 -63.5t-50.5 -47.5t-74.5 -18q-63 0 -102.5 41zM167 573.5q-2 3.5 1 8.5l62 111q5 7 12 7h16q6 0 8 -3.5t-1 -8.5l-67 -111q-5 -7 -12 -7h-11q-6 0 -8 3.5z" />
    <glyph glyph-name="Ccircumflex" unicode="&#x108;" horiz-adv-x="437" 
d="M108 36.5q-43 44.5 -43 117.5v393q0 73 43 117t113 44q71 0 114.5 -44t43.5 -117v-20q0 -10 -10 -10l-20 -1q-10 0 -10 10v23q0 56 -32.5 90t-85.5 34t-85 -34t-32 -90v-398q0 -56 32.5 -90t84.5 -34q53 0 85.5 34t32.5 90v22q0 10 10 10l20 -1q10 0 10 -10v-18
q0 -73 -43.5 -117.5t-114.5 -44.5q-70 0 -113 44.5zM128.5 781.5q-1.5 3.5 1.5 8.5l65 101q5 7 12 7h27q8 0 12 -6l67 -102q2 -4 2 -6q0 -6 -8 -6h-21q-7 0 -12 7l-49 80q-1 2 -3 2t-3 -2l-50 -80q-5 -7 -12 -7h-21q-6 0 -7.5 3.5z" />
    <glyph glyph-name="ccircumflex" unicode="&#x109;" horiz-adv-x="388" 
d="M97.5 33q-39.5 41 -39.5 106v224q0 65 39.5 106t102.5 41q42 0 74.5 -18t50.5 -47.5t18 -63.5v-4q0 -10 -10 -10l-19 -1q-10 0 -10 10v4q0 38 -29.5 66.5t-74.5 28.5t-74 -31.5t-29 -81.5v-222q0 -49 29 -81t74 -32t74.5 28.5t29.5 66.5v4q0 10 10 10h19q10 0 10 -10v-5
q0 -34 -18 -63.5t-50.5 -47.5t-74.5 -18q-63 0 -102.5 41zM107.5 583.5q-1.5 3.5 1.5 8.5l65 101q5 7 12 7h27q8 0 12 -6l67 -102q2 -4 2 -6q0 -6 -8 -6h-21q-7 0 -12 7l-49 80q-1 2 -3 2t-3 -2l-50 -80q-5 -7 -12 -7h-21q-6 0 -7.5 3.5z" />
    <glyph glyph-name="Cdotaccent" unicode="&#x10a;" horiz-adv-x="437" 
d="M108 36.5q-43 44.5 -43 117.5v393q0 73 43 117t113 44q71 0 114.5 -44t43.5 -117v-20q0 -10 -10 -10l-20 -1q-10 0 -10 10v23q0 56 -32.5 90t-85.5 34t-85 -34t-32 -90v-398q0 -56 32.5 -90t84.5 -34q53 0 85.5 34t32.5 90v22q0 10 10 10l20 -1q10 0 10 -10v-18
q0 -73 -43.5 -117.5t-114.5 -44.5q-70 0 -113 44.5zM188.5 821q-12.5 13 -12.5 32q0 20 12.5 33t32.5 13t33 -13t13 -33t-13 -32.5t-33 -12.5t-32.5 13z" />
    <glyph glyph-name="cdotaccent" unicode="&#x10b;" horiz-adv-x="388" 
d="M97.5 33q-39.5 41 -39.5 106v224q0 65 39.5 106t102.5 41q42 0 74.5 -18t50.5 -47.5t18 -63.5v-4q0 -10 -10 -10l-19 -1q-10 0 -10 10v4q0 38 -29.5 66.5t-74.5 28.5t-74 -31.5t-29 -81.5v-222q0 -49 29 -81t74 -32t74.5 28.5t29.5 66.5v4q0 10 10 10h19q10 0 10 -10v-5
q0 -34 -18 -63.5t-50.5 -47.5t-74.5 -18q-63 0 -102.5 41zM167.5 623q-12.5 13 -12.5 32q0 20 12.5 33t32.5 13t33 -13t13 -33t-13 -32.5t-33 -12.5t-32.5 13z" />
    <glyph glyph-name="Ccaron" unicode="&#x10c;" horiz-adv-x="437" 
d="M108 36.5q-43 44.5 -43 117.5v393q0 73 43 117t113 44q71 0 114.5 -44t43.5 -117v-20q0 -10 -10 -10l-20 -1q-10 0 -10 10v23q0 56 -32.5 90t-85.5 34t-85 -34t-32 -90v-398q0 -56 32.5 -90t84.5 -34q53 0 85.5 34t32.5 90v22q0 10 10 10l20 -1q10 0 10 -10v-18
q0 -73 -43.5 -117.5t-114.5 -44.5q-70 0 -113 44.5zM129 892q0 6 8 6h21q7 0 12 -7l50 -80q1 -1 3 -1t3 1l49 80q5 7 12 7h21q6 0 7.5 -3.5t-1.5 -8.5l-67 -102q-4 -6 -12 -6h-27q-7 0 -12 7l-65 101q-2 4 -2 6z" />
    <glyph glyph-name="ccaron" unicode="&#x10d;" horiz-adv-x="388" 
d="M97.5 33q-39.5 41 -39.5 106v224q0 65 39.5 106t102.5 41q42 0 74.5 -18t50.5 -47.5t18 -63.5v-4q0 -10 -10 -10l-19 -1q-10 0 -10 10v4q0 38 -29.5 66.5t-74.5 28.5t-74 -31.5t-29 -81.5v-222q0 -49 29 -81t74 -32t74.5 28.5t29.5 66.5v4q0 10 10 10h19q10 0 10 -10v-5
q0 -34 -18 -63.5t-50.5 -47.5t-74.5 -18q-63 0 -102.5 41zM108 694q0 6 8 6h21q7 0 12 -7l50 -80q1 -1 3 -1t3 1l49 80q5 7 12 7h21q6 0 7.5 -3.5t-1.5 -8.5l-67 -102q-4 -6 -12 -6h-27q-7 0 -12 7l-65 101q-2 4 -2 6z" />
    <glyph glyph-name="Dcaron" unicode="&#x10e;" horiz-adv-x="461" 
d="M84 10v680q0 10 10 10h141q71 0 112.5 -48.5t41.5 -133.5v-336q0 -85 -41.5 -133.5t-112.5 -48.5h-141q-10 0 -10 10zM127 35h109q52 1 82.5 40t30.5 107v335q0 69 -30 108.5t-83 39.5h-109q-4 0 -4 -4v-622q0 -4 4 -4zM136 889q0 6 8 6h21q7 0 12 -7l50 -80q1 -1 3 -1
t3 1l49 80q5 7 12 7h21q6 0 7.5 -3.5t-1.5 -8.5l-67 -102q-4 -6 -12 -6h-27q-7 0 -12 7l-65 101q-2 4 -2 6z" />
    <glyph glyph-name="dcaron" unicode="&#x10f;" horiz-adv-x="412" 
d="M312 700h19q10 0 10 -10v-680q0 -10 -10 -10h-19q-10 0 -10 10v34q0 3 -1.5 3.5t-3.5 -1.5q-17 -26 -44 -40t-59 -14q-61 0 -98.5 41t-37.5 105v225q0 65 37.5 106t98.5 41q32 0 59 -14t44 -40q2 -2 3.5 -1.5t1.5 3.5v232q0 10 10 10zM274 58.5q28 31.5 28 81.5v222
q0 50 -28 81.5t-72 31.5q-47 0 -76 -31.5t-29 -81.5v-222q0 -50 29 -81.5t76 -31.5q44 0 72 31.5zM412 573.5q-2 3.5 1 8.5l62 111q5 7 12 7h16q6 0 8 -3.5t-1 -8.5l-67 -111q-5 -7 -12 -7h-11q-6 0 -8 3.5z" />
    <glyph glyph-name="Dcroat" unicode="&#x110;" horiz-adv-x="509" 
d="M396.5 651.5q41.5 -48.5 41.5 -133.5v-336q0 -85 -41.5 -133.5t-112.5 -48.5h-141q-10 0 -10 10v337q0 4 -4 4h-35q-10 0 -10 10v9q0 10 10 10h35q4 0 4 4v306q0 10 10 10h141q71 0 112.5 -48.5zM398 517q0 69 -30 108.5t-83 39.5h-109q-4 0 -4 -4v-277q0 -4 4 -4h92
q10 0 10 -10v-9q0 -10 -10 -10h-92q-4 0 -4 -4v-308q0 -4 4 -4h109q52 1 82.5 40t30.5 107v335z" />
    <glyph glyph-name="dcroat" unicode="&#x111;" horiz-adv-x="412" 
d="M392 593v-10q0 -10 -10 -10h-37q-4 0 -4 -4v-559q0 -10 -10 -10h-19q-10 0 -10 10v34q0 3 -1.5 3.5t-3.5 -1.5q-17 -26 -44 -40t-59 -14q-61 0 -98.5 41t-37.5 105v225q0 65 37.5 106t98.5 41q32 0 59 -14t44 -40q2 -2 3.5 -1.5t1.5 3.5v111q0 4 -4 4h-153q-10 0 -10 10
v10q0 10 10 10h153q4 0 4 4v83q0 10 10 10h19q10 0 10 -10v-83q0 -4 4 -4h37q10 0 10 -10zM274 58.5q28 31.5 28 81.5v222q0 50 -28 81.5t-72 31.5q-47 0 -76 -31.5t-29 -81.5v-222q0 -50 29 -81.5t76 -31.5q44 0 72 31.5z" />
    <glyph glyph-name="Emacron" unicode="&#x112;" horiz-adv-x="425" 
d="M368 665h-241q-4 0 -4 -4v-289q0 -4 4 -4h158q10 0 10 -10v-15q0 -10 -10 -10h-158q-4 0 -4 -4v-290q0 -4 4 -4h241q10 0 10 -10v-15q0 -10 -10 -10h-274q-10 0 -10 10v680q0 10 10 10h274q10 0 10 -10v-15q0 -10 -10 -10zM134 810v11q0 10 10 10h175q10 0 10 -10v-11
q0 -10 -10 -10h-175q-10 0 -10 10z" />
    <glyph glyph-name="emacron" unicode="&#x113;" horiz-adv-x="395" 
d="M333 240h-232q-4 0 -4 -4v-96q0 -50 29 -81.5t74 -31.5q38 0 65 22t36 59q3 9 11 9l18 -1q5 0 7.5 -3t1.5 -8q-9 -51 -46.5 -82t-92.5 -31q-63 0 -102.5 40.5t-39.5 105.5v225q0 65 39.5 106t102.5 41q64 0 103.5 -41t39.5 -106v-113q0 -10 -10 -10zM126 443.5
q-29 -31.5 -29 -81.5v-85q0 -4 4 -4h199q4 0 4 4v85q0 50 -29 81.5t-75 31.5q-45 0 -74 -31.5zM100 643v12q0 10 10 10h175q10 0 10 -10v-12q0 -10 -10 -10h-175q-10 0 -10 10z" />
    <glyph glyph-name="Edotaccent" unicode="&#x116;" horiz-adv-x="425" 
d="M368 665h-241q-4 0 -4 -4v-289q0 -4 4 -4h158q10 0 10 -10v-15q0 -10 -10 -10h-158q-4 0 -4 -4v-290q0 -4 4 -4h241q10 0 10 -10v-15q0 -10 -10 -10h-274q-10 0 -10 10v680q0 10 10 10h274q10 0 10 -10v-15q0 -10 -10 -10zM198.5 821q-12.5 13 -12.5 32q0 20 12.5 33
t32.5 13t33 -13t13 -33t-13 -32.5t-33 -12.5t-32.5 13z" />
    <glyph glyph-name="edotaccent" unicode="&#x117;" horiz-adv-x="395" 
d="M333 240h-232q-4 0 -4 -4v-96q0 -50 29 -81.5t74 -31.5q38 0 65 22t36 59q3 9 11 9l18 -1q5 0 7.5 -3t1.5 -8q-9 -51 -46.5 -82t-92.5 -31q-63 0 -102.5 40.5t-39.5 105.5v225q0 65 39.5 106t102.5 41q64 0 103.5 -41t39.5 -106v-113q0 -10 -10 -10zM126 443.5
q-29 -31.5 -29 -81.5v-85q0 -4 4 -4h199q4 0 4 4v85q0 50 -29 81.5t-75 31.5q-45 0 -74 -31.5zM164.5 623q-12.5 13 -12.5 32q0 20 12.5 33t32.5 13t33 -13t13 -33t-13 -32.5t-33 -12.5t-32.5 13z" />
    <glyph glyph-name="Eogonek" unicode="&#x118;" horiz-adv-x="425" 
d="M368 665h-241q-4 0 -4 -4v-289q0 -4 4 -4h158q10 0 10 -10v-15q0 -10 -10 -10h-158q-4 0 -4 -4v-290q0 -4 4 -4h241q10 0 10 -10v-15q0 -10 -10 -10h-120q-3 0 -5 -2q-46 -50 -46 -94q0 -28 12.5 -41t32.5 -13q9 0 14 1l4 1q6 0 8 -8l2 -7v-3q0 -8 -8 -9q-12 -3 -24 -3
q-31 0 -52 18.5t-21 61.5q0 51 42 93q3 5 -2 5h-111q-10 0 -10 10v680q0 10 10 10h274q10 0 10 -10v-15q0 -10 -10 -10z" />
    <glyph glyph-name="eogonek" unicode="&#x119;" horiz-adv-x="395" 
d="M333 240h-232q-4 0 -4 -4v-96q0 -50 29 -81.5t74 -31.5q38 0 65 22t36 59q3 9 11 9l18 -1q5 0 7.5 -3t1.5 -8q-9 -49 -44 -80t-86 -33q-3 0 -5 -2q-39 -44 -39 -88q0 -27 13 -39.5t34 -12.5q9 0 13 1l4 1q6 0 8 -8l1 -8v-3q0 -7 -7 -8q-12 -3 -24 -3q-31 0 -52 19t-21 62
q0 46 35 87q4 4 -1 5q-50 10 -80 48.5t-30 94.5v225q0 65 39.5 106t102.5 41q64 0 103.5 -41t39.5 -106v-113q0 -10 -10 -10zM126 443.5q-29 -31.5 -29 -81.5v-85q0 -4 4 -4h199q4 0 4 4v85q0 50 -29 81.5t-75 31.5q-45 0 -74 -31.5z" />
    <glyph glyph-name="Ecaron" unicode="&#x11a;" horiz-adv-x="425" 
d="M368 665h-241q-4 0 -4 -4v-289q0 -4 4 -4h158q10 0 10 -10v-15q0 -10 -10 -10h-158q-4 0 -4 -4v-290q0 -4 4 -4h241q10 0 10 -10v-15q0 -10 -10 -10h-274q-10 0 -10 10v680q0 10 10 10h274q10 0 10 -10v-15q0 -10 -10 -10zM139 892q0 6 8 6h21q7 0 12 -7l50 -80
q1 -1 3 -1t3 1l49 80q5 7 12 7h21q6 0 7.5 -3.5t-1.5 -8.5l-67 -102q-4 -6 -12 -6h-27q-7 0 -12 7l-65 101q-2 4 -2 6z" />
    <glyph glyph-name="ecaron" unicode="&#x11b;" horiz-adv-x="395" 
d="M333 240h-232q-4 0 -4 -4v-96q0 -50 29 -81.5t74 -31.5q38 0 65 22t36 59q3 9 11 9l18 -1q5 0 7.5 -3t1.5 -8q-9 -51 -46.5 -82t-92.5 -31q-63 0 -102.5 40.5t-39.5 105.5v225q0 65 39.5 106t102.5 41q64 0 103.5 -41t39.5 -106v-113q0 -10 -10 -10zM126 443.5
q-29 -31.5 -29 -81.5v-85q0 -4 4 -4h199q4 0 4 4v85q0 50 -29 81.5t-75 31.5q-45 0 -74 -31.5zM105 691q0 6 8 6h21q7 0 12 -7l50 -80q1 -1 3 -1t3 1l49 80q5 7 12 7h21q6 0 7.5 -3.5t-1.5 -8.5l-67 -102q-4 -6 -12 -6h-27q-7 0 -12 7l-65 101q-2 4 -2 6z" />
    <glyph glyph-name="Gcircumflex" unicode="&#x11c;" horiz-adv-x="443" 
d="M108 35q-43 43 -43 114v402q0 71 43 114t113 43q71 0 114 -43t43 -114v-46q0 -10 -10 -10h-19q-10 0 -10 10v47q0 54 -32.5 87.5t-85.5 33.5q-52 0 -84.5 -33.5t-32.5 -87.5v-404q0 -54 32.5 -87.5t84.5 -33.5q53 0 85.5 33.5t32.5 87.5v152q0 4 -4 4h-100q-10 0 -10 10
v15q0 10 10 10h133q10 0 10 -10v-180q0 -71 -43 -114t-114 -43q-70 0 -113 43zM128.5 781.5q-1.5 3.5 1.5 8.5l65 101q5 7 12 7h27q8 0 12 -6l67 -102q2 -4 2 -6q0 -6 -8 -6h-21q-7 0 -12 7l-49 80q-1 2 -3 2t-3 -2l-50 -80q-5 -7 -12 -7h-21q-6 0 -7.5 3.5z" />
    <glyph glyph-name="gcircumflex" unicode="&#x11d;" horiz-adv-x="401" 
d="M312 502h20q10 0 10 -10v-489q0 -204 -180 -204q-15 0 -15 10v16q0 10 13 10q75 0 108.5 43t33.5 127v45q0 3 -1.5 3t-3.5 -2q-16 -28 -43 -42.5t-61 -14.5q-61 0 -98 41t-37 105v223q0 65 37 106t98 41q34 0 61 -14.5t43 -42.5q2 -2 3.5 -2t1.5 3v38q0 10 10 10z
M274 60.5q28 31.5 28 81.5v220q0 50 -28 81.5t-72 31.5q-46 0 -75.5 -31.5t-29.5 -81.5v-220q0 -50 29.5 -81.5t75.5 -31.5q44 0 72 31.5zM107.5 583.5q-1.5 3.5 1.5 8.5l65 101q5 7 12 7h27q8 0 12 -6l67 -102q2 -4 2 -6q0 -6 -8 -6h-21q-7 0 -12 7l-49 80q-1 2 -3 2t-3 -2
l-50 -80q-5 -7 -12 -7h-21q-6 0 -7.5 3.5z" />
    <glyph glyph-name="Gbreve" unicode="&#x11e;" horiz-adv-x="443" 
d="M108 35q-43 43 -43 114v402q0 71 43 114t113 43q71 0 114 -43t43 -114v-46q0 -10 -10 -10h-19q-10 0 -10 10v47q0 54 -32.5 87.5t-85.5 33.5q-52 0 -84.5 -33.5t-32.5 -87.5v-404q0 -54 32.5 -87.5t84.5 -33.5q53 0 85.5 33.5t32.5 87.5v152q0 4 -4 4h-100q-10 0 -10 10
v15q0 10 10 10h133q10 0 10 -10v-180q0 -71 -43 -114t-114 -43q-70 0 -113 43zM154.5 785.5q-27.5 25.5 -31.5 64.5q0 10 10 10h9q10 0 11 -10q3 -28 22.5 -45.5t45.5 -17.5t45.5 17.5t22.5 45.5q1 10 11 10h9q5 0 7.5 -3t1.5 -7q-3 -38 -30.5 -64t-66.5 -26t-66.5 25.5z
" />
    <glyph glyph-name="gbreve" unicode="&#x11f;" horiz-adv-x="401" 
d="M312 502h20q10 0 10 -10v-489q0 -204 -180 -204q-15 0 -15 10v16q0 10 13 10q75 0 108.5 43t33.5 127v45q0 3 -1.5 3t-3.5 -2q-16 -28 -43 -42.5t-61 -14.5q-61 0 -98 41t-37 105v223q0 65 37 106t98 41q34 0 61 -14.5t43 -42.5q2 -2 3.5 -2t1.5 3v38q0 10 10 10z
M274 60.5q28 31.5 28 81.5v220q0 50 -28 81.5t-72 31.5q-46 0 -75.5 -31.5t-29.5 -81.5v-220q0 -50 29.5 -81.5t75.5 -31.5q44 0 72 31.5zM134.5 587.5q-27.5 25.5 -31.5 64.5q0 10 10 10h9q10 0 11 -10q3 -28 22.5 -45.5t45.5 -17.5t45.5 17.5t22.5 45.5q1 10 11 10h9
q5 0 7.5 -3t1.5 -7q-3 -38 -30.5 -64t-66.5 -26t-66.5 25.5z" />
    <glyph glyph-name="Gdotaccent" unicode="&#x120;" horiz-adv-x="443" 
d="M108 35q-43 43 -43 114v402q0 71 43 114t113 43q71 0 114 -43t43 -114v-46q0 -10 -10 -10h-19q-10 0 -10 10v47q0 54 -32.5 87.5t-85.5 33.5q-52 0 -84.5 -33.5t-32.5 -87.5v-404q0 -54 32.5 -87.5t84.5 -33.5q53 0 85.5 33.5t32.5 87.5v152q0 4 -4 4h-100q-10 0 -10 10
v15q0 10 10 10h133q10 0 10 -10v-180q0 -71 -43 -114t-114 -43q-70 0 -113 43zM188.5 821q-12.5 13 -12.5 32q0 20 12.5 33t32.5 13t33 -13t13 -33t-13 -32.5t-33 -12.5t-32.5 13z" />
    <glyph glyph-name="gdotaccent" unicode="&#x121;" horiz-adv-x="401" 
d="M312 502h20q10 0 10 -10v-489q0 -204 -180 -204q-15 0 -15 10v16q0 10 13 10q75 0 108.5 43t33.5 127v45q0 3 -1.5 3t-3.5 -2q-16 -28 -43 -42.5t-61 -14.5q-61 0 -98 41t-37 105v223q0 65 37 106t98 41q34 0 61 -14.5t43 -42.5q2 -2 3.5 -2t1.5 3v38q0 10 10 10z
M274 60.5q28 31.5 28 81.5v220q0 50 -28 81.5t-72 31.5q-46 0 -75.5 -31.5t-29.5 -81.5v-220q0 -50 29.5 -81.5t75.5 -31.5q44 0 72 31.5zM167.5 623q-12.5 13 -12.5 32q0 20 12.5 33t32.5 13t33 -13t13 -33t-13 -32.5t-33 -12.5t-32.5 13z" />
    <glyph glyph-name="uni0122" unicode="&#x122;" horiz-adv-x="443" 
d="M108 35q-43 43 -43 114v402q0 71 43 114t113 43q71 0 114 -43t43 -114v-46q0 -10 -10 -10h-19q-10 0 -10 10v47q0 54 -32.5 87.5t-85.5 33.5q-52 0 -84.5 -33.5t-32.5 -87.5v-404q0 -54 32.5 -87.5t84.5 -33.5q53 0 85.5 33.5t32.5 87.5v152q0 4 -4 4h-100q-10 0 -10 10
v15q0 10 10 10h133q10 0 10 -10v-180q0 -71 -43 -114t-114 -43q-70 0 -113 43zM190 -201.5q-2 3.5 1 8.5l62 111q5 7 12 7h16q6 0 8 -3.5t-1 -8.5l-67 -111q-5 -7 -12 -7h-11q-6 0 -8 3.5z" />
    <glyph glyph-name="uni0123" unicode="&#x123;" horiz-adv-x="401" 
d="M230 695.5q2 -3.5 -1 -8.5l-62 -111q-5 -7 -12 -7h-16q-6 0 -8 3.5t1 8.5l67 111q5 7 12 7h11q6 0 8 -3.5zM312 502h20q10 0 10 -10v-489q0 -204 -180 -204q-15 0 -15 10v16q0 10 13 10q75 0 108.5 43t33.5 127v45q0 3 -1.5 3t-3.5 -2q-16 -28 -43 -42.5t-61 -14.5
q-61 0 -98 41t-37 105v223q0 65 37 106t98 41q34 0 61 -14.5t43 -42.5q2 -2 3.5 -2t1.5 3v38q0 10 10 10zM274 60.5q28 31.5 28 81.5v220q0 50 -28 81.5t-72 31.5q-46 0 -75.5 -31.5t-29.5 -81.5v-220q0 -50 29.5 -81.5t75.5 -31.5q44 0 72 31.5z" />
    <glyph glyph-name="Hcircumflex" unicode="&#x124;" horiz-adv-x="468" 
d="M355 700h19q10 0 10 -10v-680q0 -10 -10 -10h-19q-10 0 -10 10v319q0 4 -4 4h-214q-4 0 -4 -4v-319q0 -10 -10 -10h-19q-10 0 -10 10v680q0 10 10 10h19q10 0 10 -10v-318q0 -4 4 -4h214q4 0 4 4v318q0 10 10 10zM138.5 782.5q-1.5 3.5 1.5 8.5l65 101q5 7 12 7h27
q8 0 12 -6l67 -102q2 -4 2 -6q0 -6 -8 -6h-21q-7 0 -12 7l-49 80q-1 2 -3 2t-3 -2l-50 -80q-5 -7 -12 -7h-21q-6 0 -7.5 3.5z" />
    <glyph glyph-name="hcircumflex" unicode="&#x125;" horiz-adv-x="414" 
d="M316 468.5q33 -40.5 33 -112.5v-346q0 -10 -10 -10h-19q-10 0 -10 10v342q0 58 -26 90t-72 32q-47 0 -74.5 -34.5t-27.5 -94.5v-335q0 -10 -10 -10h-19q-10 0 -10 10v680q0 10 10 10h19q10 0 10 -10v-242q0 -3 1.5 -3t3.5 2q34 62 108 62q60 0 93 -40.5zM116.5 753.5
q-1.5 3.5 1.5 8.5l65 101q5 7 12 7h27q8 0 12 -6l67 -102q2 -4 2 -6q0 -6 -8 -6h-21q-7 0 -12 7l-49 80q-1 2 -3 2t-3 -2l-50 -80q-5 -7 -12 -7h-21q-6 0 -7.5 3.5z" />
    <glyph glyph-name="Hbar" unicode="&#x126;" horiz-adv-x="468" 
d="M432 530v-12q0 -10 -10 -10h-34q-4 0 -4 -4v-494q0 -10 -10 -10h-19q-10 0 -10 10v319q0 4 -4 4h-214q-4 0 -4 -4v-319q0 -10 -10 -10h-19q-10 0 -10 10v494q0 4 -4 4h-34q-10 0 -10 10v12q0 10 10 10h34q4 0 4 4v146q0 10 10 10h19q10 0 10 -10v-146q0 -4 4 -4h214
q4 0 4 4v146q0 10 10 10h19q10 0 10 -10v-146q0 -4 4 -4h34q10 0 10 -10zM345 372v132q0 4 -4 4h-214q-4 0 -4 -4v-132q0 -4 4 -4h214q4 0 4 4z" />
    <glyph glyph-name="hbar" unicode="&#x127;" horiz-adv-x="414" 
d="M316 468.5q33 -40.5 33 -112.5v-346q0 -10 -10 -10h-19q-10 0 -10 10v342q0 58 -26 90t-72 32q-47 0 -74.5 -34.5t-27.5 -94.5v-335q0 -10 -10 -10h-19q-10 0 -10 10v542q0 4 -4 4h-43q-10 0 -10 10v10q0 10 10 10h43q4 0 4 4v100q0 10 10 10h19q10 0 10 -10v-100
q0 -4 4 -4h148q10 0 10 -10v-10q0 -10 -10 -10h-148q-4 0 -4 -4v-104q0 -3 1.5 -3t3.5 2q34 62 108 62q60 0 93 -40.5z" />
    <glyph glyph-name="Itilde" unicode="&#x128;" horiz-adv-x="208" 
d="M84 10v680q0 10 10 10h19q10 0 10 -10v-680q0 -10 -10 -10h-19q-10 0 -10 10zM137 823q-12 6 -27 17q-5 3 -13.5 9t-16 9t-16.5 3q-15 0 -26 -5.5t-22 -21.5q-6 -9 -14 -3l-6 4q-9 6 -3 14q26 44 70 44q15 0 26.5 -6t28.5 -17q4 -3 13.5 -9.5t17.5 -10t16 -3.5
q14 0 24.5 6.5t21.5 24.5q2 4 6 5t8 -1l6 -3q5 -3 5 -9q0 -7 -4 -12q-14 -21 -33 -31t-36 -10q-14 0 -26 6z" />
    <glyph glyph-name="itilde" unicode="&#x129;" horiz-adv-x="159" 
d="M60 10v482q0 10 10 10h19q10 0 10 -10v-482q0 -10 -10 -10h-19q-10 0 -10 10zM113 625q-12 6 -27 17q-5 3 -13.5 9t-16 9t-16.5 3q-15 0 -26 -5.5t-22 -21.5q-6 -9 -14 -3l-6 4q-9 6 -3 14q26 44 70 44q15 0 26.5 -6t28.5 -17q4 -3 13.5 -9.5t17.5 -10t16 -3.5
q14 0 24.5 6.5t21.5 24.5q2 4 6 5t8 -1l6 -3q5 -3 5 -9q0 -7 -4 -12q-14 -21 -33 -31t-36 -10q-14 0 -26 6z" />
    <glyph glyph-name="Imacron" unicode="&#x12a;" horiz-adv-x="208" 
d="M84 10v680q0 10 10 10h19q10 0 10 -10v-680q0 -10 -10 -10h-19q-10 0 -10 10zM6 810v11q0 10 10 10h175q10 0 10 -10v-11q0 -10 -10 -10h-175q-10 0 -10 10z" />
    <glyph glyph-name="imacron" unicode="&#x12b;" horiz-adv-x="159" 
d="M60 10v482q0 10 10 10h19q10 0 10 -10v-482q0 -10 -10 -10h-19q-10 0 -10 10zM-18 612v11q0 10 10 10h175q10 0 10 -10v-11q0 -10 -10 -10h-175q-10 0 -10 10z" />
    <glyph glyph-name="ibreve" unicode="&#x12d;" horiz-adv-x="159" 
d="M60 10v482q0 10 10 10h19q10 0 10 -10v-482q0 -10 -10 -10h-19q-10 0 -10 10zM13.5 611.5q-27.5 25.5 -31.5 64.5q0 10 10 10h9q10 0 10 -10q4 -27 23.5 -45t45.5 -18q25 0 44.5 18t23.5 45q1 10 11 10h9q5 0 7.5 -3t1.5 -7q-4 -38 -31.5 -64t-65.5 -26q-39 0 -66.5 25.5
z" />
    <glyph glyph-name="Iogonek" unicode="&#x12e;" horiz-adv-x="172" 
d="M67 10v680q0 10 10 10h19q10 0 10 -10v-680q0 -10 -10 -10h-19q-10 0 -10 10zM127 -171q0 -8 -8 -9q-12 -3 -25 -3q-31 0 -51.5 19t-20.5 62q0 56 46 95q3 3 3 4q4 3 11 3h8q6 0 7.5 -4t-2.5 -8q-41 -43 -41 -88q0 -55 45 -55q9 0 14 1l4 1q6 0 8 -8l2 -7v-3z" />
    <glyph glyph-name="iogonek" unicode="&#x12f;" horiz-adv-x="224" 
d="M103 10v482q0 10 10 10h19q10 0 10 -10v-482q0 -10 -10 -10h-19q-10 0 -10 10zM89.5 623q-12.5 13 -12.5 32q0 20 12.5 33t32.5 13t33 -13t13 -33t-13 -32.5t-33 -12.5t-32.5 13zM163 -171q0 -8 -8 -9q-12 -3 -25 -3q-31 0 -51.5 19t-20.5 62q0 56 46 95q3 3 3 4
q4 3 11 3h8q6 0 7.5 -4t-2.5 -8q-41 -43 -41 -88q0 -55 45 -55q9 0 14 1l4 1q6 0 8 -8l2 -7v-3z" />
    <glyph glyph-name="Idotaccent" unicode="&#x130;" horiz-adv-x="208" 
d="M84 10v680q0 10 10 10h19q10 0 10 -10v-680q0 -10 -10 -10h-19q-10 0 -10 10zM70.5 821q-12.5 13 -12.5 32q0 20 12.5 33t32.5 13t33 -13t13 -33t-13 -32.5t-33 -12.5t-32.5 13z" />
    <glyph glyph-name="dotlessi" unicode="&#x131;" horiz-adv-x="159" 
d="M60 10v482q0 10 10 10h19q10 0 10 -10v-482q0 -10 -10 -10h-19q-10 0 -10 10z" />
    <glyph glyph-name="ij" unicode="&#x133;" horiz-adv-x="398" 
d="M69 623q-13 13 -13 32q0 20 12.5 33t32.5 13t33 -13t13 -33q0 -19 -13 -32t-33 -13q-19 0 -32 13zM82 10v482q0 10 10 10h19q10 0 10 -10v-482q0 -10 -10 -10h-19q-10 0 -10 10zM264 623q-13 13 -13 32q0 20 13 33t33 13t32.5 -13t12.5 -33q0 -19 -12.5 -32t-32.5 -13
t-33 13zM189 -200v15q0 10 10 10q38 3 58 32.5t20 79.5v555q0 10 10 10h19q10 0 10 -10v-555q0 -70 -27.5 -107.5t-89.5 -39.5q-10 0 -10 10z" />
    <glyph glyph-name="Jcircumflex" unicode="&#x134;" horiz-adv-x="413" 
d="M67.5 36q-41.5 44 -41.5 117v89q0 10 10 10h19q10 0 10 -10v-91q0 -56 31 -90t81 -34q51 0 82 34t31 90v539q0 10 10 10h19q10 0 10 -10v-537q0 -73 -42 -117t-110 -44t-109.5 44zM216.5 782.5q-1.5 3.5 1.5 8.5l65 101q5 7 12 7h27q8 0 12 -6l67 -102q2 -4 2 -6
q0 -6 -8 -6h-21q-7 0 -12 7l-49 80q-1 2 -3 2t-3 -2l-50 -80q-5 -7 -12 -7h-21q-6 0 -7.5 3.5z" />
    <glyph glyph-name="jcircumflex" unicode="&#x135;" horiz-adv-x="189" 
d="M-17 -200v15q0 10 10 10q38 3 58 32.5t20 79.5v555q0 10 10 10h19q10 0 10 -10v-555q0 -70 -27.5 -107.5t-89.5 -39.5q-10 0 -10 10zM-2.5 583.5q-1.5 3.5 1.5 8.5l65 101q5 7 12 7h27q8 0 12 -6l67 -102q2 -4 2 -6q0 -6 -8 -6h-21q-7 0 -12 7l-49 80q-1 2 -3 2t-3 -2
l-50 -80q-5 -7 -12 -7h-21q-6 0 -7.5 3.5z" />
    <glyph glyph-name="uni0136" unicode="&#x136;" horiz-adv-x="434" 
d="M84 10v680q0 10 10 10h19q10 0 10 -10v-357q0 -3 2 -3.5t3 2.5l222 361q5 7 12 7h23q6 0 8 -3.5t-1 -8.5l-159 -263q-3 -3 -1 -6l178 -407l1 -4q0 -8 -9 -8h-24q-8 0 -11 8l-161 375q-1 4 -5 0l-76 -115q-2 -2 -2 -5v-253q0 -10 -10 -10h-19q-10 0 -10 10zM210 -193.5
q-2 3.5 1 8.5l62 111q5 7 12 7h16q6 0 8 -3.5t-1 -8.5l-67 -111q-5 -7 -12 -7h-11q-6 0 -8 3.5z" />
    <glyph glyph-name="uni0137" unicode="&#x137;" horiz-adv-x="385" 
d="M71 10v680q0 10 10 10h19q10 0 10 -10v-434q0 -2 2 -2.5t3 1.5l177 241q4 6 13 6h20q6 0 8 -3.5t-2 -8.5l-95 -130q-2 -3 -1 -5l116 -344l1 -4q0 -7 -9 -7h-20q-9 0 -12 8l-100 313q-1 6 -6 1l-93 -127q-2 -2 -2 -5v-180q0 -10 -10 -10h-19q-10 0 -10 10zM176 -193.5
q-2 3.5 1 8.5l62 111q5 7 12 7h16q6 0 8 -3.5t-1 -8.5l-67 -111q-5 -7 -12 -7h-11q-6 0 -8 3.5z" />
    <glyph glyph-name="Lacute" unicode="&#x139;" horiz-adv-x="382" 
d="M84 10v680q0 10 10 10h19q10 0 10 -10v-651q0 -4 4 -4h237q10 0 10 -10v-15q0 -10 -10 -10h-270q-10 0 -10 10zM70 771.5q-2 3.5 1 8.5l62 111q5 7 12 7h16q6 0 8 -3.5t-1 -8.5l-67 -111q-5 -7 -12 -7h-11q-6 0 -8 3.5z" />
    <glyph glyph-name="lacute" unicode="&#x13a;" horiz-adv-x="169" 
d="M65 10v680q0 10 10 10h19q10 0 10 -10v-680q0 -10 -10 -10h-19q-10 0 -10 10zM52 771.5q-2 3.5 1 8.5l62 111q5 7 12 7h16q6 0 8 -3.5t-1 -8.5l-67 -111q-5 -7 -12 -7h-11q-6 0 -8 3.5z" />
    <glyph glyph-name="uni013B" unicode="&#x13b;" horiz-adv-x="382" 
d="M84 10v680q0 10 10 10h19q10 0 10 -10v-651q0 -4 4 -4h237q10 0 10 -10v-15q0 -10 -10 -10h-270q-10 0 -10 10zM167 -193.5q-2 3.5 1 8.5l62 111q5 7 12 7h16q6 0 8 -3.5t-1 -8.5l-67 -111q-5 -7 -12 -7h-11q-6 0 -8 3.5z" />
    <glyph glyph-name="uni013C" unicode="&#x13c;" horiz-adv-x="169" 
d="M65 10v680q0 10 10 10h19q10 0 10 -10v-680q0 -10 -10 -10h-19q-10 0 -10 10zM-4 -193.5q-2 3.5 1 8.5l62 111q5 7 12 7h16q6 0 8 -3.5t-1 -8.5l-67 -111q-5 -7 -12 -7h-11q-6 0 -8 3.5z" />
    <glyph glyph-name="Lcaron" unicode="&#x13d;" horiz-adv-x="383" 
d="M84 10v680q0 10 10 10h19q10 0 10 -10v-651q0 -4 4 -4h237q10 0 10 -10v-15q0 -10 -10 -10h-270q-10 0 -10 10zM185 573.5q-2 3.5 1 8.5l62 111q5 7 12 7h16q6 0 8 -3.5t-1 -8.5l-67 -111q-5 -7 -12 -7h-11q-6 0 -8 3.5z" />
    <glyph glyph-name="lcaron" unicode="&#x13e;" horiz-adv-x="296" 
d="M65 10v680q0 10 10 10h19q10 0 10 -10v-680q0 -10 -10 -10h-19q-10 0 -10 10zM152 573.5q-2 3.5 1 8.5l62 111q5 7 12 7h16q6 0 8 -3.5t-1 -8.5l-67 -111q-5 -7 -12 -7h-11q-6 0 -8 3.5z" />
    <glyph glyph-name="ldot" unicode="&#x140;" horiz-adv-x="221" 
d="M91 10v680q0 10 10 10h19q10 0 10 -10v-680q0 -10 -10 -10h-19q-10 0 -10 10zM77.5 821q-12.5 13 -12.5 32q0 20 12.5 33t32.5 13t33 -13t13 -33t-13 -32.5t-33 -12.5t-32.5 13z" />
    <glyph glyph-name="Lslash" unicode="&#x141;" horiz-adv-x="392" 
d="M137 35h237q10 0 10 -10v-15q0 -10 -10 -10h-270q-10 0 -10 10v258q0 2 -2 3t-3 0l-78 -53q-2 -2 -6 -2q-5 0 -8 4l-8 11q-2 3 -2 7t4 7l100 68q3 3 3 5v372q0 10 10 10h19q10 0 10 -10v-343q0 -2 2 -3t3 0l178 122q3 3 7 3t7 -5l8 -12q2 -3 2 -7t-4 -7l-200 -136
q-3 -3 -3 -5v-258q0 -4 4 -4z" />
    <glyph glyph-name="lslash" unicode="&#x142;" horiz-adv-x="248" 
d="M226 383q0 -3 -6 -8l-77 -47q-3 -1 -3 -5v-313q0 -10 -10 -10h-19q-10 0 -10 10v287q0 2 -1.5 3t-3.5 0l-50 -31q-2 -2 -7 -2q-4 0 -7 5l-8 12q-2 4 -2 6q0 4 6 8l70 43q3 2 3 5v344q0 10 10 10h19q10 0 10 -10v-317q0 -2 1.5 -3t3.5 0l57 35q2 2 7 2t7 -5l8 -13
q2 -4 2 -6z" />
    <glyph glyph-name="Nacute" unicode="&#x143;" horiz-adv-x="484" 
d="M371 700h19q10 0 10 -10v-680q0 -10 -10 -10h-24q-8 0 -11 8l-227 592q-1 3 -3 2.5t-2 -3.5v-589q0 -10 -10 -10h-19q-10 0 -10 10v680q0 10 10 10h23q8 0 11 -8l228 -589q1 -3 3 -2.5t2 3.5v586q0 10 10 10zM209 780.5q-2 3.5 1 8.5l62 111q5 7 12 7h16q6 0 8 -3.5
t-1 -8.5l-67 -111q-5 -7 -12 -7h-11q-6 0 -8 3.5z" />
    <glyph glyph-name="nacute" unicode="&#x144;" horiz-adv-x="414" 
d="M316 468.5q33 -40.5 33 -112.5v-346q0 -10 -10 -10h-19q-10 0 -10 10v342q0 58 -26 90t-72 32q-47 0 -74.5 -34.5t-27.5 -94.5v-335q0 -10 -10 -10h-19q-10 0 -10 10v482q0 10 10 10h19q10 0 10 -10v-44q0 -3 1.5 -3t3.5 2q34 62 108 62q60 0 93 -40.5zM179 573.5
q-2 3.5 1 8.5l62 111q5 7 12 7h16q6 0 8 -3.5t-1 -8.5l-67 -111q-5 -7 -12 -7h-11q-6 0 -8 3.5z" />
    <glyph glyph-name="uni0145" unicode="&#x145;" horiz-adv-x="484" 
d="M371 700h19q10 0 10 -10v-680q0 -10 -10 -10h-24q-8 0 -11 8l-227 592q-1 3 -3 2.5t-2 -3.5v-589q0 -10 -10 -10h-19q-10 0 -10 10v680q0 10 10 10h23q8 0 11 -8l228 -589q1 -3 3 -2.5t2 3.5v586q0 10 10 10zM210 -193.5q-2 3.5 1 8.5l62 111q5 7 12 7h16q6 0 8 -3.5
t-1 -8.5l-67 -111q-5 -7 -12 -7h-11q-6 0 -8 3.5z" />
    <glyph glyph-name="uni0146" unicode="&#x146;" horiz-adv-x="414" 
d="M316 468.5q33 -40.5 33 -112.5v-346q0 -10 -10 -10h-19q-10 0 -10 10v342q0 58 -26 90t-72 32q-47 0 -74.5 -34.5t-27.5 -94.5v-335q0 -10 -10 -10h-19q-10 0 -10 10v482q0 10 10 10h19q10 0 10 -10v-44q0 -3 1.5 -3t3.5 2q34 62 108 62q60 0 93 -40.5zM185 -193.5
q-2 3.5 1 8.5l62 111q5 7 12 7h16q6 0 8 -3.5t-1 -8.5l-67 -111q-5 -7 -12 -7h-11q-6 0 -8 3.5z" />
    <glyph glyph-name="Ncaron" unicode="&#x147;" horiz-adv-x="484" 
d="M371 700h19q10 0 10 -10v-680q0 -10 -10 -10h-24q-8 0 -11 8l-227 592q-1 3 -3 2.5t-2 -3.5v-589q0 -10 -10 -10h-19q-10 0 -10 10v680q0 10 10 10h23q8 0 11 -8l228 -589q1 -3 3 -2.5t2 3.5v586q0 10 10 10zM150 901q0 6 8 6h21q7 0 12 -7l50 -80q1 -1 3 -1t3 1l49 80
q5 7 12 7h21q6 0 7.5 -3.5t-1.5 -8.5l-67 -102q-4 -6 -12 -6h-27q-7 0 -12 7l-65 101q-2 4 -2 6z" />
    <glyph glyph-name="ncaron" unicode="&#x148;" horiz-adv-x="414" 
d="M316 468.5q33 -40.5 33 -112.5v-346q0 -10 -10 -10h-19q-10 0 -10 10v342q0 58 -26 90t-72 32q-47 0 -74.5 -34.5t-27.5 -94.5v-335q0 -10 -10 -10h-19q-10 0 -10 10v482q0 10 10 10h19q10 0 10 -10v-44q0 -3 1.5 -3t3.5 2q34 62 108 62q60 0 93 -40.5zM119 694q0 6 8 6
h21q7 0 12 -7l50 -80q1 -1 3 -1t3 1l49 80q5 7 12 7h21q6 0 7.5 -3.5t-1.5 -8.5l-67 -102q-4 -6 -12 -6h-27q-7 0 -12 7l-65 101q-2 4 -2 6z" />
    <glyph glyph-name="Eng" unicode="&#x14a;" horiz-adv-x="484" 
d="M371 700h19q10 0 10 -10v-690q0 -51 -5.5 -78.5t-26.5 -44.5t-67 -18q-10 0 -10 10v15q0 10 10 10q29 1 41.5 13.5t14.5 30.5t2 59v3h-1l-230 600q-1 3 -3 2.5t-2 -3.5v-589q0 -10 -10 -10h-19q-10 0 -10 10v680q0 10 10 10h23q8 0 11 -8l226 -584q1 -3 3 -2.5t2 3.5v421
l1 10h1v150q0 10 10 10z" />
    <glyph glyph-name="eng" unicode="&#x14b;" horiz-adv-x="414" 
d="M316 468.5q33 -40.5 33 -112.5v-375q0 -63 -24 -99t-83 -38q-10 0 -10 10v15q0 10 10 10q68 5 68 102v371q0 58 -26 90t-72 32q-47 0 -74.5 -34.5t-27.5 -94.5v-335q0 -10 -10 -10h-19q-10 0 -10 10v482q0 10 10 10h19q10 0 10 -10v-44q0 -3 1.5 -3t3.5 2q34 62 108 62
q60 0 93 -40.5z" />
    <glyph glyph-name="Omacron" unicode="&#x14c;" horiz-adv-x="448" 
d="M108.5 37.5q-43.5 45.5 -43.5 118.5v387q0 74 44 119.5t114 45.5q71 0 115.5 -46t44.5 -119v-387q0 -73 -44.5 -118.5t-115.5 -45.5t-114.5 45.5zM310.5 62.5q33.5 35.5 33.5 91.5v391q0 57 -33.5 92.5t-87.5 35.5q-53 0 -86 -35.5t-33 -92.5v-391q0 -56 33 -91.5
t86 -35.5q54 0 87.5 35.5zM125 809v11q0 10 10 10h175q10 0 10 -10v-11q0 -10 -10 -10h-175q-10 0 -10 10z" />
    <glyph glyph-name="omacron" unicode="&#x14d;" horiz-adv-x="402" 
d="M97.5 33q-39.5 41 -39.5 106v224q0 65 39.5 106t102.5 41q64 0 103.5 -41t39.5 -106v-224q0 -65 -39.5 -106t-103.5 -41q-63 0 -102.5 41zM275 58.5q29 31.5 29 81.5v222q0 50 -29 81.5t-75 31.5q-45 0 -74 -32t-29 -81v-222q0 -49 29 -81t74 -32q46 0 75 31.5zM103 612
v11q0 10 10 10h175q10 0 10 -10v-11q0 -10 -10 -10h-175q-10 0 -10 10z" />
    <glyph glyph-name="obreve" unicode="&#x14f;" horiz-adv-x="402" 
d="M97.5 33q-39.5 41 -39.5 106v224q0 65 39.5 106t102.5 41q64 0 103.5 -41t39.5 -106v-224q0 -65 -39.5 -106t-103.5 -41q-63 0 -102.5 41zM275 58.5q29 31.5 29 81.5v222q0 50 -29 81.5t-75 31.5q-45 0 -74 -32t-29 -81v-222q0 -49 29 -81t74 -32q46 0 75 31.5z
M134.5 611.5q-27.5 25.5 -31.5 64.5q0 10 10 10h9q10 0 10 -10q4 -27 23.5 -45t45.5 -18q25 0 44.5 18t23.5 45q1 10 11 10h9q5 0 7.5 -3t1.5 -7q-4 -38 -31.5 -64t-65.5 -26q-39 0 -66.5 25.5z" />
    <glyph glyph-name="Ohungarumlaut" unicode="&#x150;" horiz-adv-x="448" 
d="M108.5 37.5q-43.5 45.5 -43.5 118.5v387q0 74 44 119.5t114 45.5q71 0 115.5 -46t44.5 -119v-387q0 -73 -44.5 -118.5t-115.5 -45.5t-114.5 45.5zM310.5 62.5q33.5 35.5 33.5 91.5v391q0 57 -33.5 92.5t-87.5 35.5q-53 0 -86 -35.5t-33 -92.5v-391q0 -56 33 -91.5
t86 -35.5q54 0 87.5 35.5zM154.5 770.5q-2.5 3.5 0.5 8.5l60 111q3 7 12 7h16q6 0 8 -3.5t-1 -8.5l-63 -111q-5 -7 -12 -7h-13q-5 0 -7.5 3.5zM264 770.5q-2 3.5 1 8.5l61 111q3 7 12 7h15q6 0 8 -3.5t-1 -8.5l-63 -111q-5 -7 -12 -7h-13q-6 0 -8 3.5z" />
    <glyph glyph-name="ohungarumlaut" unicode="&#x151;" horiz-adv-x="402" 
d="M97.5 33q-39.5 41 -39.5 106v224q0 65 39.5 106t102.5 41q64 0 103.5 -41t39.5 -106v-224q0 -65 -39.5 -106t-103.5 -41q-63 0 -102.5 41zM275 58.5q29 31.5 29 81.5v222q0 50 -29 81.5t-75 31.5q-45 0 -74 -32t-29 -81v-222q0 -49 29 -81t74 -32q46 0 75 31.5z
M131.5 573.5q-2.5 3.5 0.5 8.5l60 111q3 7 12 7h16q6 0 8 -3.5t-1 -8.5l-63 -111q-5 -7 -12 -7h-13q-5 0 -7.5 3.5zM241 573.5q-2 3.5 1 8.5l61 111q3 7 12 7h15q6 0 8 -3.5t-1 -8.5l-63 -111q-5 -7 -12 -7h-13q-6 0 -8 3.5z" />
    <glyph glyph-name="OE" unicode="&#x152;" horiz-adv-x="685" 
d="M628 665h-241q-4 0 -4 -4v-289q0 -4 4 -4h157q10 0 10 -10v-15q0 -10 -10 -10h-157q-4 0 -4 -4v-290q0 -4 4 -4h241q10 0 10 -10v-15q0 -10 -10 -10h-274q-10 0 -10 10v39q0 2 -1.5 3t-3.5 -1q-20 -28 -51 -43.5t-70 -15.5q-67 0 -110 45.5t-43 118.5v387q0 73 43 119
t110 46q39 0 70 -15.5t51 -44.5q1 -2 3 -1t2 3v40q0 10 10 10h274q10 0 10 -10v-15q0 -10 -10 -10zM310.5 62.5q33.5 35.5 33.5 91.5v391q0 57 -33.5 92.5t-87.5 35.5q-53 0 -86 -35.5t-33 -92.5v-391q0 -56 33 -91.5t86 -35.5q54 0 87.5 35.5z" />
    <glyph glyph-name="oe" unicode="&#x153;" horiz-adv-x="643" 
d="M581 243h-231q-4 0 -4 -4v-99q0 -50 28.5 -81.5t73.5 -31.5q38 0 65 22t36 59q3 9 11 9l18 -1q5 0 7.5 -3t1.5 -8q-9 -52 -46 -82.5t-93 -30.5q-42 0 -72.5 20t-47.5 55q-3 5 -6 0q-18 -35 -49 -55t-73 -20q-63 0 -102.5 41t-39.5 106v224q0 65 39.5 106t102.5 41
q42 0 73 -20t49 -55q3 -4 6 0q17 35 48 55t72 20q64 0 103.5 -41t39.5 -106v-110q0 -10 -10 -10zM275 443.5q-29 31.5 -75 31.5q-45 0 -74 -32t-29 -81v-222q0 -49 29 -81t74 -32q46 0 75 31.5t29 81.5v222q0 50 -29 81.5zM374.5 443.5q-28.5 -31.5 -28.5 -81.5v-86
q0 -4 4 -4h198q4 0 4 4v86q0 50 -29 81.5t-75 31.5q-45 0 -73.5 -31.5z" />
    <glyph glyph-name="Racute" unicode="&#x154;" horiz-adv-x="431" 
d="M356 8l-116 324q-1 3 -4 3h-109q-4 0 -4 -4v-321q0 -10 -10 -10h-19q-10 0 -10 10v680q0 10 10 10h148q68 0 109.5 -51t41.5 -133q0 -69 -30.5 -116t-82.5 -60q-4 -2 -3 -5l117 -324l1 -4q0 -7 -9 -7h-18q-9 0 -12 8zM123 661v-289q0 -4 4 -4h111q52 0 84 40.5t32 106.5
q0 68 -32 109t-84 41h-111q-4 0 -4 -4zM189 771.5q-2 3.5 1 8.5l62 111q5 7 12 7h16q6 0 8 -3.5t-1 -8.5l-67 -111q-5 -7 -12 -7h-11q-6 0 -8 3.5z" />
    <glyph glyph-name="racute" unicode="&#x155;" horiz-adv-x="278" 
d="M258 496q7 -4 4 -13l-6 -20q-3 -9 -13 -5q-14 6 -36 5q-42 0 -69.5 -41t-27.5 -102v-310q0 -10 -10 -10h-19q-10 0 -10 10v482q0 10 10 10h19q10 0 10 -10v-65q0 -3 2 -3t3 3q15 37 40 58t60 21q25 0 43 -10zM137 573.5q-2 3.5 1 8.5l62 111q5 7 12 7h16q6 0 8 -3.5
t-1 -8.5l-67 -111q-5 -7 -12 -7h-11q-6 0 -8 3.5z" />
    <glyph glyph-name="uni0156" unicode="&#x156;" horiz-adv-x="431" 
d="M356 8l-116 324q-1 3 -4 3h-109q-4 0 -4 -4v-321q0 -10 -10 -10h-19q-10 0 -10 10v680q0 10 10 10h148q68 0 109.5 -51t41.5 -133q0 -69 -30.5 -116t-82.5 -60q-4 -2 -3 -5l117 -324l1 -4q0 -7 -9 -7h-18q-9 0 -12 8zM123 661v-289q0 -4 4 -4h111q52 0 84 40.5t32 106.5
q0 68 -32 109t-84 41h-111q-4 0 -4 -4zM202 -193.5q-2 3.5 1 8.5l62 111q5 7 12 7h16q6 0 8 -3.5t-1 -8.5l-67 -111q-5 -7 -12 -7h-11q-6 0 -8 3.5z" />
    <glyph glyph-name="uni0157" unicode="&#x157;" horiz-adv-x="278" 
d="M258 496q7 -4 4 -13l-6 -20q-3 -9 -13 -5q-14 6 -36 5q-42 0 -69.5 -41t-27.5 -102v-310q0 -10 -10 -10h-19q-10 0 -10 10v482q0 10 10 10h19q10 0 10 -10v-65q0 -3 2 -3t3 3q15 37 40 58t60 21q25 0 43 -10zM3 -193.5q-2 3.5 1 8.5l62 111q5 7 12 7h16q6 0 8 -3.5
t-1 -8.5l-67 -111q-5 -7 -12 -7h-11q-6 0 -8 3.5z" />
    <glyph glyph-name="Rcaron" unicode="&#x158;" horiz-adv-x="431" 
d="M356 8l-116 324q-1 3 -4 3h-109q-4 0 -4 -4v-321q0 -10 -10 -10h-19q-10 0 -10 10v680q0 10 10 10h148q68 0 109.5 -51t41.5 -133q0 -69 -30.5 -116t-82.5 -60q-4 -2 -3 -5l117 -324l1 -4q0 -7 -9 -7h-18q-9 0 -12 8zM123 661v-289q0 -4 4 -4h111q52 0 84 40.5t32 106.5
q0 68 -32 109t-84 41h-111q-4 0 -4 -4zM129 892q0 6 8 6h21q7 0 12 -7l50 -80q1 -1 3 -1t3 1l49 80q5 7 12 7h21q6 0 7.5 -3.5t-1.5 -8.5l-67 -102q-4 -6 -12 -6h-27q-7 0 -12 7l-65 101q-2 4 -2 6z" />
    <glyph glyph-name="rcaron" unicode="&#x159;" horiz-adv-x="278" 
d="M258 496q7 -4 4 -13l-6 -20q-3 -9 -13 -5q-14 6 -36 5q-42 0 -69.5 -41t-27.5 -102v-310q0 -10 -10 -10h-19q-10 0 -10 10v482q0 10 10 10h19q10 0 10 -10v-65q0 -3 2 -3t3 3q15 37 40 58t60 21q25 0 43 -10zM77 694q0 6 8 6h21q7 0 12 -7l50 -80q1 -1 3 -1t3 1l49 80
q5 7 12 7h21q6 0 7.5 -3.5t-1.5 -8.5l-67 -102q-4 -6 -12 -6h-27q-7 0 -12 7l-65 101q-2 4 -2 6z" />
    <glyph glyph-name="Sacute" unicode="&#x15a;" horiz-adv-x="404" 
d="M89.5 40q-42.5 48 -42.5 126v19q0 10 10 10h18q10 0 10 -10v-18q0 -63 32 -102t83 -39q50 0 83.5 37.5t33.5 98.5q0 40 -15.5 68.5t-39.5 49.5t-75 59t-78.5 64t-44.5 61t-17 83q0 75 41 118t107 43q70 0 112.5 -48.5t42.5 -127.5v-25q0 -10 -10 -10h-19q-10 0 -10 10v25
q0 64 -32 103t-84 39q-48 0 -79 -34t-31 -95q0 -36 13 -62.5t37.5 -49.5t73.5 -59q59 -44 87.5 -70.5t44 -58t15.5 -76.5q0 -80 -43.5 -128.5t-111.5 -48.5q-69 0 -111.5 48zM162 771.5q-2 3.5 1 8.5l62 111q5 7 12 7h16q6 0 8 -3.5t-1 -8.5l-67 -111q-5 -7 -12 -7h-11
q-6 0 -8 3.5z" />
    <glyph glyph-name="sacute" unicode="&#x15b;" horiz-adv-x="357" 
d="M87.5 30.5q-37.5 34.5 -37.5 88.5v5q0 10 10 10h18q10 0 10 -10v-5q0 -38 27 -64t72 -26q44 0 70 26.5t26 69.5q0 31 -14.5 51.5t-36 33t-58.5 27.5q-38 16 -63 31t-42 41t-17 67q0 60 36.5 95t96.5 35q61 0 97.5 -36t36.5 -93v-3q0 -10 -10 -10h-17q-10 0 -10 10v4
q0 40 -27 67.5t-70 27.5t-69 -27t-26 -69q0 -29 13.5 -48.5t33.5 -31.5t55 -27q42 -17 67.5 -32t44 -42.5t18.5 -69.5q0 -59 -36.5 -94.5t-98.5 -35.5t-99.5 34.5zM152 573.5q-2 3.5 1 8.5l62 111q5 7 12 7h16q6 0 8 -3.5t-1 -8.5l-67 -111q-5 -7 -12 -7h-11q-6 0 -8 3.5z
" />
    <glyph glyph-name="Scircumflex" unicode="&#x15c;" horiz-adv-x="404" 
d="M89.5 40q-42.5 48 -42.5 126v19q0 10 10 10h18q10 0 10 -10v-18q0 -63 32 -102t83 -39q50 0 83.5 37.5t33.5 98.5q0 40 -15.5 68.5t-39.5 49.5t-75 59t-78.5 64t-44.5 61t-17 83q0 75 41 118t107 43q70 0 112.5 -48.5t42.5 -127.5v-25q0 -10 -10 -10h-19q-10 0 -10 10v25
q0 64 -32 103t-84 39q-48 0 -79 -34t-31 -95q0 -36 13 -62.5t37.5 -49.5t73.5 -59q59 -44 87.5 -70.5t44 -58t15.5 -76.5q0 -80 -43.5 -128.5t-111.5 -48.5q-69 0 -111.5 48zM102.5 781.5q-1.5 3.5 1.5 8.5l65 101q5 7 12 7h27q8 0 12 -6l67 -102q2 -4 2 -6q0 -6 -8 -6h-21
q-7 0 -12 7l-49 80q-1 2 -3 2t-3 -2l-50 -80q-5 -7 -12 -7h-21q-6 0 -7.5 3.5z" />
    <glyph glyph-name="scircumflex" unicode="&#x15d;" horiz-adv-x="357" 
d="M87.5 30.5q-37.5 34.5 -37.5 88.5v5q0 10 10 10h18q10 0 10 -10v-5q0 -38 27 -64t72 -26q44 0 70 26.5t26 69.5q0 31 -14.5 51.5t-36 33t-58.5 27.5q-38 16 -63 31t-42 41t-17 67q0 60 36.5 95t96.5 35q61 0 97.5 -36t36.5 -93v-3q0 -10 -10 -10h-17q-10 0 -10 10v4
q0 40 -27 67.5t-70 27.5t-69 -27t-26 -69q0 -29 13.5 -48.5t33.5 -31.5t55 -27q42 -17 67.5 -32t44 -42.5t18.5 -69.5q0 -59 -36.5 -94.5t-98.5 -35.5t-99.5 34.5zM91.5 583.5q-1.5 3.5 1.5 8.5l65 101q5 7 12 7h27q8 0 12 -6l67 -102q2 -4 2 -6q0 -6 -8 -6h-21q-7 0 -12 7
l-49 80q-1 2 -3 2t-3 -2l-50 -80q-5 -7 -12 -7h-21q-6 0 -7.5 3.5z" />
    <glyph glyph-name="Scedilla" unicode="&#x15e;" horiz-adv-x="404" 
d="M319.5 48q-36.5 -47 -96.5 -54q-6 -2 -1 -5q42 -42 42 -93q0 -43 -21 -62t-52 -19q-12 0 -24 3q-9 1 -7 12l2 7q2 10 12 7q5 -1 14 -1q20 0 32.5 12.5t12.5 41.5q0 45 -47 94q-2 2 -5 2q-61 8 -97.5 54.5t-36.5 118.5v19q0 10 10 10h18q10 0 10 -10v-18q0 -63 32 -102
t83 -39q50 0 83.5 37.5t33.5 98.5q0 40 -15.5 68.5t-39.5 49.5t-75 59t-78.5 64t-44.5 61t-17 83q0 75 41 118t107 43q70 0 112.5 -48.5t42.5 -127.5v-25q0 -10 -10 -10h-19q-10 0 -10 10v25q0 64 -32 103t-84 39q-48 0 -79 -34t-31 -95q0 -36 13 -62.5t37.5 -49.5t73.5 -59
q59 -44 87.5 -70.5t44 -58t15.5 -76.5q0 -74 -36.5 -121z" />
    <glyph glyph-name="scedilla" unicode="&#x15f;" horiz-adv-x="357" 
d="M292 38.5q-30 -34.5 -82 -40.5q-6 -2 -1 -5q43 -42 43 -94q0 -43 -21.5 -61.5t-52.5 -18.5q-9 0 -23 2q-10 1 -8 12l2 8q2 10 12 7q5 -1 14 -1q20 0 32.5 12.5t12.5 41.5q0 44 -46 94q-2 2 -5 2q-54 5 -86.5 39t-32.5 83v5q0 10 10 10h18q10 0 10 -10v-5q0 -38 27 -64
t72 -26q44 0 70 26.5t26 69.5q0 31 -14.5 51.5t-36 33t-58.5 27.5q-38 16 -63 31t-42 41t-17 67q0 60 36.5 95t96.5 35q61 0 97.5 -36t36.5 -93v-3q0 -10 -10 -10h-17q-10 0 -10 10v4q0 40 -27 67.5t-70 27.5t-69 -27t-26 -69q0 -29 13.5 -48.5t33.5 -31.5t55 -27
q42 -17 67.5 -32t44 -42.5t18.5 -69.5q0 -53 -30 -87.5z" />
    <glyph glyph-name="Scaron" unicode="&#x160;" horiz-adv-x="404" 
d="M89.5 40q-42.5 48 -42.5 126v19q0 10 10 10h18q10 0 10 -10v-18q0 -63 32 -102t83 -39q50 0 83.5 37.5t33.5 98.5q0 40 -15.5 68.5t-39.5 49.5t-75 59t-78.5 64t-44.5 61t-17 83q0 75 41 118t107 43q70 0 112.5 -48.5t42.5 -127.5v-25q0 -10 -10 -10h-19q-10 0 -10 10v25
q0 64 -32 103t-84 39q-48 0 -79 -34t-31 -95q0 -36 13 -62.5t37.5 -49.5t73.5 -59q59 -44 87.5 -70.5t44 -58t15.5 -76.5q0 -80 -43.5 -128.5t-111.5 -48.5q-69 0 -111.5 48zM103 892q0 6 8 6h21q7 0 12 -7l50 -80q1 -1 3 -1t3 1l49 80q5 7 12 7h21q6 0 7.5 -3.5t-1.5 -8.5
l-67 -102q-4 -6 -12 -6h-27q-7 0 -12 7l-65 101q-2 4 -2 6z" />
    <glyph glyph-name="scaron" unicode="&#x161;" horiz-adv-x="357" 
d="M87.5 30.5q-37.5 34.5 -37.5 88.5v5q0 10 10 10h18q10 0 10 -10v-5q0 -38 27 -64t72 -26q44 0 70 26.5t26 69.5q0 31 -14.5 51.5t-36 33t-58.5 27.5q-38 16 -63 31t-42 41t-17 67q0 60 36.5 95t96.5 35q61 0 97.5 -36t36.5 -93v-3q0 -10 -10 -10h-17q-10 0 -10 10v4
q0 40 -27 67.5t-70 27.5t-69 -27t-26 -69q0 -29 13.5 -48.5t33.5 -31.5t55 -27q42 -17 67.5 -32t44 -42.5t18.5 -69.5q0 -59 -36.5 -94.5t-98.5 -35.5t-99.5 34.5zM92 694q0 6 8 6h21q7 0 12 -7l50 -80q1 -1 3 -1t3 1l49 80q5 7 12 7h21q6 0 7.5 -3.5t-1.5 -8.5l-67 -102
q-4 -6 -12 -6h-27q-7 0 -12 7l-65 101q-2 4 -2 6z" />
    <glyph glyph-name="uni0162" unicode="&#x162;" horiz-adv-x="402" 
d="M364 690v-15q0 -10 -10 -10h-134q-4 0 -4 -4v-651q0 -10 -10 -10h-19q-10 0 -10 10v651q0 4 -4 4h-125q-10 0 -10 10v15q0 10 10 10h306q10 0 10 -10zM166 -169l1 8q1 5 4.5 6.5t7.5 0.5q5 -1 14 -1q20 0 33 12t13 40q0 41 -42 91q-3 3 -3 7q0 5 7 5h9q5 0 10 -3
q3 -2 3 -4q47 -43 47 -97q0 -42 -21 -60.5t-52 -18.5q-12 0 -24 3q-8 1 -7 11z" />
    <glyph glyph-name="uni0163" unicode="&#x163;" horiz-adv-x="256" 
d="M213 470h-83q-4 0 -4 -4v-336q0 -53 18 -74t57 -21h11q10 0 10 -10v-15q0 -10 -10 -10h-24q-5 0 -2 -5q31 -36 31 -81q0 -42 -21 -60.5t-52 -18.5q-12 0 -24 3q-8 1 -7 11l1 8q1 5 4.5 6.5t7.5 0.5t13 -1q21 0 33.5 12.5t12.5 40.5q0 44 -43 91l-4 3q-25 11 -38 38
t-13 75v343q0 4 -4 4h-41q-10 0 -10 10v12q0 10 10 10h41q4 0 4 4v112q0 10 10 10h19q10 0 10 -10v-112q0 -4 4 -4h83q10 0 10 -10v-12q0 -10 -10 -10z" />
    <glyph glyph-name="Tcaron" unicode="&#x164;" horiz-adv-x="402" 
d="M364 690v-15q0 -10 -10 -10h-134q-4 0 -4 -4v-651q0 -10 -10 -10h-19q-10 0 -10 10v651q0 4 -4 4h-125q-10 0 -10 10v15q0 10 10 10h306q10 0 10 -10zM106 889q0 6 8 6h21q7 0 12 -7l50 -80q1 -1 3 -1t3 1l49 80q5 7 12 7h21q6 0 7.5 -3.5t-1.5 -8.5l-67 -102
q-4 -6 -12 -6h-27q-7 0 -12 7l-65 101q-2 4 -2 6z" />
    <glyph glyph-name="tcaron" unicode="&#x165;" horiz-adv-x="256" 
d="M213 470h-83q-4 0 -4 -4v-336q0 -53 18 -74t57 -21h11q10 0 10 -10v-15q0 -10 -10 -10h-17q-53 0 -80.5 26t-27.5 97v343q0 4 -4 4h-41q-10 0 -10 10v12q0 10 10 10h41q4 0 4 4v112q0 10 10 10h19q10 0 10 -10v-112q0 -4 4 -4h83q10 0 10 -10v-12q0 -10 -10 -10z
M148 573.5q-2 3.5 1 8.5l62 111q5 7 12 7h16q6 0 8 -3.5t-1 -8.5l-67 -111q-5 -7 -12 -7h-11q-6 0 -8 3.5z" />
    <glyph glyph-name="Tbar" unicode="&#x166;" horiz-adv-x="402" 
d="M354 665h-134q-4 0 -4 -4v-235q0 -4 4 -4h90q10 0 10 -10v-10q0 -10 -10 -10h-90q-4 0 -4 -4v-378q0 -10 -10 -10h-19q-10 0 -10 10v378q0 4 -4 4h-101q-10 0 -10 10v10q0 10 10 10h101q4 0 4 4v235q0 4 -4 4h-125q-10 0 -10 10v15q0 10 10 10h306q10 0 10 -10v-15
q0 -10 -10 -10z" />
    <glyph glyph-name="tbar" unicode="&#x167;" horiz-adv-x="256" 
d="M213 470h-83q-4 0 -4 -4v-116q0 -4 4 -4h83q10 0 10 -10v-10q0 -10 -10 -10h-83q-4 0 -4 -4v-182q0 -53 18 -74t57 -21h11q10 0 10 -10v-15q0 -10 -10 -10h-17q-53 0 -80.5 26t-27.5 97v189q0 4 -4 4h-39q-10 0 -10 10v10q0 10 10 10h39q4 0 4 4v116q0 4 -4 4h-41
q-10 0 -10 10v12q0 10 10 10h41q4 0 4 4v112q0 10 10 10h19q10 0 10 -10v-112q0 -4 4 -4h83q10 0 10 -10v-12q0 -10 -10 -10z" />
    <glyph glyph-name="Utilde" unicode="&#x168;" horiz-adv-x="475" 
d="M121.5 43q-43.5 51 -43.5 135v512q0 10 10 10h19q10 0 10 -10v-516q0 -66 33 -106.5t87 -40.5t87.5 40.5t33.5 106.5v516q0 10 10 10h19q10 0 10 -10v-512q0 -84 -44.5 -135t-115.5 -51q-72 0 -115.5 51zM270 823q-12 6 -27 17q-5 3 -13.5 9t-16 9t-16.5 3
q-15 0 -26 -5.5t-22 -21.5q-6 -9 -14 -3l-6 4q-9 6 -3 14q26 44 70 44q15 0 26.5 -6t28.5 -17q4 -3 13.5 -9.5t17.5 -10t16 -3.5q14 0 24.5 6.5t21.5 24.5q2 4 6 5t8 -1l6 -3q5 -3 5 -9q0 -7 -4 -12q-14 -21 -33 -31t-36 -10q-14 0 -26 6z" />
    <glyph glyph-name="utilde" unicode="&#x169;" horiz-adv-x="414" 
d="M313 502h19q10 0 10 -10v-482q0 -10 -10 -10h-19q-10 0 -10 10v40q0 3 -2 3.5t-3 -2.5q-31 -58 -104 -58q-60 0 -94.5 37t-34.5 109v353q0 10 10 10h19q10 0 10 -10v-345q0 -58 25.5 -88.5t71.5 -30.5q47 0 74.5 34.5t27.5 94.5v335q0 10 10 10zM236 625q-12 6 -27 17
q-5 3 -13.5 9t-16 9t-16.5 3q-15 0 -26 -5.5t-22 -21.5q-6 -9 -14 -3l-6 4q-9 6 -3 14q26 44 70 44q15 0 26.5 -6t28.5 -17q4 -3 13.5 -9.5t17.5 -10t16 -3.5q14 0 24.5 6.5t21.5 24.5q2 4 6 5t8 -1l6 -3q5 -3 5 -9q0 -7 -4 -12q-14 -21 -33 -31t-36 -10q-14 0 -26 6z" />
    <glyph glyph-name="Umacron" unicode="&#x16a;" horiz-adv-x="475" 
d="M121.5 43q-43.5 51 -43.5 135v512q0 10 10 10h19q10 0 10 -10v-516q0 -66 33 -106.5t87 -40.5t87.5 40.5t33.5 106.5v516q0 10 10 10h19q10 0 10 -10v-512q0 -84 -44.5 -135t-115.5 -51q-72 0 -115.5 51zM139 810v11q0 10 10 10h175q10 0 10 -10v-11q0 -10 -10 -10h-175
q-10 0 -10 10z" />
    <glyph glyph-name="umacron" unicode="&#x16b;" horiz-adv-x="414" 
d="M313 502h19q10 0 10 -10v-482q0 -10 -10 -10h-19q-10 0 -10 10v40q0 3 -2 3.5t-3 -2.5q-31 -58 -104 -58q-60 0 -94.5 37t-34.5 109v353q0 10 10 10h19q10 0 10 -10v-345q0 -58 25.5 -88.5t71.5 -30.5q47 0 74.5 34.5t27.5 94.5v335q0 10 10 10zM105 612v11q0 10 10 10
h175q10 0 10 -10v-11q0 -10 -10 -10h-175q-10 0 -10 10z" />
    <glyph glyph-name="Ubreve" unicode="&#x16c;" horiz-adv-x="475" 
d="M121.5 43q-43.5 51 -43.5 135v512q0 10 10 10h19q10 0 10 -10v-516q0 -66 33 -106.5t87 -40.5t87.5 40.5t33.5 106.5v516q0 10 10 10h19q10 0 10 -10v-512q0 -84 -44.5 -135t-115.5 -51q-72 0 -115.5 51zM170.5 809.5q-27.5 25.5 -31.5 64.5q0 10 10 10h9q10 0 10 -10
q4 -27 23.5 -45t45.5 -18q25 0 44.5 18t23.5 45q1 10 11 10h9q5 0 7.5 -3t1.5 -7q-4 -38 -31.5 -64t-65.5 -26q-39 0 -66.5 25.5z" />
    <glyph glyph-name="ubreve" unicode="&#x16d;" horiz-adv-x="414" 
d="M313 502h19q10 0 10 -10v-482q0 -10 -10 -10h-19q-10 0 -10 10v40q0 3 -2 3.5t-3 -2.5q-31 -58 -104 -58q-60 0 -94.5 37t-34.5 109v353q0 10 10 10h19q10 0 10 -10v-345q0 -58 25.5 -88.5t71.5 -30.5q47 0 74.5 34.5t27.5 94.5v335q0 10 10 10zM137.5 611.5
q-27.5 25.5 -31.5 64.5q0 10 10 10h9q10 0 10 -10q4 -27 23.5 -45t45.5 -18q25 0 44.5 18t23.5 45q1 10 11 10h9q5 0 7.5 -3t1.5 -7q-4 -38 -31.5 -64t-65.5 -26q-39 0 -66.5 25.5z" />
    <glyph glyph-name="Uring" unicode="&#x16e;" horiz-adv-x="475" 
d="M121.5 43q-43.5 51 -43.5 135v512q0 10 10 10h19q10 0 10 -10v-516q0 -66 33 -106.5t87 -40.5t87.5 40.5t33.5 106.5v516q0 10 10 10h19q10 0 10 -10v-512q0 -84 -44.5 -135t-115.5 -51q-72 0 -115.5 51zM167.5 813.5q-28.5 29.5 -28.5 71.5t28.5 71.5t69.5 29.5
t69.5 -29.5t28.5 -71.5t-28.5 -71.5t-69.5 -29.5t-69.5 29.5zM286 833.5q20 20.5 20 51.5t-20 51.5t-49 20.5t-49.5 -21t-20.5 -51t20.5 -51t49.5 -21t49 20.5z" />
    <glyph glyph-name="uring" unicode="&#x16f;" horiz-adv-x="414" 
d="M313 502h19q10 0 10 -10v-482q0 -10 -10 -10h-19q-10 0 -10 10v40q0 3 -2 3.5t-3 -2.5q-31 -58 -104 -58q-60 0 -94.5 37t-34.5 109v353q0 10 10 10h19q10 0 10 -10v-345q0 -58 25.5 -88.5t71.5 -30.5q47 0 74.5 34.5t27.5 94.5v335q0 10 10 10zM134.5 615.5
q-28.5 29.5 -28.5 71.5t28.5 71.5t69.5 29.5t69.5 -29.5t28.5 -71.5t-28.5 -71.5t-69.5 -29.5t-69.5 29.5zM253 635.5q20 20.5 20 51.5t-20 51.5t-49 20.5t-49.5 -21t-20.5 -51t20.5 -51t49.5 -21t49 20.5z" />
    <glyph glyph-name="Uhungarumlaut" unicode="&#x170;" horiz-adv-x="475" 
d="M121.5 43q-43.5 51 -43.5 135v512q0 10 10 10h19q10 0 10 -10v-516q0 -66 33 -106.5t87 -40.5t87.5 40.5t33.5 106.5v516q0 10 10 10h19q10 0 10 -10v-512q0 -84 -44.5 -135t-115.5 -51q-72 0 -115.5 51zM167.5 771.5q-2.5 3.5 0.5 8.5l60 111q3 7 12 7h16q6 0 8 -3.5
t-1 -8.5l-63 -111q-5 -7 -12 -7h-13q-5 0 -7.5 3.5zM277 771.5q-2 3.5 1 8.5l61 111q3 7 12 7h15q6 0 8 -3.5t-1 -8.5l-63 -111q-5 -7 -12 -7h-13q-6 0 -8 3.5z" />
    <glyph glyph-name="uhungarumlaut" unicode="&#x171;" horiz-adv-x="414" 
d="M313 502h19q10 0 10 -10v-482q0 -10 -10 -10h-19q-10 0 -10 10v40q0 3 -2 3.5t-3 -2.5q-31 -58 -104 -58q-60 0 -94.5 37t-34.5 109v353q0 10 10 10h19q10 0 10 -10v-345q0 -58 25.5 -88.5t71.5 -30.5q47 0 74.5 34.5t27.5 94.5v335q0 10 10 10zM133.5 573.5
q-2.5 3.5 0.5 8.5l60 111q3 7 12 7h16q6 0 8 -3.5t-1 -8.5l-63 -111q-5 -7 -12 -7h-13q-5 0 -7.5 3.5zM243 573.5q-2 3.5 1 8.5l61 111q3 7 12 7h15q6 0 8 -3.5t-1 -8.5l-63 -111q-5 -7 -12 -7h-13q-6 0 -8 3.5z" />
    <glyph glyph-name="Uogonek" unicode="&#x172;" horiz-adv-x="475" 
d="M368 700h19q10 0 10 -10v-512q0 -80 -40.5 -130.5t-107.5 -55.5q-3 0 -5 -2q-38 -47 -38 -86q0 -28 12.5 -41t33.5 -13q9 0 13 1l4 1q6 0 8 -8l2 -7v-3q0 -8 -7 -9q-12 -3 -24 -3q-31 0 -52 19t-21 63q0 47 35 85q4 4 -2 5q-60 10 -95 59.5t-35 124.5v512q0 10 10 10h19
q10 0 10 -10v-516q0 -66 33 -106.5t87 -40.5t87.5 40.5t33.5 106.5v516q0 10 10 10z" />
    <glyph glyph-name="uogonek" unicode="&#x173;" horiz-adv-x="414" 
d="M352 -153q6 0 8 -8l2 -7v-3q0 -8 -8 -9q-12 -3 -24 -3q-31 0 -52 18.5t-21 60.5q0 58 50 101q2 2 -1 4q-3 3 -3 9v40q0 3 -2 3.5t-3 -2.5q-31 -58 -104 -58q-60 0 -94.5 37t-34.5 109v353q0 10 10 10h19q10 0 10 -10v-345q0 -58 25.5 -88.5t71.5 -30.5q47 0 74.5 34.5
t27.5 94.5v335q0 10 10 10h19q10 0 10 -10v-485q0 -5 -5 -12q-48 -48 -48 -96q0 -28 12.5 -41t32.5 -13q9 0 14 1z" />
    <glyph glyph-name="Wcircumflex" unicode="&#x174;" horiz-adv-x="592" 
d="M163 9l-130 680v2q0 9 9 9h20q10 0 11 -9l110 -598q1 -2 2 -2t2 2l93 598q2 9 10 9h19q9 0 10 -9l96 -598q1 -2 2 -2t2 2l100 598q2 9 11 9h21q5 0 7.5 -3t1.5 -8l-123 -680q-1 -9 -11 -9h-20q-8 0 -10 9l-94 596q-1 2 -2 2t-2 -2l-95 -596q-1 -9 -10 -9h-19q-9 0 -11 9z
M205.5 781.5q-1.5 3.5 1.5 8.5l65 101q5 7 12 7h27q8 0 12 -6l67 -102q2 -4 2 -6q0 -6 -8 -6h-21q-7 0 -12 7l-49 80q-1 2 -3 2t-3 -2l-50 -80q-5 -7 -12 -7h-21q-6 0 -7.5 3.5z" />
    <glyph glyph-name="wcircumflex" unicode="&#x175;" horiz-adv-x="527" 
d="M133 9l-105 482v2q0 9 9 9h18q10 0 11 -9l86 -428q1 -3 2 -3t2 3l86 428q2 9 11 9h18q10 0 11 -9l88 -428q1 -3 2 -3t2 3l87 428q2 9 11 9h18q5 0 7.5 -3t1.5 -8l-106 -482q-1 -9 -11 -9h-20q-9 0 -11 9l-87 414q-1 3 -2 3t-2 -3l-85 -414q-1 -9 -11 -9h-20q-9 0 -11 9z
M169.5 583.5q-1.5 3.5 1.5 8.5l65 101q5 7 12 7h27q8 0 12 -6l67 -102q2 -4 2 -6q0 -6 -8 -6h-21q-7 0 -12 7l-49 80q-1 2 -3 2t-3 -2l-50 -80q-5 -7 -12 -7h-21q-6 0 -7.5 3.5z" />
    <glyph glyph-name="Ycircumflex" unicode="&#x176;" horiz-adv-x="401" 
d="M181 10v317q0 4 -1 5l-137 356l-1 4q0 8 9 8h20q9 0 12 -8l115 -315q1 -2 3 -2t3 2l114 315q3 8 12 8h20q5 0 7.5 -3.5t0.5 -8.5l-137 -356q-1 -1 -1 -5v-317q0 -10 -10 -10h-19q-10 0 -10 10zM107.5 781.5q-1.5 3.5 1.5 8.5l65 101q5 7 12 7h27q8 0 12 -6l67 -102
q2 -4 2 -6q0 -6 -8 -6h-21q-7 0 -12 7l-49 80q-1 2 -3 2t-3 -2l-50 -80q-5 -7 -12 -7h-21q-6 0 -7.5 3.5z" />
    <glyph glyph-name="ycircumflex" unicode="&#x177;" horiz-adv-x="342" 
d="M43 -197q-2 3 -2 7v15q0 10 10 10q30 1 46 13.5t27 45t27 103.5q1 2 0.5 3.5t-0.5 2.5l-129 488l-1 3q0 8 10 8h21q10 0 11 -9l107 -434q1 -3 2 -3t2 3l106 434q2 9 11 9h20q5 0 7.5 -3t1.5 -8l-142 -547q-17 -63 -32.5 -93t-36 -40.5t-57.5 -10.5h-5q-2 0 -4 3z
M78.5 583.5q-1.5 3.5 1.5 8.5l65 101q5 7 12 7h27q8 0 12 -6l67 -102q2 -4 2 -6q0 -6 -8 -6h-21q-7 0 -12 7l-49 80q-1 2 -3 2t-3 -2l-50 -80q-5 -7 -12 -7h-21q-6 0 -7.5 3.5z" />
    <glyph glyph-name="Ydieresis" unicode="&#x178;" horiz-adv-x="401" 
d="M181 10v317q0 4 -1 5l-137 356l-1 4q0 8 9 8h20q9 0 12 -8l115 -315q1 -2 3 -2t3 2l114 315q3 8 12 8h20q5 0 7.5 -3.5t0.5 -8.5l-137 -356q-1 -1 -1 -5v-317q0 -10 -10 -10h-19q-10 0 -10 10zM235.5 821q-12.5 13 -12.5 32q0 20 12.5 33t32.5 13t33 -13t13 -33
t-13 -32.5t-33 -12.5t-32.5 13zM101.5 821q-12.5 13 -12.5 32q0 20 12.5 33t32.5 13t33 -13t13 -33t-13 -32.5t-33 -12.5t-32.5 13z" />
    <glyph glyph-name="Zacute" unicode="&#x179;" horiz-adv-x="387" 
d="M39 10v19q0 7 2 12l257 619q1 2 0 3.5t-3 1.5h-246q-10 0 -10 10v15q0 10 10 10h283q10 0 10 -10v-19q0 -7 -2 -12l-257 -619q-1 -2 0 -3.5t3 -1.5h246q10 0 10 -10v-15q0 -10 -10 -10h-283q-10 0 -10 10zM160 771.5q-2 3.5 1 8.5l62 111q5 7 12 7h16q6 0 8 -3.5t-1 -8.5
l-67 -111q-5 -7 -12 -7h-11q-6 0 -8 3.5z" />
    <glyph glyph-name="zacute" unicode="&#x17a;" horiz-adv-x="355" 
d="M40 10v19q0 6 3 13l226 419q2 5 -2 5h-214q-10 0 -10 10v16q0 10 10 10h254q10 0 10 -10v-19q0 -5 -3 -13l-226 -419q-2 -5 2 -5h216q10 0 10 -10v-16q0 -10 -10 -10h-256q-10 0 -10 10zM149 573.5q-2 3.5 1 8.5l62 111q5 7 12 7h16q6 0 8 -3.5t-1 -8.5l-67 -111
q-5 -7 -12 -7h-11q-6 0 -8 3.5z" />
    <glyph glyph-name="Zdotaccent" unicode="&#x17b;" horiz-adv-x="387" 
d="M39 10v19q0 7 2 12l257 619q1 2 0 3.5t-3 1.5h-246q-10 0 -10 10v15q0 10 10 10h283q10 0 10 -10v-19q0 -7 -2 -12l-257 -619q-1 -2 0 -3.5t3 -1.5h246q10 0 10 -10v-15q0 -10 -10 -10h-283q-10 0 -10 10zM159.5 821q-12.5 13 -12.5 32q0 20 12.5 33t32.5 13t33 -13
t13 -33t-13 -32.5t-33 -12.5t-32.5 13z" />
    <glyph glyph-name="zdotaccent" unicode="&#x17c;" horiz-adv-x="355" 
d="M40 10v19q0 6 3 13l226 419q2 5 -2 5h-214q-10 0 -10 10v16q0 10 10 10h254q10 0 10 -10v-19q0 -5 -3 -13l-226 -419q-2 -5 2 -5h216q10 0 10 -10v-16q0 -10 -10 -10h-256q-10 0 -10 10zM148.5 623q-12.5 13 -12.5 32q0 20 12.5 33t32.5 13t33 -13t13 -33t-13 -32.5
t-33 -12.5t-32.5 13z" />
    <glyph glyph-name="Zcaron" unicode="&#x17d;" horiz-adv-x="387" 
d="M39 10v19q0 7 2 12l257 619q1 2 0 3.5t-3 1.5h-246q-10 0 -10 10v15q0 10 10 10h283q10 0 10 -10v-19q0 -7 -2 -12l-257 -619q-1 -2 0 -3.5t3 -1.5h246q10 0 10 -10v-15q0 -10 -10 -10h-283q-10 0 -10 10zM101 892q0 6 8 6h21q7 0 12 -7l50 -80q1 -1 3 -1t3 1l49 80
q5 7 12 7h21q6 0 7.5 -3.5t-1.5 -8.5l-67 -102q-4 -6 -12 -6h-27q-7 0 -12 7l-65 101q-2 4 -2 6z" />
    <glyph glyph-name="zcaron" unicode="&#x17e;" horiz-adv-x="355" 
d="M40 10v19q0 6 3 13l226 419q2 5 -2 5h-214q-10 0 -10 10v16q0 10 10 10h254q10 0 10 -10v-19q0 -5 -3 -13l-226 -419q-2 -5 2 -5h216q10 0 10 -10v-16q0 -10 -10 -10h-256q-10 0 -10 10zM90 694q0 6 8 6h21q7 0 12 -7l50 -80q1 -1 3 -1t3 1l49 80q5 7 12 7h21
q6 0 7.5 -3.5t-1.5 -8.5l-67 -102q-4 -6 -12 -6h-27q-7 0 -12 7l-65 101q-2 4 -2 6z" />
    <glyph glyph-name="uni018F" unicode="&#x18f;" horiz-adv-x="508" 
d="M351 682q44 -26 68 -71.5t24 -103.5v-317q0 -58 -24.5 -103.5t-68 -71.5t-99.5 -26q-57 0 -100.5 26t-68 71.5t-24.5 103.5v157q0 10 10 10h332q4 0 4 4v145q0 74 -43 120.5t-110 46.5q-56 0 -95.5 -34t-51.5 -89q-3 -9 -11 -9h-21q-5 0 -7.5 3t-1.5 8q13 70 64 113
t124 43q56 0 100 -26zM361 71q43 47 43 121v124q0 4 -4 4h-299q-4 0 -4 -4v-124q0 -74 43.5 -121t110.5 -47t110 47z" />
    <glyph glyph-name="florin" unicode="&#x192;" horiz-adv-x="460" 
d="M282.5 647.5q17.5 34.5 48.5 48.5t83 13q5 0 7.5 -3t1.5 -7l-1 -16q0 -4 -3 -7t-8 -3h-17q-47 0 -68 -31t-31 -97l-26 -165q0 -4 3 -4h78q10 0 10 -10v-12q0 -10 -10 -10h-83q-5 0 -5 -4l-63 -391q-9 -62 -26.5 -96.5t-48.5 -48.5t-82 -13q-5 0 -7.5 3t-1.5 7l1 16
q0 4 3 7t8 3h17q46 0 67.5 31.5t31.5 96.5l61 385q0 4 -3 4h-59q-10 0 -10 10v12q0 10 10 10h64q5 0 5 4l27 171q9 62 26.5 96.5z" />
    <glyph glyph-name="Ohorn" unicode="&#x1a0;" horiz-adv-x="448" 
d="M319 679q30 -22 47 -57t17 -79v-387q0 -73 -44.5 -118.5t-115.5 -45.5t-114.5 45.5t-43.5 118.5v387q0 74 44 119.5t114 45.5q22 0 52 -7q1 -1 5 -1q24 2 42 20.5t21 46.5q1 10 11 10h9q11 0 9 -12q-2 -27 -16 -48.5t-36 -32.5q-4 -1 -1 -5zM344 545q0 57 -33.5 92.5
t-87.5 35.5q-53 0 -86 -35.5t-33 -92.5v-391q0 -56 33 -91.5t86 -35.5q54 0 87.5 35.5t33.5 91.5v391z" />
    <glyph glyph-name="ohorn" unicode="&#x1a1;" horiz-adv-x="402" 
d="M292 480q25 -19 38 -49.5t13 -67.5v-224q0 -65 -39.5 -106t-103.5 -41q-63 0 -102.5 41t-39.5 106v224q0 65 39.5 106t102.5 41q21 0 49 -7q1 -1 5 -1q25 2 43.5 20.5t21.5 46.5q1 10 11 10h9q11 0 9 -12q-2 -28 -17 -49t-38 -33q-4 -1 -1 -5zM275 443.5
q-29 31.5 -75 31.5q-45 0 -74 -32t-29 -81v-222q0 -49 29 -81t74 -32q46 0 75 31.5t29 81.5v222q0 50 -29 81.5z" />
    <glyph glyph-name="Uhorn" unicode="&#x1af;" horiz-adv-x="475" 
d="M475 767q-3 -35 -23.5 -59t-51.5 -32q-3 -1 -3 -5v-493q0 -84 -44.5 -135t-115.5 -51q-72 0 -115.5 51t-43.5 135v512q0 10 10 10h19q10 0 10 -10v-516q0 -66 33 -106.5t87 -40.5t87.5 40.5t33.5 106.5v516q0 10 10 10h7q27 0 47 19t23 48q1 10 11 10h9q10 0 10 -10z" />
    <glyph glyph-name="uhorn" unicode="&#x1b0;" horiz-adv-x="414" 
d="M417 569q-3 -34 -22.5 -58t-49.5 -32q-3 -1 -3 -5v-464q0 -10 -10 -10h-19q-10 0 -10 10v40q0 3 -2 3.5t-3 -2.5q-31 -58 -104 -58q-60 0 -94.5 37t-34.5 109v353q0 10 10 10h19q10 0 10 -10v-345q0 -58 25.5 -88.5t71.5 -30.5q47 0 74.5 34.5t27.5 94.5v335q0 10 10 10
h5q27 0 47 19t23 48q1 10 11 10h8q10 0 10 -10z" />
    <glyph glyph-name="uni01CD" unicode="&#x1cd;" horiz-adv-x="377" 
d="M325 9l-29 136q0 2 -1.5 3t-3.5 1h-206q-2 0 -3.5 -1t-1.5 -3l-29 -136q-1 -9 -11 -9h-19q-5 0 -7.5 3t-1.5 8l152 680q2 9 11 9h25q10 0 11 -9l153 -680v-2q0 -9 -9 -9h-19q-9 0 -11 9zM89 183.5q1 -1.5 3 -1.5h192q2 0 3 1.5t0 2.5l-97 447q-1 3 -2 3t-2 -3l-97 -447
q-1 -1 0 -2.5zM96 889q0 6 8 6h21q7 0 12 -7l50 -80q1 -1 3 -1t3 1l49 80q5 7 12 7h21q6 0 7.5 -3.5t-1.5 -8.5l-67 -102q-4 -6 -12 -6h-27q-7 0 -12 7l-65 101q-2 4 -2 6z" />
    <glyph glyph-name="uni01CE" unicode="&#x1ce;" horiz-adv-x="396" 
d="M301.5 465q36.5 -45 36.5 -121v-334q0 -10 -10 -10h-19q-10 0 -10 10v41q0 3 -1.5 3t-3.5 -2q-19 -30 -50.5 -45t-69.5 -15q-52 0 -89 30.5t-37 106.5q0 81 44 120.5t118 39.5h85q4 0 4 4v51q0 60 -26 95.5t-74 35.5q-38 0 -66.5 -23.5t-32.5 -61.5q0 -10 -10 -10l-21 1
q-4 0 -7 3t-2 8q6 53 45.5 85.5t94.5 32.5q65 0 101.5 -45zM264.5 57.5q34.5 30.5 34.5 88.5v105q0 4 -4 4h-84q-56 0 -89.5 -31t-33.5 -92q0 -53 25.5 -79t67.5 -26q49 0 83.5 30.5zM106 691q0 6 8 6h21q7 0 12 -7l50 -80q1 -1 3 -1t3 1l49 80q5 7 12 7h21q6 0 7.5 -3.5
t-1.5 -8.5l-67 -102q-4 -6 -12 -6h-27q-7 0 -12 7l-65 101q-2 4 -2 6z" />
    <glyph glyph-name="uni01D4" unicode="&#x1d4;" horiz-adv-x="414" 
d="M313 502h19q10 0 10 -10v-482q0 -10 -10 -10h-19q-10 0 -10 10v40q0 3 -2 3.5t-3 -2.5q-31 -58 -104 -58q-60 0 -94.5 37t-34.5 109v353q0 10 10 10h19q10 0 10 -10v-345q0 -58 25.5 -88.5t71.5 -30.5q47 0 74.5 34.5t27.5 94.5v335q0 10 10 10zM111 691q0 6 8 6h21
q7 0 12 -7l50 -80q1 -1 3 -1t3 1l49 80q5 7 12 7h21q6 0 7.5 -3.5t-1.5 -8.5l-67 -102q-4 -6 -12 -6h-27q-7 0 -12 7l-65 101q-2 4 -2 6z" />
    <glyph glyph-name="uni01E5" unicode="&#x1e5;" horiz-adv-x="406" 
d="M405 253v-10q0 -10 -10 -10h-49q-4 0 -4 -4v-226q0 -204 -180 -204q-15 0 -15 10v16q0 10 13 10q75 0 108.5 43t33.5 127v45q0 3 -1.5 3t-3.5 -2q-16 -28 -43 -42.5t-61 -14.5q-61 0 -98 41t-37 105v223q0 65 37 106t98 41q34 0 61 -14.5t43 -42.5q2 -2 3.5 -2t1.5 3v38
q0 10 10 10h20q10 0 10 -10v-225q0 -4 4 -4h49q10 0 10 -10zM274 60.5q28 31.5 28 81.5v87q0 4 -4 4h-101q-10 0 -10 10v10q0 10 10 10h101q4 0 4 4v95q0 50 -28 81.5t-72 31.5q-46 0 -75.5 -31.5t-29.5 -81.5v-220q0 -50 29.5 -81.5t75.5 -31.5q44 0 72 31.5z" />
    <glyph glyph-name="gcaron" unicode="&#x1e7;" horiz-adv-x="401" 
d="M312 502h20q10 0 10 -10v-489q0 -204 -180 -204q-15 0 -15 10v16q0 10 13 10q75 0 108.5 43t33.5 127v45q0 3 -1.5 3t-3.5 -2q-16 -28 -43 -42.5t-61 -14.5q-61 0 -98 41t-37 105v223q0 65 37 106t98 41q34 0 61 -14.5t43 -42.5q2 -2 3.5 -2t1.5 3v38q0 10 10 10z
M274 60.5q28 31.5 28 81.5v220q0 50 -28 81.5t-72 31.5q-46 0 -75.5 -31.5t-29.5 -81.5v-220q0 -50 29.5 -81.5t75.5 -31.5q44 0 72 31.5zM108 691q0 6 8 6h21q7 0 12 -7l50 -80q1 -1 3 -1t3 1l49 80q5 7 12 7h21q6 0 7.5 -3.5t-1.5 -8.5l-67 -102q-4 -6 -12 -6h-27
q-7 0 -12 7l-65 101q-2 4 -2 6z" />
    <glyph glyph-name="uni01E9" unicode="&#x1e9;" horiz-adv-x="385" 
d="M71 10v680q0 10 10 10h19q10 0 10 -10v-434q0 -2 2 -2.5t3 1.5l177 241q4 6 13 6h20q6 0 8 -3.5t-2 -8.5l-95 -130q-2 -3 -1 -5l116 -344l1 -4q0 -7 -9 -7h-20q-9 0 -12 8l-100 313q-1 6 -6 1l-93 -127q-2 -2 -2 -5v-180q0 -10 -10 -10h-19q-10 0 -10 10zM108 889
q0 6 8 6h21q7 0 12 -7l50 -80q1 -1 3 -1t3 1l49 80q5 7 12 7h21q6 0 7.5 -3.5t-1.5 -8.5l-67 -102q-4 -6 -12 -6h-27q-7 0 -12 7l-65 101q-2 4 -2 6z" />
    <glyph glyph-name="uni01EF" unicode="&#x1ef;" horiz-adv-x="450" 
d="M152 232q126 0 187.5 -58.5t61.5 -157.5q0 -77 -35 -128.5t-90 -76t-118 -24.5q-47 0 -91 14q-7 3 -7 12l1 15q0 5 3.5 7.5t8.5 0.5q39 -12 81 -12q84 0 146 45.5t62 146.5q0 79 -48.5 130.5t-170.5 51.5q-25 0 -38 -1h-3q-7 0 -9 8l-2 11v4q0 6 3 10l219 231q3 5 -2 5
h-213q-10 0 -10 10v16q0 10 10 10h258q10 0 10 -10v-19q0 -7 -5 -12l-211 -224q-3 -5 2 -5zM138 691q0 6 8 6h21q7 0 12 -7l50 -80q1 -1 3 -1t3 1l49 80q5 7 12 7h21q6 0 7.5 -3.5t-1.5 -8.5l-67 -102q-4 -6 -12 -6h-27q-7 0 -12 7l-65 101q-2 4 -2 6z" />
    <glyph glyph-name="oslashacute" unicode="&#x1ff;" horiz-adv-x="402" 
d="M311 463q33 -41 33 -100v-224q0 -65 -39.5 -106t-103.5 -41q-40 0 -72 18q-4 1 -6 -2l-19 -49q-3 -10 -13 -5l-13 7q-8 5 -5 13l23 57q1 3 -1 5q-36 41 -36 103v224q0 65 39.5 106t102.5 41q44 0 76 -20q4 -1 6 2l22 56q3 10 13 5l13 -7q8 -5 5 -13l-26 -65q-1 -3 1 -5z
M111 82q4 -5 5 0l149 368q1 3 -2 5q-25 20 -62 20q-46 0 -74.5 -31.5t-28.5 -81.5v-222q0 -30 13 -58zM294 416q-4 5 -5 0l-148 -366q-1 -3 2 -5q23 -18 58 -18q46 0 75 31.5t29 81.5v222q0 29 -11 54zM168 573.5q-2 3.5 1 8.5l62 111q5 7 12 7h16q6 0 8 -3.5t-1 -8.5
l-67 -111q-5 -7 -12 -7h-11q-6 0 -8 3.5z" />
    <glyph glyph-name="uni0218" unicode="&#x218;" horiz-adv-x="404" 
d="M89.5 40q-42.5 48 -42.5 126v19q0 10 10 10h18q10 0 10 -10v-18q0 -63 32 -102t83 -39q50 0 83.5 37.5t33.5 98.5q0 40 -15.5 68.5t-39.5 49.5t-75 59t-78.5 64t-44.5 61t-17 83q0 75 41 118t107 43q70 0 112.5 -48.5t42.5 -127.5v-25q0 -10 -10 -10h-19q-10 0 -10 10v25
q0 64 -32 103t-84 39q-48 0 -79 -34t-31 -95q0 -36 13 -62.5t37.5 -49.5t73.5 -59q59 -44 87.5 -70.5t44 -58t15.5 -76.5q0 -80 -43.5 -128.5t-111.5 -48.5q-69 0 -111.5 48zM171 -201.5q-2 3.5 1 8.5l62 111q5 7 12 7h16q6 0 8 -3.5t-1 -8.5l-67 -111q-5 -7 -12 -7h-11
q-6 0 -8 3.5z" />
    <glyph glyph-name="uni0219" unicode="&#x219;" horiz-adv-x="357" 
d="M87.5 30.5q-37.5 34.5 -37.5 88.5v5q0 10 10 10h18q10 0 10 -10v-5q0 -38 27 -64t72 -26q44 0 70 26.5t26 69.5q0 31 -14.5 51.5t-36 33t-58.5 27.5q-38 16 -63 31t-42 41t-17 67q0 60 36.5 95t96.5 35q61 0 97.5 -36t36.5 -93v-3q0 -10 -10 -10h-17q-10 0 -10 10v4
q0 40 -27 67.5t-70 27.5t-69 -27t-26 -69q0 -29 13.5 -48.5t33.5 -31.5t55 -27q42 -17 67.5 -32t44 -42.5t18.5 -69.5q0 -59 -36.5 -94.5t-98.5 -35.5t-99.5 34.5zM158 -197.5q-2 3.5 1 8.5l62 111q5 7 12 7h16q6 0 8 -3.5t-1 -8.5l-67 -111q-5 -7 -12 -7h-11q-6 0 -8 3.5z
" />
    <glyph glyph-name="uni021A" unicode="&#x21a;" horiz-adv-x="402" 
d="M364 690v-15q0 -10 -10 -10h-134q-4 0 -4 -4v-651q0 -10 -10 -10h-19q-10 0 -10 10v651q0 4 -4 4h-125q-10 0 -10 10v15q0 10 10 10h306q10 0 10 -10zM103 -197.5q-2 3.5 1 8.5l62 111q5 7 12 7h16q6 0 8 -3.5t-1 -8.5l-67 -111q-5 -7 -12 -7h-11q-6 0 -8 3.5z" />
    <glyph glyph-name="uni021B" unicode="&#x21b;" horiz-adv-x="256" 
d="M213 470h-83q-4 0 -4 -4v-336q0 -53 18 -74t57 -21h11q10 0 10 -10v-15q0 -10 -10 -10h-17q-53 0 -80.5 26t-27.5 97v343q0 4 -4 4h-41q-10 0 -10 10v12q0 10 10 10h41q4 0 4 4v112q0 10 10 10h19q10 0 10 -10v-112q0 -4 4 -4h83q10 0 10 -10v-12q0 -10 -10 -10z
M124 -181.5q-2 3.5 1 8.5l62 111q5 7 12 7h16q6 0 8 -3.5t-1 -8.5l-67 -111q-5 -7 -12 -7h-11q-6 0 -8 3.5z" />
    <glyph glyph-name="uni021F" unicode="&#x21f;" horiz-adv-x="414" 
d="M316 468.5q33 -40.5 33 -112.5v-346q0 -10 -10 -10h-19q-10 0 -10 10v342q0 58 -26 90t-72 32q-47 0 -74.5 -34.5t-27.5 -94.5v-335q0 -10 -10 -10h-19q-10 0 -10 10v680q0 10 10 10h19q10 0 10 -10v-242q0 -3 1.5 -3t3.5 2q34 62 108 62q60 0 93 -40.5zM123 889q0 6 8 6
h21q7 0 12 -7l50 -80q1 -1 3 -1t3 1l49 80q5 7 12 7h21q6 0 7.5 -3.5t-1.5 -8.5l-67 -102q-4 -6 -12 -6h-27q-7 0 -12 7l-65 101q-2 4 -2 6z" />
    <glyph glyph-name="uni0228" unicode="&#x228;" horiz-adv-x="425" 
d="M368 665h-241q-4 0 -4 -4v-289q0 -4 4 -4h158q10 0 10 -10v-15q0 -10 -10 -10h-158q-4 0 -4 -4v-290q0 -4 4 -4h241q10 0 10 -10v-15q0 -10 -10 -10h-115q-5 0 -2 -5q41 -41 41 -91q0 -43 -21 -62t-52 -19q-12 0 -24 3q-9 1 -7 12l2 7q2 10 12 7q5 -1 14 -1
q20 0 32.5 12.5t12.5 41.5q0 45 -46 93q-2 2 -5 2h-116q-10 0 -10 10v680q0 10 10 10h274q10 0 10 -10v-15q0 -10 -10 -10z" />
    <glyph glyph-name="uni0229" unicode="&#x229;" horiz-adv-x="395" 
d="M333 240h-232q-4 0 -4 -4v-96q0 -50 29 -81.5t74 -31.5q38 0 65 22t36 59q3 9 11 9l18 -1q5 0 7.5 -3t1.5 -8q-8 -44 -37.5 -73.5t-73.5 -37.5q-6 -1 -2 -5q35 -39 35 -85q0 -43 -21 -62t-52 -19q-12 0 -24 3q-8 1 -7 11l1 8q1 5 4.5 6.5t7.5 0.5t13 -1q21 0 33.5 12.5
t12.5 40.5q0 42 -39 86q-2 2 -5 2q-57 5 -92 45.5t-35 100.5v225q0 65 39.5 106t102.5 41q64 0 103.5 -41t39.5 -106v-113q0 -10 -10 -10zM126 443.5q-29 -31.5 -29 -81.5v-85q0 -4 4 -4h199q4 0 4 4v85q0 50 -29 81.5t-75 31.5q-45 0 -74 -31.5z" />
    <glyph glyph-name="uni0237" unicode="&#x237;" horiz-adv-x="189" 
d="M-17 -200v15q0 10 10 10q38 3 58 32.5t20 79.5v555q0 10 10 10h19q10 0 10 -10v-555q0 -70 -27.5 -107.5t-89.5 -39.5q-10 0 -10 10z" />
    <glyph glyph-name="uni0259" unicode="&#x259;" horiz-adv-x="395" 
d="M297 469.5q39 -40.5 39 -105.5v-225q0 -65 -39 -106t-102 -41q-64 0 -103.5 41t-39.5 106v113q0 10 10 10h231q4 0 4 4v96q0 50 -28.5 81.5t-73.5 31.5q-38 0 -65 -22t-36 -59q-3 -9 -11 -9l-18 1q-5 0 -7.5 3t-1.5 7q9 52 46 83t93 31q63 0 102 -40.5zM268.5 58.5
q28.5 31.5 28.5 81.5v85q0 4 -4 4h-198q-4 0 -4 -4v-85q0 -50 29 -81.5t75 -31.5q45 0 73.5 31.5z" />
    <glyph glyph-name="uni0292" unicode="&#x292;" horiz-adv-x="450" 
d="M152 232q126 0 187.5 -58.5t61.5 -157.5q0 -77 -35 -128.5t-90 -76t-118 -24.5q-47 0 -91 14q-7 3 -7 12l1 15q0 5 3.5 7.5t8.5 0.5q39 -12 81 -12q84 0 146 45.5t62 146.5q0 79 -48.5 130.5t-170.5 51.5q-25 0 -38 -1h-3q-7 0 -9 8l-2 11v4q0 6 3 10l219 231q3 5 -2 5
h-213q-10 0 -10 10v16q0 10 10 10h258q10 0 10 -10v-19q0 -7 -5 -12l-211 -224q-3 -5 2 -5z" />
    <glyph glyph-name="uni02BB" unicode="&#x2bb;" horiz-adv-x="94" 
d="M3 693q0 7 9 7h21q9 0 11 -9l47 -175l1 -3q0 -8 -10 -8h-12q-9 0 -12 8l-54 176z" />
    <glyph glyph-name="uni02BC" unicode="&#x2bc;" horiz-adv-x="94" 
d="M90 689l-55 -176q-3 -8 -12 -8h-11q-5 0 -7.5 3t-1.5 8l47 175q2 9 11 9h21q11 0 8 -11z" />
    <glyph glyph-name="circumflex" unicode="&#x2c6;" horiz-adv-x="199" 
d="M32.5 583.5q-1.5 3.5 1.5 8.5l65 101q5 7 12 7h27q8 0 12 -6l67 -102q2 -4 2 -6q0 -6 -8 -6h-21q-7 0 -12 7l-49 80q-1 2 -3 2t-3 -2l-50 -80q-5 -7 -12 -7h-21q-6 0 -7.5 3.5z" />
    <glyph glyph-name="caron" unicode="&#x2c7;" horiz-adv-x="251" 
d="M32 694q0 6 8 6h21q7 0 12 -7l50 -80q1 -1 3 -1t3 1l49 80q5 7 12 7h21q6 0 7.5 -3.5t-1.5 -8.5l-67 -102q-4 -6 -12 -6h-27q-7 0 -12 7l-65 101q-2 4 -2 6z" />
    <glyph glyph-name="uni02C9" unicode="&#x2c9;" horiz-adv-x="195" 
d="M0 678v12q0 10 10 10h175q10 0 10 -10v-12q0 -10 -10 -10h-175q-10 0 -10 10z" />
    <glyph glyph-name="breve" unicode="&#x2d8;" horiz-adv-x="247" 
d="M57.5 587.5q-27.5 25.5 -31.5 64.5q0 10 10 10h9q10 0 11 -10q3 -28 22.5 -45.5t45.5 -17.5t45.5 17.5t22.5 45.5q1 10 11 10h9q5 0 7.5 -3t1.5 -7q-3 -38 -30.5 -64t-66.5 -26t-66.5 25.5z" />
    <glyph glyph-name="dotaccent" unicode="&#x2d9;" horiz-adv-x="143" 
d="M38.5 623q-12.5 13 -12.5 32q0 20 12.5 33t32.5 13t33 -13t13 -33t-13 -32.5t-33 -12.5t-32.5 13z" />
    <glyph glyph-name="ring" unicode="&#x2da;" horiz-adv-x="248" 
d="M55.5 615.5q-28.5 29.5 -28.5 71.5t28.5 71.5t69.5 29.5t69.5 -29.5t28.5 -71.5t-28.5 -71.5t-69.5 -29.5t-69.5 29.5zM174 635.5q20 20.5 20 51.5t-20 51.5t-49 20.5t-49.5 -21t-20.5 -51t20.5 -51t49.5 -21t49 20.5z" />
    <glyph glyph-name="ogonek" unicode="&#x2db;" horiz-adv-x="106" 
d="M104 -171q0 -8 -7 -9q-12 -3 -25 -3q-31 0 -52 18.5t-21 60.5q0 56 47 97l4 4q3 3 10 3h8q6 0 7.5 -4t-2.5 -8q-42 -47 -42 -90q0 -53 46 -53q8 0 13 1l4 1q6 0 8 -8l2 -7v-3z" />
    <glyph glyph-name="tilde" unicode="&#x2dc;" horiz-adv-x="304" 
d="M175 625q-12 6 -27 17q-5 3 -13.5 9t-16 9t-16.5 3q-15 0 -26 -5.5t-22 -21.5q-6 -9 -14 -3l-6 4q-9 6 -3 14q26 44 70 44q15 0 26.5 -6t28.5 -17q4 -3 13.5 -9.5t17.5 -10t16 -3.5q14 0 24.5 6.5t21.5 24.5q2 4 6 5t8 -1l6 -3q5 -3 5 -9q0 -7 -4 -12q-14 -21 -33 -31
t-36 -10q-14 0 -26 6z" />
    <glyph glyph-name="hungarumlaut" unicode="&#x2dd;" horiz-adv-x="272" 
d="M32 581.5q-2 3.5 1 8.5l62 111q5 7 12 7h15q6 0 8 -3.5t-1 -8.5l-66 -111q-5 -7 -12 -7h-11q-6 0 -8 3.5zM142 581.5q-2 3.5 1 8.5l62 111q5 7 12 7h15q6 0 8 -3.5t-1 -8.5l-66 -111q-5 -7 -12 -7h-11q-6 0 -8 3.5z" />
    <glyph glyph-name="gravecomb" unicode="&#x300;" 
d="M-6 576q0 -6 -9 -6h-12q-7 0 -12 7l-66 111q-2 4 -2 6q0 6 9 6h16q7 0 12 -7l62 -111q2 -4 2 -6z" />
    <glyph glyph-name="acutecomb" unicode="&#x301;" 
d="M-106 573.5q-2 3.5 1 8.5l62 111q5 7 12 7h16q6 0 8 -3.5t-1 -8.5l-67 -111q-5 -7 -12 -7h-11q-6 0 -8 3.5z" />
    <glyph glyph-name="uni0302" unicode="&#x302;" 
d="M-218.5 583.5q-1.5 3.5 1.5 8.5l65 101q5 7 12 7h27q8 0 12 -6l67 -102q2 -4 2 -6q0 -6 -8 -6h-21q-7 0 -12 7l-49 80q-1 2 -3 2t-3 -2l-50 -80q-5 -7 -12 -7h-21q-6 0 -7.5 3.5z" />
    <glyph glyph-name="tildecomb" unicode="&#x303;" 
d="M-103 625q-12 6 -27 17q-5 3 -13.5 9t-16 9t-16.5 3q-15 0 -26 -5.5t-22 -21.5q-6 -9 -14 -3l-6 4q-9 6 -3 14q26 44 70 44q15 0 26.5 -6t28.5 -17q4 -3 13.5 -9.5t17.5 -10t16 -3.5q14 0 24.5 6.5t21.5 24.5q2 4 6 5t8 -1l6 -3q5 -3 5 -9q0 -7 -4 -12q-14 -21 -33 -31
t-36 -10q-14 0 -26 6z" />
    <glyph glyph-name="uni0304" unicode="&#x304;" 
d="M-195 643v12q0 10 10 10h175q10 0 10 -10v-12q0 -10 -10 -10h-175q-10 0 -10 10z" />
    <glyph glyph-name="uni0306" unicode="&#x306;" 
d="M-189.5 611.5q-27.5 25.5 -31.5 64.5q0 10 10 10h9q10 0 10 -10q4 -27 23.5 -45t45.5 -18q25 0 44.5 18t23.5 45q1 10 11 10h9q5 0 7.5 -3t1.5 -7q-4 -38 -31.5 -64t-65.5 -26q-39 0 -66.5 25.5z" />
    <glyph glyph-name="uni0307" unicode="&#x307;" 
d="M-81.5 623q-12.5 13 -12.5 32q0 20 12.5 33t32.5 13t33 -13t13 -33t-13 -32.5t-33 -12.5t-32.5 13z" />
    <glyph glyph-name="uni0308" unicode="&#x308;" 
d="M-78.5 623q-12.5 13 -12.5 32q0 20 12.5 33t32.5 13t33 -13t13 -33t-13 -32.5t-33 -12.5t-32.5 13zM-212.5 623q-12.5 13 -12.5 32q0 20 12.5 33t32.5 13t33 -13t13 -33t-13 -32.5t-33 -12.5t-32.5 13z" />
    <glyph glyph-name="hookabovecomb" unicode="&#x309;" 
d="M-328.5 551.5q-1.5 3.5 0.5 7.5q9 21 35 45q14 14 20.5 24t6.5 25q0 17 -14 29.5t-34 12.5t-31.5 -8.5t-26.5 -29.5q-6 -8 -14 -2l-6 4q-8 6 -2 13q18 27 34.5 38.5t45.5 11.5q33 0 55 -19.5t22 -49.5q0 -22 -9.5 -36.5t-29.5 -34.5q-20 -18 -26 -29l-2 -4q-3 -7 -11 -5
l-7 2q-5 2 -6.5 5.5z" />
    <glyph glyph-name="uni030A" unicode="&#x30a;" 
d="M-164.5 615.5q-28.5 29.5 -28.5 71.5t28.5 71.5t69.5 29.5t69.5 -29.5t28.5 -71.5t-28.5 -71.5t-69.5 -29.5t-69.5 29.5zM-46 635.5q20 20.5 20 51.5t-20 51.5t-49 20.5t-49.5 -21t-20.5 -51t20.5 -51t49.5 -21t49 20.5z" />
    <glyph glyph-name="uni030B" unicode="&#x30b;" 
d="M-238.5 573.5q-2.5 3.5 0.5 8.5l60 111q3 7 12 7h16q6 0 8 -3.5t-1 -8.5l-63 -111q-5 -7 -12 -7h-13q-5 0 -7.5 3.5zM-129 573.5q-2 3.5 1 8.5l61 111q3 7 12 7h15q6 0 8 -3.5t-1 -8.5l-63 -111q-5 -7 -12 -7h-13q-6 0 -8 3.5z" />
    <glyph glyph-name="uni030C" unicode="&#x30c;" 
d="M-219 694q0 6 8 6h21q7 0 12 -7l50 -80q1 -1 3 -1t3 1l49 80q5 7 12 7h21q6 0 7.5 -3.5t-1.5 -8.5l-67 -102q-4 -6 -12 -6h-27q-7 0 -12 7l-65 101q-2 4 -2 6z" />
    <glyph glyph-name="uni0312" unicode="&#x312;" 
d="M-32 696.5q2 -3.5 -1 -8.5l-62 -111q-5 -7 -12 -7h-16q-6 0 -8 3.5t1 8.5l66 111q5 7 12 7h12q6 0 8 -3.5z" />
    <glyph glyph-name="uni0313" unicode="&#x313;" 
d="M-106 573.5q-2 3.5 1 8.5l62 111q5 7 12 7h16q6 0 8 -3.5t-1 -8.5l-67 -111q-5 -7 -12 -7h-11q-6 0 -8 3.5z" />
    <glyph glyph-name="uni031B" unicode="&#x31b;" 
d="M-115 476q-8 0 -8 9v7q0 10 9 11q24 3 41 21t20 45q1 10 11 10h9q5 0 7.5 -3t1.5 -8q-4 -38 -29 -63.5t-60 -28.5h-2z" />
    <glyph glyph-name="dotbelowcomb" unicode="&#x323;" 
d="M-79 -157q-12 12 -12 31t12 31t31 12t31 -12t12 -31t-12.5 -31t-30.5 -12q-19 0 -31 12z" />
    <glyph glyph-name="uni0326" unicode="&#x326;" 
d="M-133 -193.5q-2 3.5 1 8.5l62 111q5 7 12 7h16q6 0 8 -3.5t-1 -8.5l-67 -111q-5 -7 -12 -7h-11q-6 0 -8 3.5z" />
    <glyph glyph-name="uni0327" unicode="&#x327;" 
d="M-103 -169l1 8q1 5 4.5 6.5t7.5 0.5q5 -1 14 -1q20 0 33 12t13 40q0 41 -42 91q-3 3 -3 7q0 5 7 5h9q5 0 10 -3q3 -2 3 -4q47 -43 47 -97q0 -42 -21 -60.5t-52 -18.5q-12 0 -24 3q-8 1 -7 11z" />
    <glyph glyph-name="uni0328" unicode="&#x328;" 
d="M-2 -171q0 -8 -8 -9q-12 -3 -25 -3q-31 0 -51.5 19t-20.5 62q0 56 46 95q3 3 3 4q4 3 11 3h8q6 0 7.5 -4t-2.5 -8q-41 -43 -41 -88q0 -55 45 -55q9 0 14 1l4 1q6 0 8 -8l2 -7v-3z" />
    <glyph glyph-name="uni0335" unicode="&#x335;" 
d="M-248 603h237q10 0 10 -10v-10q0 -10 -10 -10h-237q-10 0 -10 10v10q0 10 10 10z" />
    <glyph glyph-name="uni0336" unicode="&#x336;" 
d="M-395 528v12q0 10 10 10h375q10 0 10 -10v-12q0 -10 -10 -10h-375q-10 0 -10 10z" />
    <glyph glyph-name="uni0337" unicode="&#x337;" 
d="M-263 143q-4 0 -9 5l-9 11q-2 4 -2 6q0 3 5 8l324 221q3 3 7 3t7 -5l8 -12q2 -3 2 -7t-4 -7l-324 -221z" />
    <glyph glyph-name="uni0338" unicode="&#x338;" 
d="M-340.5 -29.5q-2.5 3.5 -0.5 8.5l304 754q3 8 11 8h13q5 0 7.5 -3.5t0.5 -8.5l-304 -754q-3 -8 -11 -8h-13q-5 0 -7.5 3.5z" />
    <glyph glyph-name="uni0394" unicode="&#x394;" horiz-adv-x="480" 
d="M10 10v19q0 4 2 12l208 651q3 8 12 8h16q9 0 12 -8l208 -652q2 -8 2 -12v-18q0 -10 -10 -10h-440q-10 0 -10 10zM50.5 36.5q1.5 -1.5 3.5 -1.5h372q2 0 3.5 1.5t0.5 3.5l-187 603q-1 2 -3 2t-3 -2l-187 -603q-1 -2 0.5 -3.5z" />
    <glyph glyph-name="uni03A9" unicode="&#x3a9;" horiz-adv-x="475" 
d="M65 10v15q0 10 10 10h63q2 0 2.5 1.5t-1.5 3.5q-28 20 -43.5 54t-15.5 76v373q0 74 44 119.5t114 45.5q71 0 115.5 -46t44.5 -119v-373q0 -43 -16 -76.5t-45 -53.5q-2 -2 -1 -3.5t3 -1.5h61q10 0 10 -10v-15q0 -10 -10 -10h-125q-10 0 -10 10v16q0 9 9 10q35 8 60 43
t25 83v383q0 57 -34 92.5t-87 35.5t-86 -35.5t-33 -92.5v-383q0 -48 24 -82.5t59 -43.5q9 -2 9 -10v-16q0 -10 -10 -10h-126q-10 0 -10 10z" />
    <glyph glyph-name="uni03BC" unicode="&#x3bc;" horiz-adv-x="420" 
d="M320 502h19q10 0 10 -10v-482q0 -10 -10 -10h-19q-10 0 -10 10v40q0 3 -2 3.5t-3 -2.5q-16 -29 -42.5 -43.5t-61.5 -14.5q-52 0 -86 29q-2 1 -3.5 0t-1.5 -3v-209q0 -10 -10 -10h-19q-10 0 -10 10v682q0 10 10 10h19q10 0 10 -10v-345q0 -59 25.5 -89t72.5 -30t74.5 34.5
t27.5 94.5v335q0 10 10 10z" />
    <glyph glyph-name="pi" unicode="&#x3c0;" horiz-adv-x="494" 
d="M448 468h-51q-4 0 -4 -4v-389q0 -22 11 -29t37 -8q10 0 10 -10v-18q0 -10 -10 -10q-43 1 -65.5 14t-21.5 50v400q0 4 -4 4h-199q-4 0 -4 -4v-454q0 -10 -10 -10h-19q-10 0 -10 10v454q0 4 -4 4h-58q-10 0 -10 10v14q0 10 10 10h402q10 0 10 -10v-14q0 -10 -10 -10z" />
    <glyph glyph-name="Wgrave" unicode="&#x1e80;" horiz-adv-x="592" 
d="M163 9l-130 680v2q0 9 9 9h20q10 0 11 -9l110 -598q1 -2 2 -2t2 2l93 598q2 9 10 9h19q9 0 10 -9l96 -598q1 -2 2 -2t2 2l100 598q2 9 11 9h21q5 0 7.5 -3t1.5 -8l-123 -680q-1 -9 -11 -9h-20q-8 0 -10 9l-94 596q-1 2 -2 2t-2 -2l-95 -596q-1 -9 -10 -9h-19q-9 0 -11 9z
M311 774q0 -6 -9 -6h-12q-7 0 -12 7l-66 111q-2 4 -2 6q0 6 9 6h16q7 0 12 -7l62 -111q2 -4 2 -6z" />
    <glyph glyph-name="wgrave" unicode="&#x1e81;" horiz-adv-x="527" 
d="M133 9l-105 482v2q0 9 9 9h18q10 0 11 -9l86 -428q1 -3 2 -3t2 3l86 428q2 9 11 9h18q10 0 11 -9l88 -428q1 -3 2 -3t2 3l87 428q2 9 11 9h18q5 0 7.5 -3t1.5 -8l-106 -482q-1 -9 -11 -9h-20q-9 0 -11 9l-87 414q-1 3 -2 3t-2 -3l-85 -414q-1 -9 -11 -9h-20q-9 0 -11 9z
M275 576q0 -6 -9 -6h-12q-7 0 -12 7l-66 111q-2 4 -2 6q0 6 9 6h16q7 0 12 -7l62 -111q2 -4 2 -6z" />
    <glyph glyph-name="Wacute" unicode="&#x1e82;" horiz-adv-x="592" 
d="M163 9l-130 680v2q0 9 9 9h20q10 0 11 -9l110 -598q1 -2 2 -2t2 2l93 598q2 9 10 9h19q9 0 10 -9l96 -598q1 -2 2 -2t2 2l100 598q2 9 11 9h21q5 0 7.5 -3t1.5 -8l-123 -680q-1 -9 -11 -9h-20q-8 0 -10 9l-94 596q-1 2 -2 2t-2 -2l-95 -596q-1 -9 -10 -9h-19q-9 0 -11 9z
M266 771.5q-2 3.5 1 8.5l62 111q5 7 12 7h16q6 0 8 -3.5t-1 -8.5l-67 -111q-5 -7 -12 -7h-11q-6 0 -8 3.5z" />
    <glyph glyph-name="wacute" unicode="&#x1e83;" horiz-adv-x="527" 
d="M133 9l-105 482v2q0 9 9 9h18q10 0 11 -9l86 -428q1 -3 2 -3t2 3l86 428q2 9 11 9h18q10 0 11 -9l88 -428q1 -3 2 -3t2 3l87 428q2 9 11 9h18q5 0 7.5 -3t1.5 -8l-106 -482q-1 -9 -11 -9h-20q-9 0 -11 9l-87 414q-1 3 -2 3t-2 -3l-85 -414q-1 -9 -11 -9h-20q-9 0 -11 9z
M229 573.5q-2 3.5 1 8.5l62 111q5 7 12 7h16q6 0 8 -3.5t-1 -8.5l-67 -111q-5 -7 -12 -7h-11q-6 0 -8 3.5z" />
    <glyph glyph-name="Wdieresis" unicode="&#x1e84;" horiz-adv-x="592" 
d="M163 9l-130 680v2q0 9 9 9h20q10 0 11 -9l110 -598q1 -2 2 -2t2 2l93 598q2 9 10 9h19q9 0 10 -9l96 -598q1 -2 2 -2t2 2l100 598q2 9 11 9h21q5 0 7.5 -3t1.5 -8l-123 -680q-1 -9 -11 -9h-20q-8 0 -10 9l-94 596q-1 2 -2 2t-2 -2l-95 -596q-1 -9 -10 -9h-19q-9 0 -11 9z
M332.5 821q-12.5 13 -12.5 32q0 20 12.5 33t32.5 13t33 -13t13 -33t-13 -32.5t-33 -12.5t-32.5 13zM198.5 821q-12.5 13 -12.5 32q0 20 12.5 33t32.5 13t33 -13t13 -33t-13 -32.5t-33 -12.5t-32.5 13z" />
    <glyph glyph-name="wdieresis" unicode="&#x1e85;" horiz-adv-x="527" 
d="M133 9l-105 482v2q0 9 9 9h18q10 0 11 -9l86 -428q1 -3 2 -3t2 3l86 428q2 9 11 9h18q10 0 11 -9l88 -428q1 -3 2 -3t2 3l87 428q2 9 11 9h18q5 0 7.5 -3t1.5 -8l-106 -482q-1 -9 -11 -9h-20q-9 0 -11 9l-87 414q-1 3 -2 3t-2 -3l-85 -414q-1 -9 -11 -9h-20q-9 0 -11 9z
M296.5 623q-12.5 13 -12.5 32q0 20 12.5 33t32.5 13t33 -13t13 -33t-13 -32.5t-33 -12.5t-32.5 13zM162.5 623q-12.5 13 -12.5 32q0 20 12.5 33t32.5 13t33 -13t13 -33t-13 -32.5t-33 -12.5t-32.5 13z" />
    <glyph glyph-name="uni1EA0" unicode="&#x1ea0;" horiz-adv-x="377" 
d="M325 9l-29 136q0 2 -1.5 3t-3.5 1h-206q-2 0 -3.5 -1t-1.5 -3l-29 -136q-1 -9 -11 -9h-19q-5 0 -7.5 3t-1.5 8l152 680q2 9 11 9h25q10 0 11 -9l153 -680v-2q0 -9 -9 -9h-19q-9 0 -11 9zM89 183.5q1 -1.5 3 -1.5h192q2 0 3 1.5t0 2.5l-97 447q-1 3 -2 3t-2 -3l-97 -447
q-1 -1 0 -2.5zM158 -157q-12 12 -12 31t12 31t31 12t31 -12t12 -31t-12.5 -31t-30.5 -12q-19 0 -31 12z" />
    <glyph glyph-name="uni1EA1" unicode="&#x1ea1;" horiz-adv-x="396" 
d="M301.5 465q36.5 -45 36.5 -121v-334q0 -10 -10 -10h-19q-10 0 -10 10v41q0 3 -1.5 3t-3.5 -2q-19 -30 -50.5 -45t-69.5 -15q-52 0 -89 30.5t-37 106.5q0 81 44 120.5t118 39.5h85q4 0 4 4v51q0 60 -26 95.5t-74 35.5q-38 0 -66.5 -23.5t-32.5 -61.5q0 -10 -10 -10l-21 1
q-4 0 -7 3t-2 8q6 53 45.5 85.5t94.5 32.5q65 0 101.5 -45zM264.5 57.5q34.5 30.5 34.5 88.5v105q0 4 -4 4h-84q-56 0 -89.5 -31t-33.5 -92q0 -53 25.5 -79t67.5 -26q49 0 83.5 30.5zM168 -157q-12 12 -12 31t12 31t31 12t31 -12t12 -31t-12.5 -31t-30.5 -12q-19 0 -31 12z
" />
    <glyph glyph-name="uni1EA2" unicode="&#x1ea2;" horiz-adv-x="377" 
d="M325 9l-29 136q0 2 -1.5 3t-3.5 1h-206q-2 0 -3.5 -1t-1.5 -3l-29 -136q-1 -9 -11 -9h-19q-5 0 -7.5 3t-1.5 8l152 680q2 9 11 9h25q10 0 11 -9l153 -680v-2q0 -9 -9 -9h-19q-9 0 -11 9zM89 183.5q1 -1.5 3 -1.5h192q2 0 3 1.5t0 2.5l-97 447q-1 3 -2 3t-2 -3l-97 -447
q-1 -1 0 -2.5zM177.5 749.5q-1.5 3.5 0.5 7.5q9 21 35 45q14 14 20.5 24t6.5 25q0 17 -14 29.5t-34 12.5t-31.5 -8.5t-26.5 -29.5q-6 -8 -14 -2l-6 4q-8 6 -2 13q18 27 34.5 38.5t45.5 11.5q33 0 55 -19.5t22 -49.5q0 -22 -9.5 -36.5t-29.5 -34.5q-20 -18 -26 -29l-2 -4
q-3 -7 -11 -5l-7 2q-5 2 -6.5 5.5z" />
    <glyph glyph-name="uni1EA3" unicode="&#x1ea3;" horiz-adv-x="396" 
d="M301.5 465q36.5 -45 36.5 -121v-334q0 -10 -10 -10h-19q-10 0 -10 10v41q0 3 -1.5 3t-3.5 -2q-19 -30 -50.5 -45t-69.5 -15q-52 0 -89 30.5t-37 106.5q0 81 44 120.5t118 39.5h85q4 0 4 4v51q0 60 -26 95.5t-74 35.5q-38 0 -66.5 -23.5t-32.5 -61.5q0 -10 -10 -10l-21 1
q-4 0 -7 3t-2 8q6 53 45.5 85.5t94.5 32.5q65 0 101.5 -45zM264.5 57.5q34.5 30.5 34.5 88.5v105q0 4 -4 4h-84q-56 0 -89.5 -31t-33.5 -92q0 -53 25.5 -79t67.5 -26q49 0 83.5 30.5zM187.5 551.5q-1.5 3.5 0.5 7.5q9 21 35 45q14 14 20.5 24t6.5 25q0 17 -14 29.5t-34 12.5
t-31.5 -8.5t-26.5 -29.5q-6 -8 -14 -2l-6 4q-8 6 -2 13q18 27 34.5 38.5t45.5 11.5q33 0 55 -19.5t22 -49.5q0 -22 -9.5 -36.5t-29.5 -34.5q-20 -18 -26 -29l-2 -4q-3 -7 -11 -5l-7 2q-5 2 -6.5 5.5z" />
    <glyph glyph-name="uni1EA4" unicode="&#x1ea4;" horiz-adv-x="377" 
d="M325 9l-29 136q0 2 -1.5 3t-3.5 1h-206q-2 0 -3.5 -1t-1.5 -3l-29 -136q-1 -9 -11 -9h-19q-5 0 -7.5 3t-1.5 8l152 680q2 9 11 9h25q10 0 11 -9l153 -680v-2q0 -9 -9 -9h-19q-9 0 -11 9zM89 183.5q1 -1.5 3 -1.5h192q2 0 3 1.5t0 2.5l-97 447q-1 3 -2 3t-2 -3l-97 -447
q-1 -1 0 -2.5zM94.5 781.5q-1.5 3.5 1.5 8.5l65 101q5 7 12 7h27q8 0 12 -6l67 -102q2 -4 2 -6q0 -6 -8 -6h-21q-7 0 -12 7l-49 80q-1 2 -3 2t-3 -2l-50 -80q-5 -7 -12 -7h-21q-6 0 -7.5 3.5zM288 847.5q-2 3.5 1 8.5l62 111q5 7 12 7h16q6 0 8 -3.5t-1 -8.5l-67 -111
q-5 -7 -12 -7h-11q-6 0 -8 3.5z" />
    <glyph glyph-name="uni1EA5" unicode="&#x1ea5;" horiz-adv-x="396" 
d="M301.5 465q36.5 -45 36.5 -121v-334q0 -10 -10 -10h-19q-10 0 -10 10v41q0 3 -1.5 3t-3.5 -2q-19 -30 -50.5 -45t-69.5 -15q-52 0 -89 30.5t-37 106.5q0 81 44 120.5t118 39.5h85q4 0 4 4v51q0 60 -26 95.5t-74 35.5q-38 0 -66.5 -23.5t-32.5 -61.5q0 -10 -10 -10l-21 1
q-4 0 -7 3t-2 8q6 53 45.5 85.5t94.5 32.5q65 0 101.5 -45zM264.5 57.5q34.5 30.5 34.5 88.5v105q0 4 -4 4h-84q-56 0 -89.5 -31t-33.5 -92q0 -53 25.5 -79t67.5 -26q49 0 83.5 30.5zM104.5 583.5q-1.5 3.5 1.5 8.5l65 101q5 7 12 7h27q8 0 12 -6l67 -102q2 -4 2 -6
q0 -6 -8 -6h-21q-7 0 -12 7l-49 80q-1 2 -3 2t-3 -2l-50 -80q-5 -7 -12 -7h-21q-6 0 -7.5 3.5zM298 649.5q-2 3.5 1 8.5l62 111q5 7 12 7h16q6 0 8 -3.5t-1 -8.5l-67 -111q-5 -7 -12 -7h-11q-6 0 -8 3.5z" />
    <glyph glyph-name="uni1EA6" unicode="&#x1ea6;" horiz-adv-x="377" 
d="M325 9l-29 136q0 2 -1.5 3t-3.5 1h-206q-2 0 -3.5 -1t-1.5 -3l-29 -136q-1 -9 -11 -9h-19q-5 0 -7.5 3t-1.5 8l152 680q2 9 11 9h25q10 0 11 -9l153 -680v-2q0 -9 -9 -9h-19q-9 0 -11 9zM89 183.5q1 -1.5 3 -1.5h192q2 0 3 1.5t0 2.5l-97 447q-1 3 -2 3t-2 -3l-97 -447
q-1 -1 0 -2.5zM94.5 781.5q-1.5 3.5 1.5 8.5l65 101q5 7 12 7h27q8 0 12 -6l67 -102q2 -4 2 -6q0 -6 -8 -6h-21q-7 0 -12 7l-49 80q-1 2 -3 2t-3 -2l-50 -80q-5 -7 -12 -7h-21q-6 0 -7.5 3.5zM332 895q0 -6 -9 -6h-12q-7 0 -12 7l-66 111q-2 4 -2 6q0 6 9 6h16q7 0 12 -7
l62 -111q2 -4 2 -6z" />
    <glyph glyph-name="uni1EA7" unicode="&#x1ea7;" horiz-adv-x="396" 
d="M301.5 465q36.5 -45 36.5 -121v-334q0 -10 -10 -10h-19q-10 0 -10 10v41q0 3 -1.5 3t-3.5 -2q-19 -30 -50.5 -45t-69.5 -15q-52 0 -89 30.5t-37 106.5q0 81 44 120.5t118 39.5h85q4 0 4 4v51q0 60 -26 95.5t-74 35.5q-38 0 -66.5 -23.5t-32.5 -61.5q0 -10 -10 -10l-21 1
q-4 0 -7 3t-2 8q6 53 45.5 85.5t94.5 32.5q65 0 101.5 -45zM264.5 57.5q34.5 30.5 34.5 88.5v105q0 4 -4 4h-84q-56 0 -89.5 -31t-33.5 -92q0 -53 25.5 -79t67.5 -26q49 0 83.5 30.5zM104.5 583.5q-1.5 3.5 1.5 8.5l65 101q5 7 12 7h27q8 0 12 -6l67 -102q2 -4 2 -6
q0 -6 -8 -6h-21q-7 0 -12 7l-49 80q-1 2 -3 2t-3 -2l-50 -80q-5 -7 -12 -7h-21q-6 0 -7.5 3.5zM342 697q0 -6 -9 -6h-12q-7 0 -12 7l-66 111q-2 4 -2 6q0 6 9 6h16q7 0 12 -7l62 -111q2 -4 2 -6z" />
    <glyph glyph-name="uni1EA8" unicode="&#x1ea8;" horiz-adv-x="377" 
d="M325 9l-29 136q0 2 -1.5 3t-3.5 1h-206q-2 0 -3.5 -1t-1.5 -3l-29 -136q-1 -9 -11 -9h-19q-5 0 -7.5 3t-1.5 8l152 680q2 9 11 9h25q10 0 11 -9l153 -680v-2q0 -9 -9 -9h-19q-9 0 -11 9zM89 183.5q1 -1.5 3 -1.5h192q2 0 3 1.5t0 2.5l-97 447q-1 3 -2 3t-2 -3l-97 -447
q-1 -1 0 -2.5zM290 868q-4 1 -5.5 4t0.5 7q6 15 14.5 25t20.5 21q14 14 20 23.5t6 24.5q0 17 -13.5 29t-33.5 12t-31.5 -8t-25.5 -29q-6 -9 -14 -3l-6 4q-8 5 -3 14q17 26 33.5 37.5t46.5 11.5q33 0 54.5 -19t21.5 -49q0 -22 -10 -37t-29 -33q-20 -20 -25 -29l-2 -4
q-3 -8 -11 -5l-4 1zM94.5 781.5q-1.5 3.5 1.5 8.5l65 101q5 7 12 7h27q7 0 12 -6l67 -102q2 -4 2 -6q0 -6 -8 -6h-21q-7 0 -12 7l-49 80q-1 2 -3 2t-3 -2l-50 -80q-5 -7 -12 -7h-21q-6 0 -7.5 3.5z" />
    <glyph glyph-name="uni1EA9" unicode="&#x1ea9;" horiz-adv-x="396" 
d="M301.5 465q36.5 -45 36.5 -121v-334q0 -10 -10 -10h-19q-10 0 -10 10v41q0 3 -1.5 3t-3.5 -2q-19 -30 -50.5 -45t-69.5 -15q-52 0 -89 30.5t-37 106.5q0 81 44 120.5t118 39.5h85q4 0 4 4v51q0 60 -26 95.5t-74 35.5q-38 0 -66.5 -23.5t-32.5 -61.5q0 -10 -10 -10l-21 1
q-4 0 -7 3t-2 8q6 53 45.5 85.5t94.5 32.5q65 0 101.5 -45zM264.5 57.5q34.5 30.5 34.5 88.5v105q0 4 -4 4h-84q-56 0 -89.5 -31t-33.5 -92q0 -53 25.5 -79t67.5 -26q49 0 83.5 30.5zM300 670q-4 1 -5.5 4t0.5 7q6 15 14.5 25t20.5 21q14 14 20 23.5t6 24.5q0 17 -13.5 29
t-33.5 12t-31.5 -8t-25.5 -29q-6 -9 -14 -3l-6 4q-8 5 -3 14q17 26 33.5 37.5t46.5 11.5q33 0 54.5 -19t21.5 -49q0 -22 -10 -37t-29 -33q-20 -20 -25 -29l-2 -4q-3 -8 -11 -5l-4 1zM104.5 583.5q-1.5 3.5 1.5 8.5l65 101q5 7 12 7h27q7 0 12 -6l67 -102q2 -4 2 -6
q0 -6 -8 -6h-21q-7 0 -12 7l-49 80q-1 2 -3 2t-3 -2l-50 -80q-5 -7 -12 -7h-21q-6 0 -7.5 3.5z" />
    <glyph glyph-name="uni1EAA" unicode="&#x1eaa;" horiz-adv-x="377" 
d="M325 9l-29 136q0 2 -1.5 3t-3.5 1h-206q-2 0 -3.5 -1t-1.5 -3l-29 -136q-1 -9 -11 -9h-19q-5 0 -7.5 3t-1.5 8l152 680q2 9 11 9h25q10 0 11 -9l153 -680v-2q0 -9 -9 -9h-19q-9 0 -11 9zM89 183.5q1 -1.5 3 -1.5h192q2 0 3 1.5t0 2.5l-97 447q-1 3 -2 3t-2 -3l-97 -447
q-1 -1 0 -2.5zM94.5 781.5q-1.5 3.5 1.5 8.5l65 101q5 7 12 7h27q8 0 12 -6l67 -102q2 -4 2 -6q0 -6 -8 -6h-21q-7 0 -12 7l-49 80q-1 2 -3 2t-3 -2l-50 -80q-5 -7 -12 -7h-21q-6 0 -7.5 3.5zM219 934q-12 6 -27 17q-5 3 -13.5 9t-16 9t-16.5 3q-15 0 -26 -5.5t-22 -21.5
q-6 -9 -14 -3l-6 4q-9 6 -3 14q26 44 70 44q15 0 26.5 -6t28.5 -17q4 -3 13.5 -9.5t17.5 -10t16 -3.5q14 0 24.5 6.5t21.5 24.5q2 4 6 5t8 -1l6 -3q5 -3 5 -9q0 -7 -4 -12q-14 -21 -33 -31t-36 -10q-14 0 -26 6z" />
    <glyph glyph-name="uni1EAB" unicode="&#x1eab;" horiz-adv-x="396" 
d="M301.5 465q36.5 -45 36.5 -121v-334q0 -10 -10 -10h-19q-10 0 -10 10v41q0 3 -1.5 3t-3.5 -2q-19 -30 -50.5 -45t-69.5 -15q-52 0 -89 30.5t-37 106.5q0 81 44 120.5t118 39.5h85q4 0 4 4v51q0 60 -26 95.5t-74 35.5q-38 0 -66.5 -23.5t-32.5 -61.5q0 -10 -10 -10l-21 1
q-4 0 -7 3t-2 8q6 53 45.5 85.5t94.5 32.5q65 0 101.5 -45zM264.5 57.5q34.5 30.5 34.5 88.5v105q0 4 -4 4h-84q-56 0 -89.5 -31t-33.5 -92q0 -53 25.5 -79t67.5 -26q49 0 83.5 30.5zM104.5 583.5q-1.5 3.5 1.5 8.5l65 101q5 7 12 7h27q8 0 12 -6l67 -102q2 -4 2 -6
q0 -6 -8 -6h-21q-7 0 -12 7l-49 80q-1 2 -3 2t-3 -2l-50 -80q-5 -7 -12 -7h-21q-6 0 -7.5 3.5zM229 736q-12 6 -27 17q-5 3 -13.5 9t-16 9t-16.5 3q-15 0 -26 -5.5t-22 -21.5q-6 -9 -14 -3l-6 4q-9 6 -3 14q26 44 70 44q15 0 26.5 -6t28.5 -17q4 -3 13.5 -9.5t17.5 -10
t16 -3.5q14 0 24.5 6.5t21.5 24.5q2 4 6 5t8 -1l6 -3q5 -3 5 -9q0 -7 -4 -12q-14 -21 -33 -31t-36 -10q-14 0 -26 6z" />
    <glyph glyph-name="uni1EAC" unicode="&#x1eac;" horiz-adv-x="377" 
d="M325 9l-29 136q0 2 -1.5 3t-3.5 1h-206q-2 0 -3.5 -1t-1.5 -3l-29 -136q-1 -9 -11 -9h-19q-5 0 -7.5 3t-1.5 8l152 680q2 9 11 9h25q10 0 11 -9l153 -680v-2q0 -9 -9 -9h-19q-9 0 -11 9zM89 183.5q1 -1.5 3 -1.5h192q2 0 3 1.5t0 2.5l-97 447q-1 3 -2 3t-2 -3l-97 -447
q-1 -1 0 -2.5zM158 -157q-12 12 -12 31t12 31t31 12t31 -12t12 -31t-12.5 -31t-30.5 -12q-19 0 -31 12zM94.5 781.5q-1.5 3.5 1.5 8.5l65 101q5 7 12 7h27q8 0 12 -6l67 -102q2 -4 2 -6q0 -6 -8 -6h-21q-7 0 -12 7l-49 80q-1 2 -3 2t-3 -2l-50 -80q-5 -7 -12 -7h-21
q-6 0 -7.5 3.5z" />
    <glyph glyph-name="uni1EAD" unicode="&#x1ead;" horiz-adv-x="396" 
d="M301.5 465q36.5 -45 36.5 -121v-334q0 -10 -10 -10h-19q-10 0 -10 10v41q0 3 -1.5 3t-3.5 -2q-19 -30 -50.5 -45t-69.5 -15q-52 0 -89 30.5t-37 106.5q0 81 44 120.5t118 39.5h85q4 0 4 4v51q0 60 -26 95.5t-74 35.5q-38 0 -66.5 -23.5t-32.5 -61.5q0 -10 -10 -10l-21 1
q-4 0 -7 3t-2 8q6 53 45.5 85.5t94.5 32.5q65 0 101.5 -45zM264.5 57.5q34.5 30.5 34.5 88.5v105q0 4 -4 4h-84q-56 0 -89.5 -31t-33.5 -92q0 -53 25.5 -79t67.5 -26q49 0 83.5 30.5zM168 -157q-12 12 -12 31t12 31t31 12t31 -12t12 -31t-12.5 -31t-30.5 -12q-19 0 -31 12z
M105.5 583.5q-1.5 3.5 1.5 8.5l65 101q5 7 12 7h27q8 0 12 -6l67 -102q2 -4 2 -6q0 -6 -8 -6h-21q-7 0 -12 7l-49 80q-1 2 -3 2t-3 -2l-50 -80q-5 -7 -12 -7h-21q-6 0 -7.5 3.5z" />
    <glyph glyph-name="uni1EAE" unicode="&#x1eae;" horiz-adv-x="377" 
d="M325 9l-29 136q0 2 -1.5 3t-3.5 1h-206q-2 0 -3.5 -1t-1.5 -3l-29 -136q-1 -9 -11 -9h-19q-5 0 -7.5 3t-1.5 8l152 680q2 9 11 9h25q10 0 11 -9l153 -680v-2q0 -9 -9 -9h-19q-9 0 -11 9zM89 183.5q1 -1.5 3 -1.5h192q2 0 3 1.5t0 2.5l-97 447q-1 3 -2 3t-2 -3l-97 -447
q-1 -1 0 -2.5zM121.5 809.5q-27.5 25.5 -31.5 64.5q0 10 10 10h9q10 0 10 -10q4 -27 23.5 -45t45.5 -18q25 0 44.5 18t23.5 45q1 10 11 10h9q5 0 7.5 -3t1.5 -7q-4 -38 -31.5 -64t-65.5 -26q-39 0 -66.5 25.5zM155 929.5q-2 3.5 1 8.5l62 111q5 7 12 7h16q6 0 8 -3.5
t-1 -8.5l-67 -111q-5 -7 -12 -7h-11q-6 0 -8 3.5z" />
    <glyph glyph-name="uni1EAF" unicode="&#x1eaf;" horiz-adv-x="396" 
d="M301.5 465q36.5 -45 36.5 -121v-334q0 -10 -10 -10h-19q-10 0 -10 10v41q0 3 -1.5 3t-3.5 -2q-19 -30 -50.5 -45t-69.5 -15q-52 0 -89 30.5t-37 106.5q0 81 44 120.5t118 39.5h85q4 0 4 4v51q0 60 -26 95.5t-74 35.5q-38 0 -66.5 -23.5t-32.5 -61.5q0 -10 -10 -10l-21 1
q-4 0 -7 3t-2 8q6 53 45.5 85.5t94.5 32.5q65 0 101.5 -45zM264.5 57.5q34.5 30.5 34.5 88.5v105q0 4 -4 4h-84q-56 0 -89.5 -31t-33.5 -92q0 -53 25.5 -79t67.5 -26q49 0 83.5 30.5zM131.5 611.5q-27.5 25.5 -31.5 64.5q0 10 10 10h9q10 0 10 -10q4 -27 23.5 -45t45.5 -18
q25 0 44.5 18t23.5 45q1 10 11 10h9q5 0 7.5 -3t1.5 -7q-4 -38 -31.5 -64t-65.5 -26q-39 0 -66.5 25.5zM165 731.5q-2 3.5 1 8.5l62 111q5 7 12 7h16q6 0 8 -3.5t-1 -8.5l-67 -111q-5 -7 -12 -7h-11q-6 0 -8 3.5z" />
    <glyph glyph-name="uni1EB0" unicode="&#x1eb0;" horiz-adv-x="377" 
d="M325 9l-29 136q0 2 -1.5 3t-3.5 1h-206q-2 0 -3.5 -1t-1.5 -3l-29 -136q-1 -9 -11 -9h-19q-5 0 -7.5 3t-1.5 8l152 680q2 9 11 9h25q10 0 11 -9l153 -680v-2q0 -9 -9 -9h-19q-9 0 -11 9zM89 183.5q1 -1.5 3 -1.5h192q2 0 3 1.5t0 2.5l-97 447q-1 3 -2 3t-2 -3l-97 -447
q-1 -1 0 -2.5zM121.5 809.5q-27.5 25.5 -31.5 64.5q0 10 10 10h9q10 0 10 -10q4 -27 23.5 -45t45.5 -18q25 0 44.5 18t23.5 45q1 10 11 10h9q5 0 7.5 -3t1.5 -7q-4 -38 -31.5 -64t-65.5 -26q-39 0 -66.5 25.5zM201 932q0 -6 -9 -6h-12q-7 0 -12 7l-66 111q-2 4 -2 6q0 6 9 6
h16q7 0 12 -7l62 -111q2 -4 2 -6z" />
    <glyph glyph-name="uni1EB1" unicode="&#x1eb1;" horiz-adv-x="396" 
d="M301.5 465q36.5 -45 36.5 -121v-334q0 -10 -10 -10h-19q-10 0 -10 10v41q0 3 -1.5 3t-3.5 -2q-19 -30 -50.5 -45t-69.5 -15q-52 0 -89 30.5t-37 106.5q0 81 44 120.5t118 39.5h85q4 0 4 4v51q0 60 -26 95.5t-74 35.5q-38 0 -66.5 -23.5t-32.5 -61.5q0 -10 -10 -10l-21 1
q-4 0 -7 3t-2 8q6 53 45.5 85.5t94.5 32.5q65 0 101.5 -45zM264.5 57.5q34.5 30.5 34.5 88.5v105q0 4 -4 4h-84q-56 0 -89.5 -31t-33.5 -92q0 -53 25.5 -79t67.5 -26q49 0 83.5 30.5zM131.5 611.5q-27.5 25.5 -31.5 64.5q0 10 10 10h9q10 0 10 -10q4 -27 23.5 -45t45.5 -18
q25 0 44.5 18t23.5 45q1 10 11 10h9q5 0 7.5 -3t1.5 -7q-4 -38 -31.5 -64t-65.5 -26q-39 0 -66.5 25.5zM211 734q0 -6 -9 -6h-12q-7 0 -12 7l-66 111q-2 4 -2 6q0 6 9 6h16q7 0 12 -7l62 -111q2 -4 2 -6z" />
    <glyph glyph-name="uni1EB2" unicode="&#x1eb2;" horiz-adv-x="377" 
d="M325 9l-29 136q0 2 -1.5 3t-3.5 1h-206q-2 0 -3.5 -1t-1.5 -3l-29 -136q-1 -9 -11 -9h-19q-5 0 -7.5 3t-1.5 8l152 680q2 9 11 9h25q10 0 11 -9l153 -680v-2q0 -9 -9 -9h-19q-9 0 -11 9zM89 183.5q1 -1.5 3 -1.5h192q2 0 3 1.5t0 2.5l-97 447q-1 3 -2 3t-2 -3l-97 -447
q-1 -1 0 -2.5zM177.5 906.5q-1.5 3.5 0.5 7.5q10 23 34 45q14 14 20 23.5t6 24.5q0 17 -13.5 29t-32.5 12q-20 0 -31.5 -8t-25.5 -28q-6 -9 -14 -3l-4 3q-8 5 -4 14q18 26 34 37.5t45 11.5q32 0 53.5 -19.5t21.5 -48.5q0 -21 -10 -36.5t-28 -31.5q-3 -4 -12 -13.5t-14 -18.5
q-3 -9 -12 -7l-7 2q-5 1 -6.5 4.5zM121.5 809.5q-27.5 25.5 -31.5 64.5q0 10 10 10h9q10 0 11 -10q3 -27 22.5 -45t45.5 -18t45.5 18t22.5 45q1 10 11 10h9q5 0 7.5 -3t1.5 -7q-3 -38 -30.5 -64t-66.5 -26t-66.5 25.5z" />
    <glyph glyph-name="uni1EB3" unicode="&#x1eb3;" horiz-adv-x="396" 
d="M301.5 465q36.5 -45 36.5 -121v-334q0 -10 -10 -10h-19q-10 0 -10 10v41q0 3 -1.5 3t-3.5 -2q-19 -30 -50.5 -45t-69.5 -15q-52 0 -89 30.5t-37 106.5q0 81 44 120.5t118 39.5h85q4 0 4 4v51q0 60 -26 95.5t-74 35.5q-38 0 -66.5 -23.5t-32.5 -61.5q0 -10 -10 -10l-21 1
q-4 0 -7 3t-2 8q6 53 45.5 85.5t94.5 32.5q65 0 101.5 -45zM264.5 57.5q34.5 30.5 34.5 88.5v105q0 4 -4 4h-84q-56 0 -89.5 -31t-33.5 -92q0 -53 25.5 -79t67.5 -26q49 0 83.5 30.5zM187.5 708.5q-1.5 3.5 0.5 7.5q10 23 34 45q14 14 20 23.5t6 24.5q0 17 -13.5 29
t-32.5 12q-20 0 -31.5 -8t-25.5 -28q-6 -9 -14 -3l-4 3q-8 5 -4 14q18 26 34 37.5t45 11.5q32 0 53.5 -19.5t21.5 -48.5q0 -21 -10 -36.5t-28 -31.5q-3 -4 -12 -13.5t-14 -18.5q-3 -9 -12 -7l-7 2q-5 1 -6.5 4.5zM131.5 611.5q-27.5 25.5 -31.5 64.5q0 10 10 10h9
q10 0 11 -10q3 -27 22.5 -45t45.5 -18t45.5 18t22.5 45q1 10 11 10h9q5 0 7.5 -3t1.5 -7q-3 -38 -30.5 -64t-66.5 -26t-66.5 25.5z" />
    <glyph glyph-name="uni1EB4" unicode="&#x1eb4;" horiz-adv-x="377" 
d="M325 9l-29 136q0 2 -1.5 3t-3.5 1h-206q-2 0 -3.5 -1t-1.5 -3l-29 -136q-1 -9 -11 -9h-19q-5 0 -7.5 3t-1.5 8l152 680q2 9 11 9h25q10 0 11 -9l153 -680v-2q0 -9 -9 -9h-19q-9 0 -11 9zM89 183.5q1 -1.5 3 -1.5h192q2 0 3 1.5t0 2.5l-97 447q-1 3 -2 3t-2 -3l-97 -447
q-1 -1 0 -2.5zM121.5 809.5q-27.5 25.5 -31.5 64.5q0 10 10 10h9q10 0 10 -10q4 -27 23.5 -45t45.5 -18q25 0 44.5 18t23.5 45q1 10 11 10h9q5 0 7.5 -3t1.5 -7q-4 -38 -31.5 -64t-65.5 -26q-39 0 -66.5 25.5zM208 932q-12 6 -27 17q-5 3 -13.5 9t-16 9t-16.5 3
q-15 0 -26 -5.5t-22 -21.5q-6 -9 -14 -3l-6 4q-9 6 -3 14q26 44 70 44q15 0 26.5 -6t28.5 -17q4 -3 13.5 -9.5t17.5 -10t16 -3.5q14 0 24.5 6.5t21.5 24.5q2 4 6 5t8 -1l6 -3q5 -3 5 -9q0 -7 -4 -12q-14 -21 -33 -31t-36 -10q-14 0 -26 6z" />
    <glyph glyph-name="uni1EB5" unicode="&#x1eb5;" horiz-adv-x="396" 
d="M301.5 465q36.5 -45 36.5 -121v-334q0 -10 -10 -10h-19q-10 0 -10 10v41q0 3 -1.5 3t-3.5 -2q-19 -30 -50.5 -45t-69.5 -15q-52 0 -89 30.5t-37 106.5q0 81 44 120.5t118 39.5h85q4 0 4 4v51q0 60 -26 95.5t-74 35.5q-38 0 -66.5 -23.5t-32.5 -61.5q0 -10 -10 -10l-21 1
q-4 0 -7 3t-2 8q6 53 45.5 85.5t94.5 32.5q65 0 101.5 -45zM264.5 57.5q34.5 30.5 34.5 88.5v105q0 4 -4 4h-84q-56 0 -89.5 -31t-33.5 -92q0 -53 25.5 -79t67.5 -26q49 0 83.5 30.5zM131.5 611.5q-27.5 25.5 -31.5 64.5q0 10 10 10h9q10 0 10 -10q4 -27 23.5 -45t45.5 -18
q25 0 44.5 18t23.5 45q1 10 11 10h9q5 0 7.5 -3t1.5 -7q-4 -38 -31.5 -64t-65.5 -26q-39 0 -66.5 25.5zM218 734q-12 6 -27 17q-5 3 -13.5 9t-16 9t-16.5 3q-15 0 -26 -5.5t-22 -21.5q-6 -9 -14 -3l-6 4q-9 6 -3 14q26 44 70 44q15 0 26.5 -6t28.5 -17q4 -3 13.5 -9.5
t17.5 -10t16 -3.5q14 0 24.5 6.5t21.5 24.5q2 4 6 5t8 -1l6 -3q5 -3 5 -9q0 -7 -4 -12q-14 -21 -33 -31t-36 -10q-14 0 -26 6z" />
    <glyph glyph-name="uni1EB6" unicode="&#x1eb6;" horiz-adv-x="377" 
d="M325 9l-29 136q0 2 -1.5 3t-3.5 1h-206q-2 0 -3.5 -1t-1.5 -3l-29 -136q-1 -9 -11 -9h-19q-5 0 -7.5 3t-1.5 8l152 680q2 9 11 9h25q10 0 11 -9l153 -680v-2q0 -9 -9 -9h-19q-9 0 -11 9zM89 183.5q1 -1.5 3 -1.5h192q2 0 3 1.5t0 2.5l-97 447q-1 3 -2 3t-2 -3l-97 -447
q-1 -1 0 -2.5zM158 -157q-12 12 -12 31t12 31t31 12t31 -12t12 -31t-12.5 -31t-30.5 -12q-19 0 -31 12zM122.5 809.5q-27.5 25.5 -31.5 64.5q0 10 10 10h9q10 0 10 -10q4 -27 23.5 -45t45.5 -18q25 0 44.5 18t23.5 45q1 10 11 10h9q5 0 7.5 -3t1.5 -7q-4 -38 -31.5 -64
t-65.5 -26q-39 0 -66.5 25.5z" />
    <glyph glyph-name="uni1EB7" unicode="&#x1eb7;" horiz-adv-x="396" 
d="M301.5 465q36.5 -45 36.5 -121v-334q0 -10 -10 -10h-19q-10 0 -10 10v41q0 3 -1.5 3t-3.5 -2q-19 -30 -50.5 -45t-69.5 -15q-52 0 -89 30.5t-37 106.5q0 81 44 120.5t118 39.5h85q4 0 4 4v51q0 60 -26 95.5t-74 35.5q-38 0 -66.5 -23.5t-32.5 -61.5q0 -10 -10 -10l-21 1
q-4 0 -7 3t-2 8q6 53 45.5 85.5t94.5 32.5q65 0 101.5 -45zM264.5 57.5q34.5 30.5 34.5 88.5v105q0 4 -4 4h-84q-56 0 -89.5 -31t-33.5 -92q0 -53 25.5 -79t67.5 -26q49 0 83.5 30.5zM168 -157q-12 12 -12 31t12 31t31 12t31 -12t12 -31t-12.5 -31t-30.5 -12q-19 0 -31 12z
M132.5 611.5q-27.5 25.5 -31.5 64.5q0 10 10 10h9q10 0 10 -10q4 -27 23.5 -45t45.5 -18q25 0 44.5 18t23.5 45q1 10 11 10h9q5 0 7.5 -3t1.5 -7q-4 -38 -31.5 -64t-65.5 -26q-39 0 -66.5 25.5z" />
    <glyph glyph-name="uni1EB8" unicode="&#x1eb8;" horiz-adv-x="425" 
d="M368 665h-241q-4 0 -4 -4v-289q0 -4 4 -4h158q10 0 10 -10v-15q0 -10 -10 -10h-158q-4 0 -4 -4v-290q0 -4 4 -4h241q10 0 10 -10v-15q0 -10 -10 -10h-274q-10 0 -10 10v680q0 10 10 10h274q10 0 10 -10v-15q0 -10 -10 -10zM198 -157q-12 12 -12 31t12 31t31 12t31 -12
t12 -31t-12.5 -31t-30.5 -12q-19 0 -31 12z" />
    <glyph glyph-name="uni1EB9" unicode="&#x1eb9;" horiz-adv-x="395" 
d="M333 240h-232q-4 0 -4 -4v-96q0 -50 29 -81.5t74 -31.5q38 0 65 22t36 59q3 9 11 9l18 -1q5 0 7.5 -3t1.5 -8q-9 -51 -46.5 -82t-92.5 -31q-63 0 -102.5 40.5t-39.5 105.5v225q0 65 39.5 106t102.5 41q64 0 103.5 -41t39.5 -106v-113q0 -10 -10 -10zM126 443.5
q-29 -31.5 -29 -81.5v-85q0 -4 4 -4h199q4 0 4 4v85q0 50 -29 81.5t-75 31.5q-45 0 -74 -31.5zM167 -157q-12 12 -12 31t12 31t31 12t31 -12t12 -31t-12.5 -31t-30.5 -12q-19 0 -31 12z" />
    <glyph glyph-name="uni1EBA" unicode="&#x1eba;" horiz-adv-x="425" 
d="M368 665h-241q-4 0 -4 -4v-289q0 -4 4 -4h158q10 0 10 -10v-15q0 -10 -10 -10h-158q-4 0 -4 -4v-290q0 -4 4 -4h241q10 0 10 -10v-15q0 -10 -10 -10h-274q-10 0 -10 10v680q0 10 10 10h274q10 0 10 -10v-15q0 -10 -10 -10zM220.5 749.5q-1.5 3.5 0.5 7.5q9 21 35 45
q14 14 20.5 24t6.5 25q0 17 -14 29.5t-34 12.5t-31.5 -8.5t-26.5 -29.5q-6 -8 -14 -2l-6 4q-8 6 -2 13q18 27 34.5 38.5t45.5 11.5q33 0 55 -19.5t22 -49.5q0 -22 -9.5 -36.5t-29.5 -34.5q-20 -18 -26 -29l-2 -4q-3 -7 -11 -5l-7 2q-5 2 -6.5 5.5z" />
    <glyph glyph-name="uni1EBB" unicode="&#x1ebb;" horiz-adv-x="395" 
d="M333 240h-232q-4 0 -4 -4v-96q0 -50 29 -81.5t74 -31.5q38 0 65 22t36 59q3 9 11 9l18 -1q5 0 7.5 -3t1.5 -8q-9 -51 -46.5 -82t-92.5 -31q-63 0 -102.5 40.5t-39.5 105.5v225q0 65 39.5 106t102.5 41q64 0 103.5 -41t39.5 -106v-113q0 -10 -10 -10zM126 443.5
q-29 -31.5 -29 -81.5v-85q0 -4 4 -4h199q4 0 4 4v85q0 50 -29 81.5t-75 31.5q-45 0 -74 -31.5zM186.5 551.5q-1.5 3.5 0.5 7.5q9 21 35 45q14 14 20.5 24t6.5 25q0 17 -14 29.5t-34 12.5t-31.5 -8.5t-26.5 -29.5q-6 -8 -14 -2l-6 4q-8 6 -2 13q18 27 34.5 38.5t45.5 11.5
q33 0 55 -19.5t22 -49.5q0 -22 -9.5 -36.5t-29.5 -34.5q-20 -18 -26 -29l-2 -4q-3 -7 -11 -5l-7 2q-5 2 -6.5 5.5z" />
    <glyph glyph-name="uni1EBC" unicode="&#x1ebc;" horiz-adv-x="425" 
d="M368 665h-241q-4 0 -4 -4v-289q0 -4 4 -4h158q10 0 10 -10v-15q0 -10 -10 -10h-158q-4 0 -4 -4v-290q0 -4 4 -4h241q10 0 10 -10v-15q0 -10 -10 -10h-274q-10 0 -10 10v680q0 10 10 10h274q10 0 10 -10v-15q0 -10 -10 -10zM265 823q-12 6 -27 17q-5 3 -13.5 9t-16 9
t-16.5 3q-15 0 -26 -5.5t-22 -21.5q-6 -9 -14 -3l-6 4q-9 6 -3 14q26 44 70 44q15 0 26.5 -6t28.5 -17q4 -3 13.5 -9.5t17.5 -10t16 -3.5q14 0 24.5 6.5t21.5 24.5q2 4 6 5t8 -1l6 -3q5 -3 5 -9q0 -7 -4 -12q-14 -21 -33 -31t-36 -10q-14 0 -26 6z" />
    <glyph glyph-name="uni1EBD" unicode="&#x1ebd;" horiz-adv-x="395" 
d="M333 240h-232q-4 0 -4 -4v-96q0 -50 29 -81.5t74 -31.5q38 0 65 22t36 59q3 9 11 9l18 -1q5 0 7.5 -3t1.5 -8q-9 -51 -46.5 -82t-92.5 -31q-63 0 -102.5 40.5t-39.5 105.5v225q0 65 39.5 106t102.5 41q64 0 103.5 -41t39.5 -106v-113q0 -10 -10 -10zM126 443.5
q-29 -31.5 -29 -81.5v-85q0 -4 4 -4h199q4 0 4 4v85q0 50 -29 81.5t-75 31.5q-45 0 -74 -31.5zM231 625q-12 6 -27 17q-5 3 -13.5 9t-16 9t-16.5 3q-15 0 -26 -5.5t-22 -21.5q-6 -9 -14 -3l-6 4q-9 6 -3 14q26 44 70 44q15 0 26.5 -6t28.5 -17q4 -3 13.5 -9.5t17.5 -10
t16 -3.5q14 0 24.5 6.5t21.5 24.5q2 4 6 5t8 -1l6 -3q5 -3 5 -9q0 -7 -4 -12q-14 -21 -33 -31t-36 -10q-14 0 -26 6z" />
    <glyph glyph-name="uni1EBE" unicode="&#x1ebe;" horiz-adv-x="425" 
d="M368 665h-241q-4 0 -4 -4v-289q0 -4 4 -4h158q10 0 10 -10v-15q0 -10 -10 -10h-158q-4 0 -4 -4v-290q0 -4 4 -4h241q10 0 10 -10v-15q0 -10 -10 -10h-274q-10 0 -10 10v680q0 10 10 10h274q10 0 10 -10v-15q0 -10 -10 -10zM137.5 781.5q-1.5 3.5 1.5 8.5l65 101q5 7 12 7
h27q8 0 12 -6l67 -102q2 -4 2 -6q0 -6 -8 -6h-21q-7 0 -12 7l-49 80q-1 2 -3 2t-3 -2l-50 -80q-5 -7 -12 -7h-21q-6 0 -7.5 3.5zM331 847.5q-2 3.5 1 8.5l62 111q5 7 12 7h16q6 0 8 -3.5t-1 -8.5l-67 -111q-5 -7 -12 -7h-11q-6 0 -8 3.5z" />
    <glyph glyph-name="uni1EBF" unicode="&#x1ebf;" horiz-adv-x="395" 
d="M333 240h-232q-4 0 -4 -4v-96q0 -50 29 -81.5t74 -31.5q38 0 65 22t36 59q3 9 11 9l18 -1q5 0 7.5 -3t1.5 -8q-9 -51 -46.5 -82t-92.5 -31q-63 0 -102.5 40.5t-39.5 105.5v225q0 65 39.5 106t102.5 41q64 0 103.5 -41t39.5 -106v-113q0 -10 -10 -10zM126 443.5
q-29 -31.5 -29 -81.5v-85q0 -4 4 -4h199q4 0 4 4v85q0 50 -29 81.5t-75 31.5q-45 0 -74 -31.5zM103.5 583.5q-1.5 3.5 1.5 8.5l65 101q5 7 12 7h27q8 0 12 -6l67 -102q2 -4 2 -6q0 -6 -8 -6h-21q-7 0 -12 7l-49 80q-1 2 -3 2t-3 -2l-50 -80q-5 -7 -12 -7h-21q-6 0 -7.5 3.5z
M297 649.5q-2 3.5 1 8.5l62 111q5 7 12 7h16q6 0 8 -3.5t-1 -8.5l-67 -111q-5 -7 -12 -7h-11q-6 0 -8 3.5z" />
    <glyph glyph-name="uni1EC0" unicode="&#x1ec0;" horiz-adv-x="425" 
d="M368 665h-241q-4 0 -4 -4v-289q0 -4 4 -4h158q10 0 10 -10v-15q0 -10 -10 -10h-158q-4 0 -4 -4v-290q0 -4 4 -4h241q10 0 10 -10v-15q0 -10 -10 -10h-274q-10 0 -10 10v680q0 10 10 10h274q10 0 10 -10v-15q0 -10 -10 -10zM138.5 781.5q-1.5 3.5 1.5 8.5l65 101q5 7 12 7
h27q8 0 12 -6l67 -102q2 -4 2 -6q0 -6 -8 -6h-21q-7 0 -12 7l-49 80q-1 2 -3 2t-3 -2l-50 -80q-5 -7 -12 -7h-21q-6 0 -7.5 3.5zM376 895q0 -6 -9 -6h-12q-7 0 -12 7l-66 111q-2 4 -2 6q0 6 9 6h16q7 0 12 -7l62 -111q2 -4 2 -6z" />
    <glyph glyph-name="uni1EC1" unicode="&#x1ec1;" horiz-adv-x="395" 
d="M333 240h-232q-4 0 -4 -4v-96q0 -50 29 -81.5t74 -31.5q38 0 65 22t36 59q3 9 11 9l18 -1q5 0 7.5 -3t1.5 -8q-9 -51 -46.5 -82t-92.5 -31q-63 0 -102.5 40.5t-39.5 105.5v225q0 65 39.5 106t102.5 41q64 0 103.5 -41t39.5 -106v-113q0 -10 -10 -10zM126 443.5
q-29 -31.5 -29 -81.5v-85q0 -4 4 -4h199q4 0 4 4v85q0 50 -29 81.5t-75 31.5q-45 0 -74 -31.5zM104.5 583.5q-1.5 3.5 1.5 8.5l65 101q5 7 12 7h27q8 0 12 -6l67 -102q2 -4 2 -6q0 -6 -8 -6h-21q-7 0 -12 7l-49 80q-1 2 -3 2t-3 -2l-50 -80q-5 -7 -12 -7h-21q-6 0 -7.5 3.5z
M342 697q0 -6 -9 -6h-12q-7 0 -12 7l-66 111q-2 4 -2 6q0 6 9 6h16q7 0 12 -7l62 -111q2 -4 2 -6z" />
    <glyph glyph-name="uni1EC2" unicode="&#x1ec2;" horiz-adv-x="425" 
d="M368 665h-241q-4 0 -4 -4v-289q0 -4 4 -4h158q10 0 10 -10v-15q0 -10 -10 -10h-158q-4 0 -4 -4v-290q0 -4 4 -4h241q10 0 10 -10v-15q0 -10 -10 -10h-274q-10 0 -10 10v680q0 10 10 10h274q10 0 10 -10v-15q0 -10 -10 -10zM334 868q-4 1 -5.5 4t0.5 7q6 15 14.5 25
t20.5 21q14 14 20 23.5t6 24.5q0 17 -13.5 29t-33.5 12t-31.5 -8t-25.5 -29q-6 -9 -14 -3l-6 4q-8 5 -3 14q17 26 33.5 37.5t46.5 11.5q33 0 54.5 -19t21.5 -49q0 -22 -10 -37t-29 -33q-20 -20 -25 -29l-2 -4q-3 -8 -11 -5l-4 1zM138.5 781.5q-1.5 3.5 1.5 8.5l65 101
q5 7 12 7h27q7 0 12 -6l67 -102q2 -4 2 -6q0 -6 -8 -6h-21q-7 0 -12 7l-49 80q-1 2 -3 2t-3 -2l-50 -80q-5 -7 -12 -7h-21q-6 0 -7.5 3.5z" />
    <glyph glyph-name="uni1EC3" unicode="&#x1ec3;" horiz-adv-x="395" 
d="M333 240h-232q-4 0 -4 -4v-96q0 -50 29 -81.5t74 -31.5q38 0 65 22t36 59q3 9 11 9l18 -1q5 0 7.5 -3t1.5 -8q-9 -51 -46.5 -82t-92.5 -31q-63 0 -102.5 40.5t-39.5 105.5v225q0 65 39.5 106t102.5 41q64 0 103.5 -41t39.5 -106v-113q0 -10 -10 -10zM126 443.5
q-29 -31.5 -29 -81.5v-85q0 -4 4 -4h199q4 0 4 4v85q0 50 -29 81.5t-75 31.5q-45 0 -74 -31.5zM300 670q-4 1 -5.5 4t0.5 7q6 15 14.5 25t20.5 21q14 14 20 23.5t6 24.5q0 17 -13.5 29t-33.5 12t-31.5 -8t-25.5 -29q-6 -9 -14 -3l-6 4q-8 5 -3 14q17 26 33.5 37.5t46.5 11.5
q33 0 54.5 -19t21.5 -49q0 -22 -10 -37t-29 -33q-20 -20 -25 -29l-2 -4q-3 -8 -11 -5l-4 1zM104.5 583.5q-1.5 3.5 1.5 8.5l65 101q5 7 12 7h27q7 0 12 -6l67 -102q2 -4 2 -6q0 -6 -8 -6h-21q-7 0 -12 7l-49 80q-1 2 -3 2t-3 -2l-50 -80q-5 -7 -12 -7h-21q-6 0 -7.5 3.5z
" />
    <glyph glyph-name="uni1EC4" unicode="&#x1ec4;" horiz-adv-x="425" 
d="M368 665h-241q-4 0 -4 -4v-289q0 -4 4 -4h158q10 0 10 -10v-15q0 -10 -10 -10h-158q-4 0 -4 -4v-290q0 -4 4 -4h241q10 0 10 -10v-15q0 -10 -10 -10h-274q-10 0 -10 10v680q0 10 10 10h274q10 0 10 -10v-15q0 -10 -10 -10zM138.5 781.5q-1.5 3.5 1.5 8.5l65 101q5 7 12 7
h27q8 0 12 -6l67 -102q2 -4 2 -6q0 -6 -8 -6h-21q-7 0 -12 7l-49 80q-1 2 -3 2t-3 -2l-50 -80q-5 -7 -12 -7h-21q-6 0 -7.5 3.5zM263 934q-12 6 -27 17q-5 3 -13.5 9t-16 9t-16.5 3q-15 0 -26 -5.5t-22 -21.5q-6 -9 -14 -3l-6 4q-9 6 -3 14q26 44 70 44q15 0 26.5 -6
t28.5 -17q4 -3 13.5 -9.5t17.5 -10t16 -3.5q14 0 24.5 6.5t21.5 24.5q2 4 6 5t8 -1l6 -3q5 -3 5 -9q0 -7 -4 -12q-14 -21 -33 -31t-36 -10q-14 0 -26 6z" />
    <glyph glyph-name="uni1EC5" unicode="&#x1ec5;" horiz-adv-x="395" 
d="M333 240h-232q-4 0 -4 -4v-96q0 -50 29 -81.5t74 -31.5q38 0 65 22t36 59q3 9 11 9l18 -1q5 0 7.5 -3t1.5 -8q-9 -51 -46.5 -82t-92.5 -31q-63 0 -102.5 40.5t-39.5 105.5v225q0 65 39.5 106t102.5 41q64 0 103.5 -41t39.5 -106v-113q0 -10 -10 -10zM126 443.5
q-29 -31.5 -29 -81.5v-85q0 -4 4 -4h199q4 0 4 4v85q0 50 -29 81.5t-75 31.5q-45 0 -74 -31.5zM104.5 583.5q-1.5 3.5 1.5 8.5l65 101q5 7 12 7h27q8 0 12 -6l67 -102q2 -4 2 -6q0 -6 -8 -6h-21q-7 0 -12 7l-49 80q-1 2 -3 2t-3 -2l-50 -80q-5 -7 -12 -7h-21q-6 0 -7.5 3.5z
M229 736q-12 6 -27 17q-5 3 -13.5 9t-16 9t-16.5 3q-15 0 -26 -5.5t-22 -21.5q-6 -9 -14 -3l-6 4q-9 6 -3 14q26 44 70 44q15 0 26.5 -6t28.5 -17q4 -3 13.5 -9.5t17.5 -10t16 -3.5q14 0 24.5 6.5t21.5 24.5q2 4 6 5t8 -1l6 -3q5 -3 5 -9q0 -7 -4 -12q-14 -21 -33 -31
t-36 -10q-14 0 -26 6z" />
    <glyph glyph-name="uni1EC6" unicode="&#x1ec6;" horiz-adv-x="425" 
d="M368 665h-241q-4 0 -4 -4v-289q0 -4 4 -4h158q10 0 10 -10v-15q0 -10 -10 -10h-158q-4 0 -4 -4v-290q0 -4 4 -4h241q10 0 10 -10v-15q0 -10 -10 -10h-274q-10 0 -10 10v680q0 10 10 10h274q10 0 10 -10v-15q0 -10 -10 -10zM198 -157q-12 12 -12 31t12 31t31 12t31 -12
t12 -31t-12.5 -31t-30.5 -12q-19 0 -31 12zM138.5 781.5q-1.5 3.5 1.5 8.5l65 101q5 7 12 7h27q8 0 12 -6l67 -102q2 -4 2 -6q0 -6 -8 -6h-21q-7 0 -12 7l-49 80q-1 2 -3 2t-3 -2l-50 -80q-5 -7 -12 -7h-21q-6 0 -7.5 3.5z" />
    <glyph glyph-name="uni1EC7" unicode="&#x1ec7;" horiz-adv-x="395" 
d="M333 240h-232q-4 0 -4 -4v-96q0 -50 29 -81.5t74 -31.5q38 0 65 22t36 59q3 9 11 9l18 -1q5 0 7.5 -3t1.5 -8q-9 -51 -46.5 -82t-92.5 -31q-63 0 -102.5 40.5t-39.5 105.5v225q0 65 39.5 106t102.5 41q64 0 103.5 -41t39.5 -106v-113q0 -10 -10 -10zM126 443.5
q-29 -31.5 -29 -81.5v-85q0 -4 4 -4h199q4 0 4 4v85q0 50 -29 81.5t-75 31.5q-45 0 -74 -31.5zM167 -157q-12 12 -12 31t12 31t31 12t31 -12t12 -31t-12.5 -31t-30.5 -12q-19 0 -31 12zM104.5 583.5q-1.5 3.5 1.5 8.5l65 101q5 7 12 7h27q8 0 12 -6l67 -102q2 -4 2 -6
q0 -6 -8 -6h-21q-7 0 -12 7l-49 80q-1 2 -3 2t-3 -2l-50 -80q-5 -7 -12 -7h-21q-6 0 -7.5 3.5z" />
    <glyph glyph-name="uni1EC8" unicode="&#x1ec8;" horiz-adv-x="208" 
d="M84 10v680q0 10 10 10h19q10 0 10 -10v-680q0 -10 -10 -10h-19q-10 0 -10 10zM93.5 749.5q-1.5 3.5 0.5 7.5q9 21 35 45q14 14 20.5 24t6.5 25q0 17 -14 29.5t-34 12.5t-31.5 -8.5t-26.5 -29.5q-6 -8 -14 -2l-6 4q-8 6 -2 13q18 27 34.5 38.5t45.5 11.5q33 0 55 -19.5
t22 -49.5q0 -22 -9.5 -36.5t-29.5 -34.5q-20 -18 -26 -29l-2 -4q-3 -7 -11 -5l-7 2q-5 2 -6.5 5.5z" />
    <glyph glyph-name="uni1EC9" unicode="&#x1ec9;" horiz-adv-x="159" 
d="M60 10v482q0 10 10 10h19q10 0 10 -10v-482q0 -10 -10 -10h-19q-10 0 -10 10zM68.5 551.5q-1.5 3.5 0.5 7.5q9 21 35 45q14 14 20.5 24t6.5 25q0 17 -14 29.5t-34 12.5t-31.5 -8.5t-26.5 -29.5q-6 -8 -14 -2l-6 4q-8 6 -2 13q18 27 34.5 38.5t45.5 11.5q33 0 55 -19.5
t22 -49.5q0 -22 -9.5 -36.5t-29.5 -34.5q-20 -18 -26 -29l-2 -4q-3 -7 -11 -5l-7 2q-5 2 -6.5 5.5z" />
    <glyph glyph-name="uni1ECA" unicode="&#x1eca;" horiz-adv-x="208" 
d="M84 10v680q0 10 10 10h19q10 0 10 -10v-680q0 -10 -10 -10h-19q-10 0 -10 10zM73 -157q-12 12 -12 31t12 31t31 12t31 -12t12 -31t-12.5 -31t-30.5 -12q-19 0 -31 12z" />
    <glyph glyph-name="uni1ECB" unicode="&#x1ecb;" horiz-adv-x="203" 
d="M69 623q-13 13 -13 32q0 20 12.5 33t32.5 13t33 -13t13 -33q0 -19 -13 -32t-33 -13q-19 0 -32 13zM82 10v482q0 10 10 10h19q10 0 10 -10v-482q0 -10 -10 -10h-19q-10 0 -10 10zM71 -157q-12 12 -12 31t12 31t31 12t31 -12t12 -31t-12.5 -31t-30.5 -12q-19 0 -31 12z" />
    <glyph glyph-name="uni1ECC" unicode="&#x1ecc;" horiz-adv-x="448" 
d="M108.5 37.5q-43.5 45.5 -43.5 118.5v387q0 74 44 119.5t114 45.5q71 0 115.5 -46t44.5 -119v-387q0 -73 -44.5 -118.5t-115.5 -45.5t-114.5 45.5zM310.5 62.5q33.5 35.5 33.5 91.5v391q0 57 -33.5 92.5t-87.5 35.5q-53 0 -86 -35.5t-33 -92.5v-391q0 -56 33 -91.5
t86 -35.5q54 0 87.5 35.5zM194 -157q-12 12 -12 31t12 31t31 12t31 -12t12 -31t-12.5 -31t-30.5 -12q-19 0 -31 12z" />
    <glyph glyph-name="uni1ECD" unicode="&#x1ecd;" horiz-adv-x="402" 
d="M97.5 33q-39.5 41 -39.5 106v224q0 65 39.5 106t102.5 41q64 0 103.5 -41t39.5 -106v-224q0 -65 -39.5 -106t-103.5 -41q-63 0 -102.5 41zM275 58.5q29 31.5 29 81.5v222q0 50 -29 81.5t-75 31.5q-45 0 -74 -32t-29 -81v-222q0 -49 29 -81t74 -32q46 0 75 31.5zM171 -157
q-12 12 -12 31t12 31t31 12t31 -12t12 -31t-12.5 -31t-30.5 -12q-19 0 -31 12z" />
    <glyph glyph-name="uni1ECE" unicode="&#x1ece;" horiz-adv-x="448" 
d="M108.5 37.5q-43.5 45.5 -43.5 118.5v387q0 74 44 119.5t114 45.5q71 0 115.5 -46t44.5 -119v-387q0 -73 -44.5 -118.5t-115.5 -45.5t-114.5 45.5zM310.5 62.5q33.5 35.5 33.5 91.5v391q0 57 -33.5 92.5t-87.5 35.5q-53 0 -86 -35.5t-33 -92.5v-391q0 -56 33 -91.5
t86 -35.5q54 0 87.5 35.5zM212.5 748.5q-1.5 3.5 0.5 7.5q9 21 35 45q14 14 20.5 24t6.5 25q0 17 -14 29.5t-34 12.5t-31.5 -8.5t-26.5 -29.5q-6 -8 -14 -2l-6 4q-8 6 -2 13q18 27 34.5 38.5t45.5 11.5q33 0 55 -19.5t22 -49.5q0 -22 -9.5 -36.5t-29.5 -34.5
q-20 -18 -26 -29l-2 -4q-3 -7 -11 -5l-7 2q-5 2 -6.5 5.5z" />
    <glyph glyph-name="uni1ECF" unicode="&#x1ecf;" horiz-adv-x="402" 
d="M97.5 33q-39.5 41 -39.5 106v224q0 65 39.5 106t102.5 41q64 0 103.5 -41t39.5 -106v-224q0 -65 -39.5 -106t-103.5 -41q-63 0 -102.5 41zM275 58.5q29 31.5 29 81.5v222q0 50 -29 81.5t-75 31.5q-45 0 -74 -32t-29 -81v-222q0 -49 29 -81t74 -32q46 0 75 31.5z
M189.5 551.5q-1.5 3.5 0.5 7.5q9 21 35 45q14 14 20.5 24t6.5 25q0 17 -14 29.5t-34 12.5t-31.5 -8.5t-26.5 -29.5q-6 -8 -14 -2l-6 4q-8 6 -2 13q18 27 34.5 38.5t45.5 11.5q33 0 55 -19.5t22 -49.5q0 -22 -9.5 -36.5t-29.5 -34.5q-20 -18 -26 -29l-2 -4q-3 -7 -11 -5l-7 2
q-5 2 -6.5 5.5z" />
    <glyph glyph-name="uni1ED0" unicode="&#x1ed0;" horiz-adv-x="448" 
d="M108.5 37.5q-43.5 45.5 -43.5 118.5v387q0 74 44 119.5t114 45.5q71 0 115.5 -46t44.5 -119v-387q0 -73 -44.5 -118.5t-115.5 -45.5t-114.5 45.5zM310.5 62.5q33.5 35.5 33.5 91.5v391q0 57 -33.5 92.5t-87.5 35.5q-53 0 -86 -35.5t-33 -92.5v-391q0 -56 33 -91.5
t86 -35.5q54 0 87.5 35.5zM129.5 780.5q-1.5 3.5 1.5 8.5l65 101q5 7 12 7h27q8 0 12 -6l67 -102q2 -4 2 -6q0 -6 -8 -6h-21q-7 0 -12 7l-49 80q-1 2 -3 2t-3 -2l-50 -80q-5 -7 -12 -7h-21q-6 0 -7.5 3.5zM323 846.5q-2 3.5 1 8.5l62 111q5 7 12 7h16q6 0 8 -3.5t-1 -8.5
l-67 -111q-5 -7 -12 -7h-11q-6 0 -8 3.5z" />
    <glyph glyph-name="uni1ED1" unicode="&#x1ed1;" horiz-adv-x="402" 
d="M97.5 33q-39.5 41 -39.5 106v224q0 65 39.5 106t102.5 41q64 0 103.5 -41t39.5 -106v-224q0 -65 -39.5 -106t-103.5 -41q-63 0 -102.5 41zM275 58.5q29 31.5 29 81.5v222q0 50 -29 81.5t-75 31.5q-45 0 -74 -32t-29 -81v-222q0 -49 29 -81t74 -32q46 0 75 31.5z
M106.5 583.5q-1.5 3.5 1.5 8.5l65 101q5 7 12 7h27q8 0 12 -6l67 -102q2 -4 2 -6q0 -6 -8 -6h-21q-7 0 -12 7l-49 80q-1 2 -3 2t-3 -2l-50 -80q-5 -7 -12 -7h-21q-6 0 -7.5 3.5zM300 649.5q-2 3.5 1 8.5l62 111q5 7 12 7h16q6 0 8 -3.5t-1 -8.5l-67 -111q-5 -7 -12 -7h-11
q-6 0 -8 3.5z" />
    <glyph glyph-name="uni1ED2" unicode="&#x1ed2;" horiz-adv-x="448" 
d="M108.5 37.5q-43.5 45.5 -43.5 118.5v387q0 74 44 119.5t114 45.5q71 0 115.5 -46t44.5 -119v-387q0 -73 -44.5 -118.5t-115.5 -45.5t-114.5 45.5zM310.5 62.5q33.5 35.5 33.5 91.5v391q0 57 -33.5 92.5t-87.5 35.5q-53 0 -86 -35.5t-33 -92.5v-391q0 -56 33 -91.5
t86 -35.5q54 0 87.5 35.5zM129.5 780.5q-1.5 3.5 1.5 8.5l65 101q5 7 12 7h27q8 0 12 -6l67 -102q2 -4 2 -6q0 -6 -8 -6h-21q-7 0 -12 7l-49 80q-1 2 -3 2t-3 -2l-50 -80q-5 -7 -12 -7h-21q-6 0 -7.5 3.5zM367 894q0 -6 -9 -6h-12q-7 0 -12 7l-66 111q-2 4 -2 6q0 6 9 6h16
q7 0 12 -7l62 -111q2 -4 2 -6z" />
    <glyph glyph-name="uni1ED3" unicode="&#x1ed3;" horiz-adv-x="402" 
d="M97.5 33q-39.5 41 -39.5 106v224q0 65 39.5 106t102.5 41q64 0 103.5 -41t39.5 -106v-224q0 -65 -39.5 -106t-103.5 -41q-63 0 -102.5 41zM275 58.5q29 31.5 29 81.5v222q0 50 -29 81.5t-75 31.5q-45 0 -74 -32t-29 -81v-222q0 -49 29 -81t74 -32q46 0 75 31.5z
M107.5 583.5q-1.5 3.5 1.5 8.5l65 101q5 7 12 7h27q8 0 12 -6l67 -102q2 -4 2 -6q0 -6 -8 -6h-21q-7 0 -12 7l-49 80q-1 2 -3 2t-3 -2l-50 -80q-5 -7 -12 -7h-21q-6 0 -7.5 3.5zM345 697q0 -6 -9 -6h-12q-7 0 -12 7l-66 111q-2 4 -2 6q0 6 9 6h16q7 0 12 -7l62 -111
q2 -4 2 -6z" />
    <glyph glyph-name="uni1ED4" unicode="&#x1ed4;" horiz-adv-x="448" 
d="M108.5 37.5q-43.5 45.5 -43.5 118.5v387q0 74 44 119.5t114 45.5q71 0 115.5 -46t44.5 -119v-387q0 -73 -44.5 -118.5t-115.5 -45.5t-114.5 45.5zM310.5 62.5q33.5 35.5 33.5 91.5v391q0 57 -33.5 92.5t-87.5 35.5q-53 0 -86 -35.5t-33 -92.5v-391q0 -56 33 -91.5
t86 -35.5q54 0 87.5 35.5zM325 867q-4 1 -5.5 4t0.5 7q6 15 14.5 25t20.5 21q14 14 20 23.5t6 24.5q0 17 -13.5 29t-33.5 12t-31.5 -8t-25.5 -29q-6 -9 -14 -3l-6 4q-8 5 -3 14q17 26 33.5 37.5t46.5 11.5q33 0 54.5 -19t21.5 -49q0 -22 -10 -37t-29 -33q-20 -20 -25 -29
l-2 -4q-3 -8 -11 -5l-4 1zM129.5 780.5q-1.5 3.5 1.5 8.5l65 101q5 7 12 7h27q7 0 12 -6l67 -102q2 -4 2 -6q0 -6 -8 -6h-21q-7 0 -12 7l-49 80q-1 2 -3 2t-3 -2l-50 -80q-5 -7 -12 -7h-21q-6 0 -7.5 3.5z" />
    <glyph glyph-name="uni1ED5" unicode="&#x1ed5;" horiz-adv-x="402" 
d="M97.5 33q-39.5 41 -39.5 106v224q0 65 39.5 106t102.5 41q64 0 103.5 -41t39.5 -106v-224q0 -65 -39.5 -106t-103.5 -41q-63 0 -102.5 41zM275 58.5q29 31.5 29 81.5v222q0 50 -29 81.5t-75 31.5q-45 0 -74 -32t-29 -81v-222q0 -49 29 -81t74 -32q46 0 75 31.5zM303 670
q-4 1 -5.5 4t0.5 7q6 15 14.5 25t20.5 21q14 14 20 23.5t6 24.5q0 17 -13.5 29t-33.5 12t-31.5 -8t-25.5 -29q-6 -9 -14 -3l-6 4q-8 5 -3 14q17 26 33.5 37.5t46.5 11.5q33 0 54.5 -19t21.5 -49q0 -22 -10 -37t-29 -33q-20 -20 -25 -29l-2 -4q-3 -8 -11 -5l-4 1z
M107.5 583.5q-1.5 3.5 1.5 8.5l65 101q5 7 12 7h27q7 0 12 -6l67 -102q2 -4 2 -6q0 -6 -8 -6h-21q-7 0 -12 7l-49 80q-1 2 -3 2t-3 -2l-50 -80q-5 -7 -12 -7h-21q-6 0 -7.5 3.5z" />
    <glyph glyph-name="uni1ED6" unicode="&#x1ed6;" horiz-adv-x="448" 
d="M108.5 37.5q-43.5 45.5 -43.5 118.5v387q0 74 44 119.5t114 45.5q71 0 115.5 -46t44.5 -119v-387q0 -73 -44.5 -118.5t-115.5 -45.5t-114.5 45.5zM310.5 62.5q33.5 35.5 33.5 91.5v391q0 57 -33.5 92.5t-87.5 35.5q-53 0 -86 -35.5t-33 -92.5v-391q0 -56 33 -91.5
t86 -35.5q54 0 87.5 35.5zM129.5 780.5q-1.5 3.5 1.5 8.5l65 101q5 7 12 7h27q8 0 12 -6l67 -102q2 -4 2 -6q0 -6 -8 -6h-21q-7 0 -12 7l-49 80q-1 2 -3 2t-3 -2l-50 -80q-5 -7 -12 -7h-21q-6 0 -7.5 3.5zM254 933q-12 6 -27 17q-5 3 -13.5 9t-16 9t-16.5 3q-15 0 -26 -5.5
t-22 -21.5q-6 -9 -14 -3l-6 4q-9 6 -3 14q26 44 70 44q15 0 26.5 -6t28.5 -17q4 -3 13.5 -9.5t17.5 -10t16 -3.5q14 0 24.5 6.5t21.5 24.5q2 4 6 5t8 -1l6 -3q5 -3 5 -9q0 -7 -4 -12q-14 -21 -33 -31t-36 -10q-14 0 -26 6z" />
    <glyph glyph-name="uni1ED7" unicode="&#x1ed7;" horiz-adv-x="402" 
d="M97.5 33q-39.5 41 -39.5 106v224q0 65 39.5 106t102.5 41q64 0 103.5 -41t39.5 -106v-224q0 -65 -39.5 -106t-103.5 -41q-63 0 -102.5 41zM275 58.5q29 31.5 29 81.5v222q0 50 -29 81.5t-75 31.5q-45 0 -74 -32t-29 -81v-222q0 -49 29 -81t74 -32q46 0 75 31.5z
M107.5 583.5q-1.5 3.5 1.5 8.5l65 101q5 7 12 7h27q8 0 12 -6l67 -102q2 -4 2 -6q0 -6 -8 -6h-21q-7 0 -12 7l-49 80q-1 2 -3 2t-3 -2l-50 -80q-5 -7 -12 -7h-21q-6 0 -7.5 3.5zM232 736q-12 6 -27 17q-5 3 -13.5 9t-16 9t-16.5 3q-15 0 -26 -5.5t-22 -21.5q-6 -9 -14 -3
l-6 4q-9 6 -3 14q26 44 70 44q15 0 26.5 -6t28.5 -17q4 -3 13.5 -9.5t17.5 -10t16 -3.5q14 0 24.5 6.5t21.5 24.5q2 4 6 5t8 -1l6 -3q5 -3 5 -9q0 -7 -4 -12q-14 -21 -33 -31t-36 -10q-14 0 -26 6z" />
    <glyph glyph-name="uni1ED8" unicode="&#x1ed8;" horiz-adv-x="448" 
d="M108.5 37.5q-43.5 45.5 -43.5 118.5v387q0 74 44 119.5t114 45.5q71 0 115.5 -46t44.5 -119v-387q0 -73 -44.5 -118.5t-115.5 -45.5t-114.5 45.5zM310.5 62.5q33.5 35.5 33.5 91.5v391q0 57 -33.5 92.5t-87.5 35.5q-53 0 -86 -35.5t-33 -92.5v-391q0 -56 33 -91.5
t86 -35.5q54 0 87.5 35.5zM194 -157q-12 12 -12 31t12 31t31 12t31 -12t12 -31t-12.5 -31t-30.5 -12q-19 0 -31 12zM130.5 780.5q-1.5 3.5 1.5 8.5l65 101q5 7 12 7h27q8 0 12 -6l67 -102q2 -4 2 -6q0 -6 -8 -6h-21q-7 0 -12 7l-49 80q-1 2 -3 2t-3 -2l-50 -80q-5 -7 -12 -7
h-21q-6 0 -7.5 3.5z" />
    <glyph glyph-name="uni1ED9" unicode="&#x1ed9;" horiz-adv-x="402" 
d="M97.5 33q-39.5 41 -39.5 106v224q0 65 39.5 106t102.5 41q64 0 103.5 -41t39.5 -106v-224q0 -65 -39.5 -106t-103.5 -41q-63 0 -102.5 41zM275 58.5q29 31.5 29 81.5v222q0 50 -29 81.5t-75 31.5q-45 0 -74 -32t-29 -81v-222q0 -49 29 -81t74 -32q46 0 75 31.5zM171 -157
q-12 12 -12 31t12 31t31 12t31 -12t12 -31t-12.5 -31t-30.5 -12q-19 0 -31 12zM107.5 583.5q-1.5 3.5 1.5 8.5l65 101q5 7 12 7h27q8 0 12 -6l67 -102q2 -4 2 -6q0 -6 -8 -6h-21q-7 0 -12 7l-49 80q-1 2 -3 2t-3 -2l-50 -80q-5 -7 -12 -7h-21q-6 0 -7.5 3.5z" />
    <glyph glyph-name="uni1EDA" unicode="&#x1eda;" horiz-adv-x="448" 
d="M319 679q30 -22 47 -57t17 -79v-387q0 -73 -44.5 -118.5t-115.5 -45.5t-114.5 45.5t-43.5 118.5v387q0 74 44 119.5t114 45.5q22 0 52 -7q1 -1 5 -1q24 2 42 20.5t21 46.5q1 10 11 10h9q11 0 9 -12q-2 -27 -16 -48.5t-36 -32.5q-4 -1 -1 -5zM344 545q0 57 -33.5 92.5
t-87.5 35.5q-53 0 -86 -35.5t-33 -92.5v-391q0 -56 33 -91.5t86 -35.5q54 0 87.5 35.5t33.5 91.5v391zM190 770.5q-2 3.5 1 8.5l62 111q5 7 12 7h16q6 0 8 -3.5t-1 -8.5l-67 -111q-5 -7 -12 -7h-11q-6 0 -8 3.5z" />
    <glyph glyph-name="uni1EDB" unicode="&#x1edb;" horiz-adv-x="402" 
d="M292 480q25 -19 38 -49.5t13 -67.5v-224q0 -65 -39.5 -106t-103.5 -41q-63 0 -102.5 41t-39.5 106v224q0 65 39.5 106t102.5 41q21 0 49 -7q1 -1 5 -1q25 2 43.5 20.5t21.5 46.5q1 10 11 10h9q11 0 9 -12q-2 -28 -17 -49t-38 -33q-4 -1 -1 -5zM275 443.5
q-29 31.5 -75 31.5q-45 0 -74 -32t-29 -81v-222q0 -49 29 -81t74 -32q46 0 75 31.5t29 81.5v222q0 50 -29 81.5zM168 573.5q-2 3.5 1 8.5l62 111q5 7 12 7h16q6 0 8 -3.5t-1 -8.5l-67 -111q-5 -7 -12 -7h-11q-6 0 -8 3.5z" />
    <glyph glyph-name="uni1EDC" unicode="&#x1edc;" horiz-adv-x="448" 
d="M319 679q30 -22 47 -57t17 -79v-387q0 -73 -44.5 -118.5t-115.5 -45.5t-114.5 45.5t-43.5 118.5v387q0 74 44 119.5t114 45.5q22 0 52 -7q1 -1 5 -1q24 2 42 20.5t21 46.5q1 10 11 10h9q11 0 9 -12q-2 -27 -16 -48.5t-36 -32.5q-4 -1 -1 -5zM344 545q0 57 -33.5 92.5
t-87.5 35.5q-53 0 -86 -35.5t-33 -92.5v-391q0 -56 33 -91.5t86 -35.5q54 0 87.5 35.5t33.5 91.5v391zM236 773q0 -6 -9 -6h-12q-7 0 -12 7l-66 111q-2 4 -2 6q0 6 9 6h16q7 0 12 -7l62 -111q2 -4 2 -6z" />
    <glyph glyph-name="uni1EDD" unicode="&#x1edd;" horiz-adv-x="402" 
d="M292 480q25 -19 38 -49.5t13 -67.5v-224q0 -65 -39.5 -106t-103.5 -41q-63 0 -102.5 41t-39.5 106v224q0 65 39.5 106t102.5 41q21 0 49 -7q1 -1 5 -1q25 2 43.5 20.5t21.5 46.5q1 10 11 10h9q11 0 9 -12q-2 -28 -17 -49t-38 -33q-4 -1 -1 -5zM275 443.5
q-29 31.5 -75 31.5q-45 0 -74 -32t-29 -81v-222q0 -49 29 -81t74 -32q46 0 75 31.5t29 81.5v222q0 50 -29 81.5zM213 576q0 -6 -9 -6h-12q-7 0 -12 7l-66 111q-2 4 -2 6q0 6 9 6h16q7 0 12 -7l62 -111q2 -4 2 -6z" />
    <glyph glyph-name="uni1EDE" unicode="&#x1ede;" horiz-adv-x="448" 
d="M319 679q30 -22 47 -57t17 -79v-387q0 -73 -44.5 -118.5t-115.5 -45.5t-114.5 45.5t-43.5 118.5v387q0 74 44 119.5t114 45.5q22 0 52 -7q1 -1 5 -1q24 2 42 20.5t21 46.5q1 10 11 10h9q11 0 9 -12q-2 -27 -16 -48.5t-36 -32.5q-4 -1 -1 -5zM344 545q0 57 -33.5 92.5
t-87.5 35.5q-53 0 -86 -35.5t-33 -92.5v-391q0 -56 33 -91.5t86 -35.5q54 0 87.5 35.5t33.5 91.5v391zM212.5 748.5q-1.5 3.5 0.5 7.5q9 21 35 45q14 14 20.5 24t6.5 25q0 17 -14 29.5t-34 12.5t-31.5 -8.5t-26.5 -29.5q-6 -8 -14 -2l-6 4q-8 6 -2 13q18 27 34.5 38.5
t45.5 11.5q33 0 55 -19.5t22 -49.5q0 -22 -9.5 -36.5t-29.5 -34.5q-20 -18 -26 -29l-2 -4q-3 -7 -11 -5l-7 2q-5 2 -6.5 5.5z" />
    <glyph glyph-name="uni1EDF" unicode="&#x1edf;" horiz-adv-x="402" 
d="M292 480q25 -19 38 -49.5t13 -67.5v-224q0 -65 -39.5 -106t-103.5 -41q-63 0 -102.5 41t-39.5 106v224q0 65 39.5 106t102.5 41q21 0 49 -7q1 -1 5 -1q25 2 43.5 20.5t21.5 46.5q1 10 11 10h9q11 0 9 -12q-2 -28 -17 -49t-38 -33q-4 -1 -1 -5zM275 443.5
q-29 31.5 -75 31.5q-45 0 -74 -32t-29 -81v-222q0 -49 29 -81t74 -32q46 0 75 31.5t29 81.5v222q0 50 -29 81.5zM189.5 551.5q-1.5 3.5 0.5 7.5q9 21 35 45q14 14 20.5 24t6.5 25q0 17 -14 29.5t-34 12.5t-31.5 -8.5t-26.5 -29.5q-6 -8 -14 -2l-6 4q-8 6 -2 13
q18 27 34.5 38.5t45.5 11.5q33 0 55 -19.5t22 -49.5q0 -22 -9.5 -36.5t-29.5 -34.5q-20 -18 -26 -29l-2 -4q-3 -7 -11 -5l-7 2q-5 2 -6.5 5.5z" />
    <glyph glyph-name="uni1EE0" unicode="&#x1ee0;" horiz-adv-x="448" 
d="M319 679q30 -22 47 -57t17 -79v-387q0 -73 -44.5 -118.5t-115.5 -45.5t-114.5 45.5t-43.5 118.5v387q0 74 44 119.5t114 45.5q22 0 52 -7q1 -1 5 -1q24 2 42 20.5t21 46.5q1 10 11 10h9q11 0 9 -12q-2 -27 -16 -48.5t-36 -32.5q-4 -1 -1 -5zM344 545q0 57 -33.5 92.5
t-87.5 35.5q-53 0 -86 -35.5t-33 -92.5v-391q0 -56 33 -91.5t86 -35.5q54 0 87.5 35.5t33.5 91.5v391zM256 822q-12 6 -27 17q-5 3 -13.5 9t-16 9t-16.5 3q-15 0 -26 -5.5t-22 -21.5q-6 -9 -14 -3l-6 4q-9 6 -3 14q26 44 70 44q15 0 26.5 -6t28.5 -17q4 -3 13.5 -9.5
t17.5 -10t16 -3.5q14 0 24.5 6.5t21.5 24.5q2 4 6 5t8 -1l6 -3q5 -3 5 -9q0 -7 -4 -12q-14 -21 -33 -31t-36 -10q-14 0 -26 6z" />
    <glyph glyph-name="uni1EE1" unicode="&#x1ee1;" horiz-adv-x="402" 
d="M292 480q25 -19 38 -49.5t13 -67.5v-224q0 -65 -39.5 -106t-103.5 -41q-63 0 -102.5 41t-39.5 106v224q0 65 39.5 106t102.5 41q21 0 49 -7q1 -1 5 -1q25 2 43.5 20.5t21.5 46.5q1 10 11 10h9q11 0 9 -12q-2 -28 -17 -49t-38 -33q-4 -1 -1 -5zM275 443.5
q-29 31.5 -75 31.5q-45 0 -74 -32t-29 -81v-222q0 -49 29 -81t74 -32q46 0 75 31.5t29 81.5v222q0 50 -29 81.5zM230 626q-12 6 -27 17q-5 3 -13.5 9t-16 9t-16.5 3q-15 0 -26 -5.5t-22 -21.5q-6 -9 -14 -3l-6 4q-9 6 -3 14q26 44 70 44q15 0 26.5 -6t28.5 -17
q4 -3 13.5 -9.5t17.5 -10t16 -3.5q14 0 24.5 6.5t21.5 24.5q2 4 6 5t8 -1l6 -3q5 -3 5 -9q0 -7 -4 -12q-14 -21 -33 -31t-36 -10q-14 0 -26 6z" />
    <glyph glyph-name="uni1EE2" unicode="&#x1ee2;" horiz-adv-x="448" 
d="M319 679q30 -22 47 -57t17 -79v-387q0 -73 -44.5 -118.5t-115.5 -45.5t-114.5 45.5t-43.5 118.5v387q0 74 44 119.5t114 45.5q22 0 52 -7q1 -1 5 -1q24 2 42 20.5t21 46.5q1 10 11 10h9q11 0 9 -12q-2 -27 -16 -48.5t-36 -32.5q-4 -1 -1 -5zM344 545q0 57 -33.5 92.5
t-87.5 35.5q-53 0 -86 -35.5t-33 -92.5v-391q0 -56 33 -91.5t86 -35.5q54 0 87.5 35.5t33.5 91.5v391zM194 -157q-12 12 -12 31t12 31t31 12t31 -12t12 -31t-12.5 -31t-30.5 -12q-19 0 -31 12z" />
    <glyph glyph-name="uni1EE3" unicode="&#x1ee3;" horiz-adv-x="402" 
d="M292 480q25 -19 38 -49.5t13 -67.5v-224q0 -65 -39.5 -106t-103.5 -41q-63 0 -102.5 41t-39.5 106v224q0 65 39.5 106t102.5 41q21 0 49 -7q1 -1 5 -1q25 2 43.5 20.5t21.5 46.5q1 10 11 10h9q11 0 9 -12q-2 -28 -17 -49t-38 -33q-4 -1 -1 -5zM275 443.5
q-29 31.5 -75 31.5q-45 0 -74 -32t-29 -81v-222q0 -49 29 -81t74 -32q46 0 75 31.5t29 81.5v222q0 50 -29 81.5zM171 -157q-12 12 -12 31t12 31t31 12t31 -12t12 -31t-12.5 -31t-30.5 -12q-19 0 -31 12z" />
    <glyph glyph-name="uni1EE4" unicode="&#x1ee4;" horiz-adv-x="475" 
d="M121.5 43q-43.5 51 -43.5 135v512q0 10 10 10h19q10 0 10 -10v-516q0 -66 33 -106.5t87 -40.5t87.5 40.5t33.5 106.5v516q0 10 10 10h19q10 0 10 -10v-512q0 -84 -44.5 -135t-115.5 -51q-72 0 -115.5 51zM208 -157q-12 12 -12 31t12 31t31 12t31 -12t12 -31t-12.5 -31
t-30.5 -12q-19 0 -31 12z" />
    <glyph glyph-name="uni1EE5" unicode="&#x1ee5;" horiz-adv-x="414" 
d="M313 502h19q10 0 10 -10v-482q0 -10 -10 -10h-19q-10 0 -10 10v40q0 3 -2 3.5t-3 -2.5q-31 -58 -104 -58q-60 0 -94.5 37t-34.5 109v353q0 10 10 10h19q10 0 10 -10v-345q0 -58 25.5 -88.5t71.5 -30.5q47 0 74.5 34.5t27.5 94.5v335q0 10 10 10zM174 -157q-12 12 -12 31
t12 31t31 12t31 -12t12 -31t-12.5 -31t-30.5 -12q-19 0 -31 12z" />
    <glyph glyph-name="uni1EE6" unicode="&#x1ee6;" horiz-adv-x="475" 
d="M121.5 43q-43.5 51 -43.5 135v512q0 10 10 10h19q10 0 10 -10v-516q0 -66 33 -106.5t87 -40.5t87.5 40.5t33.5 106.5v516q0 10 10 10h19q10 0 10 -10v-512q0 -84 -44.5 -135t-115.5 -51q-72 0 -115.5 51zM225.5 749.5q-1.5 3.5 0.5 7.5q9 21 35 45q14 14 20.5 24t6.5 25
q0 17 -14 29.5t-34 12.5t-31.5 -8.5t-26.5 -29.5q-6 -8 -14 -2l-6 4q-8 6 -2 13q18 27 34.5 38.5t45.5 11.5q33 0 55 -19.5t22 -49.5q0 -22 -9.5 -36.5t-29.5 -34.5q-20 -18 -26 -29l-2 -4q-3 -7 -11 -5l-7 2q-5 2 -6.5 5.5z" />
    <glyph glyph-name="uni1EE7" unicode="&#x1ee7;" horiz-adv-x="414" 
d="M313 502h19q10 0 10 -10v-482q0 -10 -10 -10h-19q-10 0 -10 10v40q0 3 -2 3.5t-3 -2.5q-31 -58 -104 -58q-60 0 -94.5 37t-34.5 109v353q0 10 10 10h19q10 0 10 -10v-345q0 -58 25.5 -88.5t71.5 -30.5q47 0 74.5 34.5t27.5 94.5v335q0 10 10 10zM192.5 551.5
q-1.5 3.5 0.5 7.5q9 21 35 45q14 14 20.5 24t6.5 25q0 17 -14 29.5t-34 12.5t-31.5 -8.5t-26.5 -29.5q-6 -8 -14 -2l-6 4q-8 6 -2 13q18 27 34.5 38.5t45.5 11.5q33 0 55 -19.5t22 -49.5q0 -22 -9.5 -36.5t-29.5 -34.5q-20 -18 -26 -29l-2 -4q-3 -7 -11 -5l-7 2
q-5 2 -6.5 5.5z" />
    </font>
</defs>
</svg>
