<?xml version="1.0" standalone="no"?>
<!DOCTYPE svg PUBLIC "-//W3C//DTD SVG 1.1//EN" "http://www.w3.org/Graphics/SVG/1.1/DTD/svg11.dtd" >
<svg xmlns="http://www.w3.org/2000/svg" xmlns:xlink="http://www.w3.org/1999/xlink" version="1.1">
<metadata>
Created by FontForge 20201107 at Wed Nov  7 06:09:04 2018
 By 
Copyright 2017 The Barlow Project Authors (https://github.com/jpt/barlow)
</metadata>
<defs>
<font id="BarlowCondensed-ExtraBoldItalic" horiz-adv-x="441" >
  <font-face 
    font-family="Barlow Condensed ExtraBold"
    font-weight="800"
    font-style="italic"
    font-stretch="condensed"
    units-per-em="1000"
    panose-1="0 0 9 6 0 0 0 0 0 0"
    ascent="800"
    descent="-200"
    x-height="517"
    cap-height="700"
    bbox="-513 -258 998 1068"
    underline-thickness="50"
    underline-position="-100"
    slope="-7"
    unicode-range="U+000D-FB02"
  />
<missing-glyph horiz-adv-x="413" 
d="M-15 0h404q5 0 5 5l85 690q2 5 -4 5h-404q-5 0 -5 -5l-85 -690q0 -5 4 -5zM161 257.5q-3 3.5 -2 8.5l1 13q5 38 23.5 61t49.5 46q26 20 37.5 34t11.5 35q0 16 -7.5 25t-20.5 9q-18 0 -29 -12.5t-13 -32.5l-1 -4q-1 -11 -13 -11l-91 4q-5 0 -8.5 3t-2.5 8q8 68 56.5 110.5
t117.5 42.5q60 0 95 -33t35 -88q0 -7 -2 -23q-5 -45 -25 -70.5t-53 -50.5q-24 -18 -34.5 -30t-12.5 -30l-1 -6q-1 -5 -4.5 -8.5t-8.5 -3.5h-90q-5 0 -8 3.5zM155.5 102q-14.5 15 -14.5 39q0 30 19.5 50t48.5 20q24 0 38.5 -14.5t14.5 -39.5q0 -29 -20 -49.5t-48 -20.5
q-24 0 -38.5 15z" />
    <glyph glyph-name="fi" unicode="fi" horiz-adv-x="511" 
d="M321 513.5q3 -3.5 2 -8.5l-11 -91q-1 -5 -4.5 -8.5t-8.5 -3.5h-47q-5 0 -5 -5l-48 -385q-1 -5 -4.5 -8.5t-8.5 -3.5h-137q-5 0 -8 3.5t-2 8.5l48 385q0 5 -5 5h-26q-5 0 -8 3.5t-2 8.5l11 91q1 5 4.5 8.5t8.5 3.5h26q6 0 6 5l4 30q10 83 56.5 116.5t133.5 33.5l30 -1
q5 0 7.5 -3.5t1.5 -8.5l-11 -91q-2 -12 -11 -12q-21 -1 -34 -14t-15 -34l-2 -16q0 -5 4 -5h47q5 0 8 -3.5zM398 584q-20 21 -20 54q0 43 27.5 71t67.5 28q33 0 53.5 -20t20.5 -53q0 -43 -27.5 -72t-68.5 -29q-33 0 -53 21zM307 3.5q-3 3.5 -2 8.5l61 493q1 5 4.5 8.5
t8.5 3.5h138q5 0 8 -3.5t2 -8.5l-61 -493q-1 -5 -4.5 -8.5t-8.5 -3.5h-138q-5 0 -8 3.5z" />
    <glyph glyph-name="fl" unicode="fl" horiz-adv-x="508" 
d="M321 513.5q3 -3.5 2 -8.5l-11 -91q-1 -5 -4.5 -8.5t-8.5 -3.5h-47q-5 0 -5 -5l-48 -385q-1 -5 -4.5 -8.5t-8.5 -3.5h-137q-5 0 -8 3.5t-2 8.5l48 385q0 5 -5 5h-26q-5 0 -8 3.5t-2 8.5l11 91q1 5 4.5 8.5t8.5 3.5h26q6 0 6 5l4 30q10 83 56.5 116.5t133.5 33.5l30 -1
q5 0 7.5 -3.5t1.5 -8.5l-11 -91q-2 -12 -11 -12q-21 -1 -34 -14t-15 -34l-2 -16q0 -5 4 -5h47q5 0 8 -3.5zM305 3.5q-3 3.5 -2 8.5l83 676q1 5 4.5 8.5t8.5 3.5h138q5 0 8 -3.5t2 -8.5l-83 -676q-1 -5 -4.5 -8.5t-8.5 -3.5h-138q-5 0 -8 3.5z" />
    <glyph glyph-name="I_J.liga" unicode="IJ" horiz-adv-x="676" 
d="M18 3.5q-3 3.5 -2 8.5l83 676q1 5 4.5 8.5t8.5 3.5h138q5 0 8 -3.5t2 -8.5l-83 -676q-1 -5 -4.5 -8.5t-8.5 -3.5h-138q-5 0 -8 3.5zM288.5 37q-48.5 45 -48.5 121q0 8 2 28l8 65q1 5 4.5 8.5t8.5 3.5h138q5 0 8 -3.5t2 -8.5l-8 -67l-1 -10q0 -18 9.5 -29t25.5 -11
q18 0 31.5 14t15.5 36l62 504q1 5 4.5 8.5t8.5 3.5h138q5 0 8 -3.5t2 -8.5l-61 -502q-11 -87 -73.5 -140.5t-153.5 -53.5q-82 0 -130.5 45z" />
    <glyph glyph-name="f_f_i.liga" unicode="ffi" horiz-adv-x="775" 
d="M661.5 584q-20.5 21 -20.5 54q0 43 28 71t68 28q33 0 53.5 -20t20.5 -53q0 -43 -27.5 -72t-68.5 -29q-33 0 -53.5 21zM520 522q0 -5 4 -5h46q5 0 8 -3.5t2 -8.5l-11 -91q-1 -5 -4.5 -8.5t-8.5 -3.5h-46q-5 0 -5 -5l-48 -385q0 -5 -4 -8.5t-9 -3.5h-137q-5 0 -8.5 3.5
t-2.5 8.5l48 385q0 5 -5 5h-87q-5 0 -5 -5l-48 -385q-1 -5 -4.5 -8.5t-8.5 -3.5h-138q-5 0 -8 3.5t-2 8.5l48 385q0 5 -5 5h-25q-5 0 -8 3.5t-2 8.5l11 91q1 5 4.5 8.5t8.5 3.5h25q6 0 6 5l4 33q10 82 56 114.5t134 32.5l31 -1q4 0 6.5 -3.5t1.5 -8.5l-11 -87
q-2 -12 -10 -12q-42 -3 -49 -50l-2 -18q0 -5 4 -5h88q2 0 3.5 1.5t1.5 3.5l4 33q10 82 56 114.5t134 32.5l31 -1q4 0 6 -3.5t1 -8.5l-11 -87q-2 -12 -10 -12q-41 -3 -48 -50zM571 3.5q-3 3.5 -2 8.5l60 493q1 5 5 8.5t9 3.5h137q5 0 8 -3.5t2 -8.5l-60 -493q-1 -5 -4.5 -8.5
t-8.5 -3.5h-138q-5 0 -8 3.5z" />
    <glyph glyph-name="f_f_l.liga" unicode="ffl" horiz-adv-x="771" 
d="M526 522q-2 -5 4 -5h46q5 0 8 -3.5t2 -8.5l-11 -91q-1 -5 -4.5 -8.5t-8.5 -3.5h-46q-4 0 -6 -5l-47 -385q-1 -5 -4.5 -8.5t-8.5 -3.5h-138q-5 0 -8 3.5t-2 8.5l47 385q2 5 -4 5h-93q-5 0 -5 -5l-48 -385q-1 -5 -4.5 -8.5t-8.5 -3.5h-138q-5 0 -8 3.5t-2 8.5l48 385
q0 5 -5 5h-25q-5 0 -8 3.5t-2 8.5l11 91q1 5 4.5 8.5t8.5 3.5h25q6 0 6 5l4 33q10 82 56 114.5t134 32.5l31 -1q4 0 6.5 -3.5t1.5 -8.5l-11 -87q-2 -12 -10 -12q-42 -3 -49 -50l-2 -18q0 -5 4 -5h93q4 0 6 5l4 33q10 82 56 114.5t134 32.5l31 -1q3 0 5.5 -3.5t1.5 -8.5
l-11 -87q-2 -12 -10 -12q-21 -1 -33.5 -14.5t-14.5 -35.5zM654.5 696.5q3.5 3.5 8.5 3.5h138q5 0 8 -3.5t2 -8.5l-83 -676q-1 -5 -4.5 -8.5t-8.5 -3.5h-138q-5 0 -8 3.5t-2 8.5l83 676q1 5 4.5 8.5z" />
    <glyph glyph-name="g_j.liga" unicode="gj" horiz-adv-x="654" 
d="M542.5 584q-20.5 21 -20.5 54q0 43 27.5 71t67.5 28q34 0 54.5 -20t20.5 -54q0 -42 -28.5 -71t-67.5 -29q-33 0 -53.5 21zM452 513.5q3 -3.5 2 -8.5l-58 -475q-14 -114 -74.5 -176.5t-200.5 -62.5q-16 0 -52 2q-12 1 -10 13l14 119q1 6 5 9t9 2l23 -1q66 0 91.5 23.5
t33.5 73.5q0 4 -2 4.5t-5 -2.5q-36 -40 -92 -40q-115 0 -115 130q0 21 3 43l23 185q22 173 154 173q59 0 83 -45q1 -3 3 -2.5t3 3.5l3 24q1 5 4.5 8.5t8.5 3.5h138q5 0 8 -3.5zM509 505q1 5 4.5 8.5t8.5 3.5h137q5 0 8 -3.5t2 -8.5l-60 -490q-10 -79 -29 -124.5t-66.5 -70
t-138.5 -22.5q-13 0 -10 12l28 117q1 11 13 11q21 0 29.5 18t13.5 59zM240 149q11 12 13 31l19 159q1 3 1 10q0 15 -8 24.5t-21 9.5q-14 0 -24.5 -12t-12.5 -32l-20 -159q-2 -20 5 -31.5t22 -11.5t26 12z" />
    <glyph glyph-name="i_j.liga" unicode="ij" horiz-adv-x="426" 
d="M103 584q-20 21 -20 54q0 43 27.5 71t67.5 28q33 0 53.5 -20t20.5 -53q0 -43 -27.5 -72t-68.5 -29q-33 0 -53 21zM314.5 584q-20.5 21 -20.5 54q0 43 27.5 71t67.5 28q34 0 54.5 -20t20.5 -54q0 -42 -28.5 -71t-67.5 -29q-33 0 -53.5 21zM11 3.5q-3 3.5 -2 8.5l61 493
q1 5 4.5 8.5t8.5 3.5h138q5 0 8 -3.5t2 -8.5l-61 -493q-1 -5 -4.5 -8.5t-8.5 -3.5h-138q-5 0 -8 3.5zM103 -190l14 117q1 7 5.5 9t14.5 2q42 0 60 19t23 58l60 490q1 5 4.5 8.5t8.5 3.5h138q5 0 8 -3.5t2 -8.5l-60 -490q-10 -83 -29 -127t-73.5 -68t-165.5 -22q-12 0 -10 12
z" />
    <glyph glyph-name="hyphen_hyphen.liga" unicode="&#x2d;&#x2d;" horiz-adv-x="575" 
d="M31 222.5q-3 3.5 -2 8.5l14 117q1 5 4.5 8.5t8.5 3.5h512q5 0 8 -3.5t2 -8.5l-15 -117q-1 -5 -4.5 -8.5t-8.5 -3.5h-511q-5 0 -8 3.5z" />
    <glyph glyph-name=".notdef" horiz-adv-x="413" 
d="M-15 0h404q5 0 5 5l85 690q2 5 -4 5h-404q-5 0 -5 -5l-85 -690q0 -5 4 -5zM161 257.5q-3 3.5 -2 8.5l1 13q5 38 23.5 61t49.5 46q26 20 37.5 34t11.5 35q0 16 -7.5 25t-20.5 9q-18 0 -29 -12.5t-13 -32.5l-1 -4q-1 -11 -13 -11l-91 4q-5 0 -8.5 3t-2.5 8q8 68 56.5 110.5
t117.5 42.5q60 0 95 -33t35 -88q0 -7 -2 -23q-5 -45 -25 -70.5t-53 -50.5q-24 -18 -34.5 -30t-12.5 -30l-1 -6q-1 -5 -4.5 -8.5t-8.5 -3.5h-90q-5 0 -8 3.5zM155.5 102q-14.5 15 -14.5 39q0 30 19.5 50t48.5 20q24 0 38.5 -14.5t14.5 -39.5q0 -29 -20 -49.5t-48 -20.5
q-24 0 -38.5 15z" />
    <glyph glyph-name=".null" horiz-adv-x="0" 
 />
    <glyph glyph-name="nonmarkingreturn" unicode="&#xd;" horiz-adv-x="194" 
 />
    <glyph glyph-name="NULL" horiz-adv-x="0" 
 />
    <glyph glyph-name="NULL" horiz-adv-x="0" 
 />
    <glyph glyph-name="space" unicode=" " horiz-adv-x="194" 
 />
    <glyph glyph-name="exclam" unicode="!" horiz-adv-x="281" 
d="M90 247.5q-3 3.5 -2 8.5l35 432q2 12 13 12h138q12 0 10 -12l-69 -432q-1 -5 -4.5 -8.5t-8.5 -3.5h-104q-5 0 -8 3.5zM67.5 22q-20.5 21 -20.5 54q0 42 27.5 70t68.5 28q32 0 52.5 -20t20.5 -52q0 -43 -27.5 -72t-67.5 -29q-33 0 -53.5 21z" />
    <glyph glyph-name="quotedbl" unicode="&#x22;" horiz-adv-x="374" 
d="M68 468.5q-3 3.5 -3 8.5l12 210q0 12 12 12h129q12 0 9 -12l-40 -210q-1 -5 -5 -8.5t-9 -3.5h-97q-5 0 -8 3.5zM268 468.5q-3 3.5 -3 8.5l11 210q0 12 13 12h129q12 0 9 -12l-42 -210q-1 -5 -5 -8.5t-9 -3.5h-95q-5 0 -8 3.5z" />
    <glyph glyph-name="numbersign" unicode="#" horiz-adv-x="607" 
d="M607 398.5q-4 -3.5 -9 -3.5h-59q-6 0 -6 -5l-20 -78q-2 -5 3 -5h38q5 0 8 -3.5t2 -8.5l-14 -117q-1 -5 -5 -8.5t-9 -3.5h-58q-6 0 -6 -5l-31 -119q-3 -11 -14 -11h-138q-12 0 -9 13l31 117q0 5 -3 5h-60q-6 0 -6 -5l-31 -119q-3 -11 -14 -11h-138q-12 0 -9 13l31 117
q0 5 -3 5h-39q-5 0 -8 3.5t-2 8.5l14 117q1 5 4.5 8.5t8.5 3.5h59q5 0 7 5l20 78q0 5 -3 5h-38q-5 0 -8 3.5t-2 8.5l14 118q1 5 4.5 8.5t8.5 3.5h59q2 0 4 1.5t2 3.5l31 120q3 11 14 11l138 -1q12 0 9 -13l-31 -117q0 -5 3 -5h59q5 0 7 5l31 120q3 11 14 11l138 -1
q12 0 9 -13l-31 -117q-2 -5 3 -5h39q5 0 8 -3.5t2 -8.5l-14 -118q-1 -5 -5 -8.5zM352 312l20 78q0 5 -3 5h-60q-2 0 -4 -1.5t-2 -3.5l-20 -78q-2 -5 3 -5h59q5 0 7 5z" />
    <glyph glyph-name="dollar" unicode="$" 
d="M371.5 63.5q-44.5 -50.5 -111.5 -65.5q-6 -2 -6 -6l-4 -52q-1 -5 -4.5 -8.5t-8.5 -3.5h-96q-11 0 -11 12l8 56q1 4 -3 5q-51 16 -80 55.5t-29 94.5q0 9 2 27l3 31q1 5 5 8.5t9 3.5h135q11 0 11 -12l-3 -23l-1 -10q0 -19 9.5 -30.5t24.5 -11.5q19 0 32.5 15.5t13.5 40.5
q0 19 -15.5 37t-59.5 54q-42 34 -67 59t-43.5 61.5t-18.5 83.5q0 80 44 138t115 77q4 1 4 5l7 64q1 5 4.5 8.5t8.5 3.5h94q11 0 11 -12l-9 -62q0 -5 3 -6q56 -15 87.5 -57.5t31.5 -103.5q0 -8 -2 -28l-3 -24q-1 -5 -5 -8.5t-9 -3.5h-134q-11 0 -11 12l4 28q2 22 -7.5 36
t-27.5 14q-19 0 -32.5 -17t-13.5 -43q0 -21 15.5 -40.5t56.5 -53.5q51 -43 76.5 -69.5t41 -57t15.5 -69.5q0 -8 -2 -28q-10 -74 -54.5 -124.5z" />
    <glyph glyph-name="percent" unicode="%" horiz-adv-x="738" 
d="M119 422q-39 41 -39 102q0 49 24.5 91.5t65.5 67.5t88 25q58 0 97 -41t39 -101q0 -49 -24.5 -91.5t-65 -68t-86.5 -25.5q-60 0 -99 41zM114 6q0 4 3 8l436 678q5 8 16 8h88q9 0 9 -6q0 -3 -3 -8l-436 -678q-5 -8 -16 -8h-88q-9 0 -9 6zM285.5 492.5q24.5 27.5 24.5 63.5
q0 29 -18 48.5t-45 19.5q-33 0 -58 -27t-25 -64q0 -29 18 -48.5t46 -19.5q33 0 57.5 27.5zM430 32.5q-39 40.5 -39 100.5q0 49 25 92t66 68.5t87 25.5q58 0 97 -41t39 -101q0 -49 -24.5 -91.5t-65 -68t-86.5 -25.5q-60 0 -99 40.5zM597 102.5q25 26.5 25 63.5q0 29 -18.5 49
t-45.5 20q-33 0 -58 -27.5t-25 -63.5q0 -29 18 -48.5t46 -19.5q33 0 58 26.5z" />
    <glyph glyph-name="ampersand" unicode="&#x26;" horiz-adv-x="605" 
d="M560 8q0 -3 -3 -5.5t-8 -2.5h-149q-10 0 -14 7l-16 23q-1 4 -6 2q-78 -42 -164 -42q-84 0 -131.5 38.5t-47.5 112.5q0 9 2 31q8 64 39.5 108.5t81.5 78.5q4 2 2 7q-28 46 -39 73.5t-11 53.5q0 8 2 26q10 85 69.5 137t145.5 52q81 0 131 -45.5t50 -121.5q0 -74 -36.5 -123
t-98.5 -90q-4 -3 -1 -7q3 -6 11 -18l34 -53q4 -4 7 1q32 37 54 74q6 11 16 5l94 -60q9 -6 3 -16q-47 -75 -89 -122q-4 -4 -2 -7q12 -17 24.5 -36t25.5 -39l22 -35q2 -4 2 -7zM268.5 541.5q-11.5 -16.5 -11.5 -40.5q0 -9 4 -20.5t16 -33.5q3 -3 7 -1q22 17 34.5 35t12.5 39
q0 18 -9 28t-23 10q-19 0 -30.5 -16.5zM286 146q5 4 2 7q-12 16 -15 22l-45 65q-2 4 -6 1q-35 -30 -35 -61q0 -22 13.5 -36.5t41.5 -11.5q18 3 44 14z" />
    <glyph glyph-name="quotesingle" unicode="'" horiz-adv-x="182" 
d="M65 478l12 210q0 12 12 12h137q6 0 8.5 -3t1.5 -9l-43 -211q-1 -5 -5 -8t-9 -3h-102q-10 0 -12 12z" />
    <glyph glyph-name="parenleft" unicode="(" horiz-adv-x="333" 
d="M88 -80q-71 130 -71 301q0 57 7 114q30 244 167 415q6 7 14 7h135q7 0 9 -4t-2 -10q-51 -86 -89.5 -184.5t-53.5 -223.5q-8 -67 -8 -119q0 -84 14 -154t37 -135q1 -2 1 -5q0 -4 -3 -6.5t-8 -2.5h-136q-10 0 -13 7z" />
    <glyph glyph-name="parenright" unicode=")" horiz-adv-x="333" 
d="M288 750q72 -131 72 -303q0 -55 -7 -111q-31 -248 -168 -416q-4 -7 -14 -7h-135q-7 0 -9 4t2 10q52 88 90 186t53 222q8 69 8 119q0 85 -14 154.5t-37 134.5l-1 4q0 4 3.5 7t8.5 3h135q10 0 13 -7z" />
    <glyph glyph-name="asterisk" unicode="*" horiz-adv-x="351" 
d="M164 399.5q-3 3.5 -2 8.5l9 71q1 3 -1 4.5t-4 -0.5l-66 -36l-5 -2q-5 0 -9 7l-26 61q-1 2 -1 5q0 6 7 11l72 39q5 3 0 6l-61 37q-9 7 -3 17l41 64q4 5 8.5 6.5t8.5 -1.5l56 -38q2 -2 3.5 -1t2.5 4l8 71q0 5 4 8.5t9 3.5h66q5 0 8 -3.5t2 -8.5l-9 -71q0 -6 6 -3l63 38
q4 2 7 2q6 0 9 -7l25 -64q1 -2 1 -6q0 -7 -7 -11l-70 -37q-6 -4 -1 -7l61 -38q5 -3 5 -8q0 -3 -3 -8l-41 -65q-3 -5 -7.5 -6t-9.5 2l-54 38q-2 2 -4 1t-2 -4l-9 -71q-1 -5 -4.5 -8.5t-8.5 -3.5h-66q-5 0 -8 3.5z" />
    <glyph glyph-name="plus" unicode="+" horiz-adv-x="424" 
d="M426 366.5q3 -3.5 2 -8.5l-12 -100q-1 -5 -4.5 -8.5t-8.5 -3.5h-115q-5 0 -5 -5l-15 -118q-1 -5 -4.5 -8.5t-8.5 -3.5h-98q-5 0 -8 3.5t-2 8.5l15 118q0 5 -5 5h-114q-5 0 -8 3.5t-2 8.5l12 100q1 5 4.5 8.5t8.5 3.5h115q2 0 3.5 1.5t1.5 3.5l15 119q0 5 4 8.5t9 3.5h98
q5 0 8 -3.5t2 -8.5l-15 -119q0 -5 4 -5h115q5 0 8 -3.5z" />
    <glyph glyph-name="comma" unicode="," horiz-adv-x="216" 
d="M-5 -93l48 240q1 5 5 8.5t9 3.5h119q6 0 8.5 -3.5t0.5 -9.5l-83 -240q-5 -11 -14 -11h-82q-14 0 -11 12z" />
    <glyph glyph-name="hyphen" unicode="-" horiz-adv-x="327" 
d="M31 222.5q-3 3.5 -2 8.5l15 118q1 5 4.5 8.5t8.5 3.5h264q5 0 8 -3.5t2 -8.5l-15 -118q0 -5 -4 -8.5t-9 -3.5h-264q-5 0 -8 3.5z" />
    <glyph glyph-name="period" unicode="." horiz-adv-x="228" 
d="M40.5 15q-20.5 21 -20.5 54q0 43 28 71t68 28q34 0 54 -20t20 -54q0 -42 -28 -71t-67 -29q-34 0 -54.5 21z" />
    <glyph glyph-name="slash" unicode="/" horiz-adv-x="431" 
d="M-2.5 3.5q-2.5 3.5 0.5 10.5l309 676q5 10 14 10h136q6 0 8.5 -3.5t-0.5 -10.5l-309 -676q-3 -10 -13 -10h-137q-6 0 -8.5 3.5z" />
    <glyph glyph-name="zero" unicode="0" horiz-adv-x="443" 
d="M72 36q-47 48 -47 129q0 10 2 34l37 302q12 95 73.5 153t151.5 58q81 0 128 -47.5t47 -128.5q0 -23 -2 -35l-37 -302q-12 -96 -73.5 -153.5t-151.5 -57.5q-81 0 -128 48zM247 147q12 16 16 42l39 322q1 5 1 15q0 20 -8 31.5t-23 11.5q-18 0 -30 -16t-15 -42l-40 -322
q-1 -4 -1 -13q0 -20 8.5 -32.5t23.5 -12.5q17 0 29 16z" />
    <glyph glyph-name="one" unicode="1" horiz-adv-x="285" 
d="M172 700h142q5 0 8 -3.5t2 -8.5l-83 -676q-1 -5 -4.5 -8.5t-8.5 -3.5h-138q-5 0 -8 3.5t-2 8.5l65 527q0 5 -4 5l-73 -4q-11 0 -10 11l11 106q1 10 11 13l77 27q7 3 15 3z" />
    <glyph glyph-name="two" unicode="2" horiz-adv-x="438" 
d="M213.5 144q0.5 -2 3.5 -2h194q5 0 8 -3.5t2 -8.5l-14 -118q-1 -5 -4.5 -8.5t-8.5 -3.5h-380q-11 0 -11 12l15 122q1 5 7 15l64 68q104 109 144 161q32 43 48.5 78.5t16.5 68.5q0 41 -31 41q-16 0 -28 -14t-14 -36l-5 -43q-1 -5 -4.5 -8.5t-8.5 -3.5h-140q-5 0 -8 3.5
t-2 8.5l6 50q16 83 79 134t151 51q77 0 123 -45.5t46 -121.5q0 -10 -2 -32q-7 -54 -28.5 -99t-63.5 -97q-33 -41 -110 -120l-43 -45q-2 -2 -1.5 -4z" />
    <glyph glyph-name="three" unicode="3" horiz-adv-x="432" 
d="M418 225l-10 -65q-13 -75 -70.5 -121.5t-140.5 -46.5q-81 0 -129.5 41.5t-48.5 109.5q0 13 1 20q1 17 5 53q2 12 13 12h137q11 0 11 -10q0 -11 -1.5 -21.5t-1.5 -19.5q0 -20 8 -31t23 -11q16 0 27.5 11.5t16.5 31.5l9 65l2 22q3 24 3 47q0 17 -8.5 27t-22.5 10
q-16 0 -35 -16q-6 -4 -9 -4q-2 0 -8 4l-61 76q-3 5 -3 8q0 4 5 9l130 127q5 6 -1 6h-167q-5 0 -8 3.5t-2 8.5l14 117q1 5 4.5 8.5t8.5 3.5h354q5 0 8 -3.5t2 -8.5l-14 -121q-1 -7 -8 -14l-120 -125q-4 -6 1 -6q43 -3 68.5 -42t21.5 -94q0 -19 -4 -61z" />
    <glyph glyph-name="four" unicode="4" horiz-adv-x="493" 
d="M500 318.5q3 -3.5 2 -8.5l-16 -126q-1 -5 -4.5 -8.5t-8.5 -3.5h-32q-5 0 -5 -5l-19 -155q-1 -5 -4.5 -8.5t-8.5 -3.5h-138q-5 0 -8 3.5t-2 8.5l19 155q0 5 -5 5h-246q-5 0 -8 3.5t-2 8.5l12 100q2 10 4 14l172 392q5 10 14 10h147q6 0 8 -4t0 -10l-151 -358q-3 -6 3 -6
h66q5 0 5 5l11 86q1 5 4.5 8.5t8.5 3.5h138q5 0 8 -3.5t2 -8.5l-11 -86q0 -5 5 -5h32q5 0 8 -3.5z" />
    <glyph glyph-name="five" unicode="5" horiz-adv-x="436" 
d="M426 220l-8 -57q-11 -80 -70 -125.5t-148 -45.5q-83 0 -128.5 41.5t-45.5 124.5l2 28q2 12 13 12h138q9 0 10 -9v-6v-11q0 -38 28 -38q33 0 41 41q3 15 7 45q1 8 2 18t1 21q1 18 -7 29t-23 11q-27 0 -37 -24q-5 -11 -14 -11h-139q-5 0 -8 3.5t-2 8.5l50 412q1 5 4.5 8.5
t8.5 3.5h368q5 0 8 -3.5t2 -8.5l-14 -118q-1 -5 -4.5 -8.5t-8.5 -3.5h-214q-5 0 -5 -5l-18 -141q0 -3 2 -3.5t4 1.5q38 32 85 32q60 0 93 -37.5t33 -105.5q0 -10 -2 -30q0 -15 -4 -49z" />
    <glyph glyph-name="six" unicode="6" horiz-adv-x="437" 
d="M427 220l-7 -55q-12 -82 -70.5 -127.5t-147.5 -45.5q-84 0 -130.5 42t-43.5 124q0 22 3 47l38 322q9 83 69 132t149 49q77 0 124 -42t47 -113q0 -8 -2 -26l-5 -37q-1 -5 -4.5 -8.5t-8.5 -3.5h-138q-5 0 -8 3.5t-2 8.5l3 26l1 10q0 15 -7.5 25.5t-17.5 10.5
q-15 0 -26 -12.5t-14 -33.5l-12 -98q0 -6 6 -2q38 29 78 29q63 0 97.5 -40t34.5 -110q0 -18 -1 -27q-1 -13 -5 -48zM265 232l5 53q1 18 -7 29t-21 11q-15 0 -25.5 -11t-14.5 -30l-8 -52l-6 -56q-1 -20 7 -31t23 -11t25 11.5t14 31.5z" />
    <glyph glyph-name="seven" unicode="7" horiz-adv-x="409" 
d="M56 4q-2 4 0 10l222 538q3 6 -3 6h-82q-4 0 -6 -5l-4 -34q-1 -5 -4.5 -8.5t-8.5 -3.5h-107q-5 0 -8 3.5t-2 8.5l22 169q1 5 4.5 8.5t8.5 3.5h368q5 0 8.5 -3.5t2.5 -8.5l-15 -123l-4 -14l-225 -541q-3 -10 -13 -10h-146q-6 0 -8 4z" />
    <glyph glyph-name="eight" unicode="8" horiz-adv-x="433" 
d="M370 360q30 -21 41 -59q8 -30 8 -62q0 -10 -2 -34q-5 -47 -28 -91q-28 -56 -79.5 -89t-113.5 -33t-106 32.5t-59 89.5q-5 21 -5 53q0 25 2 38q6 54 27 94q19 39 57 60q5 3 1 7q-31 22 -41 61q-8 29 -8 58q0 11 2 31q6 52 28 90q27 50 78 79t113 29q60 0 104 -27.5
t59 -80.5q9 -27 9 -61q0 -67 -30 -117q-21 -38 -57 -61q-5 -5 0 -7zM222 500q-2 -25 -1 -35q0 -19 7.5 -30t20.5 -11q14 0 24.5 11.5t14.5 30.5q6 28 6 33q2 23 1 32q0 19 -7 30t-21 11q-13 0 -23 -11.5t-15 -29.5q-4 -14 -7 -31zM259 215q3 25 2 40q1 20 -6.5 31.5
t-21.5 11.5q-13 0 -23.5 -12t-15.5 -32q-6 -31 -6 -36q-3 -22 -3 -41q0 -20 7.5 -31.5t20.5 -11.5q15 0 25.5 12.5t15.5 33.5q4 21 5 35z" />
    <glyph glyph-name="nine" unicode="9" horiz-adv-x="433" 
d="M342 41.5q-60 -49.5 -149 -49.5q-78 0 -124.5 42t-46.5 114q0 8 2 26l5 36q1 5 4.5 8.5t8.5 3.5h138q5 0 8 -3.5t2 -8.5l-3 -25l-1 -10q0 -16 7.5 -26.5t17.5 -10.5q15 0 26 13t14 34l11 96q1 3 -1 3.5t-4 -1.5q-36 -28 -78 -28q-62 0 -97 40t-35 110q0 18 1 27
q1 15 5 49q2 18 8 54q11 82 69.5 127.5t148.5 45.5q81 0 127.5 -40t46.5 -119q0 -24 -3 -54l-39 -321q-9 -83 -69 -132.5zM264 386.5q10 10.5 14 29.5l7 52q3 24 6 56q2 20 -6 31.5t-22 11.5q-15 0 -25.5 -12t-15.5 -32l-3 -25l-4 -30q-1 -6 -5 -52q-1 -19 7 -29.5t22 -10.5
q15 0 25 10.5z" />
    <glyph glyph-name="colon" unicode=":" horiz-adv-x="289" 
d="M112.5 346q-20.5 21 -20.5 54q0 43 28 71t68 28q34 0 54 -20t20 -54q0 -42 -28 -71t-67 -29q-34 0 -54.5 21zM72.5 22q-20.5 21 -20.5 54q0 43 28 71t68 28q34 0 54 -20t20 -54q0 -42 -28 -71t-67 -29q-34 0 -54.5 21z" />
    <glyph glyph-name="semicolon" unicode=";" horiz-adv-x="238" 
d="M78 325q-23 24 -23 59q0 29 15.5 54.5t40.5 40.5t50 15q33 0 57 -24.5t24 -60.5q0 -44 -31 -76t-74 -32q-36 0 -59 24zM3 -92l45 238q1 5 5 8.5t9 3.5h119q6 0 9 -3.5t0 -9.5l-80 -238q-3 -11 -14 -11h-84q-12 0 -9 12z" />
    <glyph glyph-name="less" unicode="&#x3c;" horiz-adv-x="424" 
d="M386 50.5q-4 -2.5 -9 0.5l-341 167q-7 4 -7 14l15 122q2 9 11 14l381 167q4 2 6 2q9 0 7 -11l-17 -133q0 -10 -10 -14l-223 -83q-6 -3 0 -6l202 -83q8 -4 7 -14l-17 -133q-1 -7 -5 -9.5z" />
    <glyph glyph-name="equal" unicode="=" horiz-adv-x="424" 
d="M43 348l13 100q1 5 4.5 8.5t8.5 3.5h360q5 0 8 -3.5t2 -8.5l-12 -100q-1 -5 -5 -8.5t-9 -3.5h-359q-11 0 -11 12zM22 171l13 100q1 5 4.5 8.5t8.5 3.5h360q5 0 8 -3.5t2 -8.5l-12 -100q-1 -5 -5 -8.5t-9 -3.5h-359q-11 0 -11 12z" />
    <glyph glyph-name="greater" unicode="&#x3e;" horiz-adv-x="424" 
d="M15 49q-9 0 -7 11l17 133q1 10 10 14l223 83q6 3 0 6l-202 83q-8 4 -7 14l17 133q1 7 5 9.5t9 -0.5l341 -167q7 -4 7 -14l-15 -122q-2 -9 -11 -14l-381 -167q-4 -2 -6 -2z" />
    <glyph glyph-name="question" unicode="?" horiz-adv-x="448" 
d="M143 232.5q-3 3.5 -2 8.5l3 24q7 54 32.5 85.5t69.5 64.5q36 27 52.5 47t16.5 50q0 22 -10.5 34.5t-29.5 12.5q-24 0 -40 -17.5t-20 -45.5l-1 -11q-1 -11 -13 -11l-137 6q-5 0 -8 4t-2 9v3q8 63 41.5 111.5t86 75.5t116.5 27q85 0 133.5 -46.5t48.5 -124.5q0 -10 -2 -30
q-6 -45 -22.5 -76.5t-37 -51.5t-50.5 -43t-46 -40.5t-19 -42.5l-2 -14q-1 -5 -4.5 -8.5t-8.5 -3.5h-137q-5 0 -8 3.5zM137.5 17q-20.5 21 -20.5 54q0 43 27.5 71t67.5 28q34 0 54.5 -20t20.5 -54q0 -42 -28.5 -71t-67.5 -29q-33 0 -53.5 21z" />
    <glyph glyph-name="at" unicode="@" horiz-adv-x="737" 
d="M616 637.5q60 -31.5 93.5 -88.5t33.5 -133q0 -43 -12 -93q-25 -101 -85 -157t-139 -56q-67 0 -99 40q-3 3 -7 -1q-18 -22 -41 -30t-43 -8q-50 0 -73 29t-23 69q0 8 2 22l7 32l9 39q3 17 8 34.5t6 21.5q18 64 50 92.5t82 28.5q31 0 47 -24q5 -6 6 1l2 5q3 11 13 11h83
q12 0 9 -13l-41 -164q-5 -17 -5 -35q0 -23 10 -34t27 -11q27 0 48.5 32t33.5 80q9 38 9 70q0 78 -47 123.5t-125 45.5q-66 0 -128 -35.5t-107.5 -98.5t-65.5 -142q-10 -40 -10 -78q0 -58 24 -98t61.5 -59.5t79.5 -19.5q33 0 60.5 10.5t54.5 28.5q4 3 8 3t7 -6l30 -69
q1 -2 1 -5q0 -7 -7 -11q-90 -56 -185 -56q-71 0 -127.5 31t-88.5 90t-32 138q0 47 14 106q26 108 91.5 193t155.5 133t186 48q79 0 139 -31.5zM368.5 209q8.5 9 13.5 24l15 62q9 41 14 56q1 4 1 11q0 21 -20 21q-12 0 -20.5 -8.5t-13.5 -23.5l-15 -62l-14 -56q-1 -4 -1 -10
q0 -23 21 -23q11 0 19.5 9z" />
    <glyph glyph-name="A" unicode="A" horiz-adv-x="493" 
d="M297 11l-2 87q1 2 -1 3.5t-4 1.5h-105q-6 0 -6 -5l-22 -87q-3 -11 -14 -11h-138q-12 0 -8 13l223 676q3 11 14 11h158q12 0 12 -11l56 -676v-3q0 -10 -11 -10h-141q-11 0 -11 11zM220 231h65q5 0 5 5l-7 228q0 4 -2 4t-4 -4l-60 -228q0 -5 3 -5z" />
    <glyph glyph-name="B" unicode="B" horiz-adv-x="463" 
d="M375.5 51.5q-63.5 -51.5 -153.5 -51.5h-196q-5 0 -8 3.5t-2 8.5l83 676q1 5 4.5 8.5t8.5 3.5h171q91 0 142.5 -40t51.5 -120q0 -22 -2 -34q-12 -96 -78 -141q-5 -3 -2 -6q56 -46 56 -128q0 -10 -2 -32q-10 -96 -73.5 -147.5zM243 553l-15 -128q-2 -5 4 -5h18
q31 0 48.5 22.5t17.5 62.5q0 26 -12.5 39.5t-36.5 13.5h-18q-4 0 -6 -5zM273.5 168q18.5 25 18.5 70q0 29 -12 46t-33 17h-30q-5 0 -5 -5l-18 -148q-2 -5 4 -5h29q28 0 46.5 25z" />
    <glyph glyph-name="C" unicode="C" horiz-adv-x="456" 
d="M77 38q-48 46 -48 126q0 11 2 33l38 307q11 94 73 149t154 55q84 0 132.5 -45.5t48.5 -124.5q0 -10 -2 -34l-1 -9q-1 -5 -4.5 -8.5t-8.5 -3.5l-139 -6q-11 0 -10 12l4 27q2 23 -8 36.5t-29 13.5t-32 -13.5t-16 -36.5l-41 -333q-2 -22 7.5 -35.5t28.5 -13.5t32.5 13.5
t16.5 35.5l3 29q1 5 4.5 8.5t8.5 3.5l137 -6q11 0 11 -12l-2 -9q-11 -93 -73.5 -149t-154.5 -56q-84 0 -132 46z" />
    <glyph glyph-name="D" unicode="D" horiz-adv-x="465" 
d="M18 3.5q-3 3.5 -2 8.5l83 676q1 5 4.5 8.5t8.5 3.5h185q86 0 135 -45t49 -123q0 -9 -2 -29l-38 -306q-11 -89 -73.5 -143t-156.5 -54h-185q-5 0 -8 3.5zM198 142l27 1q21 1 37 18.5t20 46.5l34 284q1 5 1 14q0 24 -11.5 38t-30.5 14h-26q-4 0 -6 -5l-49 -406q-2 -5 4 -5z
" />
    <glyph glyph-name="E" unicode="E" horiz-adv-x="428" 
d="M452.5 561.5q-3.5 -3.5 -8.5 -3.5h-195q-4 0 -6 -5l-15 -126q0 -5 4 -5h107q5 0 8 -3.5t2 -8.5l-15 -119q0 -5 -4 -8.5t-9 -3.5h-106q-4 0 -6 -5l-15 -127q-2 -5 4 -5h195q5 0 8 -3.5t2 -8.5l-14 -118q-1 -5 -5 -8.5t-9 -3.5h-349q-5 0 -8 3.5t-2 8.5l83 676q1 5 4.5 8.5
t8.5 3.5h349q11 0 11 -12l-15 -118q-1 -5 -4.5 -8.5z" />
    <glyph glyph-name="F" unicode="F" horiz-adv-x="414" 
d="M452.5 561.5q-3.5 -3.5 -8.5 -3.5h-195q-4 0 -6 -5l-15 -126q0 -5 4 -5h107q5 0 8 -3.5t2 -8.5l-15 -119q0 -5 -4 -8.5t-9 -3.5h-106q-4 0 -6 -5l-32 -262q-1 -5 -4.5 -8.5t-8.5 -3.5h-138q-5 0 -8 3.5t-2 8.5l83 676q1 5 4.5 8.5t8.5 3.5h349q11 0 11 -12l-15 -118
q-1 -5 -4.5 -8.5z" />
    <glyph glyph-name="G" unicode="G" horiz-adv-x="459" 
d="M76.5 36.5q-48.5 44.5 -48.5 121.5q0 9 2 31l40 323q10 90 72 143t154 53q84 0 133 -45t49 -122q0 -9 -2 -31l-5 -37q-1 -5 -4.5 -8.5t-8.5 -3.5h-138q-5 0 -8 3.5t-2 8.5l5 39l1 10q0 20 -10 32t-27 12q-19 0 -32 -15t-16 -39l-40 -324l-1 -11q0 -20 10 -31.5t26 -11.5
q19 0 32.5 15t16.5 39l8 64q2 5 -4 5h-25q-5 0 -8 3.5t-2 8.5l13 106q0 5 4 8.5t9 3.5h179q5 0 8 -3.5t2 -8.5l-23 -186q-10 -90 -72.5 -143.5t-154.5 -53.5q-84 0 -132.5 44.5z" />
    <glyph glyph-name="H" unicode="H" horiz-adv-x="469" 
d="M344 696.5q4 3.5 9 3.5h137q11 0 11 -12l-83 -676q-1 -5 -5 -8.5t-9 -3.5h-137q-5 0 -8 3.5t-2 8.5l32 262q0 5 -4 5h-70q-4 0 -6 -5l-32 -262q-1 -5 -4.5 -8.5t-8.5 -3.5h-138q-5 0 -8 3.5t-2 8.5l83 676q1 5 4.5 8.5t8.5 3.5h138q5 0 8 -3.5t2 -8.5l-32 -261q0 -5 4 -5
h70q4 0 6 5l32 261q0 5 4 8.5z" />
    <glyph glyph-name="I" unicode="I" horiz-adv-x="228" 
d="M18 3.5q-3 3.5 -2 8.5l83 676q1 5 4.5 8.5t8.5 3.5h138q5 0 8 -3.5t2 -8.5l-83 -676q-1 -5 -4.5 -8.5t-8.5 -3.5h-138q-5 0 -8 3.5z" />
    <glyph glyph-name="J" unicode="J" horiz-adv-x="448" 
d="M60.5 37q-48.5 45 -48.5 121q0 8 2 28l8 65q1 5 4.5 8.5t8.5 3.5h138q5 0 8 -3.5t2 -8.5l-8 -67l-1 -10q0 -18 9.5 -29t25.5 -11q18 0 31.5 14t15.5 36l62 504q1 5 4.5 8.5t8.5 3.5h138q5 0 8 -3.5t2 -8.5l-61 -502q-11 -87 -73.5 -140.5t-153.5 -53.5q-82 0 -130.5 45z
" />
    <glyph glyph-name="K" unicode="K" horiz-adv-x="490" 
d="M18 3.5q-3 3.5 -2 8.5l83 676q1 5 4.5 8.5t8.5 3.5h138q5 0 8 -3.5t2 -8.5l-28 -226q0 -4 2 -4t4 3l130 230q5 9 15 9h145q7 0 9 -3.5t-2 -10.5l-176 -294q-1 -1 -2 -2.5t0 -3.5l102 -372l1 -4q0 -4 -3.5 -7t-8.5 -3h-146q-11 0 -13 9l-58 234q-1 3 -3 3t-4 -3l-22 -36
q-2 -4 -2 -6l-23 -189q-1 -5 -4.5 -8.5t-8.5 -3.5h-138q-5 0 -8 3.5z" />
    <glyph glyph-name="L" unicode="L" horiz-adv-x="423" 
d="M18 3.5q-3 3.5 -2 8.5l83 676q1 5 4.5 8.5t8.5 3.5h138q5 0 8 -3.5t2 -8.5l-66 -541q-2 -5 4 -5h198q5 0 8 -3.5t2 -8.5l-15 -118q0 -5 -4 -8.5t-9 -3.5h-352q-5 0 -8 3.5z" />
    <glyph glyph-name="M" unicode="M" horiz-adv-x="541" 
d="M431 700h135q5 0 8 -3.5t2 -8.5l-83 -676q-1 -5 -4.5 -8.5t-8.5 -3.5h-138q-5 0 -8 3.5t-2 8.5l53 429q1 4 -1.5 4.5t-4.5 -2.5l-83 -122q-4 -8 -6 -8q-3 0 -6 8l-53 122q-2 3 -3.5 3t-2.5 -4l-53 -430q-1 -5 -4.5 -8.5t-8.5 -3.5h-138q-5 0 -8 3.5t-2 8.5l83 676
q1 5 4.5 8.5t8.5 3.5h136q9 0 14 -8l59 -145q3 -4 6 0l94 145q4 8 15 8z" />
    <glyph glyph-name="N" unicode="N" horiz-adv-x="506" 
d="M382.5 696.5q3.5 3.5 8.5 3.5h136q5 0 8 -3.5t2 -8.5l-83 -676q0 -5 -4 -8.5t-9 -3.5h-154q-10 0 -12 10l-54 348q0 3 -2.5 3.5t-2.5 -3.5l-41 -346q-1 -5 -4.5 -8.5t-8.5 -3.5h-136q-5 0 -8 3.5t-2 8.5l83 676q1 5 4.5 8.5t8.5 3.5h152q11 0 13 -10l54 -350q0 -3 2.5 -3
t3.5 4l41 347q1 5 4.5 8.5z" />
    <glyph glyph-name="O" unicode="O" horiz-adv-x="464" 
d="M77.5 38.5q-48.5 46.5 -48.5 127.5q0 11 2 33l37 302q12 95 74.5 151t156.5 56q85 0 134.5 -47t49.5 -128q0 -10 -2 -32l-38 -302q-11 -95 -74.5 -151t-157.5 -56q-85 0 -133.5 46.5zM264 149.5q14 15.5 18 42.5l38 316q1 5 1 13q0 21 -10 33t-29 12q-21 0 -35 -16
t-17 -42l-39 -316l-1 -11q0 -22 10 -34.5t29 -12.5q21 0 35 15.5z" />
    <glyph glyph-name="P" unicode="P" horiz-adv-x="459" 
d="M441 650.5q45 -49.5 45 -132.5q0 -24 -2 -37q-12 -95 -69.5 -152.5t-139.5 -57.5h-63q-4 0 -6 -5l-31 -254q-1 -5 -4.5 -8.5t-8.5 -3.5h-138q-5 0 -8 3.5t-2 8.5l83 676q1 5 4.5 8.5t8.5 3.5h210q76 0 121 -49.5zM304 424.5q19 25.5 19 71.5q0 30 -13 46t-36 16h-27
q-5 0 -5 -5l-19 -149q0 -5 4 -5h28q30 0 49 25.5z" />
    <glyph glyph-name="Q" unicode="Q" horiz-adv-x="453" 
d="M423.5 659.5q47.5 -48.5 47.5 -130.5q0 -24 -2 -36l-35 -286q-9 -71 -46.5 -123t-95.5 -75q-3 -2 -5 -6l-10 -83q-1 -5 -4.5 -8.5t-8.5 -3.5h-138q-5 0 -8 3.5t-2 8.5l10 83q2 3 -3 6q-44 20 -68.5 63t-24.5 101q0 10 2 34l35 286q12 97 74 156t153 59q82 0 129.5 -48.5z
M191 189l-1 -11q0 -20 9 -32t24 -12q19 0 32 15.5t16 39.5l39 322l1 11q0 20 -9.5 32t-25.5 12q-17 0 -30 -15.5t-15 -39.5z" />
    <glyph glyph-name="R" unicode="R" horiz-adv-x="467" 
d="M267 10l-33 265q-1 4 -5 4h-14q-4 0 -6 -5l-32 -262q-1 -5 -4.5 -8.5t-8.5 -3.5h-138q-5 0 -8 3.5t-2 8.5l83 676q1 5 4.5 8.5t8.5 3.5h209q77 0 121.5 -49t44.5 -131q0 -24 -2 -37q-7 -56 -32.5 -100.5t-64.5 -71.5q-2 -1 -3 -2.5t0 -3.5l47 -291v-2q0 -12 -11 -12h-142
q-11 0 -12 10zM243 553l-17 -142q0 -5 4 -5h27q30 0 49 24.5t19 67.5q0 29 -13 44.5t-36 15.5h-27q-4 0 -6 -5z" />
    <glyph glyph-name="S" unicode="S" 
d="M73.5 35.5q-47.5 43.5 -47.5 115.5q0 9 2 27l3 31q1 5 5 8.5t9 3.5h135q11 0 11 -12l-3 -23l-1 -10q0 -19 9.5 -30.5t24.5 -11.5q19 0 32.5 15.5t13.5 40.5q0 19 -15.5 37t-59.5 54q-42 34 -67 59t-43.5 61.5t-18.5 83.5q0 65 29 116t80 79t115 28q81 0 129 -45.5
t48 -121.5q0 -9 -2 -29l-3 -24q-1 -5 -5 -8.5t-9 -3.5h-134q-11 0 -11 12l4 28q2 22 -7.5 36t-27.5 14q-19 0 -32.5 -17t-13.5 -43q0 -21 15.5 -40.5t56.5 -53.5q51 -43 76.5 -69.5t41 -57t15.5 -69.5q0 -8 -2 -28q-11 -90 -72.5 -143t-150.5 -53q-82 0 -129.5 43.5z" />
    <glyph glyph-name="T" unicode="T" horiz-adv-x="470" 
d="M513 696.5q3 -3.5 2 -8.5l-14 -118q-1 -5 -4.5 -8.5t-8.5 -3.5h-121q-5 0 -5 -5l-67 -541q0 -5 -4 -8.5t-9 -3.5h-137q-11 0 -11 12l67 541q0 5 -4 5h-116q-5 0 -8 3.5t-2 8.5l14 118q1 5 5 8.5t9 3.5h406q5 0 8 -3.5z" />
    <glyph glyph-name="U" unicode="U" horiz-adv-x="466" 
d="M82.5 40q-47.5 48 -47.5 129q0 23 2 35l59 484q1 5 4.5 8.5t8.5 3.5h138q5 0 8 -3.5t2 -8.5l-61 -500l-1 -11q0 -20 9.5 -31.5t25.5 -11.5q19 0 31.5 15t15.5 39l62 500q0 5 4 8.5t9 3.5h137q11 0 11 -12l-60 -484q-12 -96 -74.5 -154t-153.5 -58q-82 0 -129.5 48z" />
    <glyph glyph-name="V" unicode="V" horiz-adv-x="490" 
d="M141 3q-3 3 -3 8l-55 676q0 13 12 13h150q11 0 11 -11l7 -399q0 -4 2.5 -3.5t2.5 3.5l101 399q3 11 14 11h146q12 0 8 -13l-221 -676q-3 -11 -14 -11h-153q-5 0 -8 3z" />
    <glyph glyph-name="W" unicode="W" horiz-adv-x="685" 
d="M131 11l-49 676q0 13 12 13h142q12 0 12 -11l3 -329q0 -3 2.5 -3t3.5 3l84 329q3 11 14 11h113q11 0 11 -11l8 -329q1 -3 3 -3t2 3l81 329q1 11 12 11h140q12 0 9 -13l-208 -676q-3 -11 -14 -11h-124q-11 0 -11 11l-7 342q0 3 -2.5 3t-3.5 -3l-84 -342q-3 -11 -13 -11
h-124q-12 0 -12 11z" />
    <glyph glyph-name="X" unicode="X" horiz-adv-x="475" 
d="M2.5 4q-1.5 4 1.5 10l171 333q1 3 0 6l-89 333l-1 4q0 4 3.5 7t8.5 3h140q9 0 12 -10l32 -165q0 -4 2.5 -4t3.5 4l71 165q5 10 14 10h140q7 0 8.5 -4t-1.5 -10l-171 -333l-1 -6l89 -333l1 -4q0 -10 -11 -10h-139q-9 0 -11 10l-33 164q0 4 -2 3.5t-3 -3.5l-74 -164
q-3 -10 -14 -10h-139q-7 0 -8.5 4z" />
    <glyph glyph-name="Y" unicode="Y" horiz-adv-x="477" 
d="M139 14l31 246l-1 6l-84 420v4q0 10 11 10h145q9 0 11 -11l22 -220q0 -4 2.5 -4t3.5 4l75 220q5 11 14 11h146q6 0 8 -4t-1 -10l-190 -420l-1 -6l-31 -246q0 -5 -4 -8.5t-9 -3.5h-137q-11 0 -11 12z" />
    <glyph glyph-name="Z" unicode="Z" horiz-adv-x="406" 
d="M0 3.5q-3 3.5 -2 8.5l15 122q0 4 2 8.5t3 6.5l246 403q1 3 0 4.5t-3 1.5h-185q-5 0 -8 3.5t-2 8.5l15 118q0 5 4 8.5t9 3.5h349q5 0 8 -3.5t2 -8.5l-15 -122q-1 -7 -6 -15l-247 -403q-3 -6 3 -6h186q11 0 11 -12l-15 -118q-1 -5 -4.5 -8.5t-8.5 -3.5h-349q-5 0 -8 3.5z
" />
    <glyph glyph-name="bracketleft" unicode="[" horiz-adv-x="349" 
d="M-7 -152.5q-3 3.5 -2 8.5l116 942q1 5 4.5 8.5t8.5 3.5h216q5 0 8 -3.5t2 -8.5l-14 -119q-1 -5 -4.5 -8.5t-8.5 -3.5h-63q-2 0 -3.5 -1.5t-1.5 -3.5l-82 -670q-2 -5 4 -5h62q5 0 8 -3.5t2 -8.5l-14 -119q-1 -5 -4.5 -8.5t-8.5 -3.5h-217q-5 0 -8 3.5z" />
    <glyph glyph-name="backslash" unicode="\" horiz-adv-x="431" 
d="M398 10q0 -10 -11 -10h-137q-9 0 -11 10l-143 676v3q0 5 3 8t8 3h137q9 0 11 -10l143 -676v-4z" />
    <glyph glyph-name="bracketright" unicode="]" horiz-adv-x="349" 
d="M279.5 -152.5q-3.5 -3.5 -8.5 -3.5h-216q-11 0 -11 12l15 119q1 5 4.5 8.5t8.5 3.5h62q4 0 6 5l82 670q0 5 -4 5h-62q-11 0 -11 12l15 119q1 5 4.5 8.5t8.5 3.5h216q5 0 8.5 -3.5t2.5 -8.5l-116 -942q-1 -5 -4.5 -8.5z" />
    <glyph glyph-name="asciicircum" unicode="^" horiz-adv-x="419" 
d="M43 298q-2 4 0 10l161 382q5 10 14 10h113q10 0 12 -10l70 -382v-4q0 -10 -11 -10h-111q-11 0 -12 10l-23 205q-1 3 -3 3t-3 -3l-74 -205q-4 -10 -15 -10h-110q-6 0 -8 4z" />
    <glyph glyph-name="underscore" unicode="_" horiz-adv-x="424" 
d="M-5 3.5q-3 3.5 -2 8.5l12 100q1 5 4.5 8.5t8.5 3.5h379q11 0 11 -12l-13 -100q-1 -5 -4.5 -8.5t-8.5 -3.5h-379q-5 0 -8 3.5z" />
    <glyph glyph-name="grave" unicode="`" horiz-adv-x="227" 
d="M263 587q0 -9 -12 -9h-88q-8 0 -14 7l-63 100q-2 4 -2 6q0 4 3.5 6.5t8.5 2.5h108q10 0 13 -8l45 -100q1 -2 1 -5z" />
    <glyph glyph-name="a" unicode="a" horiz-adv-x="439" 
d="M297.5 513.5q3.5 3.5 8.5 3.5h138q5 0 8 -3.5t2 -8.5l-61 -493q-1 -5 -4.5 -8.5t-8.5 -3.5h-138q-5 0 -8 3.5t-2 8.5l4 26q0 4 -2 4t-4 -3q-34 -47 -94 -47q-115 0 -115 129q0 22 3 44l23 187q22 173 154 173q60 0 83 -48q1 -4 3 -3.5t3 4.5l3 27q1 5 4.5 8.5zM240 146
q11 12 13 32l19 161q1 3 1 10q0 15 -8 24.5t-21 9.5q-14 0 -24.5 -12t-12.5 -32l-20 -161q-2 -20 5 -32t21 -12q16 0 27 12z" />
    <glyph glyph-name="b" unicode="b" horiz-adv-x="439" 
d="M443 396q0 -20 -3 -44l-23 -187q-21 -173 -154 -173q-56 0 -83 42q-2 2 -4 1.5t-2 -3.5l-3 -20q-1 -5 -4.5 -8.5t-8.5 -3.5h-138q-5 0 -8 3.5t-2 8.5l83 676q1 5 4.5 8.5t8.5 3.5h138q5 0 8 -3.5t2 -8.5l-25 -206q0 -2 1 -2q3 0 12 9q36 36 86 36q115 0 115 -129z
M278 349q0 16 -7.5 25t-19.5 9q-16 0 -26.5 -12t-13.5 -32l-19 -161q-1 -3 -1 -10q0 -15 8 -24.5t21 -9.5q15 0 25 12t13 32l19 161q1 4 1 10z" />
    <glyph glyph-name="c" unicode="c" horiz-adv-x="432" 
d="M68 30.5q-46 38.5 -46 107.5q0 9 2 27l23 187q10 78 67.5 125.5t148.5 47.5q83 0 129 -39.5t46 -105.5q0 -7 -2 -25l-2 -22q-1 -5 -4.5 -8.5t-8.5 -3.5l-139 -6q-11 0 -10 12l2 15q2 17 -6 29t-22 12q-15 0 -26 -12.5t-13 -31.5l-20 -161q-2 -20 5.5 -32t22.5 -12
t25.5 12t12.5 30l2 15q1 5 4.5 8.5t8.5 3.5l138 -1q5 0 8 -3.5t2 -8.5l-3 -27q-10 -80 -66.5 -125.5t-148.5 -45.5q-84 0 -130 38.5z" />
    <glyph glyph-name="d" unicode="d" horiz-adv-x="439" 
d="M319.5 696.5q3.5 3.5 8.5 3.5h138q5 0 8 -3.5t2 -8.5l-83 -676q-1 -5 -4.5 -8.5t-8.5 -3.5h-138q-5 0 -8 3.5t-2 8.5l3 20q0 3 -2 3.5t-4 -1.5q-36 -42 -93 -42q-115 0 -115 129q0 22 3 44l23 187q22 173 154 173q57 0 83 -44q2 -3 4 -2.5t2 3.5l25 206q1 5 4.5 8.5z
M240 146q11 12 13 32l19 161q1 3 1 10q0 15 -8 24.5t-21 9.5q-14 0 -24.5 -12t-12.5 -32l-20 -161q-2 -20 5 -32t21 -12q16 0 27 12z" />
    <glyph glyph-name="e" unicode="e" horiz-adv-x="433" 
d="M416 216.5q-4 -3.5 -9 -3.5h-211q-4 0 -6 -5l-3 -30q-2 -20 5.5 -32t22.5 -12q25 0 39 35q3 11 14 11l132 -8q5 0 8 -3.5t2 -9.5q-15 -84 -67.5 -125.5t-144.5 -41.5q-84 0 -130 38.5t-46 107.5q0 9 2 27l23 187q10 78 67.5 125.5t148.5 47.5q83 0 129 -39.5t46 -107.5
q0 -8 -2 -26l-16 -127q0 -5 -4 -8.5zM220 370.5q-11 -12.5 -13 -31.5l-4 -31q-2 -5 4 -5h57q4 0 6 5l3 31q1 3 1 10q0 15 -7.5 24.5t-20.5 9.5q-15 0 -26 -12.5z" />
    <glyph glyph-name="f" unicode="f" horiz-adv-x="296" 
d="M321 513.5q3 -3.5 2 -8.5l-11 -91q-1 -5 -4.5 -8.5t-8.5 -3.5h-47q-5 0 -5 -5l-48 -385q-1 -5 -4.5 -8.5t-8.5 -3.5h-137q-5 0 -8 3.5t-2 8.5l48 385q0 5 -5 5h-26q-5 0 -8 3.5t-2 8.5l11 91q1 5 4.5 8.5t8.5 3.5h26q6 0 6 5l4 30q10 83 56.5 116.5t133.5 33.5l30 -1
q5 0 7.5 -3.5t1.5 -8.5l-11 -91q-2 -12 -11 -12q-21 -1 -34 -14t-15 -34l-2 -16q0 -5 4 -5h47q5 0 8 -3.5z" />
    <glyph glyph-name="g" unicode="g" horiz-adv-x="438" 
d="M297.5 513.5q3.5 3.5 8.5 3.5h138q5 0 8 -3.5t2 -8.5l-58 -475q-14 -114 -74.5 -176.5t-200.5 -62.5q-16 0 -52 2q-12 1 -10 13l14 119q1 6 5 9t9 2l23 -1q66 0 91.5 23.5t33.5 73.5q0 4 -2 4.5t-5 -2.5q-36 -40 -92 -40q-115 0 -115 130q0 21 3 43l23 185
q22 173 154 173q59 0 83 -45q1 -3 3 -2.5t3 3.5l3 24q1 5 4.5 8.5zM240 149q11 12 13 31l19 159q1 3 1 10q0 15 -8 24.5t-21 9.5q-14 0 -24.5 -12t-12.5 -32l-20 -159q-2 -20 5 -31.5t22 -11.5t26 12z" />
    <glyph glyph-name="h" unicode="h" 
d="M413 490.5q29 -34.5 29 -98.5q0 -20 -3 -43l-42 -337q-1 -5 -4.5 -8.5t-8.5 -3.5h-138q-5 0 -8 3.5t-2 8.5l40 326q1 5 1 13q0 32 -26 32q-16 0 -26.5 -12t-13.5 -34l-40 -325q-1 -5 -4.5 -8.5t-8.5 -3.5h-138q-5 0 -8 3.5t-2 8.5l83 676q1 5 4.5 8.5t8.5 3.5h138
q5 0 8 -3.5t2 -8.5l-25 -203q0 -2 2 -2q3 0 9 6q34 36 85 36q59 0 88 -34.5z" />
    <glyph glyph-name="i" unicode="i" horiz-adv-x="216" 
d="M103 584q-20 21 -20 54q0 43 27.5 71t67.5 28q33 0 53.5 -20t20.5 -53q0 -43 -27.5 -72t-68.5 -29q-33 0 -53 21zM12 3.5q-3 3.5 -2 8.5l61 493q1 5 4.5 8.5t8.5 3.5h138q5 0 8 -3.5t2 -8.5l-61 -493q-1 -5 -4.5 -8.5t-8.5 -3.5h-138q-5 0 -8 3.5z" />
    <glyph glyph-name="j" unicode="j" horiz-adv-x="216" 
d="M104.5 584q-20.5 21 -20.5 54q0 43 28 71t68 28q33 0 53.5 -20t20.5 -53q0 -43 -27.5 -72t-68.5 -29q-33 0 -53.5 21zM-105 -198.5q-3 3.5 -2 8.5l15 117q1 7 5.5 9t13.5 2q42 0 60.5 19.5t23.5 57.5l60 490q1 5 4.5 8.5t8.5 3.5h138q5 0 8 -3.5t2 -8.5l-60 -490
q-10 -83 -29 -127t-74 -68t-166 -22q-5 0 -8 3.5z" />
    <glyph glyph-name="k" unicode="k" horiz-adv-x="451" 
d="M12 3.5q-3 3.5 -2 8.5l83 676q1 5 4.5 8.5t8.5 3.5h138q5 0 8 -3.5t2 -8.5l-37 -306q-1 -4 1 -4.5t4 2.5l81 128q6 9 15 9h141q9 0 9 -6q0 -3 -3 -8l-129 -179q-3 -3 -2 -7l81 -303l1 -4q0 -4 -3.5 -7t-8.5 -3h-141q-9 0 -12 10l-32 171q0 4 -2.5 4t-4.5 -3l-22 -35
q-1 -1 -2 -2.5t-1 -3.5l-16 -129q-1 -5 -4.5 -8.5t-8.5 -3.5h-138q-5 0 -8 3.5z" />
    <glyph glyph-name="l" unicode="l" horiz-adv-x="213" 
d="M10 3.5q-3 3.5 -2 8.5l83 676q1 5 4.5 8.5t8.5 3.5h138q5 0 8 -3.5t2 -8.5l-83 -676q-1 -5 -4.5 -8.5t-8.5 -3.5h-138q-5 0 -8 3.5z" />
    <glyph glyph-name="m" unicode="m" horiz-adv-x="665" 
d="M666 391q0 -20 -3 -43l-42 -336q-1 -5 -4.5 -8.5t-8.5 -3.5h-138q-5 0 -8 3.5t-2 8.5l40 324q1 4 1 12q0 17 -7 26t-19 9q-33 0 -39 -46l-40 -325q-1 -5 -4.5 -8.5t-8.5 -3.5h-138q-5 0 -8 3.5t-2 8.5l40 324q1 4 1 12q0 17 -7 26t-19 9q-16 0 -26 -12t-13 -34l-40 -325
q-1 -5 -4.5 -8.5t-8.5 -3.5h-138q-5 0 -8 3.5t-2 8.5l61 493q1 5 4.5 8.5t8.5 3.5h138q5 0 8 -3.5t2 -8.5l-1 -10q-1 -3 1 -4t4 1q39 33 88 33q77 0 103 -59q0 -1 2 -1q4 0 8 6q43 54 112 54q117 0 117 -134z" />
    <glyph glyph-name="n" unicode="n" 
d="M413 490.5q29 -34.5 29 -98.5q0 -20 -3 -43l-42 -337q-1 -5 -4.5 -8.5t-8.5 -3.5h-138q-5 0 -8 3.5t-2 8.5l40 326q1 5 1 13q0 32 -26 32q-16 0 -26.5 -12t-13.5 -34l-40 -325q-1 -5 -4.5 -8.5t-8.5 -3.5h-138q-5 0 -8 3.5t-2 8.5l61 493q1 5 4.5 8.5t8.5 3.5h138
q5 0 8 -3.5t2 -8.5l-3 -20q0 -2 2 -2q3 0 9 6q34 36 85 36q59 0 88 -34.5z" />
    <glyph glyph-name="o" unicode="o" horiz-adv-x="439" 
d="M68.5 30.5q-46.5 38.5 -46.5 107.5q0 9 2 27l23 187q10 79 67.5 126t149.5 47q84 0 130.5 -39.5t46.5 -107.5q0 -8 -2 -26l-23 -187q-10 -81 -67 -127t-150 -46q-84 0 -130.5 38.5zM243 147q11 12 14 32l19 160l1 9q0 16 -8 25.5t-22 9.5q-16 0 -27 -12t-13 -32l-20 -160
q-2 -20 6 -32t23 -12q16 0 27 12z" />
    <glyph glyph-name="p" unicode="p" horiz-adv-x="442" 
d="M446 396q0 -21 -3 -44l-23 -187q-22 -173 -154 -173q-57 0 -83 44q-2 3 -4 2.5t-2 -3.5l-25 -206q-1 -5 -4.5 -8.5t-8.5 -3.5h-138q-5 0 -8 3.5t-2 8.5l83 676q1 5 4.5 8.5t8.5 3.5h137q5 0 8.5 -3.5t2.5 -8.5l-3 -20q0 -2 2 -2q3 0 11 8q35 34 86 34q115 0 115 -129z
M275 371q-7 12 -21 12q-16 0 -27 -12t-13 -32l-19 -161q-1 -3 -1 -10q0 -15 8 -24.5t21 -9.5q14 0 24.5 12t12.5 32l20 161q2 20 -5 32z" />
    <glyph glyph-name="q" unicode="q" horiz-adv-x="442" 
d="M297.5 513.5q3.5 3.5 8.5 3.5h138q5 0 8 -3.5t2 -8.5l-83 -676q-1 -5 -4.5 -8.5t-8.5 -3.5h-138q-5 0 -8 3.5t-2 8.5l25 206q1 3 -1 3.5t-5 -2.5q-36 -44 -93 -44q-115 0 -115 129q0 20 3 44l23 187q21 173 154 173q56 0 83 -42q2 -2 4 -1.5t2 3.5l3 20q1 5 4.5 8.5z
M240 146q11 12 13 32l19 161q1 3 1 10q0 15 -8 24.5t-21 9.5q-14 0 -24.5 -12t-12.5 -32l-20 -161q-2 -20 5 -32t21 -12q16 0 27 12z" />
    <glyph glyph-name="r" unicode="r" horiz-adv-x="326" 
d="M358 513q6 -6 4 -15l-40 -141q-3 -11 -14 -8q-14 4 -24 4q-17 0 -32 -6q-18 -6 -31.5 -25t-16.5 -42l-33 -267q-1 -5 -4.5 -8.5t-8.5 -3.5h-138q-5 0 -8 3.5t-2 8.5l61 492q1 5 4.5 8.5t8.5 3.5h138q5 0 8 -3.5t2 -8.5l-4 -32q-1 -4 0.5 -4.5t3.5 2.5q32 53 86 53
q23 0 40 -11z" />
    <glyph glyph-name="s" unicode="s" horiz-adv-x="413" 
d="M62 29.5q-47 37.5 -47 100.5q0 13 1 20l1 6q1 5 4.5 8.5t8.5 3.5h130q5 0 8 -3.5t2 -8.5v-2q-2 -18 8.5 -28.5t25.5 -10.5t24 9.5t9 24.5q0 16 -16 25.5t-48 20.5l-19 6q-45 16 -76 48.5t-31 88.5q0 15 1 23q10 76 65 120t137 44q77 0 121.5 -40t44.5 -107q0 -8 -2 -26
q-2 -11 -13 -11h-126q-5 0 -8 3.5t-2 8.5v8q2 16 -5.5 25.5t-21.5 9.5q-17 0 -26.5 -12.5t-9.5 -27.5q0 -19 18.5 -31t48.5 -22q59 -20 95 -49.5t36 -85.5q0 -80 -58.5 -128t-151.5 -48q-81 0 -128 37.5z" />
    <glyph glyph-name="t" unicode="t" horiz-adv-x="290" 
d="M302.5 405.5q-3.5 -3.5 -8.5 -3.5h-50q-5 0 -5 -5l-26 -214l-1 -11q0 -17 8.5 -23.5t24.5 -5.5h4q11 0 11 -12l-15 -119q-1 -5 -4.5 -8.5t-8.5 -3.5h-44q-69 0 -104.5 19.5t-35.5 73.5q0 8 2 24l35 280q0 5 -5 5h-31q-5 0 -8 3.5t-2 8.5l11 91q1 5 4.5 8.5t8.5 3.5h32
q2 0 3.5 1.5t1.5 3.5l14 111q0 5 4 8.5t9 3.5h131q5 0 8 -3.5t2 -8.5l-14 -111q0 -5 4 -5h50q5 0 8 -3.5t2 -8.5l-11 -91q-1 -5 -4.5 -8.5z" />
    <glyph glyph-name="u" unicode="u" 
d="M299.5 513.5q3.5 3.5 8.5 3.5h138q5 0 8 -3.5t2 -8.5l-61 -493q-1 -5 -4.5 -8.5t-8.5 -3.5h-138q-5 0 -8 3.5t-2 8.5l2 13q0 7 -6 1q-17 -19 -38.5 -26.5t-49.5 -7.5q-52 0 -86 30t-34 93q0 8 2 28l45 362q1 5 4.5 8.5t8.5 3.5h138q5 0 8 -3.5t2 -8.5l-40 -325
q-1 -5 -1 -13q0 -32 26 -32q34 0 40 46l40 324q1 5 4.5 8.5z" />
    <glyph glyph-name="v" unicode="v" horiz-adv-x="442" 
d="M112 10l-56 495v2q0 11 12 11h151q10 0 10 -11l2 -249q-1 -3 2 -3t3 3l63 249q3 11 13 11l151 -2q13 0 9 -13l-177 -493q-4 -10 -15 -10h-156q-11 0 -12 10z" />
    <glyph glyph-name="w" unicode="w" horiz-adv-x="615" 
d="M100 11l-44 494v2q0 11 12 11h131q11 0 11 -11l1 -250q0 -3 2.5 -3t3.5 3l64 250q1 11 13 11h117q11 0 11 -11l4 -250q1 -4 3.5 -3.5t2.5 3.5l63 250q3 11 13 11l129 -2q12 0 8 -13l-164 -492q-3 -11 -14 -11h-134q-12 0 -12 11l-5 214q-1 4 -3 4t-3 -4l-56 -214
q-3 -11 -14 -11h-128q-12 0 -12 11z" />
    <glyph glyph-name="x" unicode="x" horiz-adv-x="448" 
d="M-5 3.5q-2 3.5 2 10.5l138 242q2 3 1 6l-79 241q-1 2 -1 5q0 9 11 9h150q11 0 12 -9l24 -92q2 -7 6 0l46 92q5 9 15 9h149q7 0 9 -3.5t-2 -10.5l-138 -241q-2 -3 -1 -6l79 -242q1 -2 1 -5q0 -9 -12 -9h-149q-10 0 -12 9l-24 95q0 3 -2 3t-3 -3l-47 -95q-4 -9 -15 -9h-149
q-7 0 -9 3.5z" />
    <glyph glyph-name="y" unicode="y" horiz-adv-x="429" 
d="M-13 -187l13 112q2 12 11 12q51 0 75 12t28 48v6l-61 502v2q0 11 13 11h148q10 0 10 -11l-1 -263q-1 -3 2 -2.5t4 3.5l61 262q3 11 13 11l148 -2q13 0 9 -13l-188 -513q-29 -75 -57.5 -113.5t-78.5 -57t-139 -18.5h-6q-6 0 -4 12z" />
    <glyph glyph-name="z" unicode="z" horiz-adv-x="366" 
d="M-3 3.5q-3 3.5 -2 8.5l16 130q0 5 6 15l158 204q2 2 1.5 4t-3.5 2h-117q-5 0 -8 3.5t-2 8.5l15 126q1 5 4.5 8.5t8.5 3.5h305q5 0 8 -3.5t2 -8.5l-16 -130q-1 -8 -7 -15l-166 -204q-2 -2 -1.5 -4t3.5 -2h139q11 0 11 -12l-16 -126q-1 -5 -4.5 -8.5t-8.5 -3.5h-318
q-5 0 -8 3.5z" />
    <glyph glyph-name="braceleft" unicode="{" horiz-adv-x="359" 
d="M103.5 -128.5q-29.5 27.5 -29.5 77.5q0 14 1 22l25 203q2 16 2 23q0 61 -49 66q-12 1 -10 13l13 106q0 11 13 13q58 6 69 88l24 200q8 59 46 93t98 34h92q5 0 8 -3.5t2 -8.5l-14 -119q-1 -5 -4.5 -8.5t-8.5 -3.5h-15q-18 0 -33.5 -17t-18.5 -42l-18 -149
q-12 -97 -73 -127q-5 -3 0 -6q43 -24 43 -94q0 -9 -2 -33l-19 -153q-3 -25 8 -42t30 -17h14q5 0 8 -3.5t2 -8.5l-14 -119q-1 -5 -4.5 -8.5t-8.5 -3.5h-93q-54 0 -83.5 27.5z" />
    <glyph glyph-name="bar" unicode="|" horiz-adv-x="195" 
d="M-9 -76.5q-3 3.5 -2 8.5l100 816q1 5 4.5 8.5t8.5 3.5h138q5 0 8 -3.5t2 -8.5l-100 -816q-1 -5 -4.5 -8.5t-8.5 -3.5h-138q-5 0 -8 3.5z" />
    <glyph glyph-name="braceright" unicode="}" horiz-adv-x="359" 
d="M1 -156q-5 0 -8 3.5t-2 8.5l15 119q1 5 4.5 8.5t8.5 3.5h15q19 0 34 17t18 42l19 153q12 97 72 127q5 3 0 6q-42 24 -42 94q0 9 2 33l18 149q3 25 -8 42t-29 17h-16q-5 0 -8 3.5t-2 8.5l15 119q1 5 4.5 8.5t8.5 3.5h93q53 0 83 -28t30 -77q0 -14 -1 -22l-24 -200
q-2 -16 -2 -23q0 -60 48 -65q12 -1 10 -13l-13 -106q-2 -12 -13 -13q-57 -6 -68 -89l-25 -203q-8 -59 -46 -93t-98 -34h-93z" />
    <glyph glyph-name="asciitilde" unicode="~" horiz-adv-x="485" 
d="M288.5 197.5q-15.5 6.5 -34.5 18.5q-5 4 -18.5 13.5t-24 14t-20.5 4.5q-34 0 -65 -35q-8 -10 -16 -4l-69 47q-8 6 -4 16q22 51 65.5 85t90.5 34q21 0 37.5 -6.5t34.5 -19.5q5 -3 18.5 -12.5t25 -14t22.5 -4.5q27 0 55 35q7 10 16 4l73 -51q8 -7 3 -16q-29 -49 -70 -82
t-84 -33q-20 0 -35.5 6.5z" />
    <glyph glyph-name="uni00A0" unicode="&#xa0;" horiz-adv-x="194" 
 />
    <glyph glyph-name="exclamdown" unicode="&#xa1;" horiz-adv-x="281" 
d="M261.5 687q20.5 -21 20.5 -54q0 -42 -28 -70.5t-67 -28.5q-34 0 -54.5 20.5t-20.5 53.5q0 42 28 71t68 29q33 0 53.5 -21zM116.5 460.5q3.5 3.5 8.5 3.5h104q5 0 8 -3.5t2 -8.5l-37 -431q-1 -12 -13 -12h-137q-12 0 -11 12l71 431q1 5 4.5 8.5z" />
    <glyph glyph-name="cent" unicode="&#xa2;" horiz-adv-x="432" 
d="M440.5 414.5q-3.5 -3.5 -8.5 -3.5l-139 -6q-11 0 -10 12l2 15q2 17 -6 29t-22 12q-15 0 -26 -12.5t-13 -31.5l-20 -161q-2 -20 5.5 -32t22.5 -12t25.5 12t12.5 30l2 15q1 5 4.5 8.5t8.5 3.5l138 -1q5 0 8 -3.5t2 -8.5l-3 -27q-8 -64 -46.5 -106.5t-100.5 -57.5
q-5 -2 -5 -6l-5 -69q-1 -12 -13 -12h-111q-10 0 -9 12l11 70q2 4 -3 6q-53 14 -81 49t-28 88q0 8 2 28l23 187q8 62 46.5 105.5t101.5 59.5q5 2 5 6l5 71q2 12 12 12h112q11 0 9 -12l-13 -71q0 -4 4 -6q53 -14 81 -50t28 -87q0 -7 -2 -25l-2 -22q-1 -5 -4.5 -8.5z" />
    <glyph glyph-name="sterling" unicode="&#xa3;" horiz-adv-x="506" 
d="M240 142h237q5 0 8 -3.5t2 -8.5l-14 -118q-1 -5 -4.5 -8.5t-8.5 -3.5h-400q-5 0 -8 3.5t-2 8.5l15 121q2 10 7 15q17 17 24.5 36.5t10.5 49.5l5 41q2 5 -4 5h-47q-11 0 -11 12l14 109q1 5 4.5 8.5t8.5 3.5h47q6 0 6 5l8 64q13 107 72.5 166.5t149.5 59.5q77 0 120.5 -46
t49.5 -131q0 -11 -11 -13l-135 -15h-2q-8 0 -10 11q-3 52 -31 52q-17 -1 -26.5 -19t-14.5 -56l-9 -73q0 -5 4 -5h123q11 0 11 -12l-14 -109q-1 -5 -4.5 -8.5t-8.5 -3.5h-123q-4 0 -6 -5l-5 -41q-7 -57 -31 -86q-3 -6 3 -6z" />
    <glyph glyph-name="currency" unicode="&#xa4;" horiz-adv-x="569" 
d="M486 204q-3 -4 0 -7l57 -67q3 -3 3 -7q0 -5 -5 -10l-95 -76q-4 -4 -9 -4t-8 4l-52 61q-2 3 -7 1q-48 -23 -99 -23q-50 0 -89 21q-4 1 -7 -1l-66 -59q-4 -4 -8 -4q-5 0 -8 4l-76 76q-3 5 -3 8q0 4 5 9l69 62q3 3 1 7q-14 36 -14 75q0 68 37 129q2 5 -1 7l-55 66q-4 4 -4 7
q0 6 6 10l94 77q4 4 9 4t8 -4l52 -61q1 -3 6 -1q48 23 100 23q54 0 98 -25q5 -1 7 1l69 63q4 4 8 4q5 0 8 -4l77 -77q3 -3 3 -7q0 -5 -5 -10l-79 -71q-2 -2 -2 -7q11 -33 11 -66q0 -69 -36 -128zM235.5 238q21.5 -22 52.5 -22q35 0 63 25.5t33 61.5l1 11q0 33 -21.5 55
t-53.5 22q-37 0 -66.5 -29.5t-29.5 -69.5q0 -32 21.5 -54z" />
    <glyph glyph-name="yen" unicode="&#xa5;" horiz-adv-x="518" 
d="M541 686l-156 -346q-1 -6 3 -6h84q5 0 8 -3.5t2 -8.5l-8 -67q-1 -5 -4.5 -8.5t-8.5 -3.5h-108q-4 0 -6 -5l-3 -28q0 -5 4 -5h108q5 0 8 -3.5t2 -8.5l-8 -66q-1 -5 -4.5 -8.5t-8.5 -3.5h-108q-5 0 -5 -5l-12 -96q-1 -5 -4.5 -8.5t-8.5 -3.5h-138q-5 0 -8 3.5t-2 8.5l12 96
q0 5 -5 5h-108q-5 0 -8 3.5t-2 8.5l8 66q1 5 4.5 8.5t8.5 3.5h108q6 0 6 5l3 28q2 5 -4 5h-109q-5 0 -8 3.5t-2 8.5l9 67q0 5 4 8.5t9 3.5h84q5 0 5 6l-69 346l-1 4q0 10 11 10h146q9 0 11 -11l21 -220q1 -4 3 -4t3 4l77 220q3 11 14 11h144q13 0 7 -14z" />
    <glyph glyph-name="brokenbar" unicode="&#xa6;" horiz-adv-x="195" 
d="M48 388.5q-3 3.5 -2 8.5l43 351q1 5 4.5 8.5t8.5 3.5h138q5 0 8 -3.5t2 -8.5l-43 -351q-1 -5 -4.5 -8.5t-8.5 -3.5h-138q-5 0 -8 3.5zM-9 -76.5q-3 3.5 -2 8.5l43 350q1 5 4.5 8.5t8.5 3.5h138q5 0 8 -3.5t2 -8.5l-43 -350q-1 -5 -4.5 -8.5t-8.5 -3.5h-138q-5 0 -8 3.5z
" />
    <glyph glyph-name="section" unicode="&#xa7;" 
d="M49 -162q-48 40 -48 106q0 14 1 21l3 18q1 5 4.5 8.5t8.5 3.5h138q5 0 8 -3.5t2 -8.5l-1 -6q-2 -16 6.5 -26.5t24.5 -10.5t28.5 12t12.5 28q0 20 -22.5 38.5t-72.5 49.5q-43 26 -67.5 52t-33.5 59q-6 20 -6 43q0 36 10 63.5t31 52.5q20 24 52 44q5 3 2 7q-30 33 -46 62
t-16 65q0 54 28.5 98t79 69t113.5 25q80 0 128.5 -41.5t48.5 -110.5q0 -8 -2 -24l-1 -12q-1 -5 -5 -8.5t-9 -3.5h-137q-11 0 -11 12l1 4q2 18 -7 30t-25 12t-27 -12t-13 -27q-3 -25 13 -41.5t58 -41.5q49 -29 76 -48.5t43 -43.5q17 -31 17 -63q0 -58 -31 -106
q-25 -42 -65 -64q-3 -1 -3 -3t2 -4q30 -29 44.5 -55t14.5 -62q0 -58 -29 -103t-79.5 -69.5t-112.5 -24.5q-81 0 -129 40zM263 222q8 13 11 31v7q0 17 -7 27q-10 13 -25 13q-20 0 -31 -16q-9 -13 -11 -31q-1 -4 -1 -11q0 -11 5 -21q2 -7 9.5 -11t17.5 -4q20 0 32 16z" />
    <glyph glyph-name="dieresis" unicode="&#xa8;" horiz-adv-x="380" 
d="M280.5 584q-20.5 21 -20.5 54q0 43 28 71t68 28q34 0 54 -20t20 -54q0 -42 -28 -71t-67 -29q-34 0 -54.5 21zM89.5 584q-20.5 21 -20.5 54q0 43 28 71t68 28q34 0 54 -20t20 -54q0 -42 -28 -71t-67 -29q-34 0 -54.5 21z" />
    <glyph glyph-name="copyright" unicode="&#xa9;" horiz-adv-x="752" 
d="M194 31.5q-70 39.5 -108.5 110.5t-38.5 162q0 26 3 51q12 99 67.5 180t141 127t184.5 46q91 0 162 -39.5t110 -109t39 -157.5q0 -23 -3 -47q-13 -104 -68.5 -186.5t-141.5 -129.5t-186 -47q-91 0 -161 39.5zM505 117q64 35 105.5 97.5t50.5 140.5q2 13 2 37
q0 65 -29 116.5t-81.5 80.5t-120.5 29q-74 0 -138 -34.5t-105 -94.5t-50 -134q-3 -21 -3 -41q0 -68 29 -120.5t81 -82t120 -29.5q75 0 139 35zM315 202q-24 23 -24 62q0 11 1 17l16 138q6 46 37 73t77 27q42 0 66.5 -22.5t24.5 -61.5q0 -10 -1 -16q-1 -5 -4.5 -8.5
t-8.5 -3.5l-58 -2q-12 0 -11 11l1 9v4q0 8 -4.5 13t-13.5 5t-15 -6.5t-7 -15.5l-19 -151v-5q0 -17 17 -17q10 0 16.5 6t7.5 16l1 8q1 5 4.5 8.5t8.5 3.5l58 -3q11 0 10 -10q-5 -46 -37 -74t-78 -28q-41 0 -65 23z" />
    <glyph glyph-name="ordfeminine" unicode="&#xaa;" horiz-adv-x="289" 
d="M213 567q4 0 6 5l1 14l1 9q0 11 -5.5 17.5t-15.5 6.5q-16 0 -24 -15q-4 -10 -14 -10l-80 3q-5 0 -8 3.5t-2 9.5q10 44 47.5 71t88.5 27q54 0 86 -26t32 -70q0 -9 -1 -14l-28 -224q-1 -5 -4.5 -8.5t-8.5 -3.5h-80q-4 0 -7 2t-3 4q0 3 -2 3.5t-4 -1.5q-19 -13 -47 -13
q-39 0 -67.5 19t-28.5 69q0 13 1 20q8 60 45 81t103 21h19zM195 449q10 7 11 20l1 11q2 5 -4 5h-19q-14 0 -23.5 -6t-10.5 -17v-4q0 -16 22 -16q13 0 23 7zM31 310.5q4 3.5 9 3.5h245q5 0 8 -3.5t2 -8.5l-6 -46q0 -5 -4 -8.5t-9 -3.5h-245q-5 0 -8 3.5t-2 8.5l5 46
q1 5 5 8.5z" />
    <glyph glyph-name="guillemotleft" unicode="&#xab;" horiz-adv-x="440" 
d="M236 116q0 -9 -11 -9h-111q-9 0 -12 9l-52 157l-1 6q0 6 3 10l90 157q5 9 15 9h110q7 0 9 -3.5t-2 -10.5l-94 -157q-1 -3 0 -6l55 -157q1 -2 1 -5zM397 116q0 -9 -11 -9h-111q-9 0 -12 9l-52 157l-1 6q0 6 3 10l90 157q5 9 15 9h110q7 0 9 -3.5t-2 -10.5l-94 -157
q-1 -3 0 -6l55 -157q1 -2 1 -5z" />
    <glyph glyph-name="logicalnot" unicode="&#xac;" horiz-adv-x="424" 
d="M49.5 364.5q3.5 3.5 8.5 3.5h360q5 0 8 -3.5t2 -8.5l-23 -185q-1 -5 -4.5 -8.5t-8.5 -3.5h-97q-5 0 -8 3.5t-2 8.5l8 68q2 5 -4 5h-246q-11 0 -11 12l13 100q1 5 4.5 8.5z" />
    <glyph glyph-name="uni00AD" unicode="&#xad;" horiz-adv-x="327" 
d="M31 222.5q-3 3.5 -2 8.5l15 118q1 5 4.5 8.5t8.5 3.5h264q5 0 8 -3.5t2 -8.5l-15 -118q0 -5 -4 -8.5t-9 -3.5h-264q-5 0 -8 3.5z" />
    <glyph glyph-name="registered" unicode="&#xae;" horiz-adv-x="420" 
d="M370 686.5q40 -22.5 62 -61.5t22 -89q0 -17 -1 -26q-7 -60 -39 -107.5t-80.5 -74.5t-105.5 -27q-79 0 -127.5 49.5t-48.5 128.5q0 9 2 31q7 56 38.5 101.5t80 71.5t105.5 26q52 0 92 -22.5zM337 407q43 40 51 103q1 6 1 17q0 51 -33 83.5t-86 32.5q-42 0 -76.5 -20.5
t-54.5 -56t-20 -77.5q0 -55 32 -88.5t85 -33.5q58 0 101 40zM300 492q-4 -1 -4 -6l13 -58v-3q0 -11 -11 -11h-30q-9 0 -11 10l-10 55q0 1 -1 2.5t-2 1.5q-2 0 -3.5 -1.5t-1.5 -3.5l-6 -52q-1 -5 -4.5 -8.5t-8.5 -3.5h-28q-5 0 -8 3.5t-2 8.5l20 163q1 5 4.5 8.5t8.5 3.5h62
q24 0 38 -14t14 -37q0 -36 -29 -58zM254 557q-4 0 -6 -5l-3 -26q0 -5 4 -5h10q7 0 12.5 5.5t6.5 12.5v2q0 7 -4 11.5t-11 4.5h-9z" />
    <glyph glyph-name="macron" unicode="&#xaf;" horiz-adv-x="272" 
d="M81 579.5q-3 3.5 -2 8.5l11 88q1 5 4.5 8.5t8.5 3.5h196q5 0 8 -3.5t2 -8.5l-11 -88q-1 -5 -4.5 -8.5t-8.5 -3.5h-196q-5 0 -8 3.5z" />
    <glyph glyph-name="degree" unicode="&#xb0;" horiz-adv-x="348" 
d="M109 508q-40 42 -40 106q0 52 25.5 96.5t67.5 71t91 26.5q63 0 103.5 -42t40.5 -105q0 -53 -25.5 -97.5t-68.5 -71t-92 -26.5q-62 0 -102 42zM273.5 594q20.5 22 20.5 53q0 25 -14.5 41.5t-38.5 16.5q-27 0 -48.5 -22.5t-21.5 -52.5q0 -25 15 -41.5t38 -16.5
q29 0 49.5 22z" />
    <glyph glyph-name="plusminus" unicode="&#xb1;" horiz-adv-x="424" 
d="M437 459.5q3 -3.5 2 -8.5l-12 -100q-1 -5 -4.5 -8.5t-8.5 -3.5h-115q-5 0 -5 -5l-15 -118q-1 -5 -4.5 -8.5t-8.5 -3.5h-98q-5 0 -8 3.5t-2 8.5l15 118q0 5 -5 5h-114q-5 0 -8 3.5t-2 8.5l12 100q1 5 4.5 8.5t8.5 3.5h115q2 0 3.5 1.5t1.5 3.5l15 119q0 5 4 8.5t9 3.5h98
q5 0 8 -3.5t2 -8.5l-15 -119q0 -5 4 -5h115q5 0 8 -3.5zM3 17l13 100q1 5 4.5 8.5t8.5 3.5h360q5 0 8 -3.5t2 -8.5l-12 -100q-1 -5 -5 -8.5t-9 -3.5h-359q-11 0 -11 12z" />
    <glyph glyph-name="uni00B2" unicode="&#xb2;" horiz-adv-x="265" 
d="M46 410.5q-3 3.5 -2 8.5l8 70q1 8 7 15l44 46q58 60 79 86q33 42 37 75l1 9q0 11 -4.5 16.5t-11.5 5.5q-9 0 -15 -7.5t-8 -18.5l-3 -22q-1 -5 -4.5 -8.5t-8.5 -3.5h-79q-5 0 -8 3.5t-2 8.5l3 26q9 53 46 82.5t93 29.5q49 0 77 -24t28 -76q0 -7 -2 -27q-4 -31 -13 -54
t-25 -47q-18 -26 -50 -61q-6 -7 -14.5 -17t-19.5 -23q-3 -2 -2 -4t4 -2h87q5 0 8 -3.5t2 -8.5l-8 -66q-1 -5 -4.5 -8.5t-8.5 -3.5h-223q-5 0 -8 3.5z" />
    <glyph glyph-name="uni00B3" unicode="&#xb3;" horiz-adv-x="280" 
d="M315 543q-3 -24 -7 -39q-6 -46 -41 -74t-86 -28q-50 0 -80 25.5t-30 67.5l1 13l3 24q1 5 4.5 8.5t8.5 3.5h77q10 0 10 -8v-12q-2 -15 2.5 -23.5t14.5 -8.5t15.5 7t8.5 21q1 5 5 34q3 20 3 32v5q0 23 -17 23q-8 0 -17 -7q-5 -4 -10 -4q-4 0 -7 4l-33 41q-3 5 -3 8q0 4 5 9
l72 66q2 2 1.5 4t-3.5 2h-91q-11 0 -11 12l9 66q0 5 4 8.5t9 3.5h203q11 0 11 -12l-9 -69q-2 -10 -8 -15l-50 -52q-3 -4 0 -6q19 -10 29.5 -33.5t10.5 -51.5l-1 -13z" />
    <glyph glyph-name="acute" unicode="&#xb4;" horiz-adv-x="227" 
d="M69 584q0 4 3 8l69 100q5 8 15 8h108q9 0 9 -6q0 -5 -4 -9l-88 -100q-6 -7 -15 -7h-87q-10 0 -10 6z" />
    <glyph glyph-name="uni00B5" unicode="&#xb5;" horiz-adv-x="444" 
d="M301.5 513.5q3.5 3.5 8.5 3.5h138q5 0 8 -3.5t2 -8.5l-61 -493q-1 -5 -4.5 -8.5t-8.5 -3.5h-138q-5 0 -8 3.5t-2 8.5l2 13q0 7 -6 2q-23 -27 -58 -32q-4 -2 -6 -6l-21 -177q-1 -5 -4.5 -8.5t-8.5 -3.5h-138q-5 0 -8 3.5t-2 8.5l85 693q1 5 4.5 8.5t8.5 3.5h138
q5 0 8 -3.5t2 -8.5l-40 -325q-1 -5 -1 -13q0 -32 27 -32q33 0 39 46l40 324q1 5 4.5 8.5z" />
    <glyph glyph-name="paragraph" unicode="&#xb6;" horiz-adv-x="514" 
d="M535 700q5 0 8 -3.5t2 -8.5l-107 -876q-1 -5 -4.5 -8.5t-8.5 -3.5h-111q-5 0 -8 3.5t-2 8.5l92 749q0 5 -4 5h-34q-6 0 -6 -5l-92 -749q-1 -5 -4.5 -8.5t-8.5 -3.5h-111q-5 0 -8 3.5t-2 8.5l54 437q0 5 -4 6q-59 14 -91.5 61.5t-32.5 119.5q0 26 2 39q13 100 74 162.5
t151 62.5h256z" />
    <glyph glyph-name="periodcentered" unicode="&#xb7;" horiz-adv-x="228" 
d="M66.5 229q-20.5 21 -20.5 54q0 43 28 71t68 28q34 0 54 -20t20 -54q0 -42 -28 -71t-67 -29q-34 0 -54.5 21z" />
    <glyph glyph-name="cedilla" unicode="&#xb8;" horiz-adv-x="157" 
d="M-33 -170l14 56q3 11 15 9q22 -2 30 21q2 8 2 11q0 26 -30 58q-4 4 -4 8q0 7 11 7h76q8 0 14 -6q32 -39 32 -83q0 -21 -7 -41q-24 -63 -95 -63q-27 0 -51 8q-8 4 -7 15z" />
    <glyph glyph-name="uni00B9" unicode="&#xb9;" horiz-adv-x="156" 
d="M131 827h82q5 0 8 -3.5t2 -8.5l-48 -396q-1 -5 -4.5 -8.5t-8.5 -3.5h-79q-5 0 -8 3.5t-2 8.5l38 312q0 5 -4 5l-14 -1q-5 0 -8 3.5t-2 8.5l7 53q0 11 9 15l17 8q7 4 15 4z" />
    <glyph glyph-name="ordmasculine" unicode="&#xba;" horiz-adv-x="292" 
d="M84.5 381.5q-29.5 24.5 -29.5 69.5q0 12 1 19l15 125q6 51 44 82t98 31q54 0 84 -26.5t30 -70.5q0 -10 -1 -16l-15 -125q-7 -54 -44 -83.5t-97 -29.5q-56 0 -85.5 24.5zM200 455.5q8 8.5 10 22.5l13 108q2 14 -4 23t-17 9q-12 0 -20 -9t-10 -23l-13 -108q-2 -14 4 -22.5
t18 -8.5q11 0 19 8.5zM26 247.5q-3 3.5 -2 8.5l5 46q1 5 4.5 8.5t8.5 3.5h246q5 0 8 -3.5t2 -8.5l-6 -46q0 -5 -4 -8.5t-9 -3.5h-245q-5 0 -8 3.5z" />
    <glyph glyph-name="guillemotright" unicode="&#xbb;" horiz-adv-x="440" 
d="M34 110.5q-2 3.5 2 10.5l93 157q2 3 1 6l-55 157l-1 4q0 10 12 10h110q9 0 12 -9l52 -157v-4q0 -4 -2 -12l-90 -157q-5 -9 -15 -9h-110q-7 0 -9 3.5zM195 110.5q-2 3.5 2 10.5l93 157q2 3 1 6l-55 157l-1 4q0 10 12 10h110q9 0 12 -9l52 -157v-4q0 -4 -2 -12l-90 -157
q-5 -9 -15 -9h-110q-7 0 -9 3.5z" />
    <glyph glyph-name="onequarter" unicode="&#xbc;" horiz-adv-x="713" 
d="M115 700h82q5 0 8 -3.5t2 -8.5l-48 -396q-1 -5 -4.5 -8.5t-8.5 -3.5h-79q-5 0 -8 3.5t-2 8.5l38 312q0 5 -4 5l-14 -1q-5 0 -8 3.5t-2 8.5l7 53q0 11 9 15l17 8q7 4 15 4zM38 6q0 4 3 8l471 678q5 8 15 8h89q9 0 9 -6q0 -3 -3 -8l-471 -678q-5 -8 -15 -8h-88q-10 0 -10 6
zM709 193.5q3 -3.5 2 -8.5l-9 -71q0 -5 -4 -8.5t-9 -3.5h-12q-4 0 -6 -5l-10 -85q-1 -5 -4.5 -8.5t-8.5 -3.5h-79q-5 0 -8 3.5t-2 8.5l10 85q2 5 -4 5h-141q-11 0 -11 12l7 57q2 10 4 14l99 225q3 10 13 10h84q6 0 8 -4t0 -10l-83 -203q-3 -6 3 -6h29q5 0 5 5l5 42
q1 5 5 8.5t9 3.5h78q5 0 8 -3.5t2 -8.5l-5 -42q0 -5 4 -5h13q5 0 8 -3.5z" />
    <glyph glyph-name="onehalf" unicode="&#xbd;" horiz-adv-x="680" 
d="M115 700h82q5 0 8 -3.5t2 -8.5l-48 -396q-1 -5 -4.5 -8.5t-8.5 -3.5h-79q-5 0 -8 3.5t-2 8.5l38 312q0 5 -4 5l-14 -1q-5 0 -8 3.5t-2 8.5l7 53q0 11 9 15l17 8q7 4 15 4zM38 6q0 4 3 8l471 678q5 8 15 8h89q9 0 9 -6q0 -3 -3 -8l-471 -678q-5 -8 -15 -8h-88q-10 0 -10 6
zM410 3.5q-3 3.5 -2 8.5l8 70q1 8 7 15l44 46q58 60 79 86q33 42 37 75l1 9q0 11 -4.5 16.5t-11.5 5.5q-9 0 -15 -7.5t-8 -18.5l-3 -22q-1 -5 -4.5 -8.5t-8.5 -3.5h-79q-5 0 -8 3.5t-2 8.5l3 26q9 53 46 82.5t93 29.5q49 0 77 -24t28 -76q0 -7 -2 -27q-4 -31 -13 -54
t-25 -47q-18 -26 -50 -61q-6 -7 -14.5 -17t-19.5 -23q-3 -2 -2 -4t4 -2h87q5 0 8 -3.5t2 -8.5l-8 -66q-1 -5 -4.5 -8.5t-8.5 -3.5h-223q-5 0 -8 3.5z" />
    <glyph glyph-name="threequarters" unicode="&#xbe;" horiz-adv-x="790" 
d="M299 416q-3 -24 -7 -39q-6 -46 -41 -74t-86 -28q-50 0 -80 25.5t-30 67.5l1 13l3 24q1 5 4.5 8.5t8.5 3.5h77q10 0 10 -8v-12q-2 -15 2.5 -23.5t14.5 -8.5t15.5 7t8.5 21q1 5 5 34q3 20 3 32v5q0 23 -17 23q-8 0 -17 -7q-5 -4 -10 -4q-4 0 -7 4l-33 41q-3 5 -3 8q0 4 5 9
l72 66q2 2 1.5 4t-3.5 2h-91q-11 0 -11 12l9 66q0 5 4 8.5t9 3.5h203q11 0 11 -12l-9 -69q-2 -10 -8 -15l-50 -52q-3 -4 0 -6q19 -10 29.5 -33.5t10.5 -51.5l-1 -13zM115 6q0 4 3 8l471 678q5 8 15 8h89q9 0 9 -6q0 -3 -3 -8l-471 -678q-5 -8 -15 -8h-88q-10 0 -10 6z
M786 193.5q3 -3.5 2 -8.5l-9 -71q0 -5 -4 -8.5t-9 -3.5h-12q-4 0 -6 -5l-10 -85q-1 -5 -4.5 -8.5t-8.5 -3.5h-79q-5 0 -8 3.5t-2 8.5l10 85q2 5 -4 5h-141q-11 0 -11 12l7 57q2 10 4 14l99 225q3 10 13 10h84q6 0 8 -4t0 -10l-83 -203q-3 -6 3 -6h29q5 0 5 5l5 42q1 5 5 8.5
t9 3.5h78q5 0 8 -3.5t2 -8.5l-5 -42q0 -5 4 -5h13q5 0 8 -3.5z" />
    <glyph glyph-name="questiondown" unicode="&#xbf;" horiz-adv-x="448" 
d="M333.5 483q20.5 -21 20.5 -54q0 -43 -28 -71t-68 -28q-34 0 -54.5 20t-20.5 54q0 42 28.5 71t67.5 29q34 0 54.5 -21zM330 259l-3 -24q-7 -54 -32.5 -85.5t-70.5 -64.5q-36 -27 -52.5 -47t-16.5 -50q0 -22 10.5 -34.5t29.5 -12.5q24 0 40 17.5t20 45.5l1 11q1 11 13 11
l137 -6q5 0 8 -4t2 -9v-3q-8 -63 -41.5 -111.5t-86 -75.5t-116.5 -27q-84 0 -132.5 46t-48.5 124q0 9 2 31q6 45 22.5 76.5t37 51.5t50.5 43q32 25 47 41.5t18 41.5l2 14q0 5 4 8.5t9 3.5h136q11 0 11 -12z" />
    <glyph glyph-name="Agrave" unicode="&#xc0;" horiz-adv-x="493" 
d="M297 11l-2 87q1 2 -1 3.5t-4 1.5h-105q-6 0 -6 -5l-22 -87q-3 -11 -14 -11h-138q-12 0 -8 13l223 676q3 11 14 11h158q12 0 12 -11l56 -676v-3q0 -10 -11 -10h-141q-11 0 -11 11zM220 231h65q5 0 5 5l-7 228q0 4 -2 4t-4 -4l-60 -228q0 -5 3 -5zM374 770q0 -9 -12 -9h-88
q-8 0 -14 7l-63 100q-2 4 -2 6q0 4 3.5 6.5t8.5 2.5h108q10 0 13 -8l45 -100q1 -2 1 -5z" />
    <glyph glyph-name="Aacute" unicode="&#xc1;" horiz-adv-x="493" 
d="M297 11l-2 87q1 2 -1 3.5t-4 1.5h-105q-6 0 -6 -5l-22 -87q-3 -11 -14 -11h-138q-12 0 -8 13l223 676q3 11 14 11h158q12 0 12 -11l56 -676v-3q0 -10 -11 -10h-141q-11 0 -11 11zM220 231h65q5 0 5 5l-7 228q0 4 -2 4t-4 -4l-60 -228q0 -5 3 -5zM251 767q0 4 3 8l69 100
q5 8 15 8h108q9 0 9 -6q0 -5 -4 -9l-88 -100q-6 -7 -15 -7h-87q-10 0 -10 6z" />
    <glyph glyph-name="Acircumflex" unicode="&#xc2;" horiz-adv-x="493" 
d="M297 11l-2 87q1 2 -1 3.5t-4 1.5h-105q-6 0 -6 -5l-22 -87q-3 -11 -14 -11h-138q-12 0 -8 13l223 676q3 11 14 11h158q12 0 12 -11l56 -676v-3q0 -10 -11 -10h-141q-11 0 -11 11zM220 231h65q5 0 5 5l-7 228q0 4 -2 4t-4 -4l-60 -228q0 -5 3 -5zM166 761q0 4 3 8l74 106
q5 8 15 8h149q9 0 13 -8l51 -106q1 -2 1 -5q0 -9 -11 -9h-102q-9 0 -12 9l-19 51q-3 5 -6 0l-31 -51q-6 -9 -15 -9h-101q-9 0 -9 6z" />
    <glyph glyph-name="Atilde" unicode="&#xc3;" horiz-adv-x="493" 
d="M297 11l-2 87q1 2 -1 3.5t-4 1.5h-105q-6 0 -6 -5l-22 -87q-3 -11 -14 -11h-138q-12 0 -8 13l223 676q3 11 14 11h158q12 0 12 -11l56 -676v-3q0 -10 -11 -10h-141q-11 0 -11 11zM220 231h65q5 0 5 5l-7 228q0 4 -2 4t-4 -4l-60 -228q0 -5 3 -5zM336 777q-7 4 -14 9
t-12 7t-12 2q-19 0 -34 -21q-4 -5 -8.5 -6.5t-8.5 2.5l-45 36q-7 6 -3 16q16 38 43 57t56 19t61 -23q3 -2 9.5 -7t13 -7.5t13.5 -2.5q21 0 36 18q7 11 16 5l44 -35q4 -4 4 -8q0 -6 -6 -15q-21 -33 -48 -47.5t-54 -14.5q-22 0 -51 16z" />
    <glyph glyph-name="Adieresis" unicode="&#xc4;" horiz-adv-x="493" 
d="M297 11l-2 87q1 2 -1 3.5t-4 1.5h-105q-6 0 -6 -5l-22 -87q-3 -11 -14 -11h-138q-12 0 -8 13l223 676q3 11 14 11h158q12 0 12 -11l56 -676v-3q0 -10 -11 -10h-141q-11 0 -11 11zM220 231h65q5 0 5 5l-7 228q0 4 -2 4t-4 -4l-60 -228q0 -5 3 -5zM359.5 767
q-20.5 21 -20.5 54q0 43 28 71t68 28q34 0 54 -20t20 -54q0 -42 -28 -71t-67 -29q-34 0 -54.5 21zM168.5 767q-20.5 21 -20.5 54q0 43 28 71t68 28q34 0 54 -20t20 -54q0 -42 -28 -71t-67 -29q-34 0 -54.5 21z" />
    <glyph glyph-name="Aring" unicode="&#xc5;" horiz-adv-x="493" 
d="M297 11l-2 87q1 2 -1 3.5t-4 1.5h-105q-6 0 -6 -5l-22 -87q-3 -11 -14 -11h-138q-12 0 -8 13l223 676q3 11 14 11h158q12 0 12 -11l56 -676v-3q0 -10 -11 -10h-141q-11 0 -11 11zM220 231h65q5 0 5 5l-7 228q0 4 -2 4t-4 -4l-60 -228q0 -5 3 -5zM239 771.5
q-31 31.5 -31 79.5q0 40 19.5 74t52.5 54t71 20q48 0 79 -31.5t31 -79.5q0 -41 -19 -75t-52 -53.5t-71 -19.5q-49 0 -80 31.5zM363 840.5q15 15.5 15 36.5q0 17 -10.5 28t-27.5 11q-20 0 -34.5 -15t-14.5 -37q0 -17 11 -28t27 -11q19 0 34 15.5z" />
    <glyph glyph-name="AE" unicode="&#xc6;" horiz-adv-x="752" 
d="M776.5 561.5q-3.5 -3.5 -8.5 -3.5h-195q-4 0 -6 -5l-15 -126q0 -5 4 -5h107q5 0 8 -3.5t2 -8.5l-15 -119q0 -5 -4 -8.5t-9 -3.5h-106q-4 0 -6 -5l-15 -127q-2 -5 4 -5h195q5 0 8 -3.5t2 -8.5l-15 -118q0 -5 -4 -8.5t-9 -3.5h-349q-5 0 -8 3.5t-2 8.5l11 86q0 5 -5 5h-132
q-3 0 -5 -4l-43 -89q-4 -10 -15 -10h-144q-7 0 -8.5 4t1.5 10l350 677q1 4 5.5 6.5t8.5 2.5h421q5 0 8 -3.5t2 -8.5l-14 -118q-1 -5 -4.5 -8.5zM279 231h83q4 0 6 5l29 241q1 3 -1.5 3.5t-4.5 -2.5l-116 -241q-1 -6 4 -6z" />
    <glyph glyph-name="Ccedilla" unicode="&#xc7;" horiz-adv-x="456" 
d="M469.5 486q-3.5 -3 -8.5 -3l-139 -6q-11 0 -10 12l4 27q2 23 -8 36.5t-29 13.5t-32 -13.5t-16 -36.5l-41 -333q-2 -22 7.5 -35.5t28.5 -13.5t32.5 13.5t16.5 35.5l3 29q1 5 4.5 8.5t8.5 3.5l137 -6q11 0 11 -12l-2 -9q-9 -78 -55 -130.5t-116 -68.5q-3 0 -4 -2t1 -4
q25 -35 25 -74q0 -23 -7 -41q-12 -34 -38 -48t-57 -14q-27 0 -51 8q-10 3 -7 14l14 57q1 6 4.5 7.5t8 1.5h6.5q19 0 25 20q2 8 2 13q0 27 -31 60l-6 3q-58 15 -90 58t-32 107q0 11 2 33l38 307q11 94 73 149t154 55q84 0 132.5 -45.5t48.5 -124.5q0 -10 -2 -34l-1 -10
q-1 -5 -4.5 -8z" />
    <glyph glyph-name="Egrave" unicode="&#xc8;" horiz-adv-x="428" 
d="M452.5 561.5q-3.5 -3.5 -8.5 -3.5h-195q-4 0 -6 -5l-15 -126q0 -5 4 -5h107q5 0 8 -3.5t2 -8.5l-15 -119q0 -5 -4 -8.5t-9 -3.5h-106q-4 0 -6 -5l-15 -127q-2 -5 4 -5h195q5 0 8 -3.5t2 -8.5l-14 -118q-1 -5 -5 -8.5t-9 -3.5h-349q-5 0 -8 3.5t-2 8.5l83 676q1 5 4.5 8.5
t8.5 3.5h349q11 0 11 -12l-15 -118q-1 -5 -4.5 -8.5zM348 770q0 -9 -12 -9h-88q-8 0 -14 7l-63 100q-2 4 -2 6q0 4 3.5 6.5t8.5 2.5h108q10 0 13 -8l45 -100q1 -2 1 -5z" />
    <glyph glyph-name="Eacute" unicode="&#xc9;" horiz-adv-x="428" 
d="M452.5 561.5q-3.5 -3.5 -8.5 -3.5h-195q-4 0 -6 -5l-15 -126q0 -5 4 -5h107q5 0 8 -3.5t2 -8.5l-15 -119q0 -5 -4 -8.5t-9 -3.5h-106q-4 0 -6 -5l-15 -127q-2 -5 4 -5h195q5 0 8 -3.5t2 -8.5l-14 -118q-1 -5 -5 -8.5t-9 -3.5h-349q-5 0 -8 3.5t-2 8.5l83 676q1 5 4.5 8.5
t8.5 3.5h349q11 0 11 -12l-15 -118q-1 -5 -4.5 -8.5zM225 767q0 4 3 8l69 100q5 8 15 8h108q9 0 9 -6q0 -5 -4 -9l-88 -100q-6 -7 -15 -7h-87q-10 0 -10 6z" />
    <glyph glyph-name="Ecircumflex" unicode="&#xca;" horiz-adv-x="428" 
d="M452.5 561.5q-3.5 -3.5 -8.5 -3.5h-195q-4 0 -6 -5l-15 -126q0 -5 4 -5h107q5 0 8 -3.5t2 -8.5l-15 -119q0 -5 -4 -8.5t-9 -3.5h-106q-4 0 -6 -5l-15 -127q-2 -5 4 -5h195q5 0 8 -3.5t2 -8.5l-14 -118q-1 -5 -5 -8.5t-9 -3.5h-349q-5 0 -8 3.5t-2 8.5l83 676q1 5 4.5 8.5
t8.5 3.5h349q11 0 11 -12l-15 -118q-1 -5 -4.5 -8.5zM140 761q0 4 3 8l74 106q5 8 15 8h149q9 0 13 -8l51 -106q1 -2 1 -5q0 -9 -11 -9h-102q-9 0 -12 9l-19 51q-3 5 -6 0l-31 -51q-6 -9 -15 -9h-101q-9 0 -9 6z" />
    <glyph glyph-name="Edieresis" unicode="&#xcb;" horiz-adv-x="428" 
d="M452.5 561.5q-3.5 -3.5 -8.5 -3.5h-195q-4 0 -6 -5l-15 -126q0 -5 4 -5h107q5 0 8 -3.5t2 -8.5l-15 -119q0 -5 -4 -8.5t-9 -3.5h-106q-4 0 -6 -5l-15 -127q-2 -5 4 -5h195q5 0 8 -3.5t2 -8.5l-14 -118q-1 -5 -5 -8.5t-9 -3.5h-349q-5 0 -8 3.5t-2 8.5l83 676q1 5 4.5 8.5
t8.5 3.5h349q11 0 11 -12l-15 -118q-1 -5 -4.5 -8.5zM333.5 767q-20.5 21 -20.5 54q0 43 28 71t68 28q34 0 54 -20t20 -54q0 -42 -28 -71t-67 -29q-34 0 -54.5 21zM142.5 767q-20.5 21 -20.5 54q0 43 28 71t68 28q34 0 54 -20t20 -54q0 -42 -28 -71t-67 -29q-34 0 -54.5 21z
" />
    <glyph glyph-name="Igrave" unicode="&#xcc;" horiz-adv-x="228" 
d="M18 3.5q-3 3.5 -2 8.5l83 676q1 5 4.5 8.5t8.5 3.5h138q5 0 8 -3.5t2 -8.5l-83 -676q-1 -5 -4.5 -8.5t-8.5 -3.5h-138q-5 0 -8 3.5zM241 770q0 -9 -12 -9h-88q-8 0 -14 7l-63 100q-2 4 -2 6q0 4 3.5 6.5t8.5 2.5h108q10 0 13 -8l45 -100q1 -2 1 -5z" />
    <glyph glyph-name="Iacute" unicode="&#xcd;" horiz-adv-x="228" 
d="M18 3.5q-3 3.5 -2 8.5l83 676q1 5 4.5 8.5t8.5 3.5h138q5 0 8 -3.5t2 -8.5l-83 -676q-1 -5 -4.5 -8.5t-8.5 -3.5h-138q-5 0 -8 3.5zM118 767q0 4 3 8l69 100q5 8 15 8h108q9 0 9 -6q0 -5 -4 -9l-88 -100q-6 -7 -15 -7h-87q-10 0 -10 6z" />
    <glyph glyph-name="Icircumflex" unicode="&#xce;" horiz-adv-x="228" 
d="M18 3.5q-3 3.5 -2 8.5l83 676q1 5 4.5 8.5t8.5 3.5h138q5 0 8 -3.5t2 -8.5l-83 -676q-1 -5 -4.5 -8.5t-8.5 -3.5h-138q-5 0 -8 3.5zM34 761q0 4 3 8l74 106q5 8 15 8h149q9 0 13 -8l51 -106q1 -2 1 -5q0 -9 -11 -9h-102q-9 0 -12 9l-19 51q-3 5 -6 0l-31 -51
q-6 -9 -15 -9h-101q-9 0 -9 6z" />
    <glyph glyph-name="Idieresis" unicode="&#xcf;" horiz-adv-x="228" 
d="M18 3.5q-3 3.5 -2 8.5l83 676q1 5 4.5 8.5t8.5 3.5h138q5 0 8 -3.5t2 -8.5l-83 -676q-1 -5 -4.5 -8.5t-8.5 -3.5h-138q-5 0 -8 3.5zM227.5 767q-20.5 21 -20.5 54q0 43 28 71t68 28q34 0 54 -20t20 -54q0 -42 -28 -71t-67 -29q-34 0 -54.5 21zM36.5 767
q-20.5 21 -20.5 54q0 43 28 71t68 28q34 0 54 -20t20 -54q0 -42 -28 -71t-67 -29q-34 0 -54.5 21z" />
    <glyph glyph-name="Eth" unicode="&#xd0;" horiz-adv-x="490" 
d="M457 655q49 -45 49 -122q0 -10 -2 -30l-37 -306q-11 -89 -74 -143t-156 -54h-186q-5 0 -8 3.5t-2 8.5l37 302q2 5 -4 5h-9q-5 0 -8 3.5t-2 8.5l9 70q1 5 4.5 8.5t8.5 3.5h9q5 0 5 5l33 270q1 5 4.5 8.5t8.5 3.5h186q85 0 134 -45zM342 492q1 5 1 13q0 25 -11.5 39
t-31.5 14h-26q-5 0 -5 -5l-17 -135q0 -5 4 -5h25q5 0 8 -3.5t2 -8.5l-9 -70q-1 -5 -4.5 -8.5t-8.5 -3.5h-24q-4 0 -6 -5l-20 -167q-2 -5 4 -5l27 1q21 1 37 18.5t20 46.5z" />
    <glyph glyph-name="Ntilde" unicode="&#xd1;" horiz-adv-x="506" 
d="M382.5 696.5q3.5 3.5 8.5 3.5h136q5 0 8 -3.5t2 -8.5l-83 -676q0 -5 -4 -8.5t-9 -3.5h-154q-10 0 -12 10l-54 348q0 3 -2.5 3.5t-2.5 -3.5l-41 -346q-1 -5 -4.5 -8.5t-8.5 -3.5h-136q-5 0 -8 3.5t-2 8.5l83 676q1 5 4.5 8.5t8.5 3.5h152q11 0 13 -10l54 -350q0 -3 2.5 -3
t3.5 4l41 347q1 5 4.5 8.5zM341 778q-7 4 -14 9t-12 7t-12 2q-19 0 -34 -21q-4 -5 -8.5 -6.5t-8.5 2.5l-45 36q-7 6 -3 16q16 38 43 57t56 19t61 -23q3 -2 9.5 -7t13 -7.5t13.5 -2.5q21 0 36 18q7 11 16 5l44 -35q4 -4 4 -8q0 -6 -6 -15q-21 -33 -48 -47.5t-54 -14.5
q-22 0 -51 16z" />
    <glyph glyph-name="Ograve" unicode="&#xd2;" horiz-adv-x="464" 
d="M77.5 38.5q-48.5 46.5 -48.5 127.5q0 11 2 33l37 302q12 95 74.5 151t156.5 56q85 0 134.5 -47t49.5 -128q0 -10 -2 -32l-38 -302q-11 -95 -74.5 -151t-157.5 -56q-85 0 -133.5 46.5zM264 149.5q14 15.5 18 42.5l38 316q1 5 1 13q0 21 -10 33t-29 12q-21 0 -35 -16
t-17 -42l-39 -316l-1 -11q0 -22 10 -34.5t29 -12.5q21 0 35 15.5zM359 770q0 -9 -12 -9h-88q-8 0 -14 7l-63 100q-2 4 -2 6q0 4 3.5 6.5t8.5 2.5h108q10 0 13 -8l45 -100q1 -2 1 -5z" />
    <glyph glyph-name="Oacute" unicode="&#xd3;" horiz-adv-x="464" 
d="M77.5 38.5q-48.5 46.5 -48.5 127.5q0 11 2 33l37 302q12 95 74.5 151t156.5 56q85 0 134.5 -47t49.5 -128q0 -10 -2 -32l-38 -302q-11 -95 -74.5 -151t-157.5 -56q-85 0 -133.5 46.5zM264 149.5q14 15.5 18 42.5l38 316q1 5 1 13q0 21 -10 33t-29 12q-21 0 -35 -16
t-17 -42l-39 -316l-1 -11q0 -22 10 -34.5t29 -12.5q21 0 35 15.5zM236 767q0 4 3 8l69 100q5 8 15 8h108q9 0 9 -6q0 -5 -4 -9l-88 -100q-6 -7 -15 -7h-87q-10 0 -10 6z" />
    <glyph glyph-name="Ocircumflex" unicode="&#xd4;" horiz-adv-x="464" 
d="M77.5 38.5q-48.5 46.5 -48.5 127.5q0 11 2 33l37 302q12 95 74.5 151t156.5 56q85 0 134.5 -47t49.5 -128q0 -10 -2 -32l-38 -302q-11 -95 -74.5 -151t-157.5 -56q-85 0 -133.5 46.5zM264 149.5q14 15.5 18 42.5l38 316q1 5 1 13q0 21 -10 33t-29 12q-21 0 -35 -16
t-17 -42l-39 -316l-1 -11q0 -22 10 -34.5t29 -12.5q21 0 35 15.5zM152 761q0 4 3 8l74 106q5 8 15 8h149q9 0 13 -8l51 -106q1 -2 1 -5q0 -9 -11 -9h-102q-9 0 -12 9l-19 51q-3 5 -6 0l-31 -51q-6 -9 -15 -9h-101q-9 0 -9 6z" />
    <glyph glyph-name="Otilde" unicode="&#xd5;" horiz-adv-x="464" 
d="M77.5 38.5q-48.5 46.5 -48.5 127.5q0 11 2 33l37 302q12 95 74.5 151t156.5 56q85 0 134.5 -47t49.5 -128q0 -10 -2 -32l-38 -302q-11 -95 -74.5 -151t-157.5 -56q-85 0 -133.5 46.5zM264 149.5q14 15.5 18 42.5l38 316q1 5 1 13q0 21 -10 33t-29 12q-21 0 -35 -16
t-17 -42l-39 -316l-1 -11q0 -22 10 -34.5t29 -12.5q21 0 35 15.5zM321 777q-7 4 -14 9t-12 7t-12 2q-19 0 -34 -21q-4 -5 -8.5 -6.5t-8.5 2.5l-45 36q-7 6 -3 16q16 38 43 57t56 19t61 -23q3 -2 9.5 -7t13 -7.5t13.5 -2.5q21 0 36 18q7 11 16 5l44 -35q4 -4 4 -8
q0 -6 -6 -15q-21 -33 -48 -47.5t-54 -14.5q-22 0 -51 16z" />
    <glyph glyph-name="Odieresis" unicode="&#xd6;" horiz-adv-x="464" 
d="M77.5 38.5q-48.5 46.5 -48.5 127.5q0 11 2 33l37 302q12 95 74.5 151t156.5 56q85 0 134.5 -47t49.5 -128q0 -10 -2 -32l-38 -302q-11 -95 -74.5 -151t-157.5 -56q-85 0 -133.5 46.5zM264 149.5q14 15.5 18 42.5l38 316q1 5 1 13q0 21 -10 33t-29 12q-21 0 -35 -16
t-17 -42l-39 -316l-1 -11q0 -22 10 -34.5t29 -12.5q21 0 35 15.5zM345.5 767q-20.5 21 -20.5 54q0 43 28 71t68 28q34 0 54 -20t20 -54q0 -42 -28 -71t-67 -29q-34 0 -54.5 21zM154.5 767q-20.5 21 -20.5 54q0 43 28 71t68 28q34 0 54 -20t20 -54q0 -42 -28 -71t-67 -29
q-34 0 -54.5 21z" />
    <glyph glyph-name="multiply" unicode="&#xd7;" horiz-adv-x="397" 
d="M403 407q0 -4 -5 -9l-92 -84q-3 -3 -1 -8l71 -84q3 -3 3 -7t-5 -9l-78 -72q-6 -4 -8 -4t-8 4l-71 84q-3 3 -8 0l-91 -84q-6 -4 -9 -4t-7 4l-61 72q-2 2 -2 7t4 9l92 84q4 4 1 8l-71 84q-3 3 -3 7t5 9l78 72q4 4 9 4q4 0 7 -4l71 -84q3 -3 8 0l92 84q4 4 8 4t7 -4l61 -72
q3 -3 3 -7z" />
    <glyph glyph-name="Oslash" unicode="&#xd8;" horiz-adv-x="501" 
d="M517 697q0 -3 -3 -8l-45 -72q-2 -3 -1 -6q15 -34 15 -79q0 -9 -2 -31l-38 -302q-11 -95 -74.5 -151t-157.5 -56q-52 0 -89 17q-1 1 -3 0.5t-3 -2.5l-35 -56q-3 -5 -8 -6.5t-9 2.5l-67 48q-8 7 -2 16l46 73q2 3 1 6q-14 36 -14 78q0 9 2 31l37 302q12 94 75 150.5
t157 56.5q49 0 87 -16q4 -2 6 2l35 55q3 5 7.5 6t9.5 -2l68 -48q5 -3 5 -8zM320 508q1 4 1 13q0 21 -10.5 33t-28.5 12q-21 0 -35 -16t-18 -42l-39 -316q-3 -26 7.5 -42t31.5 -16t35 16t18 42z" />
    <glyph glyph-name="Ugrave" unicode="&#xd9;" horiz-adv-x="466" 
d="M82.5 40q-47.5 48 -47.5 129q0 23 2 35l59 484q1 5 4.5 8.5t8.5 3.5h138q5 0 8 -3.5t2 -8.5l-61 -500l-1 -11q0 -20 9.5 -31.5t25.5 -11.5q19 0 31.5 15t15.5 39l62 500q0 5 4 8.5t9 3.5h137q11 0 11 -12l-60 -484q-12 -96 -74.5 -154t-153.5 -58q-82 0 -129.5 48z
M360 770q0 -9 -12 -9h-88q-8 0 -14 7l-63 100q-2 4 -2 6q0 4 3.5 6.5t8.5 2.5h108q10 0 13 -8l45 -100q1 -2 1 -5z" />
    <glyph glyph-name="Uacute" unicode="&#xda;" horiz-adv-x="466" 
d="M82.5 40q-47.5 48 -47.5 129q0 23 2 35l59 484q1 5 4.5 8.5t8.5 3.5h138q5 0 8 -3.5t2 -8.5l-61 -500l-1 -11q0 -20 9.5 -31.5t25.5 -11.5q19 0 31.5 15t15.5 39l62 500q0 5 4 8.5t9 3.5h137q11 0 11 -12l-60 -484q-12 -96 -74.5 -154t-153.5 -58q-82 0 -129.5 48z
M238 767q0 4 3 8l69 100q5 8 15 8h108q9 0 9 -6q0 -5 -4 -9l-88 -100q-6 -7 -15 -7h-87q-10 0 -10 6z" />
    <glyph glyph-name="Ucircumflex" unicode="&#xdb;" horiz-adv-x="466" 
d="M82.5 40q-47.5 48 -47.5 129q0 23 2 35l59 484q1 5 4.5 8.5t8.5 3.5h138q5 0 8 -3.5t2 -8.5l-61 -500l-1 -11q0 -20 9.5 -31.5t25.5 -11.5q19 0 31.5 15t15.5 39l62 500q0 5 4 8.5t9 3.5h137q11 0 11 -12l-60 -484q-12 -96 -74.5 -154t-153.5 -58q-82 0 -129.5 48z
M153 761q0 4 3 8l74 106q5 8 15 8h149q9 0 13 -8l51 -106q1 -2 1 -5q0 -9 -11 -9h-102q-9 0 -12 9l-19 51q-3 5 -6 0l-31 -51q-6 -9 -15 -9h-101q-9 0 -9 6z" />
    <glyph glyph-name="Udieresis" unicode="&#xdc;" horiz-adv-x="466" 
d="M82.5 40q-47.5 48 -47.5 129q0 23 2 35l59 484q1 5 4.5 8.5t8.5 3.5h138q5 0 8 -3.5t2 -8.5l-61 -500l-1 -11q0 -20 9.5 -31.5t25.5 -11.5q19 0 31.5 15t15.5 39l62 500q0 5 4 8.5t9 3.5h137q11 0 11 -12l-60 -484q-12 -96 -74.5 -154t-153.5 -58q-82 0 -129.5 48z
M346.5 767q-20.5 21 -20.5 54q0 43 28 71t68 28q34 0 54 -20t20 -54q0 -42 -28 -71t-67 -29q-34 0 -54.5 21zM155.5 767q-20.5 21 -20.5 54q0 43 28 71t68 28q34 0 54 -20t20 -54q0 -42 -28 -71t-67 -29q-34 0 -54.5 21z" />
    <glyph glyph-name="Yacute" unicode="&#xdd;" horiz-adv-x="477" 
d="M139 14l31 246l-1 6l-84 420v4q0 10 11 10h145q9 0 11 -11l22 -220q0 -4 2.5 -4t3.5 4l75 220q5 11 14 11h146q6 0 8 -4t-1 -10l-190 -420l-1 -6l-31 -246q0 -5 -4 -8.5t-9 -3.5h-137q-11 0 -11 12zM243 767q0 4 3 8l69 100q5 8 15 8h108q9 0 9 -6q0 -5 -4 -9l-88 -100
q-6 -7 -15 -7h-87q-10 0 -10 6z" />
    <glyph glyph-name="Thorn" unicode="&#xde;" horiz-adv-x="459" 
d="M423.5 516q44.5 -50 44.5 -132q0 -24 -2 -37q-11 -96 -68.5 -154t-140.5 -58h-62q-5 0 -5 -5l-15 -118q-1 -5 -4.5 -8.5t-8.5 -3.5h-138q-5 0 -8 3.5t-2 8.5l83 676q1 5 4.5 8.5t8.5 3.5h138q5 0 8 -3.5t2 -8.5l-14 -117q-2 -5 4 -5h54q77 0 121.5 -50zM286.5 290
q19.5 25 19.5 71q0 30 -13 46.5t-36 16.5h-26q-6 0 -6 -5l-18 -149q-2 -5 4 -5h26q30 0 49.5 25z" />
    <glyph glyph-name="germandbls" unicode="&#xdf;" horiz-adv-x="457" 
d="M12 4.5q-3 3.5 -2 8.5l57 462q13 112 71.5 172.5t151.5 60.5q84 0 131 -43.5t47 -118.5q0 -9 -2 -29q-11 -90 -77 -132q-5 -4 -1 -7q54 -39 54 -131q0 -25 -2 -38q-12 -99 -73.5 -154t-162.5 -55q-7 0 -7 12l15 118q0 5 3 8q3 4 7.5 4h5.5q26 4 42.5 32.5t16.5 75.5
q0 29 -11.5 45.5t-30.5 17.5q-4 0 -6 3.5t-1 8.5l13 105q2 12 7 12q22 0 35.5 21t13.5 58q0 22 -8.5 34t-24.5 12q-17 0 -28 -17t-15 -48l-60 -490q-1 -5 -4.5 -8.5t-8.5 -3.5l-138 1q-5 0 -8 3.5z" />
    <glyph glyph-name="agrave" unicode="&#xe0;" horiz-adv-x="443" 
d="M297.5 513.5q3.5 3.5 8.5 3.5h138q5 0 8 -3.5t2 -8.5l-61 -493q-1 -5 -4.5 -8.5t-8.5 -3.5h-138q-5 0 -8 3.5t-2 8.5l4 26q0 4 -2 4t-4 -3q-34 -47 -94 -47q-115 0 -115 129q0 22 3 44l23 187q22 173 154 173q60 0 83 -48q1 -4 3 -3.5t3 4.5l3 27q1 5 4.5 8.5zM240 146
q11 12 13 32l19 161q1 3 1 10q0 15 -8 24.5t-21 9.5q-14 0 -24.5 -12t-12.5 -32l-20 -161q-2 -20 5 -32t21 -12q16 0 27 12zM326 587q0 -9 -12 -9h-88q-8 0 -14 7l-63 100q-2 4 -2 6q0 4 3.5 6.5t8.5 2.5h108q10 0 13 -8l45 -100q1 -2 1 -5z" />
    <glyph glyph-name="aacute" unicode="&#xe1;" horiz-adv-x="443" 
d="M297.5 513.5q3.5 3.5 8.5 3.5h138q5 0 8 -3.5t2 -8.5l-61 -493q-1 -5 -4.5 -8.5t-8.5 -3.5h-138q-5 0 -8 3.5t-2 8.5l4 26q0 4 -2 4t-4 -3q-34 -47 -94 -47q-115 0 -115 129q0 22 3 44l23 187q22 173 154 173q60 0 83 -48q1 -4 3 -3.5t3 4.5l3 27q1 5 4.5 8.5zM240 146
q11 12 13 32l19 161q1 3 1 10q0 15 -8 24.5t-21 9.5q-14 0 -24.5 -12t-12.5 -32l-20 -161q-2 -20 5 -32t21 -12q16 0 27 12zM204 584q0 4 3 8l69 100q5 8 15 8h108q9 0 9 -6q0 -5 -4 -9l-88 -100q-6 -7 -15 -7h-87q-10 0 -10 6z" />
    <glyph glyph-name="acircumflex" unicode="&#xe2;" horiz-adv-x="443" 
d="M297.5 513.5q3.5 3.5 8.5 3.5h138q5 0 8 -3.5t2 -8.5l-61 -493q-1 -5 -4.5 -8.5t-8.5 -3.5h-138q-5 0 -8 3.5t-2 8.5l4 26q0 4 -2 4t-4 -3q-34 -47 -94 -47q-115 0 -115 129q0 22 3 44l23 187q22 173 154 173q60 0 83 -48q1 -4 3 -3.5t3 4.5l3 27q1 5 4.5 8.5zM240 146
q11 12 13 32l19 161q1 3 1 10q0 15 -8 24.5t-21 9.5q-14 0 -24.5 -12t-12.5 -32l-20 -161q-2 -20 5 -32t21 -12q16 0 27 12zM119 578q0 4 3 8l74 106q5 8 15 8h149q9 0 13 -8l51 -106q1 -2 1 -5q0 -9 -11 -9h-102q-9 0 -12 9l-19 51q-3 5 -6 0l-31 -51q-6 -9 -15 -9h-101
q-9 0 -9 6z" />
    <glyph glyph-name="atilde" unicode="&#xe3;" horiz-adv-x="443" 
d="M297.5 513.5q3.5 3.5 8.5 3.5h138q5 0 8 -3.5t2 -8.5l-61 -493q-1 -5 -4.5 -8.5t-8.5 -3.5h-138q-5 0 -8 3.5t-2 8.5l4 26q0 4 -2 4t-4 -3q-34 -47 -94 -47q-115 0 -115 129q0 22 3 44l23 187q22 173 154 173q60 0 83 -48q1 -4 3 -3.5t3 4.5l3 27q1 5 4.5 8.5zM240 146
q11 12 13 32l19 161q1 3 1 10q0 15 -8 24.5t-21 9.5q-14 0 -24.5 -12t-12.5 -32l-20 -161q-2 -20 5 -32t21 -12q16 0 27 12zM289 594q-7 4 -14 9t-12 7t-12 2q-19 0 -34 -21q-4 -5 -8.5 -6.5t-8.5 2.5l-45 36q-7 6 -3 16q16 38 43 57t56 19t61 -23q3 -2 9.5 -7t13 -7.5
t13.5 -2.5q21 0 36 18q7 11 16 5l44 -35q4 -4 4 -8q0 -6 -6 -15q-21 -33 -48 -47.5t-54 -14.5q-22 0 -51 16z" />
    <glyph glyph-name="adieresis" unicode="&#xe4;" horiz-adv-x="443" 
d="M297.5 513.5q3.5 3.5 8.5 3.5h138q5 0 8 -3.5t2 -8.5l-61 -493q-1 -5 -4.5 -8.5t-8.5 -3.5h-138q-5 0 -8 3.5t-2 8.5l4 26q0 4 -2 4t-4 -3q-34 -47 -94 -47q-115 0 -115 129q0 22 3 44l23 187q22 173 154 173q60 0 83 -48q1 -4 3 -3.5t3 4.5l3 27q1 5 4.5 8.5zM240 146
q11 12 13 32l19 161q1 3 1 10q0 15 -8 24.5t-21 9.5q-14 0 -24.5 -12t-12.5 -32l-20 -161q-2 -20 5 -32t21 -12q16 0 27 12zM312.5 584q-20.5 21 -20.5 54q0 43 28 71t68 28q34 0 54 -20t20 -54q0 -42 -28 -71t-67 -29q-34 0 -54.5 21zM121.5 584q-20.5 21 -20.5 54
q0 43 28 71t68 28q34 0 54 -20t20 -54q0 -42 -28 -71t-67 -29q-34 0 -54.5 21z" />
    <glyph glyph-name="aring" unicode="&#xe5;" horiz-adv-x="443" 
d="M297.5 513.5q3.5 3.5 8.5 3.5h138q5 0 8 -3.5t2 -8.5l-61 -493q-1 -5 -4.5 -8.5t-8.5 -3.5h-138q-5 0 -8 3.5t-2 8.5l4 26q0 4 -2 4t-4 -3q-34 -47 -94 -47q-115 0 -115 129q0 22 3 44l23 187q22 173 154 173q60 0 83 -48q1 -4 3 -3.5t3 4.5l3 27q1 5 4.5 8.5zM240 146
q11 12 13 32l19 161q1 3 1 10q0 15 -8 24.5t-21 9.5q-14 0 -24.5 -12t-12.5 -32l-20 -161q-2 -20 5 -32t21 -12q16 0 27 12zM191 588.5q-31 31.5 -31 79.5q0 40 19.5 74t52.5 54t71 20q48 0 79 -31.5t31 -79.5q0 -41 -19 -75t-52 -53.5t-71 -19.5q-49 0 -80 31.5zM315 657.5
q15 15.5 15 36.5q0 17 -10.5 28t-27.5 11q-20 0 -34.5 -15t-14.5 -37q0 -17 11 -28t27 -11q19 0 34 15.5z" />
    <glyph glyph-name="ae" unicode="&#xe6;" horiz-adv-x="677" 
d="M54 16.5q-40 24.5 -40 99.5q0 22 2 34q8 63 35.5 96.5t70.5 45t108 11.5h42q5 0 5 5l4 30q2 20 -6.5 32.5t-25.5 12.5q-13 0 -24 -7.5t-16 -20.5q-2 -11 -13 -11l-139 3q-11 0 -10 12q14 77 73.5 121.5t140.5 44.5q37 0 63.5 -10.5t50.5 -31.5q3 -3 7 0q55 42 132 42
q78 0 123 -40.5t45 -108.5q0 -16 -1 -24l-17 -138q-1 -5 -5 -8.5t-9 -3.5h-211q-5 0 -5 -5l-3 -19q-2 -18 6 -30t23 -12q12 0 21.5 8t14.5 20q4 5 7 7.5t8 1.5l133 -9q5 0 7.5 -3.5t1.5 -9.5q-15 -77 -65.5 -118t-131.5 -41q-53 0 -88.5 16.5t-41.5 37.5l-2 3
q-11 -22 -60 -39.5t-112 -17.5q-58 0 -98 24.5zM451 303h58q5 0 5 5l4 31q2 20 -5.5 32t-22.5 12t-26 -12.5t-13 -31.5l-4 -31q0 -5 4 -5zM241 122.5q15 10.5 17 28.5l6 46q0 5 -4 5h-31q-21 0 -35 -15.5t-14 -42.5q0 -32 30 -32q16 0 31 10.5z" />
    <glyph glyph-name="ccedilla" unicode="&#xe7;" horiz-adv-x="432" 
d="M429.5 324.5q-3.5 -3.5 -8.5 -3.5l-139 -6q-11 0 -10 12l2 15q2 17 -6 29t-22 12q-15 0 -26 -12.5t-13 -31.5l-20 -161q-2 -20 5.5 -32t22.5 -12t25.5 12t12.5 30l2 15q1 5 4.5 8.5t8.5 3.5l138 -1q5 0 8 -3.5t2 -8.5l-3 -27q-8 -67 -49 -110t-109 -56q-6 -2 -3 -6
q24 -32 24 -72q0 -22 -7 -42q-23 -62 -94 -62q-27 0 -51 8q-10 3 -7 14l15 57q1 11 14 9q20 -3 30 20q2 8 2 12q0 27 -30 60l-6 3q-58 11 -89 47t-31 93q0 9 2 27l23 187q10 78 67.5 125.5t148.5 47.5q83 0 129 -39.5t46 -105.5q0 -7 -2 -25l-2 -22q-1 -5 -4.5 -8.5z" />
    <glyph glyph-name="egrave" unicode="&#xe8;" horiz-adv-x="433" 
d="M416 216.5q-4 -3.5 -9 -3.5h-211q-4 0 -6 -5l-3 -30q-2 -20 5.5 -32t22.5 -12q25 0 39 35q3 11 14 11l132 -8q5 0 8 -3.5t2 -9.5q-15 -84 -67.5 -125.5t-144.5 -41.5q-84 0 -130 38.5t-46 107.5q0 9 2 27l23 187q10 78 67.5 125.5t148.5 47.5q83 0 129 -39.5t46 -107.5
q0 -8 -2 -26l-16 -127q0 -5 -4 -8.5zM220 370.5q-11 -12.5 -13 -31.5l-4 -31q-2 -5 4 -5h57q4 0 6 5l3 31q1 3 1 10q0 15 -7.5 24.5t-20.5 9.5q-15 0 -26 -12.5zM321 587q0 -9 -12 -9h-88q-8 0 -14 7l-63 100q-2 4 -2 6q0 4 3.5 6.5t8.5 2.5h108q10 0 13 -8l45 -100
q1 -2 1 -5z" />
    <glyph glyph-name="eacute" unicode="&#xe9;" horiz-adv-x="433" 
d="M416 216.5q-4 -3.5 -9 -3.5h-211q-4 0 -6 -5l-3 -30q-2 -20 5.5 -32t22.5 -12q25 0 39 35q3 11 14 11l132 -8q5 0 8 -3.5t2 -9.5q-15 -84 -67.5 -125.5t-144.5 -41.5q-84 0 -130 38.5t-46 107.5q0 9 2 27l23 187q10 78 67.5 125.5t148.5 47.5q83 0 129 -39.5t46 -107.5
q0 -8 -2 -26l-16 -127q0 -5 -4 -8.5zM220 370.5q-11 -12.5 -13 -31.5l-4 -31q-2 -5 4 -5h57q4 0 6 5l3 31q1 3 1 10q0 15 -7.5 24.5t-20.5 9.5q-15 0 -26 -12.5zM199 584q0 4 3 8l69 100q5 8 15 8h108q9 0 9 -6q0 -5 -4 -9l-88 -100q-6 -7 -15 -7h-87q-10 0 -10 6z" />
    <glyph glyph-name="ecircumflex" unicode="&#xea;" horiz-adv-x="433" 
d="M416 216.5q-4 -3.5 -9 -3.5h-211q-4 0 -6 -5l-3 -30q-2 -20 5.5 -32t22.5 -12q25 0 39 35q3 11 14 11l132 -8q5 0 8 -3.5t2 -9.5q-15 -84 -67.5 -125.5t-144.5 -41.5q-84 0 -130 38.5t-46 107.5q0 9 2 27l23 187q10 78 67.5 125.5t148.5 47.5q83 0 129 -39.5t46 -107.5
q0 -8 -2 -26l-16 -127q0 -5 -4 -8.5zM220 370.5q-11 -12.5 -13 -31.5l-4 -31q-2 -5 4 -5h57q4 0 6 5l3 31q1 3 1 10q0 15 -7.5 24.5t-20.5 9.5q-15 0 -26 -12.5zM114 578q0 4 3 8l74 106q5 8 15 8h149q9 0 13 -8l51 -106q1 -2 1 -5q0 -9 -11 -9h-102q-9 0 -12 9l-19 51
q-3 5 -6 0l-31 -51q-6 -9 -15 -9h-101q-9 0 -9 6z" />
    <glyph glyph-name="edieresis" unicode="&#xeb;" horiz-adv-x="433" 
d="M416 216.5q-4 -3.5 -9 -3.5h-211q-4 0 -6 -5l-3 -30q-2 -20 5.5 -32t22.5 -12q25 0 39 35q3 11 14 11l132 -8q5 0 8 -3.5t2 -9.5q-15 -84 -67.5 -125.5t-144.5 -41.5q-84 0 -130 38.5t-46 107.5q0 9 2 27l23 187q10 78 67.5 125.5t148.5 47.5q83 0 129 -39.5t46 -107.5
q0 -8 -2 -26l-16 -127q0 -5 -4 -8.5zM220 370.5q-11 -12.5 -13 -31.5l-4 -31q-2 -5 4 -5h57q4 0 6 5l3 31q1 3 1 10q0 15 -7.5 24.5t-20.5 9.5q-15 0 -26 -12.5zM307.5 584q-20.5 21 -20.5 54q0 43 28 71t68 28q34 0 54 -20t20 -54q0 -42 -28 -71t-67 -29q-34 0 -54.5 21z
M116.5 584q-20.5 21 -20.5 54q0 43 28 71t68 28q34 0 54 -20t20 -54q0 -42 -28 -71t-67 -29q-34 0 -54.5 21z" />
    <glyph glyph-name="igrave" unicode="&#xec;" horiz-adv-x="191" 
d="M0 3.5q-3 3.5 -2 8.5l60 493q1 5 4.5 8.5t8.5 3.5h138q5 0 8 -3.5t2 -8.5l-60 -493q-1 -5 -4.5 -8.5t-8.5 -3.5h-138q-5 0 -8 3.5zM200 587q0 -9 -12 -9h-88q-8 0 -14 7l-63 100q-2 4 -2 6q0 4 3.5 6.5t8.5 2.5h108q10 0 13 -8l45 -100q1 -2 1 -5z" />
    <glyph glyph-name="iacute" unicode="&#xed;" horiz-adv-x="191" 
d="M0 3.5q-3 3.5 -2 8.5l60 493q1 5 4.5 8.5t8.5 3.5h138q5 0 8 -3.5t2 -8.5l-60 -493q-1 -5 -4.5 -8.5t-8.5 -3.5h-138q-5 0 -8 3.5zM78 584q0 4 3 8l69 100q5 8 15 8h108q9 0 9 -6q0 -5 -4 -9l-88 -100q-6 -7 -15 -7h-87q-10 0 -10 6z" />
    <glyph glyph-name="icircumflex" unicode="&#xee;" horiz-adv-x="191" 
d="M0 3.5q-3 3.5 -2 8.5l60 493q1 5 4.5 8.5t8.5 3.5h138q5 0 8 -3.5t2 -8.5l-60 -493q-1 -5 -4.5 -8.5t-8.5 -3.5h-138q-5 0 -8 3.5zM-7 578q0 4 3 8l74 106q5 8 15 8h149q9 0 13 -8l51 -106q1 -2 1 -5q0 -9 -11 -9h-102q-9 0 -12 9l-19 51q-3 5 -6 0l-31 -51q-6 -9 -15 -9
h-101q-9 0 -9 6z" />
    <glyph glyph-name="idieresis" unicode="&#xef;" horiz-adv-x="191" 
d="M0 3.5q-3 3.5 -2 8.5l60 493q1 5 4.5 8.5t8.5 3.5h138q5 0 8 -3.5t2 -8.5l-60 -493q-1 -5 -4.5 -8.5t-8.5 -3.5h-138q-5 0 -8 3.5zM186.5 584q-20.5 21 -20.5 54q0 43 28 71t68 28q34 0 54 -20t20 -54q0 -42 -28 -71t-67 -29q-34 0 -54.5 21zM-4.5 584q-20.5 21 -20.5 54
q0 43 28 71t68 28q34 0 54 -20t20 -54q0 -42 -28 -71t-67 -29q-34 0 -54.5 21z" />
    <glyph glyph-name="eth" unicode="&#xf0;" horiz-adv-x="442" 
d="M469 599q0 -9 -11 -13l-49 -12q-5 -2 -4 -6q34 -90 34 -185q0 -35 -4 -66l-19 -152q-10 -82 -66.5 -127.5t-150.5 -45.5q-84 0 -130.5 38.5t-46.5 107.5q0 9 2 27l19 152q6 50 33.5 90t68.5 62t87 22q27 0 43 -9q2 -2 3.5 -1t0.5 4q-2 10 -15 51q-1 4 -6 3l-77 -18l-3 -1
q-8 0 -10 10l-5 44v2q0 10 10 13l56 14q5 2 4 6q-11 23 -38 76q-2 4 -2 6q0 9 11 9h130q9 0 11 -5l1.5 -3t1.5 -2q21 -40 26 -48q0 -2 1.5 -3t3.5 0l72 18l4 1q8 0 10 -10l4 -47v-2zM266.5 336q-7.5 12 -23.5 12t-27.5 -12.5t-13.5 -31.5l-15 -126q-2 -19 6 -31.5t23 -12.5
q16 0 27 12t14 32l15 126q2 20 -5.5 32z" />
    <glyph glyph-name="ntilde" unicode="&#xf1;" 
d="M218 591q-4 -5 -8.5 -6.5t-8.5 2.5l-43 36q-7 7 -3 16q16 38 42 57t55 19t59 -23q3 -2 9.5 -7t13 -7.5t13.5 -2.5q21 0 34 18q10 12 17 5l42 -35q9 -6 3 -16q-21 -37 -49 -53t-55 -16q-22 0 -50 16q-6 4 -13 9t-12 7t-11 2q-20 0 -35 -21zM413 490.5q29 -34.5 29 -98.5
q0 -20 -3 -43l-42 -337q-1 -5 -4.5 -8.5t-8.5 -3.5h-138q-5 0 -8 3.5t-2 8.5l40 326q1 5 1 13q0 32 -26 32q-16 0 -26.5 -12t-13.5 -34l-40 -325q-1 -5 -4.5 -8.5t-8.5 -3.5h-138q-5 0 -8 3.5t-2 8.5l61 493q1 5 4.5 8.5t8.5 3.5h138q5 0 8 -3.5t2 -8.5l-3 -20q0 -2 2 -2
q3 0 9 6q34 36 85 36q59 0 88 -34.5z" />
    <glyph glyph-name="ograve" unicode="&#xf2;" horiz-adv-x="439" 
d="M68.5 30.5q-46.5 38.5 -46.5 107.5q0 9 2 27l23 187q10 79 67.5 126t149.5 47q84 0 130.5 -39.5t46.5 -107.5q0 -8 -2 -26l-23 -187q-10 -81 -67 -127t-150 -46q-84 0 -130.5 38.5zM243 147q11 12 14 32l19 160l1 9q0 16 -8 25.5t-22 9.5q-16 0 -27 -12t-13 -32l-20 -160
q-2 -20 6 -32t23 -12q16 0 27 12zM324 587q0 -9 -12 -9h-88q-8 0 -14 7l-63 100q-2 4 -2 6q0 4 3.5 6.5t8.5 2.5h108q10 0 13 -8l45 -100q1 -2 1 -5z" />
    <glyph glyph-name="oacute" unicode="&#xf3;" horiz-adv-x="439" 
d="M68.5 30.5q-46.5 38.5 -46.5 107.5q0 9 2 27l23 187q10 79 67.5 126t149.5 47q84 0 130.5 -39.5t46.5 -107.5q0 -8 -2 -26l-23 -187q-10 -81 -67 -127t-150 -46q-84 0 -130.5 38.5zM243 147q11 12 14 32l19 160l1 9q0 16 -8 25.5t-22 9.5q-16 0 -27 -12t-13 -32l-20 -160
q-2 -20 6 -32t23 -12q16 0 27 12zM202 584q0 4 3 8l69 100q5 8 15 8h108q9 0 9 -6q0 -5 -4 -9l-88 -100q-6 -7 -15 -7h-87q-10 0 -10 6z" />
    <glyph glyph-name="ocircumflex" unicode="&#xf4;" horiz-adv-x="439" 
d="M68.5 30.5q-46.5 38.5 -46.5 107.5q0 9 2 27l23 187q10 79 67.5 126t149.5 47q84 0 130.5 -39.5t46.5 -107.5q0 -8 -2 -26l-23 -187q-10 -81 -67 -127t-150 -46q-84 0 -130.5 38.5zM243 147q11 12 14 32l19 160l1 9q0 16 -8 25.5t-22 9.5q-16 0 -27 -12t-13 -32l-20 -160
q-2 -20 6 -32t23 -12q16 0 27 12zM117 578q0 4 3 8l74 106q5 8 15 8h149q9 0 13 -8l51 -106q1 -2 1 -5q0 -9 -11 -9h-102q-9 0 -12 9l-19 51q-3 5 -6 0l-31 -51q-6 -9 -15 -9h-101q-9 0 -9 6z" />
    <glyph glyph-name="otilde" unicode="&#xf5;" horiz-adv-x="439" 
d="M68.5 30.5q-46.5 38.5 -46.5 107.5q0 9 2 27l23 187q10 79 67.5 126t149.5 47q84 0 130.5 -39.5t46.5 -107.5q0 -8 -2 -26l-23 -187q-10 -81 -67 -127t-150 -46q-84 0 -130.5 38.5zM243 147q11 12 14 32l19 160l1 9q0 16 -8 25.5t-22 9.5q-16 0 -27 -12t-13 -32l-20 -160
q-2 -20 6 -32t23 -12q16 0 27 12zM286 594q-7 4 -14 9t-12 7t-12 2q-19 0 -34 -21q-4 -5 -8.5 -6.5t-8.5 2.5l-45 36q-7 6 -3 16q16 38 43 57t56 19t61 -23q3 -2 9.5 -7t13 -7.5t13.5 -2.5q21 0 36 18q7 11 16 5l44 -35q4 -4 4 -8q0 -6 -6 -15q-21 -33 -48 -47.5t-54 -14.5
q-22 0 -51 16z" />
    <glyph glyph-name="odieresis" unicode="&#xf6;" horiz-adv-x="439" 
d="M68.5 30.5q-46.5 38.5 -46.5 107.5q0 9 2 27l23 187q10 79 67.5 126t149.5 47q84 0 130.5 -39.5t46.5 -107.5q0 -8 -2 -26l-23 -187q-10 -81 -67 -127t-150 -46q-84 0 -130.5 38.5zM243 147q11 12 14 32l19 160l1 9q0 16 -8 25.5t-22 9.5q-16 0 -27 -12t-13 -32l-20 -160
q-2 -20 6 -32t23 -12q16 0 27 12zM310.5 584q-20.5 21 -20.5 54q0 43 28 71t68 28q34 0 54 -20t20 -54q0 -42 -28 -71t-67 -29q-34 0 -54.5 21zM119.5 584q-20.5 21 -20.5 54q0 43 28 71t68 28q34 0 54 -20t20 -54q0 -42 -28 -71t-67 -29q-34 0 -54.5 21z" />
    <glyph glyph-name="divide" unicode="&#xf7;" horiz-adv-x="424" 
d="M196.5 425.5q-18.5 18.5 -18.5 46.5q0 33 25 58t58 25q27 0 45.5 -18.5t18.5 -46.5q0 -33 -25 -58t-57 -25q-28 0 -46.5 18.5zM32 256l13 100q1 5 4.5 8.5t8.5 3.5h360q5 0 8 -3.5t2 -8.5l-12 -100q-1 -5 -5 -8.5t-9 -3.5h-359q-11 0 -11 12zM154.5 81q-18.5 19 -18.5 47
q0 33 25.5 58t57.5 25q27 0 45.5 -19t18.5 -46q0 -33 -25.5 -58.5t-56.5 -25.5q-28 0 -46.5 19z" />
    <glyph glyph-name="oslash" unicode="&#xf8;" horiz-adv-x="445" 
d="M470 508l-42 -62q-1 -2 -1 -6q13 -27 13 -62q0 -8 -2 -26l-23 -187q-10 -81 -67 -127t-150 -46q-35 0 -69 8q-4 2 -6 -3l-36 -55q-4 -5 -8.5 -6t-8.5 2l-72 51q-5 3 -5 8q0 4 3 8l38 60q2 3 1 6q-13 29 -13 68q0 17 1 26l23 187q10 79 67.5 126t149.5 47q36 0 73 -10
q5 -1 6 3l35 53q3 5 7.5 6.5t9.5 -1.5l74 -52q8 -7 2 -16zM276 348q0 16 -8 25.5t-22 9.5q-15 0 -26.5 -12.5t-13.5 -31.5l-20 -160q-2 -20 6 -32t23 -12q16 0 27 12t14 32l19 160z" />
    <glyph glyph-name="ugrave" unicode="&#xf9;" 
d="M299.5 513.5q3.5 3.5 8.5 3.5h138q5 0 8 -3.5t2 -8.5l-61 -493q-1 -5 -4.5 -8.5t-8.5 -3.5h-138q-5 0 -8 3.5t-2 8.5l2 13q0 7 -6 1q-17 -19 -38.5 -26.5t-49.5 -7.5q-52 0 -86 30t-34 93q0 8 2 28l45 362q1 5 4.5 8.5t8.5 3.5h138q5 0 8 -3.5t2 -8.5l-40 -325
q-1 -5 -1 -13q0 -32 26 -32q34 0 40 46l40 324q1 5 4.5 8.5zM323 587q0 -9 -12 -9h-88q-8 0 -14 7l-63 100q-2 4 -2 6q0 4 3.5 6.5t8.5 2.5h108q10 0 13 -8l45 -100q1 -2 1 -5z" />
    <glyph glyph-name="uacute" unicode="&#xfa;" 
d="M299.5 513.5q3.5 3.5 8.5 3.5h138q5 0 8 -3.5t2 -8.5l-61 -493q-1 -5 -4.5 -8.5t-8.5 -3.5h-138q-5 0 -8 3.5t-2 8.5l2 13q0 7 -6 1q-17 -19 -38.5 -26.5t-49.5 -7.5q-52 0 -86 30t-34 93q0 8 2 28l45 362q1 5 4.5 8.5t8.5 3.5h138q5 0 8 -3.5t2 -8.5l-40 -325
q-1 -5 -1 -13q0 -32 26 -32q34 0 40 46l40 324q1 5 4.5 8.5zM200 584q0 4 3 8l69 100q5 8 15 8h108q9 0 9 -6q0 -5 -4 -9l-88 -100q-6 -7 -15 -7h-87q-10 0 -10 6z" />
    <glyph glyph-name="ucircumflex" unicode="&#xfb;" 
d="M299.5 513.5q3.5 3.5 8.5 3.5h138q5 0 8 -3.5t2 -8.5l-61 -493q-1 -5 -4.5 -8.5t-8.5 -3.5h-138q-5 0 -8 3.5t-2 8.5l2 13q0 7 -6 1q-17 -19 -38.5 -26.5t-49.5 -7.5q-52 0 -86 30t-34 93q0 8 2 28l45 362q1 5 4.5 8.5t8.5 3.5h138q5 0 8 -3.5t2 -8.5l-40 -325
q-1 -5 -1 -13q0 -32 26 -32q34 0 40 46l40 324q1 5 4.5 8.5zM116 578q0 4 3 8l74 106q5 8 15 8h149q9 0 13 -8l51 -106q1 -2 1 -5q0 -9 -11 -9h-102q-9 0 -12 9l-19 51q-3 5 -6 0l-31 -51q-6 -9 -15 -9h-101q-9 0 -9 6z" />
    <glyph glyph-name="udieresis" unicode="&#xfc;" 
d="M299.5 513.5q3.5 3.5 8.5 3.5h138q5 0 8 -3.5t2 -8.5l-61 -493q-1 -5 -4.5 -8.5t-8.5 -3.5h-138q-5 0 -8 3.5t-2 8.5l2 13q0 7 -6 1q-17 -19 -38.5 -26.5t-49.5 -7.5q-52 0 -86 30t-34 93q0 8 2 28l45 362q1 5 4.5 8.5t8.5 3.5h138q5 0 8 -3.5t2 -8.5l-40 -325
q-1 -5 -1 -13q0 -32 26 -32q34 0 40 46l40 324q1 5 4.5 8.5zM309.5 584q-20.5 21 -20.5 54q0 43 28 71t68 28q34 0 54 -20t20 -54q0 -42 -28 -71t-67 -29q-34 0 -54.5 21zM118.5 584q-20.5 21 -20.5 54q0 43 28 71t68 28q34 0 54 -20t20 -54q0 -42 -28 -71t-67 -29
q-34 0 -54.5 21z" />
    <glyph glyph-name="yacute" unicode="&#xfd;" horiz-adv-x="429" 
d="M-13 -187l13 112q2 12 11 12q51 0 75 12t28 48v6l-61 502v2q0 11 13 11h148q10 0 10 -11l-1 -263q-1 -3 2 -2.5t4 3.5l61 262q3 11 13 11l148 -2q13 0 9 -13l-188 -513q-29 -75 -57.5 -113.5t-78.5 -57t-139 -18.5h-6q-6 0 -4 12zM196 584q0 4 3 8l69 100q5 8 15 8h108
q9 0 9 -6q0 -5 -4 -9l-88 -100q-6 -7 -15 -7h-87q-10 0 -10 6z" />
    <glyph glyph-name="thorn" unicode="&#xfe;" horiz-adv-x="438" 
d="M441 397q0 -21 -3 -45l-23 -187q-21 -173 -153 -173q-60 0 -83 48q-2 3 -4 2.5t-3 -4.5l-27 -226q-1 -5 -4.5 -8.5t-8.5 -3.5h-138q-5 0 -8 3.5t-2 8.5l107 876q1 5 4.5 8.5t8.5 3.5h138q5 0 8 -3.5t2 -8.5l-25 -210v-1q0 -1 1 -1q2 0 9 7q34 42 90 42q114 0 114 -128z
M276 349q0 16 -7.5 25t-19.5 9q-16 0 -26.5 -12t-13.5 -32l-19 -161q-1 -3 -1 -10q0 -15 8 -24.5t21 -9.5q15 0 25 12t13 32l19 161q1 4 1 10z" />
    <glyph glyph-name="ydieresis" unicode="&#xff;" horiz-adv-x="429" 
d="M-13 -187l13 112q2 12 11 12q51 0 75 12t28 48v6l-61 502v2q0 11 13 11h148q10 0 10 -11l-1 -263q-1 -3 2 -2.5t4 3.5l61 262q3 11 13 11l148 -2q13 0 9 -13l-188 -513q-29 -75 -57.5 -113.5t-78.5 -57t-139 -18.5h-6q-6 0 -4 12zM304.5 584q-20.5 21 -20.5 54
q0 43 28 71t68 28q34 0 54 -20t20 -54q0 -42 -28 -71t-67 -29q-34 0 -54.5 21zM113.5 584q-20.5 21 -20.5 54q0 43 28 71t68 28q34 0 54 -20t20 -54q0 -42 -28 -71t-67 -29q-34 0 -54.5 21z" />
    <glyph glyph-name="Amacron" unicode="&#x100;" horiz-adv-x="493" 
d="M297 11l-2 87q1 2 -1 3.5t-4 1.5h-105q-6 0 -6 -5l-22 -87q-3 -11 -14 -11h-138q-12 0 -8 13l223 676q3 11 14 11h158q12 0 12 -11l56 -676v-3q0 -10 -11 -10h-141q-11 0 -11 11zM220 231h65q5 0 5 5l-7 228q0 4 -2 4t-4 -4l-60 -228q0 -5 3 -5zM210 762.5q-3 3.5 -2 8.5
l11 88q1 5 4.5 8.5t8.5 3.5h196q5 0 8 -3.5t2 -8.5l-11 -88q-1 -5 -4.5 -8.5t-8.5 -3.5h-196q-5 0 -8 3.5z" />
    <glyph glyph-name="amacron" unicode="&#x101;" horiz-adv-x="443" 
d="M297.5 513.5q3.5 3.5 8.5 3.5h138q5 0 8 -3.5t2 -8.5l-61 -493q-1 -5 -4.5 -8.5t-8.5 -3.5h-138q-5 0 -8 3.5t-2 8.5l4 26q0 4 -2 4t-4 -3q-34 -47 -94 -47q-115 0 -115 129q0 22 3 44l23 187q22 173 154 173q60 0 83 -48q1 -4 3 -3.5t3 4.5l3 27q1 5 4.5 8.5zM240 146
q11 12 13 32l19 161q1 3 1 10q0 15 -8 24.5t-21 9.5q-14 0 -24.5 -12t-12.5 -32l-20 -161q-2 -20 5 -32t21 -12q16 0 27 12zM163 579.5q-3 3.5 -2 8.5l11 88q1 5 4.5 8.5t8.5 3.5h196q5 0 8 -3.5t2 -8.5l-11 -88q-1 -5 -4.5 -8.5t-8.5 -3.5h-196q-5 0 -8 3.5z" />
    <glyph glyph-name="Abreve" unicode="&#x102;" horiz-adv-x="493" 
d="M297 11l-2 87q1 2 -1 3.5t-4 1.5h-105q-6 0 -6 -5l-22 -87q-3 -11 -14 -11h-138q-12 0 -8 13l223 676q3 11 14 11h158q12 0 12 -11l56 -676v-3q0 -10 -11 -10h-141q-11 0 -11 11zM220 231h65q5 0 5 5l-7 228q0 4 -2 4t-4 -4l-60 -228q0 -5 3 -5zM236.5 759
q-29.5 30 -27.5 80q2 12 13 12h59q11 0 11 -12q1 -18 10 -29t24 -11t27 11t17 29q3 12 14 12h59q12 0 10 -12q-10 -50 -47 -80t-88 -30q-52 0 -81.5 30z" />
    <glyph glyph-name="abreve" unicode="&#x103;" horiz-adv-x="443" 
d="M297.5 513.5q3.5 3.5 8.5 3.5h138q5 0 8 -3.5t2 -8.5l-61 -493q-1 -5 -4.5 -8.5t-8.5 -3.5h-138q-5 0 -8 3.5t-2 8.5l4 26q0 4 -2 4t-4 -3q-34 -47 -94 -47q-115 0 -115 129q0 22 3 44l23 187q22 173 154 173q60 0 83 -48q1 -4 3 -3.5t3 4.5l3 27q1 5 4.5 8.5zM240 146
q11 12 13 32l19 161q1 3 1 10q0 15 -8 24.5t-21 9.5q-14 0 -24.5 -12t-12.5 -32l-20 -161q-2 -20 5 -32t21 -12q16 0 27 12zM188.5 576q-29.5 30 -27.5 80q2 12 13 12h59q11 0 11 -12q1 -18 10 -29t24 -11t27 11t17 29q3 12 14 12h59q12 0 10 -12q-10 -50 -47 -80t-88 -30
q-52 0 -81.5 30z" />
    <glyph glyph-name="Aogonek" unicode="&#x104;" horiz-adv-x="493" 
d="M297 11l-2 87q1 2 -1 3.5t-4 1.5h-105q-6 0 -6 -5l-22 -87q-3 -11 -14 -11h-138q-12 0 -8 13l223 676q3 11 14 11h158q12 0 12 -11l56 -676v-3q0 -10 -11 -10h-141q-11 0 -11 11zM220 231h65q5 0 5 5l-7 228q0 4 -2 4t-4 -4l-60 -228q0 -5 3 -5zM426 -185q-26 -8 -52 -8
q-35 0 -57.5 17.5t-22.5 60.5q0 57 56 109q6 6 15 6h75q9 0 9 -5q0 -4 -6 -10q-44 -38 -44 -66q0 -26 25 -24h3q9 0 9 -9v-56q0 -11 -10 -15z" />
    <glyph glyph-name="aogonek" unicode="&#x105;" horiz-adv-x="442" 
d="M389 -6q-55 -44 -55 -75q0 -26 25 -24h3q9 0 9 -9v-56q0 -11 -10 -15q-26 -8 -52 -8q-35 0 -58 17t-23 59q0 57 56 111q3 2 2 4t-4 2h-35q-5 0 -8 3.5t-2 8.5l3 26q1 4 -1 4t-4 -3q-36 -47 -94 -47q-115 0 -115 130q0 21 3 43l23 187q22 173 154 173q60 0 82 -48
q2 -4 4 -3.5t2 4.5l4 27q1 5 4.5 8.5t8.5 3.5h138q5 0 8 -3.5t2 -8.5l-61 -496q-2 -10 -9 -15zM244.5 146q10.5 12 13.5 32l19 161q1 3 1 10q0 15 -7.5 24.5t-20.5 9.5q-15 0 -25.5 -12t-13.5 -32l-19 -161q-1 -4 -1 -10q0 -16 7.5 -25t20.5 -9q15 0 25.5 12z" />
    <glyph glyph-name="Cacute" unicode="&#x106;" horiz-adv-x="456" 
d="M77 38q-48 46 -48 126q0 11 2 33l38 307q11 94 73 149t154 55q84 0 132.5 -45.5t48.5 -124.5q0 -10 -2 -34l-1 -9q-1 -5 -4.5 -8.5t-8.5 -3.5l-139 -6q-11 0 -10 12l4 27q2 23 -8 36.5t-29 13.5t-32 -13.5t-16 -36.5l-41 -333q-2 -22 7.5 -35.5t28.5 -13.5t32.5 13.5
t16.5 35.5l3 29q1 5 4.5 8.5t8.5 3.5l137 -6q11 0 11 -12l-2 -9q-11 -93 -73.5 -149t-154.5 -56q-84 0 -132 46zM234 767q0 4 3 8l69 100q5 8 15 8h108q9 0 9 -6q0 -5 -4 -9l-88 -100q-6 -7 -15 -7h-87q-10 0 -10 6z" />
    <glyph glyph-name="cacute" unicode="&#x107;" horiz-adv-x="432" 
d="M68 30.5q-46 38.5 -46 107.5q0 9 2 27l23 187q10 78 67.5 125.5t148.5 47.5q83 0 129 -39.5t46 -105.5q0 -7 -2 -25l-2 -22q-1 -5 -4.5 -8.5t-8.5 -3.5l-139 -6q-11 0 -10 12l2 15q2 17 -6 29t-22 12q-15 0 -26 -12.5t-13 -31.5l-20 -161q-2 -20 5.5 -32t22.5 -12
t25.5 12t12.5 30l2 15q1 5 4.5 8.5t8.5 3.5l138 -1q5 0 8 -3.5t2 -8.5l-3 -27q-10 -80 -66.5 -125.5t-148.5 -45.5q-84 0 -130 38.5zM200 584q0 4 3 8l69 100q5 8 15 8h108q9 0 9 -6q0 -5 -4 -9l-88 -100q-6 -7 -15 -7h-87q-10 0 -10 6z" />
    <glyph glyph-name="Ccircumflex" unicode="&#x108;" horiz-adv-x="456" 
d="M77 38q-48 46 -48 126q0 11 2 33l38 307q11 94 73 149t154 55q84 0 132.5 -45.5t48.5 -124.5q0 -10 -2 -34l-1 -9q-1 -5 -4.5 -8.5t-8.5 -3.5l-139 -6q-11 0 -10 12l4 27q2 23 -8 36.5t-29 13.5t-32 -13.5t-16 -36.5l-41 -333q-2 -22 7.5 -35.5t28.5 -13.5t32.5 13.5
t16.5 35.5l3 29q1 5 4.5 8.5t8.5 3.5l137 -6q11 0 11 -12l-2 -9q-11 -93 -73.5 -149t-154.5 -56q-84 0 -132 46zM149 761q0 4 3 8l74 106q5 8 15 8h149q9 0 13 -8l51 -106q1 -2 1 -5q0 -9 -11 -9h-102q-9 0 -12 9l-19 51q-3 5 -6 0l-31 -51q-6 -9 -15 -9h-101q-9 0 -9 6z
" />
    <glyph glyph-name="ccircumflex" unicode="&#x109;" horiz-adv-x="432" 
d="M68 30.5q-46 38.5 -46 107.5q0 9 2 27l23 187q10 78 67.5 125.5t148.5 47.5q83 0 129 -39.5t46 -105.5q0 -7 -2 -25l-2 -22q-1 -5 -4.5 -8.5t-8.5 -3.5l-139 -6q-11 0 -10 12l2 15q2 17 -6 29t-22 12q-15 0 -26 -12.5t-13 -31.5l-20 -161q-2 -20 5.5 -32t22.5 -12
t25.5 12t12.5 30l2 15q1 5 4.5 8.5t8.5 3.5l138 -1q5 0 8 -3.5t2 -8.5l-3 -27q-10 -80 -66.5 -125.5t-148.5 -45.5q-84 0 -130 38.5zM115 578q0 4 3 8l74 106q5 8 15 8h149q9 0 13 -8l51 -106q1 -2 1 -5q0 -9 -11 -9h-102q-9 0 -12 9l-19 51q-3 5 -6 0l-31 -51q-6 -9 -15 -9
h-101q-9 0 -9 6z" />
    <glyph glyph-name="Cdotaccent" unicode="&#x10a;" horiz-adv-x="456" 
d="M77 38q-48 46 -48 126q0 11 2 33l38 307q11 94 73 149t154 55q84 0 132.5 -45.5t48.5 -124.5q0 -10 -2 -34l-1 -9q-1 -5 -4.5 -8.5t-8.5 -3.5l-139 -6q-11 0 -10 12l4 27q2 23 -8 36.5t-29 13.5t-32 -13.5t-16 -36.5l-41 -333q-2 -22 7.5 -35.5t28.5 -13.5t32.5 13.5
t16.5 35.5l3 29q1 5 4.5 8.5t8.5 3.5l137 -6q11 0 11 -12l-2 -9q-11 -93 -73.5 -149t-154.5 -56q-84 0 -132 46zM247.5 767q-20.5 21 -20.5 54q0 43 28 71t68 28q34 0 54 -20t20 -54q0 -42 -28 -71t-67 -29q-34 0 -54.5 21z" />
    <glyph glyph-name="cdotaccent" unicode="&#x10b;" horiz-adv-x="432" 
d="M68 30.5q-46 38.5 -46 107.5q0 9 2 27l23 187q10 78 67.5 125.5t148.5 47.5q83 0 129 -39.5t46 -105.5q0 -7 -2 -25l-2 -22q-1 -5 -4.5 -8.5t-8.5 -3.5l-139 -6q-11 0 -10 12l2 15q2 17 -6 29t-22 12q-15 0 -26 -12.5t-13 -31.5l-20 -161q-2 -20 5.5 -32t22.5 -12
t25.5 12t12.5 30l2 15q1 5 4.5 8.5t8.5 3.5l138 -1q5 0 8 -3.5t2 -8.5l-3 -27q-10 -80 -66.5 -125.5t-148.5 -45.5q-84 0 -130 38.5zM213.5 584q-20.5 21 -20.5 54q0 43 28 71t68 28q34 0 54 -20t20 -54q0 -42 -28 -71t-67 -29q-34 0 -54.5 21z" />
    <glyph glyph-name="Ccaron" unicode="&#x10c;" horiz-adv-x="456" 
d="M77 38q-48 46 -48 126q0 11 2 33l38 307q11 94 73 149t154 55q84 0 132.5 -45.5t48.5 -124.5q0 -10 -2 -34l-1 -9q-1 -5 -4.5 -8.5t-8.5 -3.5l-139 -6q-11 0 -10 12l4 27q2 23 -8 36.5t-29 13.5t-32 -13.5t-16 -36.5l-41 -333q-2 -22 7.5 -35.5t28.5 -13.5t32.5 13.5
t16.5 35.5l3 29q1 5 4.5 8.5t8.5 3.5l137 -6q11 0 11 -12l-2 -9q-11 -93 -73.5 -149t-154.5 -56q-84 0 -132 46zM169 875q0 8 11 8h101q9 0 12 -9l19 -51q3 -4 6 0l31 51q6 9 15 9h102q9 0 9 -6q0 -3 -3 -8l-77 -106q-5 -8 -15 -8h-149q-10 0 -13 8l-48 106q-1 2 -1 6z" />
    <glyph glyph-name="ccaron" unicode="&#x10d;" horiz-adv-x="432" 
d="M68 30.5q-46 38.5 -46 107.5q0 9 2 27l23 187q10 78 67.5 125.5t148.5 47.5q83 0 129 -39.5t46 -105.5q0 -7 -2 -25l-2 -22q-1 -5 -4.5 -8.5t-8.5 -3.5l-139 -6q-11 0 -10 12l2 15q2 17 -6 29t-22 12q-15 0 -26 -12.5t-13 -31.5l-20 -161q-2 -20 5.5 -32t22.5 -12
t25.5 12t12.5 30l2 15q1 5 4.5 8.5t8.5 3.5l138 -1q5 0 8 -3.5t2 -8.5l-3 -27q-10 -80 -66.5 -125.5t-148.5 -45.5q-84 0 -130 38.5zM135 692q0 8 11 8h101q9 0 12 -9l19 -51q3 -4 6 0l31 51q6 9 15 9h102q9 0 9 -6q0 -3 -3 -8l-77 -106q-5 -8 -15 -8h-149q-10 0 -13 8
l-48 106q-1 2 -1 6z" />
    <glyph glyph-name="Dcaron" unicode="&#x10e;" horiz-adv-x="465" 
d="M18 3.5q-3 3.5 -2 8.5l83 676q1 5 4.5 8.5t8.5 3.5h185q86 0 135 -45t49 -123q0 -9 -2 -29l-38 -306q-11 -89 -73.5 -143t-156.5 -54h-185q-5 0 -8 3.5zM198 142l27 1q21 1 37 18.5t20 46.5l34 284q1 5 1 14q0 24 -11.5 38t-30.5 14h-26q-4 0 -6 -5l-49 -406q-2 -5 4 -5z
M163 874q0 8 11 8h101q9 0 12 -9l19 -51q3 -4 6 0l31 51q6 9 15 9h102q9 0 9 -6q0 -3 -3 -8l-77 -106q-5 -8 -15 -8h-149q-10 0 -13 8l-48 106q-1 2 -1 6z" />
    <glyph glyph-name="dcaron" unicode="&#x10f;" horiz-adv-x="439" 
d="M319.5 696.5q3.5 3.5 8.5 3.5h138q5 0 8 -3.5t2 -8.5l-83 -676q-1 -5 -4.5 -8.5t-8.5 -3.5h-138q-5 0 -8 3.5t-2 8.5l3 20q0 3 -2 3.5t-4 -1.5q-36 -42 -93 -42q-115 0 -115 129q0 22 3 44l23 187q22 173 154 173q57 0 83 -44q2 -3 4 -2.5t2 3.5l25 206q1 5 4.5 8.5z
M240 146q11 12 13 32l19 161q1 3 1 10q0 15 -8 24.5t-21 9.5q-14 0 -24.5 -12t-12.5 -32l-20 -161q-2 -20 5 -32t21 -12q16 0 27 12zM495 584q0 4 3 8l69 100q5 8 15 8h108q9 0 9 -6q0 -5 -4 -9l-88 -100q-6 -7 -15 -7h-87q-10 0 -10 6z" />
    <glyph glyph-name="Dcroat" unicode="&#x110;" horiz-adv-x="490" 
d="M457 655q49 -45 49 -122q0 -10 -2 -30l-37 -306q-11 -89 -74 -143t-156 -54h-186q-5 0 -8 3.5t-2 8.5l37 302q2 5 -4 5h-9q-5 0 -8 3.5t-2 8.5l9 70q1 5 4.5 8.5t8.5 3.5h9q5 0 5 5l33 270q1 5 4.5 8.5t8.5 3.5h186q85 0 134 -45zM342 492q1 5 1 13q0 25 -11.5 39
t-31.5 14h-26q-5 0 -5 -5l-17 -135q0 -5 4 -5h25q5 0 8 -3.5t2 -8.5l-9 -70q-1 -5 -4.5 -8.5t-8.5 -3.5h-24q-4 0 -6 -5l-20 -167q-2 -5 4 -5l27 1q21 1 37 18.5t20 46.5z" />
    <glyph glyph-name="dcroat" unicode="&#x111;" horiz-adv-x="439" 
d="M504 645.5q3 -3.5 2 -8.5l-9 -74q-1 -5 -4.5 -8.5t-8.5 -3.5h-20q-5 0 -5 -5l-66 -534q-1 -5 -4.5 -8.5t-8.5 -3.5h-138q-5 0 -8 3.5t-2 8.5l3 20q0 3 -2 3.5t-4 -1.5q-36 -42 -93 -42q-115 0 -115 129q0 22 3 44l23 187q22 173 154 173q57 0 83 -44q2 -3 4 -2.5t2 3.5
l8 64q0 5 -4 5h-70q-5 0 -8 3.5t-2 8.5l9 74q1 5 4.5 8.5t8.5 3.5h70q5 0 5 5l4 34q1 5 4.5 8.5t8.5 3.5h138q5 0 8 -3.5t2 -8.5l-4 -34q0 -5 4 -5h20q5 0 8 -3.5zM240 146q11 12 13 32l19 161q1 3 1 10q0 15 -8 24.5t-21 9.5q-14 0 -24.5 -12t-12.5 -32l-20 -161
q-2 -20 5 -32t21 -12q16 0 27 12z" />
    <glyph glyph-name="Emacron" unicode="&#x112;" horiz-adv-x="428" 
d="M452.5 561.5q-3.5 -3.5 -8.5 -3.5h-195q-4 0 -6 -5l-15 -126q0 -5 4 -5h107q5 0 8 -3.5t2 -8.5l-15 -119q0 -5 -4 -8.5t-9 -3.5h-106q-4 0 -6 -5l-15 -127q-2 -5 4 -5h195q5 0 8 -3.5t2 -8.5l-14 -118q-1 -5 -5 -8.5t-9 -3.5h-349q-5 0 -8 3.5t-2 8.5l83 676q1 5 4.5 8.5
t8.5 3.5h349q11 0 11 -12l-15 -118q-1 -5 -4.5 -8.5zM184 762.5q-3 3.5 -2 8.5l11 88q1 5 4.5 8.5t8.5 3.5h196q5 0 8 -3.5t2 -8.5l-11 -88q-1 -5 -4.5 -8.5t-8.5 -3.5h-196q-5 0 -8 3.5z" />
    <glyph glyph-name="emacron" unicode="&#x113;" horiz-adv-x="433" 
d="M416 216.5q-4 -3.5 -9 -3.5h-211q-4 0 -6 -5l-3 -30q-2 -20 5.5 -32t22.5 -12q25 0 39 35q3 11 14 11l132 -8q5 0 8 -3.5t2 -9.5q-15 -84 -67.5 -125.5t-144.5 -41.5q-84 0 -130 38.5t-46 107.5q0 9 2 27l23 187q10 78 67.5 125.5t148.5 47.5q83 0 129 -39.5t46 -107.5
q0 -8 -2 -26l-16 -127q0 -5 -4 -8.5zM220 370.5q-11 -12.5 -13 -31.5l-4 -31q-2 -5 4 -5h57q4 0 6 5l3 31q1 3 1 10q0 15 -7.5 24.5t-20.5 9.5q-15 0 -26 -12.5zM159 587.5q-3 3.5 -2 8.5l10 87q1 5 5 8.5t9 3.5h196q5 0 8 -3.5t2 -8.5l-11 -87q-1 -5 -4.5 -8.5t-8.5 -3.5
h-196q-5 0 -8 3.5z" />
    <glyph glyph-name="Edotaccent" unicode="&#x116;" horiz-adv-x="428" 
d="M452.5 561.5q-3.5 -3.5 -8.5 -3.5h-195q-4 0 -6 -5l-15 -126q0 -5 4 -5h107q5 0 8 -3.5t2 -8.5l-15 -119q0 -5 -4 -8.5t-9 -3.5h-106q-4 0 -6 -5l-15 -127q-2 -5 4 -5h195q5 0 8 -3.5t2 -8.5l-14 -118q-1 -5 -5 -8.5t-9 -3.5h-349q-5 0 -8 3.5t-2 8.5l83 676q1 5 4.5 8.5
t8.5 3.5h349q11 0 11 -12l-15 -118q-1 -5 -4.5 -8.5zM239.5 767q-20.5 21 -20.5 54q0 43 28 71t68 28q34 0 54 -20t20 -54q0 -42 -28 -71t-67 -29q-34 0 -54.5 21z" />
    <glyph glyph-name="edotaccent" unicode="&#x117;" horiz-adv-x="433" 
d="M416 216.5q-4 -3.5 -9 -3.5h-211q-4 0 -6 -5l-3 -30q-2 -20 5.5 -32t22.5 -12q25 0 39 35q3 11 14 11l132 -8q5 0 8 -3.5t2 -9.5q-15 -84 -67.5 -125.5t-144.5 -41.5q-84 0 -130 38.5t-46 107.5q0 9 2 27l23 187q10 78 67.5 125.5t148.5 47.5q83 0 129 -39.5t46 -107.5
q0 -8 -2 -26l-16 -127q0 -5 -4 -8.5zM220 370.5q-11 -12.5 -13 -31.5l-4 -31q-2 -5 4 -5h57q4 0 6 5l3 31q1 3 1 10q0 15 -7.5 24.5t-20.5 9.5q-15 0 -26 -12.5zM212.5 584q-20.5 21 -20.5 54q0 43 28 71t68 28q34 0 54 -20t20 -54q0 -42 -28 -71t-67 -29q-34 0 -54.5 21z
" />
    <glyph glyph-name="Eogonek" unicode="&#x118;" horiz-adv-x="428" 
d="M452.5 561.5q-3.5 -3.5 -8.5 -3.5h-195q-4 0 -6 -5l-15 -126q0 -5 4 -5h107q5 0 8 -3.5t2 -8.5l-15 -119q0 -5 -4 -8.5t-9 -3.5h-106q-4 0 -6 -5l-15 -127q-2 -5 4 -5h195q5 0 8 -3.5t2 -8.5l-14 -118q-1 -5 -5 -8.5t-9 -3.5h-123q-3 0 -7 -2q-48 -42 -48 -70
q0 -23 21 -23h7q5 0 7.5 -1.5t2.5 -7.5l-1 -57q0 -11 -10 -14q-26 -8 -53 -8q-31 0 -53 14t-26 48l-1 13q0 54 47 102q2 2 2 4t-3 2h-111q-5 0 -8 3.5t-2 8.5l83 676q1 5 4.5 8.5t8.5 3.5h349q11 0 11 -12l-15 -118q-1 -5 -4.5 -8.5z" />
    <glyph glyph-name="eogonek" unicode="&#x119;" horiz-adv-x="433" 
d="M416 216.5q-4 -3.5 -9 -3.5h-211q-4 0 -6 -5l-3 -30q-2 -20 5.5 -32t22.5 -12q25 0 39 35q3 11 14 11l132 -8q5 0 8 -3.5t2 -9.5q-14 -72 -53 -113t-107 -51q-2 0 -6 -2q-45 -38 -43 -68q3 -20 20 -20h8q5 0 7.5 -1.5t1.5 -7.5v-57q0 -11 -10 -14q-26 -8 -53 -8
q-34 0 -57 17t-23 58q0 52 45 100q4 4 -1 6q-56 12 -86.5 48t-30.5 92q0 9 2 27l23 187q10 78 67.5 125.5t148.5 47.5q83 0 129 -39.5t46 -107.5q0 -8 -2 -26l-16 -127q0 -5 -4 -8.5zM220 370.5q-11 -12.5 -13 -31.5l-4 -31q-2 -5 4 -5h57q4 0 6 5l3 31q1 3 1 10
q0 15 -7.5 24.5t-20.5 9.5q-15 0 -26 -12.5z" />
    <glyph glyph-name="Ecaron" unicode="&#x11a;" horiz-adv-x="428" 
d="M452.5 561.5q-3.5 -3.5 -8.5 -3.5h-195q-4 0 -6 -5l-15 -126q0 -5 4 -5h107q5 0 8 -3.5t2 -8.5l-15 -119q0 -5 -4 -8.5t-9 -3.5h-106q-4 0 -6 -5l-15 -127q-2 -5 4 -5h195q5 0 8 -3.5t2 -8.5l-14 -118q-1 -5 -5 -8.5t-9 -3.5h-349q-5 0 -8 3.5t-2 8.5l83 676q1 5 4.5 8.5
t8.5 3.5h349q11 0 11 -12l-15 -118q-1 -5 -4.5 -8.5zM160 875q0 8 11 8h101q9 0 12 -9l19 -51q3 -4 6 0l31 51q6 9 15 9h102q9 0 9 -6q0 -3 -3 -8l-77 -106q-5 -8 -15 -8h-149q-10 0 -13 8l-48 106q-1 2 -1 6z" />
    <glyph glyph-name="ecaron" unicode="&#x11b;" horiz-adv-x="433" 
d="M416 216.5q-4 -3.5 -9 -3.5h-211q-4 0 -6 -5l-3 -30q-2 -20 5.5 -32t22.5 -12q25 0 39 35q3 11 14 11l132 -8q5 0 8 -3.5t2 -9.5q-15 -84 -67.5 -125.5t-144.5 -41.5q-84 0 -130 38.5t-46 107.5q0 9 2 27l23 187q10 78 67.5 125.5t148.5 47.5q83 0 129 -39.5t46 -107.5
q0 -8 -2 -26l-16 -127q0 -5 -4 -8.5zM220 370.5q-11 -12.5 -13 -31.5l-4 -31q-2 -5 4 -5h57q4 0 6 5l3 31q1 3 1 10q0 15 -7.5 24.5t-20.5 9.5q-15 0 -26 -12.5zM131 692q0 8 11 8h101q9 0 12 -9l19 -51q3 -4 6 0l31 51q6 9 15 9h102q9 0 9 -6q0 -3 -3 -8l-77 -106
q-5 -8 -15 -8h-149q-10 0 -13 8l-48 106q-1 2 -1 6z" />
    <glyph glyph-name="Gcircumflex" unicode="&#x11c;" horiz-adv-x="459" 
d="M76.5 36.5q-48.5 44.5 -48.5 121.5q0 9 2 31l40 323q10 90 72 143t154 53q84 0 133 -45t49 -122q0 -9 -2 -31l-5 -37q-1 -5 -4.5 -8.5t-8.5 -3.5h-138q-5 0 -8 3.5t-2 8.5l5 39l1 10q0 20 -10 32t-27 12q-19 0 -32 -15t-16 -39l-40 -324l-1 -11q0 -20 10 -31.5t26 -11.5
q19 0 32.5 15t16.5 39l8 64q2 5 -4 5h-25q-5 0 -8 3.5t-2 8.5l13 106q0 5 4 8.5t9 3.5h179q5 0 8 -3.5t2 -8.5l-23 -186q-10 -90 -72.5 -143.5t-154.5 -53.5q-84 0 -132.5 44.5zM149 761q0 4 3 8l74 106q5 8 15 8h149q9 0 13 -8l51 -106q1 -2 1 -5q0 -9 -11 -9h-102
q-9 0 -12 9l-19 51q-3 5 -6 0l-31 -51q-6 -9 -15 -9h-101q-9 0 -9 6z" />
    <glyph glyph-name="gcircumflex" unicode="&#x11d;" horiz-adv-x="438" 
d="M297.5 513.5q3.5 3.5 8.5 3.5h138q5 0 8 -3.5t2 -8.5l-58 -475q-14 -114 -74.5 -176.5t-200.5 -62.5q-16 0 -52 2q-12 1 -10 13l14 119q1 6 5 9t9 2l23 -1q66 0 91.5 23.5t33.5 73.5q0 4 -2 4.5t-5 -2.5q-36 -40 -92 -40q-115 0 -115 130q0 21 3 43l23 185
q22 173 154 173q59 0 83 -45q1 -3 3 -2.5t3 3.5l3 24q1 5 4.5 8.5zM240 149q11 12 13 31l19 159q1 3 1 10q0 15 -8 24.5t-21 9.5q-14 0 -24.5 -12t-12.5 -32l-20 -159q-2 -20 5 -31.5t22 -11.5t26 12zM118 578q0 4 3 8l74 106q5 8 15 8h149q9 0 13 -8l51 -106q1 -2 1 -5
q0 -9 -11 -9h-102q-9 0 -12 9l-19 51q-3 5 -6 0l-31 -51q-6 -9 -15 -9h-101q-9 0 -9 6z" />
    <glyph glyph-name="Gbreve" unicode="&#x11e;" horiz-adv-x="459" 
d="M76.5 36.5q-48.5 44.5 -48.5 121.5q0 9 2 31l40 323q10 90 72 143t154 53q84 0 133 -45t49 -122q0 -9 -2 -31l-5 -37q-1 -5 -4.5 -8.5t-8.5 -3.5h-138q-5 0 -8 3.5t-2 8.5l5 39l1 10q0 20 -10 32t-27 12q-19 0 -32 -15t-16 -39l-40 -324l-1 -11q0 -20 10 -31.5t26 -11.5
q19 0 32.5 15t16.5 39l8 64q2 5 -4 5h-25q-5 0 -8 3.5t-2 8.5l13 106q0 5 4 8.5t9 3.5h179q5 0 8 -3.5t2 -8.5l-23 -186q-10 -90 -72.5 -143.5t-154.5 -53.5q-84 0 -132.5 44.5zM218.5 759q-29.5 30 -27.5 80q2 12 13 12h59q11 0 11 -12q1 -18 10 -29t24 -11t27 11t17 29
q3 12 14 12h59q12 0 10 -12q-10 -50 -47 -80t-88 -30q-52 0 -81.5 30z" />
    <glyph glyph-name="gbreve" unicode="&#x11f;" horiz-adv-x="438" 
d="M297.5 513.5q3.5 3.5 8.5 3.5h138q5 0 8 -3.5t2 -8.5l-58 -475q-14 -114 -74.5 -176.5t-200.5 -62.5q-16 0 -52 2q-12 1 -10 13l14 119q1 6 5 9t9 2l23 -1q66 0 91.5 23.5t33.5 73.5q0 4 -2 4.5t-5 -2.5q-36 -40 -92 -40q-115 0 -115 130q0 21 3 43l23 185
q22 173 154 173q59 0 83 -45q1 -3 3 -2.5t3 3.5l3 24q1 5 4.5 8.5zM240 149q11 12 13 31l19 159q1 3 1 10q0 15 -8 24.5t-21 9.5q-14 0 -24.5 -12t-12.5 -32l-20 -159q-2 -20 5 -31.5t22 -11.5t26 12zM187.5 576q-29.5 30 -27.5 80q2 12 13 12h59q11 0 11 -12q1 -18 10 -29
t24 -11t27 11t17 29q3 12 14 12h59q12 0 10 -12q-10 -50 -47 -80t-88 -30q-52 0 -81.5 30z" />
    <glyph glyph-name="Gdotaccent" unicode="&#x120;" horiz-adv-x="459" 
d="M76.5 36.5q-48.5 44.5 -48.5 121.5q0 9 2 31l40 323q10 90 72 143t154 53q84 0 133 -45t49 -122q0 -9 -2 -31l-5 -37q-1 -5 -4.5 -8.5t-8.5 -3.5h-138q-5 0 -8 3.5t-2 8.5l5 39l1 10q0 20 -10 32t-27 12q-19 0 -32 -15t-16 -39l-40 -324l-1 -11q0 -20 10 -31.5t26 -11.5
q19 0 32.5 15t16.5 39l8 64q2 5 -4 5h-25q-5 0 -8 3.5t-2 8.5l13 106q0 5 4 8.5t9 3.5h179q5 0 8 -3.5t2 -8.5l-23 -186q-10 -90 -72.5 -143.5t-154.5 -53.5q-84 0 -132.5 44.5zM247.5 767q-20.5 21 -20.5 54q0 43 28 71t68 28q34 0 54 -20t20 -54q0 -42 -28 -71t-67 -29
q-34 0 -54.5 21z" />
    <glyph glyph-name="gdotaccent" unicode="&#x121;" horiz-adv-x="438" 
d="M297.5 513.5q3.5 3.5 8.5 3.5h138q5 0 8 -3.5t2 -8.5l-58 -475q-14 -114 -74.5 -176.5t-200.5 -62.5q-16 0 -52 2q-12 1 -10 13l14 119q1 6 5 9t9 2l23 -1q66 0 91.5 23.5t33.5 73.5q0 4 -2 4.5t-5 -2.5q-36 -40 -92 -40q-115 0 -115 130q0 21 3 43l23 185
q22 173 154 173q59 0 83 -45q1 -3 3 -2.5t3 3.5l3 24q1 5 4.5 8.5zM240 149q11 12 13 31l19 159q1 3 1 10q0 15 -8 24.5t-21 9.5q-14 0 -24.5 -12t-12.5 -32l-20 -159q-2 -20 5 -31.5t22 -11.5t26 12zM216.5 584q-20.5 21 -20.5 54q0 43 28 71t68 28q34 0 54 -20t20 -54
q0 -42 -28 -71t-67 -29q-34 0 -54.5 21z" />
    <glyph glyph-name="uni0122" unicode="&#x122;" horiz-adv-x="459" 
d="M76.5 36.5q-48.5 44.5 -48.5 121.5q0 9 2 31l40 323q10 90 72 143t154 53q84 0 133 -45t49 -122q0 -9 -2 -31l-5 -37q-1 -5 -4.5 -8.5t-8.5 -3.5h-138q-5 0 -8 3.5t-2 8.5l5 39l1 10q0 20 -10 32t-27 12q-19 0 -32 -15t-16 -39l-40 -324l-1 -11q0 -20 10 -31.5t26 -11.5
q19 0 32.5 15t16.5 39l8 64q2 5 -4 5h-25q-5 0 -8 3.5t-2 8.5l13 106q0 5 4 8.5t9 3.5h179q5 0 8 -3.5t2 -8.5l-23 -186q-10 -90 -72.5 -143.5t-154.5 -53.5q-84 0 -132.5 44.5zM84 -170q0 4 3 8l69 100q5 8 15 8h108q9 0 9 -6q0 -5 -4 -9l-88 -100q-6 -7 -15 -7h-87
q-10 0 -10 6z" />
    <glyph glyph-name="uni0123" unicode="&#x123;" horiz-adv-x="438" 
d="M387 679q0 -3 -3 -8l-69 -100q-5 -8 -15 -8h-109q-8 0 -8 7q0 4 3 8l88 100q7 7 16 7h87q10 0 10 -6zM297.5 513.5q3.5 3.5 8.5 3.5h138q5 0 8 -3.5t2 -8.5l-58 -475q-14 -114 -74.5 -176.5t-200.5 -62.5q-16 0 -52 2q-12 1 -10 13l14 119q1 6 5 9t9 2l23 -1
q66 0 91.5 23.5t33.5 73.5q0 4 -2 4.5t-5 -2.5q-36 -40 -92 -40q-115 0 -115 130q0 21 3 43l23 185q22 173 154 173q59 0 83 -45q1 -3 3 -2.5t3 3.5l3 24q1 5 4.5 8.5zM240 149q11 12 13 31l19 159q1 3 1 10q0 15 -8 24.5t-21 9.5q-14 0 -24.5 -12t-12.5 -32l-20 -159
q-2 -20 5 -31.5t22 -11.5t26 12z" />
    <glyph glyph-name="Hcircumflex" unicode="&#x124;" horiz-adv-x="469" 
d="M344 696.5q4 3.5 9 3.5h137q11 0 11 -12l-83 -676q-1 -5 -5 -8.5t-9 -3.5h-137q-5 0 -8 3.5t-2 8.5l32 262q0 5 -4 5h-70q-4 0 -6 -5l-32 -262q-1 -5 -4.5 -8.5t-8.5 -3.5h-138q-5 0 -8 3.5t-2 8.5l83 676q1 5 4.5 8.5t8.5 3.5h138q5 0 8 -3.5t2 -8.5l-32 -261q0 -5 4 -5
h70q4 0 6 5l32 261q0 5 4 8.5zM154 762q0 4 3 8l74 106q5 8 15 8h149q9 0 13 -8l51 -106q1 -2 1 -5q0 -9 -11 -9h-102q-9 0 -12 9l-19 51q-3 5 -6 0l-31 -51q-6 -9 -15 -9h-101q-9 0 -9 6z" />
    <glyph glyph-name="hcircumflex" unicode="&#x125;" 
d="M413 490.5q29 -34.5 29 -98.5q0 -20 -3 -43l-42 -337q-1 -5 -4.5 -8.5t-8.5 -3.5h-138q-5 0 -8 3.5t-2 8.5l40 326q1 5 1 13q0 32 -26 32q-16 0 -26.5 -12t-13.5 -34l-40 -325q-1 -5 -4.5 -8.5t-8.5 -3.5h-138q-5 0 -8 3.5t-2 8.5l83 676q1 5 4.5 8.5t8.5 3.5h138
q5 0 8 -3.5t2 -8.5l-25 -203q0 -2 2 -2q3 0 9 6q34 36 85 36q59 0 88 -34.5zM156 756q0 4 3 8l74 106q5 8 15 8h149q9 0 13 -8l51 -106q1 -2 1 -5q0 -9 -11 -9h-102q-9 0 -12 9l-19 51q-3 5 -6 0l-31 -51q-6 -9 -15 -9h-101q-9 0 -9 6z" />
    <glyph glyph-name="Hbar" unicode="&#x126;" horiz-adv-x="469" 
d="M535 614.5q3 -3.5 2 -8.5l-11 -87q0 -5 -4 -8.5t-9 -3.5h-30q-5 0 -5 -5l-60 -490q-1 -5 -5 -8.5t-9 -3.5h-137q-5 0 -8 3.5t-2 8.5l32 262q0 5 -4 5h-70q-4 0 -6 -5l-32 -262q-1 -5 -4.5 -8.5t-8.5 -3.5h-138q-5 0 -8 3.5t-2 8.5l60 490q2 5 -4 5h-30q-5 0 -8 3.5
t-2 8.5l10 87q1 5 5 8.5t9 3.5h30q2 0 3.5 1.5t1.5 3.5l8 65q1 5 4.5 8.5t8.5 3.5h138q5 0 8 -3.5t2 -8.5l-8 -65q0 -5 4 -5h70q4 0 6 5l8 65q0 5 4 8.5t9 3.5h137q11 0 11 -12l-8 -65q-2 -5 4 -5h30q5 0 8 -3.5zM308 427l9 75q0 5 -4 5h-70q-4 0 -6 -5l-9 -75q0 -5 4 -5h70
q4 0 6 5z" />
    <glyph glyph-name="hbar" unicode="&#x127;" 
d="M413 490.5q29 -34.5 29 -98.5q0 -20 -3 -43l-42 -337q-1 -5 -4.5 -8.5t-8.5 -3.5h-138q-5 0 -8 3.5t-2 8.5l40 326q1 5 1 13q0 32 -26 32q-16 0 -26.5 -12t-13.5 -34l-40 -325q-1 -5 -4.5 -8.5t-8.5 -3.5h-138q-5 0 -8 3.5t-2 8.5l65 530q2 5 -4 5h-26q-5 0 -8 3.5
t-2 8.5l9 75q1 5 4.5 8.5t8.5 3.5h26q4 0 6 5l4 37q1 5 4.5 8.5t8.5 3.5h138q5 0 8 -3.5t2 -8.5l-4 -37q-2 -5 4 -5h63q5 0 8 -3.5t2 -8.5l-9 -75q-1 -5 -4.5 -8.5t-8.5 -3.5h-63q-4 0 -6 -5l-7 -57q0 -2 2 -2q3 0 9 6q34 36 85 36q59 0 88 -34.5z" />
    <glyph glyph-name="Itilde" unicode="&#x128;" horiz-adv-x="228" 
d="M18 3.5q-3 3.5 -2 8.5l83 676q1 5 4.5 8.5t8.5 3.5h138q5 0 8 -3.5t2 -8.5l-83 -676q-1 -5 -4.5 -8.5t-8.5 -3.5h-138q-5 0 -8 3.5zM203 777q-7 4 -14 9t-12 7t-12 2q-19 0 -34 -21q-4 -5 -8.5 -6.5t-8.5 2.5l-45 36q-7 6 -3 16q16 38 43 57t56 19t61 -23q3 -2 9.5 -7
t13 -7.5t13.5 -2.5q21 0 36 18q7 11 16 5l44 -35q4 -4 4 -8q0 -6 -6 -15q-21 -33 -48 -47.5t-54 -14.5q-22 0 -51 16z" />
    <glyph glyph-name="itilde" unicode="&#x129;" horiz-adv-x="191" 
d="M0 3.5q-3 3.5 -2 8.5l60 493q1 5 4.5 8.5t8.5 3.5h138q5 0 8 -3.5t2 -8.5l-60 -493q-1 -5 -4.5 -8.5t-8.5 -3.5h-138q-5 0 -8 3.5zM162 594q-7 4 -14 9t-12 7t-12 2q-19 0 -34 -21q-4 -5 -8.5 -6.5t-8.5 2.5l-45 36q-7 6 -3 16q16 38 43 57t56 19t61 -23q3 -2 9.5 -7
t13 -7.5t13.5 -2.5q21 0 36 18q7 11 16 5l44 -35q4 -4 4 -8q0 -6 -6 -15q-21 -33 -48 -47.5t-54 -14.5q-22 0 -51 16z" />
    <glyph glyph-name="Imacron" unicode="&#x12a;" horiz-adv-x="228" 
d="M18 3.5q-3 3.5 -2 8.5l83 676q1 5 4.5 8.5t8.5 3.5h138q5 0 8 -3.5t2 -8.5l-83 -676q-1 -5 -4.5 -8.5t-8.5 -3.5h-138q-5 0 -8 3.5zM77 762.5q-3 3.5 -2 8.5l11 88q1 5 4.5 8.5t8.5 3.5h196q5 0 8 -3.5t2 -8.5l-11 -88q-1 -5 -4.5 -8.5t-8.5 -3.5h-196q-5 0 -8 3.5z" />
    <glyph glyph-name="imacron" unicode="&#x12b;" horiz-adv-x="191" 
d="M0 3.5q-3 3.5 -2 8.5l60 493q1 5 4.5 8.5t8.5 3.5h138q5 0 8 -3.5t2 -8.5l-60 -493q-1 -5 -4.5 -8.5t-8.5 -3.5h-138q-5 0 -8 3.5zM37 579.5q-3 3.5 -2 8.5l11 88q1 5 4.5 8.5t8.5 3.5h196q5 0 8 -3.5t2 -8.5l-11 -88q-1 -5 -4.5 -8.5t-8.5 -3.5h-196q-5 0 -8 3.5z" />
    <glyph glyph-name="ibreve" unicode="&#x12d;" horiz-adv-x="191" 
d="M0 3.5q-3 3.5 -2 8.5l60 493q1 5 4.5 8.5t8.5 3.5h138q5 0 8 -3.5t2 -8.5l-60 -493q-1 -5 -4.5 -8.5t-8.5 -3.5h-138q-5 0 -8 3.5zM64 590q-29 30 -27 80q1 12 13 12h59q11 0 11 -12q0 -18 9 -29t25 -11q15 0 27 11t17 29q3 12 14 12h59q12 0 10 -12q-11 -50 -47.5 -80
t-88.5 -30t-81 30z" />
    <glyph glyph-name="Iogonek" unicode="&#x12e;" horiz-adv-x="223" 
d="M16 3.5q-3 3.5 -2 8.5l83 676q1 5 4.5 8.5t8.5 3.5h138q5 0 8 -3.5t2 -8.5l-83 -676q-1 -5 -4.5 -8.5t-8.5 -3.5h-138q-5 0 -8 3.5zM137 -185q-26 -8 -52 -8q-35 0 -57.5 17.5t-22.5 60.5q0 57 56 109q6 6 15 6h75q9 0 9 -5q0 -4 -6 -10q-44 -38 -44 -66q0 -26 25 -24h3
q9 0 9 -9v-56q0 -11 -10 -15z" />
    <glyph glyph-name="iogonek" unicode="&#x12f;" horiz-adv-x="218" 
d="M14 3.5q-3 3.5 -2 8.5l60 493q1 5 4.5 8.5t8.5 3.5h138q5 0 8 -3.5t2 -8.5l-60 -493q-1 -5 -4.5 -8.5t-8.5 -3.5h-138q-5 0 -8 3.5zM105.5 584q-20.5 21 -20.5 54q0 43 28 71t68 28q34 0 54 -20t20 -54q0 -42 -28 -71t-67 -29q-34 0 -54.5 21zM136 -185q-26 -8 -52 -8
q-35 0 -57.5 17.5t-22.5 60.5q0 57 56 109q6 6 15 6h75q9 0 9 -5q0 -4 -6 -10q-44 -38 -44 -66q0 -26 25 -24h3q9 0 9 -9v-56q0 -11 -10 -15z" />
    <glyph glyph-name="Idotaccent" unicode="&#x130;" horiz-adv-x="228" 
d="M18 3.5q-3 3.5 -2 8.5l83 676q1 5 4.5 8.5t8.5 3.5h138q5 0 8 -3.5t2 -8.5l-83 -676q-1 -5 -4.5 -8.5t-8.5 -3.5h-138q-5 0 -8 3.5zM132.5 767q-20.5 21 -20.5 54q0 43 28 71t68 28q34 0 54 -20t20 -54q0 -42 -28 -71t-67 -29q-34 0 -54.5 21z" />
    <glyph glyph-name="dotlessi" unicode="&#x131;" horiz-adv-x="191" 
d="M0 3.5q-3 3.5 -2 8.5l60 493q1 5 4.5 8.5t8.5 3.5h138q5 0 8 -3.5t2 -8.5l-60 -493q-1 -5 -4.5 -8.5t-8.5 -3.5h-138q-5 0 -8 3.5z" />
    <glyph glyph-name="ij" unicode="&#x133;" horiz-adv-x="426" 
d="M103 584q-20 21 -20 54q0 43 27.5 71t67.5 28q33 0 53.5 -20t20.5 -53q0 -43 -27.5 -72t-68.5 -29q-33 0 -53 21zM12 3.5q-3 3.5 -2 8.5l61 493q1 5 4.5 8.5t8.5 3.5h138q5 0 8 -3.5t2 -8.5l-61 -493q-1 -5 -4.5 -8.5t-8.5 -3.5h-138q-5 0 -8 3.5zM314.5 584
q-20.5 21 -20.5 54q0 43 28 71t68 28q33 0 53.5 -20t20.5 -53q0 -43 -27.5 -72t-68.5 -29q-33 0 -53.5 21zM105 -198.5q-3 3.5 -2 8.5l15 117q1 7 5.5 9t13.5 2q42 0 60.5 19.5t23.5 57.5l60 490q1 5 4.5 8.5t8.5 3.5h138q5 0 8 -3.5t2 -8.5l-60 -490q-10 -83 -29 -127
t-74 -68t-166 -22q-5 0 -8 3.5z" />
    <glyph glyph-name="Jcircumflex" unicode="&#x134;" horiz-adv-x="448" 
d="M60.5 37q-48.5 45 -48.5 121q0 8 2 28l8 65q1 5 4.5 8.5t8.5 3.5h138q5 0 8 -3.5t2 -8.5l-8 -67l-1 -10q0 -18 9.5 -29t25.5 -11q18 0 31.5 14t15.5 36l62 504q1 5 4.5 8.5t8.5 3.5h138q5 0 8 -3.5t2 -8.5l-61 -502q-11 -87 -73.5 -140.5t-153.5 -53.5q-82 0 -130.5 45z
M250 762q0 4 3 8l74 106q5 8 15 8h149q9 0 13 -8l51 -106q1 -2 1 -5q0 -9 -11 -9h-102q-9 0 -12 9l-19 51q-3 5 -6 0l-31 -51q-6 -9 -15 -9h-101q-9 0 -9 6z" />
    <glyph glyph-name="jcircumflex" unicode="&#x135;" horiz-adv-x="220" 
d="M-105 -198.5q-3 3.5 -2 8.5l15 117q1 7 5.5 9t13.5 2q42 0 60.5 19.5t23.5 57.5l60 490q1 5 4.5 8.5t8.5 3.5h138q5 0 8 -3.5t2 -8.5l-60 -490q-10 -83 -29 -127t-74 -68t-166 -22q-5 0 -8 3.5zM6 578q0 4 3 8l74 106q5 8 15 8h149q9 0 13 -8l51 -106q1 -2 1 -5
q0 -9 -11 -9h-102q-9 0 -12 9l-19 51q-3 5 -6 0l-31 -51q-6 -9 -15 -9h-101q-9 0 -9 6z" />
    <glyph glyph-name="uni0136" unicode="&#x136;" horiz-adv-x="490" 
d="M18 3.5q-3 3.5 -2 8.5l83 676q1 5 4.5 8.5t8.5 3.5h138q5 0 8 -3.5t2 -8.5l-28 -226q0 -4 2 -4t4 3l130 230q5 9 15 9h145q7 0 9 -3.5t-2 -10.5l-176 -294q-1 -1 -2 -2.5t0 -3.5l102 -372l1 -4q0 -4 -3.5 -7t-8.5 -3h-146q-11 0 -13 9l-58 234q-1 3 -3 3t-4 -3l-22 -36
q-2 -4 -2 -6l-23 -189q-1 -5 -4.5 -8.5t-8.5 -3.5h-138q-5 0 -8 3.5zM121 -162q0 4 3 8l69 100q5 8 15 8h108q9 0 9 -6q0 -5 -4 -9l-88 -100q-6 -7 -15 -7h-87q-10 0 -10 6z" />
    <glyph glyph-name="uni0137" unicode="&#x137;" horiz-adv-x="451" 
d="M12 3.5q-3 3.5 -2 8.5l83 676q1 5 4.5 8.5t8.5 3.5h138q5 0 8 -3.5t2 -8.5l-37 -306q-1 -4 1 -4.5t4 2.5l81 128q6 9 15 9h141q9 0 9 -6q0 -3 -3 -8l-129 -179q-3 -3 -2 -7l81 -303l1 -4q0 -4 -3.5 -7t-8.5 -3h-141q-9 0 -12 10l-32 171q0 4 -2.5 4t-4.5 -3l-22 -35
q-1 -1 -2 -2.5t-1 -3.5l-16 -129q-1 -5 -4.5 -8.5t-8.5 -3.5h-138q-5 0 -8 3.5zM88 -162q0 4 3 8l69 100q5 8 15 8h108q9 0 9 -6q0 -5 -4 -9l-88 -100q-6 -7 -15 -7h-87q-10 0 -10 6z" />
    <glyph glyph-name="Lacute" unicode="&#x139;" horiz-adv-x="423" 
d="M18 3.5q-3 3.5 -2 8.5l83 676q1 5 4.5 8.5t8.5 3.5h138q5 0 8 -3.5t2 -8.5l-66 -541q-2 -5 4 -5h198q5 0 8 -3.5t2 -8.5l-15 -118q0 -5 -4 -8.5t-9 -3.5h-352q-5 0 -8 3.5zM122 767q0 4 3 8l69 100q5 8 15 8h108q9 0 9 -6q0 -5 -4 -9l-88 -100q-6 -7 -15 -7h-87
q-10 0 -10 6z" />
    <glyph glyph-name="lacute" unicode="&#x13a;" horiz-adv-x="213" 
d="M10 3.5q-3 3.5 -2 8.5l83 676q1 5 4.5 8.5t8.5 3.5h138q5 0 8 -3.5t2 -8.5l-83 -676q-1 -5 -4.5 -8.5t-8.5 -3.5h-138q-5 0 -8 3.5zM112 767q0 4 3 8l69 100q5 8 15 8h108q9 0 9 -6q0 -5 -4 -9l-88 -100q-6 -7 -15 -7h-87q-10 0 -10 6z" />
    <glyph glyph-name="uni013B" unicode="&#x13b;" horiz-adv-x="423" 
d="M18 3.5q-3 3.5 -2 8.5l83 676q1 5 4.5 8.5t8.5 3.5h138q5 0 8 -3.5t2 -8.5l-66 -541q-2 -5 4 -5h198q5 0 8 -3.5t2 -8.5l-15 -118q0 -5 -4 -8.5t-9 -3.5h-352q-5 0 -8 3.5zM58 -162q0 4 3 8l69 100q5 8 15 8h108q9 0 9 -6q0 -5 -4 -9l-88 -100q-6 -7 -15 -7h-87
q-10 0 -10 6z" />
    <glyph glyph-name="uni013C" unicode="&#x13c;" horiz-adv-x="213" 
d="M10 3.5q-3 3.5 -2 8.5l83 676q1 5 4.5 8.5t8.5 3.5h138q5 0 8 -3.5t2 -8.5l-83 -676q-1 -5 -4.5 -8.5t-8.5 -3.5h-138q-5 0 -8 3.5zM-78 -162q0 4 3 8l69 100q5 8 15 8h108q9 0 9 -6q0 -5 -4 -9l-88 -100q-6 -7 -15 -7h-87q-10 0 -10 6z" />
    <glyph glyph-name="Lcaron" unicode="&#x13d;" horiz-adv-x="427" 
d="M18 3.5q-3 3.5 -2 8.5l83 676q1 5 4.5 8.5t8.5 3.5h138q5 0 8 -3.5t2 -8.5l-66 -541q-2 -5 4 -5h198q5 0 8 -3.5t2 -8.5l-15 -118q0 -5 -4 -8.5t-9 -3.5h-352q-5 0 -8 3.5zM269 584q0 4 3 8l69 100q5 8 15 8h108q9 0 9 -6q0 -5 -4 -9l-88 -100q-6 -7 -15 -7h-87
q-10 0 -10 6z" />
    <glyph glyph-name="lcaron" unicode="&#x13e;" horiz-adv-x="419" 
d="M10 3.5q-3 3.5 -2 8.5l83 676q1 5 4.5 8.5t8.5 3.5h138q5 0 8 -3.5t2 -8.5l-83 -676q-1 -5 -4.5 -8.5t-8.5 -3.5h-138q-5 0 -8 3.5zM257 585q0 4 3 8l69 100q5 8 15 8h108q9 0 9 -6q0 -5 -4 -9l-88 -100q-6 -7 -15 -7h-87q-10 0 -10 6z" />
    <glyph glyph-name="ldot" unicode="&#x140;" horiz-adv-x="222" 
d="M14 3.5q-3 3.5 -2 8.5l83 676q1 5 4.5 8.5t8.5 3.5h138q5 0 8 -3.5t2 -8.5l-83 -676q-1 -5 -4.5 -8.5t-8.5 -3.5h-138q-5 0 -8 3.5zM130.5 767q-20.5 21 -20.5 54q0 43 28 71t68 28q34 0 54 -20t20 -54q0 -42 -28 -71t-67 -29q-34 0 -54.5 21z" />
    <glyph glyph-name="Lslash" unicode="&#x141;" horiz-adv-x="501" 
d="M274 142h199q11 0 11 -12l-15 -118q-1 -5 -4.5 -8.5t-8.5 -3.5h-353q-5 0 -8 3.5t-2 8.5l18 149q0 8 -6 3l-37 -30q-6 -4 -9 -4t-8 5l-54 76q-3 5 -3 8q0 5 6 9l129 103q1 1 4 6l43 351q1 5 4.5 8.5t8.5 3.5h138q5 0 8 -3.5t2 -8.5l-25 -205q-1 -3 1 -4t4 1l107 85
q6 4 9 4q5 0 8 -5l53 -77q3 -4 3 -8t-6 -9l-197 -157q-4 -1 -4 -6l-20 -160q0 -5 4 -5z" />
    <glyph glyph-name="lslash" unicode="&#x142;" horiz-adv-x="408" 
d="M426 395q0 -7 -8 -12l-117 -61q-4 -3 -4 -6l-38 -304q0 -5 -4 -8.5t-9 -3.5h-137q-11 0 -11 12l27 212q0 3 -2 4.5t-4 -0.5l-41 -22q-6 -2 -7 -2q-8 0 -9 7l-33 84l-1 4q0 8 8 13l102 54q3 2 5 6l38 316q1 5 5 8.5t9 3.5h137q5 0 8 -3.5t2 -8.5l-27 -222q0 -7 6 -4l52 28
q4 2 7 2q6 0 9 -6l36 -86q1 -2 1 -5z" />
    <glyph glyph-name="Nacute" unicode="&#x143;" horiz-adv-x="506" 
d="M382.5 696.5q3.5 3.5 8.5 3.5h136q5 0 8 -3.5t2 -8.5l-83 -676q0 -5 -4 -8.5t-9 -3.5h-154q-10 0 -12 10l-54 348q0 3 -2.5 3.5t-2.5 -3.5l-41 -346q-1 -5 -4.5 -8.5t-8.5 -3.5h-136q-5 0 -8 3.5t-2 8.5l83 676q1 5 4.5 8.5t8.5 3.5h152q11 0 13 -10l54 -350q0 -3 2.5 -3
t3.5 4l41 347q1 5 4.5 8.5zM256 768q0 4 3 8l69 100q5 8 15 8h108q9 0 9 -6q0 -5 -4 -9l-88 -100q-6 -7 -15 -7h-87q-10 0 -10 6z" />
    <glyph glyph-name="nacute" unicode="&#x144;" 
d="M413 490.5q29 -34.5 29 -98.5q0 -20 -3 -43l-42 -337q-1 -5 -4.5 -8.5t-8.5 -3.5h-138q-5 0 -8 3.5t-2 8.5l40 326q1 5 1 13q0 32 -26 32q-16 0 -26.5 -12t-13.5 -34l-40 -325q-1 -5 -4.5 -8.5t-8.5 -3.5h-138q-5 0 -8 3.5t-2 8.5l61 493q1 5 4.5 8.5t8.5 3.5h138
q5 0 8 -3.5t2 -8.5l-3 -20q0 -2 2 -2q3 0 9 6q34 36 85 36q59 0 88 -34.5zM205 584q0 4 3 8l69 100q5 8 15 8h108q9 0 9 -6q0 -5 -4 -9l-88 -100q-6 -7 -15 -7h-87q-10 0 -10 6z" />
    <glyph glyph-name="uni0145" unicode="&#x145;" horiz-adv-x="506" 
d="M382.5 696.5q3.5 3.5 8.5 3.5h136q5 0 8 -3.5t2 -8.5l-83 -676q0 -5 -4 -8.5t-9 -3.5h-154q-10 0 -12 10l-54 348q0 3 -2.5 3.5t-2.5 -3.5l-41 -346q-1 -5 -4.5 -8.5t-8.5 -3.5h-136q-5 0 -8 3.5t-2 8.5l83 676q1 5 4.5 8.5t8.5 3.5h152q11 0 13 -10l54 -350q0 -3 2.5 -3
t3.5 4l41 347q1 5 4.5 8.5zM119 -162q0 4 3 8l69 100q5 8 15 8h108q9 0 9 -6q0 -5 -4 -9l-88 -100q-6 -7 -15 -7h-87q-10 0 -10 6z" />
    <glyph glyph-name="uni0146" unicode="&#x146;" 
d="M413 490.5q29 -34.5 29 -98.5q0 -20 -3 -43l-42 -337q-1 -5 -4.5 -8.5t-8.5 -3.5h-138q-5 0 -8 3.5t-2 8.5l40 326q1 5 1 13q0 32 -26 32q-16 0 -26.5 -12t-13.5 -34l-40 -325q-1 -5 -4.5 -8.5t-8.5 -3.5h-138q-5 0 -8 3.5t-2 8.5l61 493q1 5 4.5 8.5t8.5 3.5h138
q5 0 8 -3.5t2 -8.5l-3 -20q0 -2 2 -2q3 0 9 6q34 36 85 36q59 0 88 -34.5zM82 -162q0 4 3 8l69 100q5 8 15 8h108q9 0 9 -6q0 -5 -4 -9l-88 -100q-6 -7 -15 -7h-87q-10 0 -10 6z" />
    <glyph glyph-name="Ncaron" unicode="&#x147;" horiz-adv-x="506" 
d="M382.5 696.5q3.5 3.5 8.5 3.5h136q5 0 8 -3.5t2 -8.5l-83 -676q0 -5 -4 -8.5t-9 -3.5h-154q-10 0 -12 10l-54 348q0 3 -2.5 3.5t-2.5 -3.5l-41 -346q-1 -5 -4.5 -8.5t-8.5 -3.5h-136q-5 0 -8 3.5t-2 8.5l83 676q1 5 4.5 8.5t8.5 3.5h152q11 0 13 -10l54 -350q0 -3 2.5 -3
t3.5 4l41 347q1 5 4.5 8.5zM191 876q0 8 11 8h101q9 0 12 -9l19 -51q3 -4 6 0l31 51q6 9 15 9h102q9 0 9 -6q0 -3 -3 -8l-77 -106q-5 -8 -15 -8h-149q-10 0 -13 8l-48 106q-1 2 -1 6z" />
    <glyph glyph-name="ncaron" unicode="&#x148;" 
d="M413 490.5q29 -34.5 29 -98.5q0 -20 -3 -43l-42 -337q-1 -5 -4.5 -8.5t-8.5 -3.5h-138q-5 0 -8 3.5t-2 8.5l40 326q1 5 1 13q0 32 -26 32q-16 0 -26.5 -12t-13.5 -34l-40 -325q-1 -5 -4.5 -8.5t-8.5 -3.5h-138q-5 0 -8 3.5t-2 8.5l61 493q1 5 4.5 8.5t8.5 3.5h138
q5 0 8 -3.5t2 -8.5l-3 -20q0 -2 2 -2q3 0 9 6q34 36 85 36q59 0 88 -34.5zM140 692q0 8 11 8h101q9 0 12 -9l19 -51q3 -4 6 0l31 51q6 9 15 9h102q9 0 9 -6q0 -3 -3 -8l-77 -106q-5 -8 -15 -8h-149q-10 0 -13 8l-48 106q-1 2 -1 6z" />
    <glyph glyph-name="Eng" unicode="&#x14a;" horiz-adv-x="506" 
d="M382.5 696.5q3.5 3.5 8.5 3.5h136q5 0 8 -3.5t2 -8.5l-84 -688q-10 -77 -28 -117.5t-69.5 -63t-155.5 -20.5q-5 0 -8 3.5t-2 8.5l14 118q1 6 5 8.5t12 2.5q30 0 40.5 13t14.5 44v6l-55 355q0 3 -2.5 3.5t-2.5 -3.5l-41 -346q-1 -5 -4.5 -8.5t-8.5 -3.5h-136q-5 0 -8 3.5
t-2 8.5l83 676q1 5 4.5 8.5t8.5 3.5h152q11 0 13 -10l54 -350q0 -3 2.5 -3t3.5 4l41 347q1 5 4.5 8.5z" />
    <glyph glyph-name="eng" unicode="&#x14b;" 
d="M374 -101q-14 -41 -65 -68t-159 -25q-13 0 -11 12l14 115q2 13 14 11q39 0 52 16t17 51l40 327q1 5 1 13q0 32 -26 32q-16 0 -26.5 -12t-13.5 -34l-40 -325q-1 -5 -4.5 -8.5t-8.5 -3.5h-138q-5 0 -8 3.5t-2 8.5l61 493q1 5 4.5 8.5t8.5 3.5h138q5 0 8 -3.5t2 -8.5l-3 -20
q0 -3 2 -3.5t4 2.5q35 41 90 41q59 0 88 -34.5t29 -98.5q0 -20 -3 -43l-41 -327q-10 -82 -24 -123z" />
    <glyph glyph-name="Omacron" unicode="&#x14c;" horiz-adv-x="464" 
d="M77.5 38.5q-48.5 46.5 -48.5 127.5q0 11 2 33l37 302q12 95 74.5 151t156.5 56q85 0 134.5 -47t49.5 -128q0 -10 -2 -32l-38 -302q-11 -95 -74.5 -151t-157.5 -56q-85 0 -133.5 46.5zM264 149.5q14 15.5 18 42.5l38 316q1 5 1 13q0 21 -10 33t-29 12q-21 0 -35 -16
t-17 -42l-39 -316l-1 -11q0 -22 10 -34.5t29 -12.5q21 0 35 15.5zM195 762.5q-3 3.5 -2 8.5l11 88q1 5 4.5 8.5t8.5 3.5h196q5 0 8 -3.5t2 -8.5l-11 -88q-1 -5 -4.5 -8.5t-8.5 -3.5h-196q-5 0 -8 3.5z" />
    <glyph glyph-name="omacron" unicode="&#x14d;" horiz-adv-x="439" 
d="M68.5 30.5q-46.5 38.5 -46.5 107.5q0 9 2 27l23 187q10 79 67.5 126t149.5 47q84 0 130.5 -39.5t46.5 -107.5q0 -8 -2 -26l-23 -187q-10 -81 -67 -127t-150 -46q-84 0 -130.5 38.5zM243 147q11 12 14 32l19 160l1 9q0 16 -8 25.5t-22 9.5q-16 0 -27 -12t-13 -32l-20 -160
q-2 -20 6 -32t23 -12q16 0 27 12zM161 579.5q-3 3.5 -2 8.5l11 88q1 5 4.5 8.5t8.5 3.5h196q5 0 8 -3.5t2 -8.5l-11 -88q-1 -5 -4.5 -8.5t-8.5 -3.5h-196q-5 0 -8 3.5z" />
    <glyph glyph-name="obreve" unicode="&#x14f;" horiz-adv-x="439" 
d="M68.5 30.5q-46.5 38.5 -46.5 107.5q0 9 2 27l23 187q10 79 67.5 126t149.5 47q84 0 130.5 -39.5t46.5 -107.5q0 -8 -2 -26l-23 -187q-10 -81 -67 -127t-150 -46q-84 0 -130.5 38.5zM243 147q11 12 14 32l19 160l1 9q0 16 -8 25.5t-22 9.5q-16 0 -27 -12t-13 -32l-20 -160
q-2 -20 6 -32t23 -12q16 0 27 12zM188 590q-29 30 -27 80q1 12 13 12h59q11 0 11 -12q0 -18 9 -29t25 -11q15 0 27 11t17 29q3 12 14 12h59q12 0 10 -12q-11 -50 -47.5 -80t-88.5 -30t-81 30z" />
    <glyph glyph-name="Ohungarumlaut" unicode="&#x150;" horiz-adv-x="464" 
d="M77.5 38.5q-48.5 46.5 -48.5 127.5q0 11 2 33l37 302q12 95 74.5 151t156.5 56q85 0 134.5 -47t49.5 -128q0 -10 -2 -32l-38 -302q-11 -95 -74.5 -151t-157.5 -56q-85 0 -133.5 46.5zM264 149.5q14 15.5 18 42.5l38 316q1 5 1 13q0 21 -10 33t-29 12q-21 0 -35 -16
t-17 -42l-39 -316l-1 -11q0 -22 10 -34.5t29 -12.5q21 0 35 15.5zM172 764.5q-2 3.5 2 10.5l56 99q4 9 14 9h113q7 0 9 -3.5t-2 -10.5l-63 -99q-5 -9 -14 -9h-106q-7 0 -9 3.5zM337 765q-2 4 2 10l62 99q6 9 16 9h105q6 0 8.5 -3.5t-1.5 -10.5l-63 -99q-6 -9 -15 -9h-105
q-7 0 -9 4z" />
    <glyph glyph-name="ohungarumlaut" unicode="&#x151;" horiz-adv-x="439" 
d="M68.5 30.5q-46.5 38.5 -46.5 107.5q0 9 2 27l23 187q10 79 67.5 126t149.5 47q84 0 130.5 -39.5t46.5 -107.5q0 -8 -2 -26l-23 -187q-10 -81 -67 -127t-150 -46q-84 0 -130.5 38.5zM243 147q11 12 14 32l19 160l1 9q0 16 -8 25.5t-22 9.5q-16 0 -27 -12t-13 -32l-20 -160
q-2 -20 6 -32t23 -12q16 0 27 12zM137 581.5q-2 3.5 2 10.5l56 99q4 9 14 9h113q7 0 9 -3.5t-2 -10.5l-63 -99q-5 -9 -14 -9h-106q-7 0 -9 3.5zM302 582q-2 4 2 10l62 99q6 9 16 9h105q6 0 8.5 -3.5t-1.5 -10.5l-63 -99q-6 -9 -15 -9h-105q-7 0 -9 4z" />
    <glyph glyph-name="OE" unicode="&#x152;" horiz-adv-x="672" 
d="M696 561.5q-4 -3.5 -9 -3.5h-195q-5 0 -5 -5l-16 -126q0 -5 5 -5h107q11 0 11 -12l-15 -119q-1 -5 -4.5 -8.5t-8.5 -3.5h-108q-5 0 -5 -5l-16 -127q0 -5 4 -5h195q5 0 8 -3.5t2 -8.5l-14 -118q-1 -5 -4.5 -8.5t-8.5 -3.5h-349q-11 0 -11 10l1 3q0 3 -2 4t-4 -1
q-36 -24 -84 -24q-38 0 -70.5 21t-51.5 60.5t-19 91.5q0 10 2 34l37 302q8 61 37 108t70 73t83 26q48 0 78 -24q2 -2 4 -1t2 4v1q1 5 5 8.5t9 3.5h349q5 0 8 -3.5t2 -8.5l-15 -118q0 -5 -4 -8.5zM264 149.5q14 15.5 18 42.5l38 316q1 5 1 13q0 21 -10 33t-29 12
q-21 0 -35 -16t-17 -42l-39 -316l-1 -11q0 -22 10 -34.5t29 -12.5q21 0 35 15.5z" />
    <glyph glyph-name="oe" unicode="&#x153;" horiz-adv-x="682" 
d="M665.5 215.5q-3.5 -3.5 -8.5 -3.5h-212q-5 0 -5 -5l-4 -29q-2 -20 5.5 -32t23.5 -12q26 0 38 36q4 10 14 10l133 -8q5 0 7.5 -3.5t1.5 -9.5q-31 -167 -212 -167q-74 0 -114 50q-1 2 -2.5 2t-3.5 -2q-53 -50 -128 -50q-84 0 -130.5 38.5t-46.5 107.5q0 9 2 27l23 187
q10 79 67.5 126t149.5 47q76 0 115 -52q4 -4 7 0q52 52 127 52q83 0 128.5 -39.5t45.5 -107.5q0 -8 -2 -26l-15 -128q-1 -5 -4.5 -8.5zM277 349q0 15 -8.5 24.5t-21.5 9.5q-16 0 -27 -12t-13 -32l-20 -161q-2 -19 6 -31.5t23 -12.5q16 0 27 12t14 32l19 161q1 3 1 10z
M469 370.5q-11 -12.5 -13 -31.5l-4 -29q0 -5 4 -5h58q5 0 5 5l4 29q2 20 -5.5 32t-22.5 12t-26 -12.5z" />
    <glyph glyph-name="Racute" unicode="&#x154;" horiz-adv-x="467" 
d="M267 10l-33 265q-1 4 -5 4h-14q-4 0 -6 -5l-32 -262q-1 -5 -4.5 -8.5t-8.5 -3.5h-138q-5 0 -8 3.5t-2 8.5l83 676q1 5 4.5 8.5t8.5 3.5h209q77 0 121.5 -49t44.5 -131q0 -24 -2 -37q-7 -56 -32.5 -100.5t-64.5 -71.5q-2 -1 -3 -2.5t0 -3.5l47 -291v-2q0 -12 -11 -12h-142
q-11 0 -12 10zM243 553l-17 -142q0 -5 4 -5h27q30 0 49 24.5t19 67.5q0 29 -13 44.5t-36 15.5h-27q-4 0 -6 -5zM229 767q0 4 3 8l69 100q5 8 15 8h108q9 0 9 -6q0 -5 -4 -9l-88 -100q-6 -7 -15 -7h-87q-10 0 -10 6z" />
    <glyph glyph-name="racute" unicode="&#x155;" horiz-adv-x="326" 
d="M358 513q6 -6 4 -15l-40 -141q-3 -11 -14 -8q-14 4 -24 4q-17 0 -32 -6q-18 -6 -31.5 -25t-16.5 -42l-33 -267q-1 -5 -4.5 -8.5t-8.5 -3.5h-138q-5 0 -8 3.5t-2 8.5l61 492q1 5 4.5 8.5t8.5 3.5h138q5 0 8 -3.5t2 -8.5l-4 -32q-1 -4 0.5 -4.5t3.5 2.5q32 53 86 53
q23 0 40 -11zM159 584q0 4 3 8l69 100q5 8 15 8h108q9 0 9 -6q0 -5 -4 -9l-88 -100q-6 -7 -15 -7h-87q-10 0 -10 6z" />
    <glyph glyph-name="uni0156" unicode="&#x156;" horiz-adv-x="467" 
d="M267 10l-33 265q-1 4 -5 4h-14q-4 0 -6 -5l-32 -262q-1 -5 -4.5 -8.5t-8.5 -3.5h-138q-5 0 -8 3.5t-2 8.5l83 676q1 5 4.5 8.5t8.5 3.5h209q77 0 121.5 -49t44.5 -131q0 -24 -2 -37q-7 -56 -32.5 -100.5t-64.5 -71.5q-2 -1 -3 -2.5t0 -3.5l47 -291v-2q0 -12 -11 -12h-142
q-11 0 -12 10zM243 553l-17 -142q0 -5 4 -5h27q30 0 49 24.5t19 67.5q0 29 -13 44.5t-36 15.5h-27q-4 0 -6 -5zM94 -162q0 4 3 8l69 100q5 8 15 8h108q9 0 9 -6q0 -5 -4 -9l-88 -100q-6 -7 -15 -7h-87q-10 0 -10 6z" />
    <glyph glyph-name="uni0157" unicode="&#x157;" horiz-adv-x="326" 
d="M358 513q6 -6 4 -15l-40 -141q-3 -11 -14 -8q-14 4 -24 4q-17 0 -32 -6q-18 -6 -31.5 -25t-16.5 -42l-33 -267q-1 -5 -4.5 -8.5t-8.5 -3.5h-138q-5 0 -8 3.5t-2 8.5l61 492q1 5 4.5 8.5t8.5 3.5h138q5 0 8 -3.5t2 -8.5l-4 -32q-1 -4 0.5 -4.5t3.5 2.5q32 53 86 53
q23 0 40 -11zM-78 -162q0 4 3 8l69 100q5 8 15 8h108q9 0 9 -6q0 -5 -4 -9l-88 -100q-6 -7 -15 -7h-87q-10 0 -10 6z" />
    <glyph glyph-name="Rcaron" unicode="&#x158;" horiz-adv-x="467" 
d="M267 10l-33 265q-1 4 -5 4h-14q-4 0 -6 -5l-32 -262q-1 -5 -4.5 -8.5t-8.5 -3.5h-138q-5 0 -8 3.5t-2 8.5l83 676q1 5 4.5 8.5t8.5 3.5h209q77 0 121.5 -49t44.5 -131q0 -24 -2 -37q-7 -56 -32.5 -100.5t-64.5 -71.5q-2 -1 -3 -2.5t0 -3.5l47 -291v-2q0 -12 -11 -12h-142
q-11 0 -12 10zM243 553l-17 -142q0 -5 4 -5h27q30 0 49 24.5t19 67.5q0 29 -13 44.5t-36 15.5h-27q-4 0 -6 -5zM164 875q0 8 11 8h101q9 0 12 -9l19 -51q3 -4 6 0l31 51q6 9 15 9h102q9 0 9 -6q0 -3 -3 -8l-77 -106q-5 -8 -15 -8h-149q-10 0 -13 8l-48 106q-1 2 -1 6z" />
    <glyph glyph-name="rcaron" unicode="&#x159;" horiz-adv-x="326" 
d="M358 513q6 -6 4 -15l-40 -141q-3 -11 -14 -8q-14 4 -24 4q-17 0 -32 -6q-18 -6 -31.5 -25t-16.5 -42l-33 -267q-1 -5 -4.5 -8.5t-8.5 -3.5h-138q-5 0 -8 3.5t-2 8.5l61 492q1 5 4.5 8.5t8.5 3.5h138q5 0 8 -3.5t2 -8.5l-4 -32q-1 -4 0.5 -4.5t3.5 2.5q32 53 86 53
q23 0 40 -11zM94 692q0 8 11 8h101q9 0 12 -9l19 -51q3 -4 6 0l31 51q6 9 15 9h102q9 0 9 -6q0 -3 -3 -8l-77 -106q-5 -8 -15 -8h-149q-10 0 -13 8l-48 106q-1 2 -1 6z" />
    <glyph glyph-name="Sacute" unicode="&#x15a;" 
d="M73.5 35.5q-47.5 43.5 -47.5 115.5q0 9 2 27l3 31q1 5 5 8.5t9 3.5h135q11 0 11 -12l-3 -23l-1 -10q0 -19 9.5 -30.5t24.5 -11.5q19 0 32.5 15.5t13.5 40.5q0 19 -15.5 37t-59.5 54q-42 34 -67 59t-43.5 61.5t-18.5 83.5q0 65 29 116t80 79t115 28q81 0 129 -45.5
t48 -121.5q0 -9 -2 -29l-3 -24q-1 -5 -5 -8.5t-9 -3.5h-134q-11 0 -11 12l4 28q2 22 -7.5 36t-27.5 14q-19 0 -32.5 -17t-13.5 -43q0 -21 15.5 -40.5t56.5 -53.5q51 -43 76.5 -69.5t41 -57t15.5 -69.5q0 -8 -2 -28q-11 -90 -72.5 -143t-150.5 -53q-82 0 -129.5 43.5z
M223 767q0 4 3 8l69 100q5 8 15 8h108q9 0 9 -6q0 -5 -4 -9l-88 -100q-6 -7 -15 -7h-87q-10 0 -10 6z" />
    <glyph glyph-name="sacute" unicode="&#x15b;" horiz-adv-x="413" 
d="M62 29.5q-47 37.5 -47 100.5q0 13 1 20l1 6q1 5 4.5 8.5t8.5 3.5h130q5 0 8 -3.5t2 -8.5v-2q-2 -18 8.5 -28.5t25.5 -10.5t24 9.5t9 24.5q0 16 -16 25.5t-48 20.5l-19 6q-45 16 -76 48.5t-31 88.5q0 15 1 23q10 76 65 120t137 44q77 0 121.5 -40t44.5 -107q0 -8 -2 -26
q-2 -11 -13 -11h-126q-5 0 -8 3.5t-2 8.5v8q2 16 -5.5 25.5t-21.5 9.5q-17 0 -26.5 -12.5t-9.5 -27.5q0 -19 18.5 -31t48.5 -22q59 -20 95 -49.5t36 -85.5q0 -80 -58.5 -128t-151.5 -48q-81 0 -128 37.5zM186 584q0 4 3 8l69 100q5 8 15 8h108q9 0 9 -6q0 -5 -4 -9l-88 -100
q-6 -7 -15 -7h-87q-10 0 -10 6z" />
    <glyph glyph-name="Scircumflex" unicode="&#x15c;" 
d="M73.5 35.5q-47.5 43.5 -47.5 115.5q0 9 2 27l3 31q1 5 5 8.5t9 3.5h135q11 0 11 -12l-3 -23l-1 -10q0 -19 9.5 -30.5t24.5 -11.5q19 0 32.5 15.5t13.5 40.5q0 19 -15.5 37t-59.5 54q-42 34 -67 59t-43.5 61.5t-18.5 83.5q0 65 29 116t80 79t115 28q81 0 129 -45.5
t48 -121.5q0 -9 -2 -29l-3 -24q-1 -5 -5 -8.5t-9 -3.5h-134q-11 0 -11 12l4 28q2 22 -7.5 36t-27.5 14q-19 0 -32.5 -17t-13.5 -43q0 -21 15.5 -40.5t56.5 -53.5q51 -43 76.5 -69.5t41 -57t15.5 -69.5q0 -8 -2 -28q-11 -90 -72.5 -143t-150.5 -53q-82 0 -129.5 43.5z
M139 761q0 4 3 8l74 106q5 8 15 8h149q9 0 13 -8l51 -106q1 -2 1 -5q0 -9 -11 -9h-102q-9 0 -12 9l-19 51q-3 5 -6 0l-31 -51q-6 -9 -15 -9h-101q-9 0 -9 6z" />
    <glyph glyph-name="scircumflex" unicode="&#x15d;" horiz-adv-x="413" 
d="M62 29.5q-47 37.5 -47 100.5q0 13 1 20l1 6q1 5 4.5 8.5t8.5 3.5h130q5 0 8 -3.5t2 -8.5v-2q-2 -18 8.5 -28.5t25.5 -10.5t24 9.5t9 24.5q0 16 -16 25.5t-48 20.5l-19 6q-45 16 -76 48.5t-31 88.5q0 15 1 23q10 76 65 120t137 44q77 0 121.5 -40t44.5 -107q0 -8 -2 -26
q-2 -11 -13 -11h-126q-5 0 -8 3.5t-2 8.5v8q2 16 -5.5 25.5t-21.5 9.5q-17 0 -26.5 -12.5t-9.5 -27.5q0 -19 18.5 -31t48.5 -22q59 -20 95 -49.5t36 -85.5q0 -80 -58.5 -128t-151.5 -48q-81 0 -128 37.5zM101 578q0 4 3 8l74 106q5 8 15 8h149q9 0 13 -8l51 -106q1 -2 1 -5
q0 -9 -11 -9h-102q-9 0 -12 9l-19 51q-3 5 -6 0l-31 -51q-6 -9 -15 -9h-101q-9 0 -9 6z" />
    <glyph glyph-name="Scedilla" unicode="&#x15e;" 
d="M372 63q-44 -50 -112 -65q-3 0 -4 -2t1 -4q25 -35 25 -73q0 -20 -8 -42q-23 -62 -94 -62q-26 0 -50 8q-10 3 -7 14l13 57q1 6 4.5 7.5t8 1.5h6.5q19 0 26 20q2 8 2 12q0 29 -32 61l-6 3q-56 14 -87.5 54.5t-31.5 98.5q0 8 2 26l3 31q1 5 5 8.5t9 3.5h135q11 0 11 -12
l-3 -23l-1 -10q0 -19 9.5 -30.5t24.5 -11.5q19 0 32.5 15.5t13.5 40.5q0 19 -15.5 37t-59.5 54q-42 34 -67 59t-43.5 61.5t-18.5 83.5q0 65 29 116t80 79t115 28q81 0 129 -45.5t48 -121.5q0 -9 -2 -29l-3 -24q-1 -5 -5 -8.5t-9 -3.5h-134q-11 0 -11 12l4 28q2 22 -7.5 36
t-27.5 14q-19 0 -32.5 -17t-13.5 -43q0 -21 15.5 -40.5t56.5 -53.5q51 -43 76.5 -69.5t41 -57t15.5 -69.5q0 -8 -2 -28q-10 -75 -54 -125z" />
    <glyph glyph-name="scedilla" unicode="&#x15f;" horiz-adv-x="413" 
d="M359 57q-41 -45 -110 -60q-3 0 -4 -2t1 -4q24 -35 24 -71q0 -20 -8 -42q-12 -34 -37 -48.5t-56 -14.5q-27 0 -51 8q-10 3 -7 14l14 57q3 11 15 9q21 -2 29 21q2 8 2 12q0 27 -29 58l-6 3q-57 11 -89 46.5t-32 87.5q0 12 1 19l1 6q1 5 4.5 8.5t8.5 3.5h130q5 0 8 -3.5
t2 -8.5v-2q-2 -18 8.5 -28.5t25.5 -10.5t24 9.5t9 24.5q0 16 -16 25.5t-48 20.5l-19 6q-45 16 -76 48.5t-31 88.5q0 15 1 23q10 76 65 120t137 44q77 0 121.5 -40t44.5 -107q0 -8 -2 -26q-2 -11 -13 -11h-126q-5 0 -8 3.5t-2 8.5v8q2 16 -5.5 25.5t-21.5 9.5
q-17 0 -26.5 -12.5t-9.5 -27.5q0 -19 18.5 -31t48.5 -22q59 -20 95 -49.5t36 -85.5q0 -66 -41 -111z" />
    <glyph glyph-name="Scaron" unicode="&#x160;" 
d="M73.5 35.5q-47.5 43.5 -47.5 115.5q0 9 2 27l3 31q1 5 5 8.5t9 3.5h135q11 0 11 -12l-3 -23l-1 -10q0 -19 9.5 -30.5t24.5 -11.5q19 0 32.5 15.5t13.5 40.5q0 19 -15.5 37t-59.5 54q-42 34 -67 59t-43.5 61.5t-18.5 83.5q0 65 29 116t80 79t115 28q81 0 129 -45.5
t48 -121.5q0 -9 -2 -29l-3 -24q-1 -5 -5 -8.5t-9 -3.5h-134q-11 0 -11 12l4 28q2 22 -7.5 36t-27.5 14q-19 0 -32.5 -17t-13.5 -43q0 -21 15.5 -40.5t56.5 -53.5q51 -43 76.5 -69.5t41 -57t15.5 -69.5q0 -8 -2 -28q-11 -90 -72.5 -143t-150.5 -53q-82 0 -129.5 43.5z
M159 875q0 8 11 8h101q9 0 12 -9l19 -51q3 -4 6 0l31 51q6 9 15 9h102q9 0 9 -6q0 -3 -3 -8l-77 -106q-5 -8 -15 -8h-149q-10 0 -13 8l-48 106q-1 2 -1 6z" />
    <glyph glyph-name="scaron" unicode="&#x161;" horiz-adv-x="413" 
d="M62 29.5q-47 37.5 -47 100.5q0 13 1 20l1 6q1 5 4.5 8.5t8.5 3.5h130q5 0 8 -3.5t2 -8.5v-2q-2 -18 8.5 -28.5t25.5 -10.5t24 9.5t9 24.5q0 16 -16 25.5t-48 20.5l-19 6q-45 16 -76 48.5t-31 88.5q0 15 1 23q10 76 65 120t137 44q77 0 121.5 -40t44.5 -107q0 -8 -2 -26
q-2 -11 -13 -11h-126q-5 0 -8 3.5t-2 8.5v8q2 16 -5.5 25.5t-21.5 9.5q-17 0 -26.5 -12.5t-9.5 -27.5q0 -19 18.5 -31t48.5 -22q59 -20 95 -49.5t36 -85.5q0 -80 -58.5 -128t-151.5 -48q-81 0 -128 37.5zM121 692q0 8 11 8h101q9 0 12 -9l19 -51q3 -4 6 0l31 51q6 9 15 9
h102q9 0 9 -6q0 -3 -3 -8l-77 -106q-5 -8 -15 -8h-149q-10 0 -13 8l-48 106q-1 2 -1 6z" />
    <glyph glyph-name="uni0162" unicode="&#x162;" horiz-adv-x="470" 
d="M513 696.5q3 -3.5 2 -8.5l-14 -118q-1 -5 -4.5 -8.5t-8.5 -3.5h-121q-5 0 -5 -5l-67 -541q0 -5 -4 -8.5t-9 -3.5h-137q-11 0 -11 12l67 541q0 5 -4 5h-116q-5 0 -8 3.5t-2 8.5l14 118q1 5 5 8.5t9 3.5h406q5 0 8 -3.5zM172 -170l14 56q3 11 15 9q22 -2 30 21q2 8 2 11
q0 26 -30 58q-4 4 -4 8q0 7 11 7h76q8 0 14 -6q32 -39 32 -83q0 -21 -7 -41q-24 -63 -95 -63q-27 0 -51 8q-8 4 -7 15z" />
    <glyph glyph-name="uni0163" unicode="&#x163;" horiz-adv-x="290" 
d="M302.5 405.5q-3.5 -3.5 -8.5 -3.5h-50q-5 0 -5 -5l-26 -214l-1 -11q0 -17 8.5 -23.5t24.5 -5.5h4q11 0 11 -12l-15 -119q-1 -5 -4.5 -8.5t-8.5 -3.5h-13q-3 0 -4 -2t0 -4q18 -32 18 -64q0 -22 -7 -40q-12 -34 -38 -48.5t-57 -14.5q-26 0 -50 8q-10 3 -7 14l14 57
q3 11 15 9q21 -2 29 21q2 8 2 12q0 27 -33 62l-4 3q-24 10 -36 29.5t-12 51.5q0 15 1 23l35 280q0 5 -5 5h-31q-5 0 -8 3.5t-2 8.5l11 91q1 5 4.5 8.5t8.5 3.5h32q2 0 3.5 1.5t1.5 3.5l14 111q0 5 4 8.5t9 3.5h131q5 0 8 -3.5t2 -8.5l-14 -111q0 -5 4 -5h50q5 0 8 -3.5
t2 -8.5l-11 -91q-1 -5 -4.5 -8.5z" />
    <glyph glyph-name="Tcaron" unicode="&#x164;" horiz-adv-x="470" 
d="M513 696.5q3 -3.5 2 -8.5l-14 -118q-1 -5 -4.5 -8.5t-8.5 -3.5h-121q-5 0 -5 -5l-67 -541q0 -5 -4 -8.5t-9 -3.5h-137q-11 0 -11 12l67 541q0 5 -4 5h-116q-5 0 -8 3.5t-2 8.5l14 118q1 5 5 8.5t9 3.5h406q5 0 8 -3.5zM174 874q0 8 11 8h101q9 0 12 -9l19 -51q3 -4 6 0
l31 51q6 9 15 9h102q9 0 9 -6q0 -3 -3 -8l-77 -106q-5 -8 -15 -8h-149q-10 0 -13 8l-48 106q-1 2 -1 6z" />
    <glyph glyph-name="tcaron" unicode="&#x165;" horiz-adv-x="290" 
d="M302.5 405.5q-3.5 -3.5 -8.5 -3.5h-50q-5 0 -5 -5l-26 -214l-1 -11q0 -17 8.5 -23.5t24.5 -5.5h4q11 0 11 -12l-15 -119q-1 -5 -4.5 -8.5t-8.5 -3.5h-44q-69 0 -104.5 19.5t-35.5 73.5q0 8 2 24l35 280q0 5 -5 5h-31q-5 0 -8 3.5t-2 8.5l11 91q1 5 4.5 8.5t8.5 3.5h32
q2 0 3.5 1.5t1.5 3.5l14 111q0 5 4 8.5t9 3.5h131q5 0 8 -3.5t2 -8.5l-14 -111q0 -5 4 -5h50q5 0 8 -3.5t2 -8.5l-11 -91q-1 -5 -4.5 -8.5zM282 585q0 4 3 8l69 100q5 8 15 8h108q9 0 9 -6q0 -5 -4 -9l-88 -100q-6 -7 -15 -7h-87q-10 0 -10 6z" />
    <glyph glyph-name="Tbar" unicode="&#x166;" horiz-adv-x="470" 
d="M496.5 561.5q-3.5 -3.5 -8.5 -3.5h-121q-5 0 -5 -5l-18 -142q0 -5 5 -5h38q11 0 11 -12l-10 -74q0 -5 -4 -8.5t-9 -3.5h-38q-6 0 -6 -5l-36 -291q0 -5 -4 -8.5t-9 -3.5h-137q-11 0 -11 12l36 291q0 5 -4 5h-51q-5 0 -8 3.5t-2 8.5l9 74q1 5 4.5 8.5t8.5 3.5h51q5 0 5 5
l18 142q0 5 -4 5h-116q-5 0 -8 3.5t-2 8.5l14 118q1 5 5 8.5t9 3.5h406q5 0 8 -3.5t2 -8.5l-14 -118q-1 -5 -4.5 -8.5z" />
    <glyph glyph-name="tbar" unicode="&#x167;" horiz-adv-x="290" 
d="M290.5 260.5q-3.5 -3.5 -8.5 -3.5h-55q-6 0 -6 -5l-8 -69l-1 -11q0 -17 8.5 -23.5t24.5 -5.5h4q11 0 11 -12l-15 -119q-1 -5 -4.5 -8.5t-8.5 -3.5h-44q-69 0 -104.5 19.5t-35.5 73.5q0 8 2 24l17 135q0 5 -4 5h-30q-5 0 -8.5 3.5t-2.5 8.5l9 74q1 5 5 8.5t9 3.5h30
q5 0 5 5l5 37q0 5 -5 5h-31q-5 0 -8 3.5t-2 8.5l11 91q1 5 4.5 8.5t8.5 3.5h32q2 0 3.5 1.5t1.5 3.5l14 111q0 5 4 8.5t9 3.5h131q5 0 8 -3.5t2 -8.5l-14 -111q0 -5 4 -5h50q5 0 8 -3.5t2 -8.5l-11 -91q-1 -5 -4.5 -8.5t-8.5 -3.5h-50q-5 0 -5 -5l-5 -37q0 -5 5 -5h55
q5 0 8 -3.5t2 -8.5l-9 -74q-1 -5 -4.5 -8.5z" />
    <glyph glyph-name="Utilde" unicode="&#x168;" horiz-adv-x="466" 
d="M82.5 40q-47.5 48 -47.5 129q0 23 2 35l59 484q1 5 4.5 8.5t8.5 3.5h138q5 0 8 -3.5t2 -8.5l-61 -500l-1 -11q0 -20 9.5 -31.5t25.5 -11.5q19 0 31.5 15t15.5 39l62 500q0 5 4 8.5t9 3.5h137q11 0 11 -12l-60 -484q-12 -96 -74.5 -154t-153.5 -58q-82 0 -129.5 48z
M322 777q-7 4 -14 9t-12 7t-12 2q-19 0 -34 -21q-4 -5 -8.5 -6.5t-8.5 2.5l-45 36q-7 6 -3 16q16 38 43 57t56 19t61 -23q3 -2 9.5 -7t13 -7.5t13.5 -2.5q21 0 36 18q7 11 16 5l44 -35q4 -4 4 -8q0 -6 -6 -15q-21 -33 -48 -47.5t-54 -14.5q-22 0 -51 16z" />
    <glyph glyph-name="utilde" unicode="&#x169;" 
d="M299.5 513.5q3.5 3.5 8.5 3.5h138q5 0 8 -3.5t2 -8.5l-61 -493q-1 -5 -4.5 -8.5t-8.5 -3.5h-138q-5 0 -8 3.5t-2 8.5l2 13q0 7 -6 1q-17 -19 -38.5 -26.5t-49.5 -7.5q-52 0 -86 30t-34 93q0 8 2 28l45 362q1 5 4.5 8.5t8.5 3.5h138q5 0 8 -3.5t2 -8.5l-40 -325
q-1 -5 -1 -13q0 -32 26 -32q34 0 40 46l40 324q1 5 4.5 8.5zM285 594q-7 4 -14 9t-12 7t-12 2q-19 0 -34 -21q-4 -5 -8.5 -6.5t-8.5 2.5l-45 36q-7 6 -3 16q16 38 43 57t56 19t61 -23q3 -2 9.5 -7t13 -7.5t13.5 -2.5q21 0 36 18q7 11 16 5l44 -35q4 -4 4 -8q0 -6 -6 -15
q-21 -33 -48 -47.5t-54 -14.5q-22 0 -51 16z" />
    <glyph glyph-name="Umacron" unicode="&#x16a;" horiz-adv-x="466" 
d="M82.5 40q-47.5 48 -47.5 129q0 23 2 35l59 484q1 5 4.5 8.5t8.5 3.5h138q5 0 8 -3.5t2 -8.5l-61 -500l-1 -11q0 -20 9.5 -31.5t25.5 -11.5q19 0 31.5 15t15.5 39l62 500q0 5 4 8.5t9 3.5h137q11 0 11 -12l-60 -484q-12 -96 -74.5 -154t-153.5 -58q-82 0 -129.5 48z
M196 762.5q-3 3.5 -2 8.5l11 88q1 5 4.5 8.5t8.5 3.5h196q5 0 8 -3.5t2 -8.5l-11 -88q-1 -5 -4.5 -8.5t-8.5 -3.5h-196q-5 0 -8 3.5z" />
    <glyph glyph-name="umacron" unicode="&#x16b;" 
d="M299.5 513.5q3.5 3.5 8.5 3.5h138q5 0 8 -3.5t2 -8.5l-61 -493q-1 -5 -4.5 -8.5t-8.5 -3.5h-138q-5 0 -8 3.5t-2 8.5l2 13q0 7 -6 1q-17 -19 -38.5 -26.5t-49.5 -7.5q-52 0 -86 30t-34 93q0 8 2 28l45 362q1 5 4.5 8.5t8.5 3.5h138q5 0 8 -3.5t2 -8.5l-40 -325
q-1 -5 -1 -13q0 -32 26 -32q34 0 40 46l40 324q1 5 4.5 8.5zM159 579.5q-3 3.5 -2 8.5l11 88q1 5 4.5 8.5t8.5 3.5h196q5 0 8 -3.5t2 -8.5l-11 -88q-1 -5 -4.5 -8.5t-8.5 -3.5h-196q-5 0 -8 3.5z" />
    <glyph glyph-name="Ubreve" unicode="&#x16c;" horiz-adv-x="466" 
d="M82.5 40q-47.5 48 -47.5 129q0 23 2 35l59 484q1 5 4.5 8.5t8.5 3.5h138q5 0 8 -3.5t2 -8.5l-61 -500l-1 -11q0 -20 9.5 -31.5t25.5 -11.5q19 0 31.5 15t15.5 39l62 500q0 5 4 8.5t9 3.5h137q11 0 11 -12l-60 -484q-12 -96 -74.5 -154t-153.5 -58q-82 0 -129.5 48z
M224 773q-29 30 -27 80q1 12 13 12h59q11 0 11 -12q0 -18 9 -29t25 -11q15 0 27 11t17 29q3 12 14 12h59q12 0 10 -12q-11 -50 -47.5 -80t-88.5 -30t-81 30z" />
    <glyph glyph-name="ubreve" unicode="&#x16d;" 
d="M299.5 513.5q3.5 3.5 8.5 3.5h138q5 0 8 -3.5t2 -8.5l-61 -493q-1 -5 -4.5 -8.5t-8.5 -3.5h-138q-5 0 -8 3.5t-2 8.5l2 13q0 7 -6 1q-17 -19 -38.5 -26.5t-49.5 -7.5q-52 0 -86 30t-34 93q0 8 2 28l45 362q1 5 4.5 8.5t8.5 3.5h138q5 0 8 -3.5t2 -8.5l-40 -325
q-1 -5 -1 -13q0 -32 26 -32q34 0 40 46l40 324q1 5 4.5 8.5zM187 590q-29 30 -27 80q1 12 13 12h59q11 0 11 -12q0 -18 9 -29t25 -11q15 0 27 11t17 29q3 12 14 12h59q12 0 10 -12q-11 -50 -47.5 -80t-88.5 -30t-81 30z" />
    <glyph glyph-name="Uring" unicode="&#x16e;" horiz-adv-x="466" 
d="M82.5 40q-47.5 48 -47.5 129q0 23 2 35l59 484q1 5 4.5 8.5t8.5 3.5h138q5 0 8 -3.5t2 -8.5l-61 -500l-1 -11q0 -20 9.5 -31.5t25.5 -11.5q19 0 31.5 15t15.5 39l62 500q0 5 4 8.5t9 3.5h137q11 0 11 -12l-60 -484q-12 -96 -74.5 -154t-153.5 -58q-82 0 -129.5 48z
M225 771.5q-31 31.5 -31 79.5q0 40 19.5 74t52.5 54t71 20q48 0 79 -31.5t31 -79.5q0 -41 -19 -75t-52 -53.5t-71 -19.5q-49 0 -80 31.5zM349 840.5q15 15.5 15 36.5q0 17 -10.5 28t-27.5 11q-20 0 -34.5 -15t-14.5 -37q0 -17 11 -28t27 -11q19 0 34 15.5z" />
    <glyph glyph-name="uring" unicode="&#x16f;" 
d="M299.5 513.5q3.5 3.5 8.5 3.5h138q5 0 8 -3.5t2 -8.5l-61 -493q-1 -5 -4.5 -8.5t-8.5 -3.5h-138q-5 0 -8 3.5t-2 8.5l2 13q0 7 -6 1q-17 -19 -38.5 -26.5t-49.5 -7.5q-52 0 -86 30t-34 93q0 8 2 28l45 362q1 5 4.5 8.5t8.5 3.5h138q5 0 8 -3.5t2 -8.5l-40 -325
q-1 -5 -1 -13q0 -32 26 -32q34 0 40 46l40 324q1 5 4.5 8.5zM188 588.5q-31 31.5 -31 79.5q0 40 19.5 74t52.5 54t71 20q48 0 79 -31.5t31 -79.5q0 -41 -19 -75t-52 -53.5t-71 -19.5q-49 0 -80 31.5zM312 657.5q15 15.5 15 36.5q0 17 -10.5 28t-27.5 11q-20 0 -34.5 -15
t-14.5 -37q0 -17 11 -28t27 -11q19 0 34 15.5z" />
    <glyph glyph-name="Uhungarumlaut" unicode="&#x170;" horiz-adv-x="466" 
d="M82.5 40q-47.5 48 -47.5 129q0 23 2 35l59 484q1 5 4.5 8.5t8.5 3.5h138q5 0 8 -3.5t2 -8.5l-61 -500l-1 -11q0 -20 9.5 -31.5t25.5 -11.5q19 0 31.5 15t15.5 39l62 500q0 5 4 8.5t9 3.5h137q11 0 11 -12l-60 -484q-12 -96 -74.5 -154t-153.5 -58q-82 0 -129.5 48z
M173 764.5q-2 3.5 2 10.5l56 99q4 9 14 9h113q7 0 9 -3.5t-2 -10.5l-63 -99q-5 -9 -14 -9h-106q-7 0 -9 3.5zM338 765q-2 4 2 10l62 99q6 9 16 9h105q6 0 8.5 -3.5t-1.5 -10.5l-63 -99q-6 -9 -15 -9h-105q-7 0 -9 4z" />
    <glyph glyph-name="uhungarumlaut" unicode="&#x171;" 
d="M299.5 513.5q3.5 3.5 8.5 3.5h138q5 0 8 -3.5t2 -8.5l-61 -493q-1 -5 -4.5 -8.5t-8.5 -3.5h-138q-5 0 -8 3.5t-2 8.5l2 13q0 7 -6 1q-17 -19 -38.5 -26.5t-49.5 -7.5q-52 0 -86 30t-34 93q0 8 2 28l45 362q1 5 4.5 8.5t8.5 3.5h138q5 0 8 -3.5t2 -8.5l-40 -325
q-1 -5 -1 -13q0 -32 26 -32q34 0 40 46l40 324q1 5 4.5 8.5zM135 581.5q-2 3.5 2 10.5l56 99q4 9 14 9h113q7 0 9 -3.5t-2 -10.5l-63 -99q-5 -9 -14 -9h-106q-7 0 -9 3.5zM300 582q-2 4 2 10l62 99q6 9 16 9h105q6 0 8.5 -3.5t-1.5 -10.5l-63 -99q-6 -9 -15 -9h-105
q-7 0 -9 4z" />
    <glyph glyph-name="Uogonek" unicode="&#x172;" horiz-adv-x="466" 
d="M343 696.5q4 3.5 9 3.5h137q11 0 11 -12l-60 -484q-10 -80 -55.5 -134t-114.5 -71l-6 -3q-23 -20 -35 -38.5t-11 -32.5q1 -20 20 -20h7q5 0 7.5 -1.5t2.5 -7.5v-57q0 -11 -11 -14q-26 -8 -53 -8q-33 0 -56 16.5t-23 55.5q0 55 45 103q4 5 -1 7q-57 15 -89 59.5t-32 110.5
q0 11 2 35l59 484q1 5 4.5 8.5t8.5 3.5h138q5 0 8 -3.5t2 -8.5l-61 -500l-1 -11q0 -20 9.5 -31.5t25.5 -11.5q19 0 31.5 15t15.5 39l62 500q0 5 4 8.5z" />
    <glyph glyph-name="uogonek" unicode="&#x173;" 
d="M386 -6q-55 -44 -55 -75q0 -26 25 -24h3q9 0 9 -9v-56q0 -11 -10 -15q-26 -8 -53 -8q-35 0 -57.5 17t-22.5 59q0 57 57 111q2 2 1 4t-4 2h-35q-5 0 -8 3.5t-2 8.5l2 13q0 7 -6 1q-17 -19 -38.5 -26.5t-49.5 -7.5q-52 0 -86 30t-34 93q0 8 2 28l45 362q1 5 4.5 8.5
t8.5 3.5h138q5 0 8 -3.5t2 -8.5l-40 -325q-1 -5 -1 -13q0 -32 26 -32q34 0 40 46l40 324q1 5 4.5 8.5t8.5 3.5h138q5 0 8 -3.5t2 -8.5l-61 -496q-2 -10 -9 -15z" />
    <glyph glyph-name="Wcircumflex" unicode="&#x174;" horiz-adv-x="680" 
d="M131 11l-49 676q0 13 12 13h142q12 0 12 -11l3 -329q0 -3 2.5 -3t3.5 3l84 329q3 11 14 11h113q11 0 11 -11l8 -329q1 -3 3 -3t2 3l81 329q1 11 12 11h140q12 0 9 -13l-208 -676q-3 -11 -14 -11h-124q-11 0 -11 11l-7 342q0 3 -2.5 3t-3.5 -3l-84 -342q-3 -11 -13 -11
h-124q-12 0 -12 11zM256 761q0 4 3 8l74 106q5 8 15 8h149q9 0 13 -8l51 -106q1 -2 1 -5q0 -9 -11 -9h-102q-9 0 -12 9l-19 51q-3 5 -6 0l-31 -51q-6 -9 -15 -9h-101q-9 0 -9 6z" />
    <glyph glyph-name="wcircumflex" unicode="&#x175;" horiz-adv-x="615" 
d="M100 11l-44 494v2q0 11 12 11h131q11 0 11 -11l1 -250q0 -3 2.5 -3t3.5 3l64 250q1 11 13 11h117q11 0 11 -11l4 -250q1 -4 3.5 -3.5t2.5 3.5l63 250q3 11 13 11l129 -2q12 0 8 -13l-164 -492q-3 -11 -14 -11h-134q-12 0 -12 11l-5 214q-1 4 -3 4t-3 -4l-56 -214
q-3 -11 -14 -11h-128q-12 0 -12 11zM204 578q0 4 3 8l74 106q5 8 15 8h149q9 0 13 -8l51 -106q1 -2 1 -5q0 -9 -11 -9h-102q-9 0 -12 9l-19 51q-3 5 -6 0l-31 -51q-6 -9 -15 -9h-101q-9 0 -9 6z" />
    <glyph glyph-name="Ycircumflex" unicode="&#x176;" horiz-adv-x="477" 
d="M139 14l31 246l-1 6l-84 420v4q0 10 11 10h145q9 0 11 -11l22 -220q0 -4 2.5 -4t3.5 4l75 220q5 11 14 11h146q6 0 8 -4t-1 -10l-190 -420l-1 -6l-31 -246q0 -5 -4 -8.5t-9 -3.5h-137q-11 0 -11 12zM158 761q0 4 3 8l74 106q5 8 15 8h149q9 0 13 -8l51 -106q1 -2 1 -5
q0 -9 -11 -9h-102q-9 0 -12 9l-19 51q-3 5 -6 0l-31 -51q-6 -9 -15 -9h-101q-9 0 -9 6z" />
    <glyph glyph-name="ycircumflex" unicode="&#x177;" horiz-adv-x="429" 
d="M-13 -187l13 112q2 12 11 12q51 0 75 12t28 48v6l-61 502v2q0 11 13 11h148q10 0 10 -11l-1 -263q-1 -3 2 -2.5t4 3.5l61 262q3 11 13 11l148 -2q13 0 9 -13l-188 -513q-29 -75 -57.5 -113.5t-78.5 -57t-139 -18.5h-6q-6 0 -4 12zM111 578q0 4 3 8l74 106q5 8 15 8h149
q9 0 13 -8l51 -106q1 -2 1 -5q0 -9 -11 -9h-102q-9 0 -12 9l-19 51q-3 5 -6 0l-31 -51q-6 -9 -15 -9h-101q-9 0 -9 6z" />
    <glyph glyph-name="Ydieresis" unicode="&#x178;" horiz-adv-x="477" 
d="M139 14l31 246l-1 6l-84 420v4q0 10 11 10h145q9 0 11 -11l22 -220q0 -4 2.5 -4t3.5 4l75 220q5 11 14 11h146q6 0 8 -4t-1 -10l-190 -420l-1 -6l-31 -246q0 -5 -4 -8.5t-9 -3.5h-137q-11 0 -11 12zM351.5 767q-20.5 21 -20.5 54q0 43 28 71t68 28q34 0 54 -20t20 -54
q0 -42 -28 -71t-67 -29q-34 0 -54.5 21zM160.5 767q-20.5 21 -20.5 54q0 43 28 71t68 28q34 0 54 -20t20 -54q0 -42 -28 -71t-67 -29q-34 0 -54.5 21z" />
    <glyph glyph-name="Zacute" unicode="&#x179;" horiz-adv-x="406" 
d="M0 3.5q-3 3.5 -2 8.5l15 122q0 4 2 8.5t3 6.5l246 403q1 3 0 4.5t-3 1.5h-185q-5 0 -8 3.5t-2 8.5l15 118q0 5 4 8.5t9 3.5h349q5 0 8 -3.5t2 -8.5l-15 -122q-1 -7 -6 -15l-247 -403q-3 -6 3 -6h186q11 0 11 -12l-15 -118q-1 -5 -4.5 -8.5t-8.5 -3.5h-349q-5 0 -8 3.5z
M206 767q0 4 3 8l69 100q5 8 15 8h108q9 0 9 -6q0 -5 -4 -9l-88 -100q-6 -7 -15 -7h-87q-10 0 -10 6z" />
    <glyph glyph-name="zacute" unicode="&#x17a;" horiz-adv-x="366" 
d="M-3 3.5q-3 3.5 -2 8.5l16 130q0 5 6 15l158 204q2 2 1.5 4t-3.5 2h-117q-5 0 -8 3.5t-2 8.5l15 126q1 5 4.5 8.5t8.5 3.5h305q5 0 8 -3.5t2 -8.5l-16 -130q-1 -8 -7 -15l-166 -204q-2 -2 -1.5 -4t3.5 -2h139q11 0 11 -12l-16 -126q-1 -5 -4.5 -8.5t-8.5 -3.5h-318
q-5 0 -8 3.5zM164 584q0 4 3 8l69 100q5 8 15 8h108q9 0 9 -6q0 -5 -4 -9l-88 -100q-6 -7 -15 -7h-87q-10 0 -10 6z" />
    <glyph glyph-name="Zdotaccent" unicode="&#x17b;" horiz-adv-x="406" 
d="M0 3.5q-3 3.5 -2 8.5l15 122q0 4 2 8.5t3 6.5l246 403q1 3 0 4.5t-3 1.5h-185q-5 0 -8 3.5t-2 8.5l15 118q0 5 4 8.5t9 3.5h349q5 0 8 -3.5t2 -8.5l-15 -122q-1 -7 -6 -15l-247 -403q-3 -6 3 -6h186q11 0 11 -12l-15 -118q-1 -5 -4.5 -8.5t-8.5 -3.5h-349q-5 0 -8 3.5z
M219.5 767q-20.5 21 -20.5 54q0 43 28 71t68 28q34 0 54 -20t20 -54q0 -42 -28 -71t-67 -29q-34 0 -54.5 21z" />
    <glyph glyph-name="zdotaccent" unicode="&#x17c;" horiz-adv-x="366" 
d="M-3 3.5q-3 3.5 -2 8.5l16 130q0 5 6 15l158 204q2 2 1.5 4t-3.5 2h-117q-5 0 -8 3.5t-2 8.5l15 126q1 5 4.5 8.5t8.5 3.5h305q5 0 8 -3.5t2 -8.5l-16 -130q-1 -8 -7 -15l-166 -204q-2 -2 -1.5 -4t3.5 -2h139q11 0 11 -12l-16 -126q-1 -5 -4.5 -8.5t-8.5 -3.5h-318
q-5 0 -8 3.5zM178.5 584q-20.5 21 -20.5 54q0 43 28 71t68 28q34 0 54 -20t20 -54q0 -42 -28 -71t-67 -29q-34 0 -54.5 21z" />
    <glyph glyph-name="Zcaron" unicode="&#x17d;" horiz-adv-x="406" 
d="M0 3.5q-3 3.5 -2 8.5l15 122q0 4 2 8.5t3 6.5l246 403q1 3 0 4.5t-3 1.5h-185q-5 0 -8 3.5t-2 8.5l15 118q0 5 4 8.5t9 3.5h349q5 0 8 -3.5t2 -8.5l-15 -122q-1 -7 -6 -15l-247 -403q-3 -6 3 -6h186q11 0 11 -12l-15 -118q-1 -5 -4.5 -8.5t-8.5 -3.5h-349q-5 0 -8 3.5z
M141 875q0 8 11 8h101q9 0 12 -9l19 -51q3 -4 6 0l31 51q6 9 15 9h102q9 0 9 -6q0 -3 -3 -8l-77 -106q-5 -8 -15 -8h-149q-10 0 -13 8l-48 106q-1 2 -1 6z" />
    <glyph glyph-name="zcaron" unicode="&#x17e;" horiz-adv-x="366" 
d="M-3 3.5q-3 3.5 -2 8.5l16 130q0 5 6 15l158 204q2 2 1.5 4t-3.5 2h-117q-5 0 -8 3.5t-2 8.5l15 126q1 5 4.5 8.5t8.5 3.5h305q5 0 8 -3.5t2 -8.5l-16 -130q-1 -8 -7 -15l-166 -204q-2 -2 -1.5 -4t3.5 -2h139q11 0 11 -12l-16 -126q-1 -5 -4.5 -8.5t-8.5 -3.5h-318
q-5 0 -8 3.5zM100 692q0 8 11 8h101q9 0 12 -9l19 -51q3 -4 6 0l31 51q6 9 15 9h102q9 0 9 -6q0 -3 -3 -8l-77 -106q-5 -8 -15 -8h-149q-10 0 -13 8l-48 106q-1 2 -1 6z" />
    <glyph glyph-name="uni018F" unicode="&#x18f;" horiz-adv-x="534" 
d="M493 657q57 -51 57 -141q0 -24 -2 -36l-32 -263q-8 -67 -44 -118.5t-94.5 -80.5t-132.5 -29q-102 0 -159 52.5t-57 140.5q0 23 2 35l21 174q1 5 4.5 8.5t8.5 3.5h307q6 0 6 5l7 60q1 6 1 17q0 36 -19 58t-51 22t-56 -21.5t-34 -55.5q-4 -10 -14 -10l-134 8q-5 0 -7.5 3.5
t-1.5 8.5q20 101 87.5 155.5t176.5 54.5q103 0 160 -51zM324.5 159.5q26.5 27.5 31.5 70.5l5 41q2 5 -4 5h-154q-4 0 -6 -5l-5 -41q-1 -6 -1 -17q0 -36 19.5 -58.5t52.5 -22.5q35 0 61.5 27.5z" />
    <glyph glyph-name="florin" unicode="&#x192;" horiz-adv-x="466" 
d="M404 536l-30 -109q0 -5 4 -5h54q5 0 8 -3.5t2 -8.5l-13 -106q-1 -5 -4.5 -8.5t-8.5 -3.5h-75q-6 0 -6 -5l-95 -342q-17 -59 -45.5 -90.5t-78.5 -44.5t-134 -11q-12 0 -10 12l12 92q1 5 4.5 8.5t8.5 3.5h31q22 1 36.5 14.5t19.5 34.5l89 323q0 5 -3 5h-39q-5 0 -8 3.5
t-2 8.5l13 106q1 5 4.5 8.5t8.5 3.5h59q6 0 6 5l36 128q16 59 45 90.5t79 44.5t134 11q12 0 10 -12l-12 -92q-1 -5 -4.5 -8.5t-8.5 -3.5h-31q-42 -3 -56 -49z" />
    <glyph glyph-name="Ohorn" unicode="&#x1a0;" horiz-adv-x="464" 
d="M443 651q40 -46 40 -119q0 -9 -2 -31l-38 -302q-11 -95 -74.5 -151t-157.5 -56q-85 0 -133.5 46.5t-48.5 127.5q0 11 2 33l37 302q12 95 74.5 151t156.5 56q28 0 61 -7q1 -1 5 -1q47 4 60 74q2 12 13 12h59q5 0 7.5 -5t1.5 -14q-14 -73 -62 -109q-5 -3 -1 -7zM320 508
q1 5 1 13q0 21 -10 33t-29 12q-21 0 -35 -16t-17 -42l-39 -316l-1 -11q0 -22 10 -34.5t29 -12.5q21 0 35 15.5t18 42.5z" />
    <glyph glyph-name="ohorn" unicode="&#x1a1;" horiz-adv-x="439" 
d="M410 468q31 -37 31 -90q0 -8 -2 -26l-23 -187q-10 -81 -67 -127t-150 -46q-84 0 -130.5 38.5t-46.5 107.5q0 9 2 27l23 187q10 79 67.5 126t149.5 47q31 0 64 -7q2 -1 6 -1q19 2 35.5 19t23.5 56q2 12 13 12h59q5 0 7.5 -5t1.5 -14q-14 -74 -63 -110q-3 -3 -1 -7z
M277 348q0 16 -8 25.5t-22 9.5q-16 0 -27 -12t-13 -32l-20 -160q-2 -20 6 -32t23 -12q16 0 27 12t14 32l19 160z" />
    <glyph glyph-name="Uhorn" unicode="&#x1af;" horiz-adv-x="466" 
d="M585 783q3 -3 2 -9q-17 -100 -89 -130q-3 -2 -5 -6l-53 -434q-12 -96 -74.5 -154t-153.5 -58q-82 0 -129.5 48t-47.5 129q0 23 2 35l59 484q1 5 4.5 8.5t8.5 3.5h138q5 0 8 -3.5t2 -8.5l-61 -500l-1 -11q0 -20 9.5 -31.5t25.5 -11.5q19 0 31.5 15t15.5 39l62 500
q0 5 4 8.5t9 3.5h87q21 0 39.5 15.5t25.5 57.5q1 13 13 13h60q5 0 8 -3z" />
    <glyph glyph-name="uhorn" unicode="&#x1b0;" 
d="M540 592q-15 -97 -86 -130q-4 -3 -4 -6l-55 -444q-1 -5 -4.5 -8.5t-8.5 -3.5h-138q-5 0 -8 3.5t-2 8.5l2 13q0 7 -6 1q-17 -19 -38.5 -26.5t-49.5 -7.5q-52 0 -86 30t-34 93q0 8 2 28l45 362q1 5 4.5 8.5t8.5 3.5h138q5 0 8 -3.5t2 -8.5l-40 -325q-1 -5 -1 -13
q0 -32 26 -32q34 0 40 46l40 324q1 5 4.5 8.5t8.5 3.5h84q21 0 39.5 16.5t26.5 58.5q2 12 13 12h59q12 0 10 -12z" />
    <glyph glyph-name="uni01CD" unicode="&#x1cd;" horiz-adv-x="493" 
d="M297 11l-2 87q1 2 -1 3.5t-4 1.5h-105q-6 0 -6 -5l-22 -87q-3 -11 -14 -11h-138q-12 0 -8 13l223 676q3 11 14 11h158q12 0 12 -11l56 -676v-3q0 -10 -11 -10h-141q-11 0 -11 11zM220 231h65q5 0 5 5l-7 228q0 4 -2 4t-4 -4l-60 -228q0 -5 3 -5zM184 874q0 8 11 8h101
q9 0 12 -9l19 -51q3 -4 6 0l31 51q6 9 15 9h102q9 0 9 -6q0 -3 -3 -8l-77 -106q-5 -8 -15 -8h-149q-10 0 -13 8l-48 106q-1 2 -1 6z" />
    <glyph glyph-name="uni01CE" unicode="&#x1ce;" horiz-adv-x="443" 
d="M297.5 513.5q3.5 3.5 8.5 3.5h138q5 0 8 -3.5t2 -8.5l-61 -493q-1 -5 -4.5 -8.5t-8.5 -3.5h-138q-5 0 -8 3.5t-2 8.5l4 26q0 4 -2 4t-4 -3q-34 -47 -94 -47q-115 0 -115 129q0 22 3 44l23 187q22 173 154 173q60 0 83 -48q1 -4 3 -3.5t3 4.5l3 27q1 5 4.5 8.5zM240 146
q11 12 13 32l19 161q1 3 1 10q0 15 -8 24.5t-21 9.5q-14 0 -24.5 -12t-12.5 -32l-20 -161q-2 -20 5 -32t21 -12q16 0 27 12zM136 692q0 8 11 8h101q9 0 12 -9l19 -51q3 -4 6 0l31 51q6 9 15 9h102q9 0 9 -6q0 -3 -3 -8l-77 -106q-5 -8 -15 -8h-149q-10 0 -13 8l-48 106
q-1 2 -1 6z" />
    <glyph glyph-name="uni01D4" unicode="&#x1d4;" 
d="M299.5 513.5q3.5 3.5 8.5 3.5h138q5 0 8 -3.5t2 -8.5l-61 -493q-1 -5 -4.5 -8.5t-8.5 -3.5h-138q-5 0 -8 3.5t-2 8.5l2 13q0 7 -6 1q-17 -19 -38.5 -26.5t-49.5 -7.5q-52 0 -86 30t-34 93q0 8 2 28l45 362q1 5 4.5 8.5t8.5 3.5h138q5 0 8 -3.5t2 -8.5l-40 -325
q-1 -5 -1 -13q0 -32 26 -32q34 0 40 46l40 324q1 5 4.5 8.5zM133 692q0 8 11 8h101q9 0 12 -9l19 -51q3 -4 6 0l31 51q6 9 15 9h102q9 0 9 -6q0 -3 -3 -8l-77 -106q-5 -8 -15 -8h-149q-10 0 -13 8l-48 106q-1 2 -1 6z" />
    <glyph glyph-name="uni01E5" unicode="&#x1e5;" horiz-adv-x="451" 
d="M457 305.5q3 -3.5 2 -8.5l-9 -74q-1 -5 -4.5 -8.5t-8.5 -3.5h-14q-4 0 -6 -5l-21 -176q-14 -114 -74.5 -176.5t-200.5 -62.5q-16 0 -52 2q-12 1 -10 13l14 119q1 6 5 9t9 2l23 -1q66 0 91.5 23.5t33.5 73.5q0 4 -2 4.5t-5 -2.5q-36 -40 -92 -40q-115 0 -115 130
q0 21 3 43l23 185q22 173 154 173q59 0 83 -45q1 -3 3 -2.5t3 3.5l3 24q1 5 4.5 8.5t8.5 3.5h138q5 0 8 -3.5t2 -8.5l-24 -191q0 -5 5 -5h14q5 0 8 -3.5zM240 149q11 12 13 31l3 26q2 5 -4 5h-20q-11 0 -11 12l9 74q1 5 5 8.5t9 3.5h20q5 0 5 5l3 25q1 3 1 10q0 15 -8 24.5
t-21 9.5q-14 0 -24.5 -12t-12.5 -32l-20 -159q-2 -20 5 -31.5t22 -11.5t26 12z" />
    <glyph glyph-name="gcaron" unicode="&#x1e7;" horiz-adv-x="438" 
d="M297.5 513.5q3.5 3.5 8.5 3.5h138q5 0 8 -3.5t2 -8.5l-58 -475q-14 -114 -74.5 -176.5t-200.5 -62.5q-16 0 -52 2q-12 1 -10 13l14 119q1 6 5 9t9 2l23 -1q66 0 91.5 23.5t33.5 73.5q0 4 -2 4.5t-5 -2.5q-36 -40 -92 -40q-115 0 -115 130q0 21 3 43l23 185
q22 173 154 173q59 0 83 -45q1 -3 3 -2.5t3 3.5l3 24q1 5 4.5 8.5zM240 149q11 12 13 31l19 159q1 3 1 10q0 15 -8 24.5t-21 9.5q-14 0 -24.5 -12t-12.5 -32l-20 -159q-2 -20 5 -31.5t22 -11.5t26 12zM135 692q0 8 11 8h101q9 0 12 -9l19 -51q3 -4 6 0l31 51q6 9 15 9h102
q9 0 9 -6q0 -3 -3 -8l-77 -106q-5 -8 -15 -8h-149q-10 0 -13 8l-48 106q-1 2 -1 6z" />
    <glyph glyph-name="uni01E9" unicode="&#x1e9;" horiz-adv-x="451" 
d="M12 3.5q-3 3.5 -2 8.5l83 676q1 5 4.5 8.5t8.5 3.5h138q5 0 8 -3.5t2 -8.5l-37 -306q-1 -4 1 -4.5t4 2.5l81 128q6 9 15 9h141q9 0 9 -6q0 -3 -3 -8l-129 -179q-3 -3 -2 -7l81 -303l1 -4q0 -4 -3.5 -7t-8.5 -3h-141q-9 0 -12 10l-32 171q0 4 -2.5 4t-4.5 -3l-22 -35
q-1 -1 -2 -2.5t-1 -3.5l-16 -129q-1 -5 -4.5 -8.5t-8.5 -3.5h-138q-5 0 -8 3.5zM161 874q0 8 11 8h101q9 0 12 -9l19 -51q3 -4 6 0l31 51q6 9 15 9h102q9 0 9 -6q0 -3 -3 -8l-77 -106q-5 -8 -15 -8h-149q-10 0 -13 8l-48 106q-1 2 -1 6z" />
    <glyph glyph-name="uni01EF" unicode="&#x1ef;" horiz-adv-x="394" 
d="M241 254q0 -2 3 -3q57 -21 89 -68.5t32 -109.5q0 -10 -2 -30q-8 -66 -46 -120.5t-97 -86t-128 -31.5q-45 0 -93 15q-9 3 -8 13l18 121q2 14 14 9q29 -13 63 -13q45 0 78 25.5t40 79.5q1 6 1 17q0 37 -18 61.5t-49 24.5q-20 0 -50 -14q-3 -2 -7 -2q-5 0 -8 6l-29 88
q-1 2 -1 5q0 6 6 12l134 108q2 2 2 4t-3 2h-121q-11 0 -11 12l16 126q1 5 4.5 8.5t8.5 3.5h302q5 0 8 -3.5t2 -8.5l-16 -129q-1 -9 -9 -15l-123 -103q-2 -2 -2 -4zM99 692q0 8 11 8h101q9 0 12 -9l19 -51q3 -4 6 0l31 51q6 9 15 9h102q9 0 9 -6q0 -3 -3 -8l-77 -106
q-5 -8 -15 -8h-149q-10 0 -13 8l-48 106q-1 2 -1 6z" />
    <glyph glyph-name="oslashacute" unicode="&#x1ff;" horiz-adv-x="439" 
d="M470 508l-42 -62q-1 -2 -1 -6q13 -27 13 -62q0 -8 -2 -26l-23 -187q-10 -81 -67 -127t-150 -46q-35 0 -69 8q-4 2 -6 -3l-36 -55q-4 -5 -8.5 -6t-8.5 2l-72 51q-5 3 -5 8q0 4 3 8l38 60q2 3 1 6q-13 29 -13 68q0 17 1 26l23 187q10 79 67.5 126t149.5 47q36 0 73 -10
q5 -1 6 3l35 53q3 5 7.5 6.5t9.5 -1.5l74 -52q8 -7 2 -16zM276 348q0 16 -8 25.5t-22 9.5q-15 0 -26.5 -12.5t-13.5 -31.5l-20 -160q-2 -20 6 -32t23 -12q16 0 27 12t14 32l19 160zM202 584q0 4 3 8l69 100q5 8 15 8h108q9 0 9 -6q0 -5 -4 -9l-88 -100q-6 -7 -15 -7h-87
q-10 0 -10 6z" />
    <glyph glyph-name="uni0218" unicode="&#x218;" 
d="M73.5 35.5q-47.5 43.5 -47.5 115.5q0 9 2 27l3 31q1 5 5 8.5t9 3.5h135q11 0 11 -12l-3 -23l-1 -10q0 -19 9.5 -30.5t24.5 -11.5q19 0 32.5 15.5t13.5 40.5q0 19 -15.5 37t-59.5 54q-42 34 -67 59t-43.5 61.5t-18.5 83.5q0 65 29 116t80 79t115 28q81 0 129 -45.5
t48 -121.5q0 -9 -2 -29l-3 -24q-1 -5 -5 -8.5t-9 -3.5h-134q-11 0 -11 12l4 28q2 22 -7.5 36t-27.5 14q-19 0 -32.5 -17t-13.5 -43q0 -21 15.5 -40.5t56.5 -53.5q51 -43 76.5 -69.5t41 -57t15.5 -69.5q0 -8 -2 -28q-11 -90 -72.5 -143t-150.5 -53q-82 0 -129.5 43.5z
M80 -170q0 4 3 8l69 100q5 8 15 8h108q9 0 9 -6q0 -5 -4 -9l-88 -100q-6 -7 -15 -7h-87q-10 0 -10 6z" />
    <glyph glyph-name="uni0219" unicode="&#x219;" horiz-adv-x="413" 
d="M62 29.5q-47 37.5 -47 100.5q0 13 1 20l1 6q1 5 4.5 8.5t8.5 3.5h130q5 0 8 -3.5t2 -8.5v-2q-2 -18 8.5 -28.5t25.5 -10.5t24 9.5t9 24.5q0 16 -16 25.5t-48 20.5l-19 6q-45 16 -76 48.5t-31 88.5q0 15 1 23q10 76 65 120t137 44q77 0 121.5 -40t44.5 -107q0 -8 -2 -26
q-2 -11 -13 -11h-126q-5 0 -8 3.5t-2 8.5v8q2 16 -5.5 25.5t-21.5 9.5q-17 0 -26.5 -12.5t-9.5 -27.5q0 -19 18.5 -31t48.5 -22q59 -20 95 -49.5t36 -85.5q0 -80 -58.5 -128t-151.5 -48q-81 0 -128 37.5zM69 -169q0 4 3 8l69 100q5 8 15 8h108q9 0 9 -6q0 -5 -4 -9l-88 -100
q-6 -7 -15 -7h-87q-10 0 -10 6z" />
    <glyph glyph-name="uni021A" unicode="&#x21a;" horiz-adv-x="470" 
d="M513 696.5q3 -3.5 2 -8.5l-14 -118q-1 -5 -4.5 -8.5t-8.5 -3.5h-121q-5 0 -5 -5l-67 -541q0 -5 -4 -8.5t-9 -3.5h-137q-11 0 -11 12l67 541q0 5 -4 5h-116q-5 0 -8 3.5t-2 8.5l14 118q1 5 5 8.5t9 3.5h406q5 0 8 -3.5zM43 -163q0 4 3 8l69 100q5 8 15 8h108q9 0 9 -6
q0 -5 -4 -9l-88 -100q-6 -7 -15 -7h-87q-10 0 -10 6z" />
    <glyph glyph-name="uni021B" unicode="&#x21b;" horiz-adv-x="290" 
d="M302.5 405.5q-3.5 -3.5 -8.5 -3.5h-50q-5 0 -5 -5l-26 -214l-1 -11q0 -17 8.5 -23.5t24.5 -5.5h4q11 0 11 -12l-15 -119q-1 -5 -4.5 -8.5t-8.5 -3.5h-44q-69 0 -104.5 19.5t-35.5 73.5q0 8 2 24l35 280q0 5 -5 5h-31q-5 0 -8 3.5t-2 8.5l11 91q1 5 4.5 8.5t8.5 3.5h32
q2 0 3.5 1.5t1.5 3.5l14 111q0 5 4 8.5t9 3.5h131q5 0 8 -3.5t2 -8.5l-14 -111q0 -5 4 -5h50q5 0 8 -3.5t2 -8.5l-11 -91q-1 -5 -4.5 -8.5zM32 -158q0 4 3 8l69 100q5 8 15 8h108q9 0 9 -6q0 -5 -4 -9l-88 -100q-6 -7 -15 -7h-87q-10 0 -10 6z" />
    <glyph glyph-name="uni021F" unicode="&#x21f;" 
d="M413 490.5q29 -34.5 29 -98.5q0 -20 -3 -43l-42 -337q-1 -5 -4.5 -8.5t-8.5 -3.5h-138q-5 0 -8 3.5t-2 8.5l40 326q1 5 1 13q0 32 -26 32q-16 0 -26.5 -12t-13.5 -34l-40 -325q-1 -5 -4.5 -8.5t-8.5 -3.5h-138q-5 0 -8 3.5t-2 8.5l83 676q1 5 4.5 8.5t8.5 3.5h138
q5 0 8 -3.5t2 -8.5l-25 -203q0 -2 2 -2q3 0 9 6q34 36 85 36q59 0 88 -34.5zM161 874q0 8 11 8h101q9 0 12 -9l19 -51q3 -4 6 0l31 51q6 9 15 9h102q9 0 9 -6q0 -3 -3 -8l-77 -106q-5 -8 -15 -8h-149q-10 0 -13 8l-48 106q-1 2 -1 6z" />
    <glyph glyph-name="uni0228" unicode="&#x228;" horiz-adv-x="428" 
d="M452.5 561.5q-3.5 -3.5 -8.5 -3.5h-195q-4 0 -6 -5l-15 -126q0 -5 4 -5h107q5 0 8 -3.5t2 -8.5l-15 -119q0 -5 -4 -8.5t-9 -3.5h-106q-4 0 -6 -5l-15 -127q-2 -5 4 -5h195q5 0 8 -3.5t2 -8.5l-14 -118q-1 -5 -5 -8.5t-9 -3.5h-120q-3 0 -4 -2t1 -4q20 -31 20 -67
q0 -22 -7 -42q-12 -34 -37.5 -48t-56.5 -14q-27 0 -51 8q-10 3 -7 14l15 57q3 11 14 9q20 -3 29 20q2 4 2 13q0 23 -25 53q-3 3 -6 3h-116q-5 0 -8 3.5t-2 8.5l83 676q1 5 4.5 8.5t8.5 3.5h349q11 0 11 -12l-15 -118q-1 -5 -4.5 -8.5z" />
    <glyph glyph-name="uni0229" unicode="&#x229;" horiz-adv-x="433" 
d="M416 216.5q-4 -3.5 -9 -3.5h-211q-4 0 -6 -5l-3 -30q-2 -20 5.5 -32t22.5 -12q25 0 39 35q3 11 14 11l132 -8q5 0 8 -3.5t2 -9.5q-26 -137 -149 -162q-7 -2 -4 -6q19 -31 19 -64q0 -22 -7 -42q-12 -34 -37.5 -48t-56.5 -14q-27 0 -51 8q-10 3 -7 14l14 57q1 6 4.5 7.5
t7.5 1.5h6q19 0 26 20q2 8 2 13q0 21 -23 49q-2 2 -5 3q-62 11 -94.5 47.5t-32.5 94.5q0 9 2 27l23 187q10 78 67.5 125.5t148.5 47.5q83 0 129 -39.5t46 -107.5q0 -8 -2 -26l-16 -127q0 -5 -4 -8.5zM220 370.5q-11 -12.5 -13 -31.5l-4 -31q-2 -5 4 -5h57q4 0 6 5l3 31
q1 3 1 10q0 15 -7.5 24.5t-20.5 9.5q-15 0 -26 -12.5z" />
    <glyph glyph-name="uni0237" unicode="&#x237;" horiz-adv-x="220" 
d="M-105 -198.5q-3 3.5 -2 8.5l15 117q1 7 5.5 9t13.5 2q42 0 60.5 19.5t23.5 57.5l60 490q1 5 4.5 8.5t8.5 3.5h138q5 0 8 -3.5t2 -8.5l-60 -490q-10 -83 -29 -127t-74 -68t-166 -22q-5 0 -8 3.5z" />
    <glyph glyph-name="uni0259" unicode="&#x259;" horiz-adv-x="433" 
d="M389 487.5q46 -37.5 46 -106.5q0 -9 -2 -29l-23 -187q-9 -78 -67 -125.5t-149 -47.5q-83 0 -128.5 40t-45.5 108q0 17 1 25l16 127q1 5 4.5 8.5t8.5 3.5h211q4 0 6 5l4 30q2 19 -6 31.5t-23 12.5q-13 0 -23 -10t-14 -25q-4 -10 -15 -10l-133 8q-5 0 -8 3.5t-2 8.5
q30 167 212 167q84 0 130 -37.5zM238 146q11 12 13 32l4 32q0 5 -5 5h-57q-5 0 -5 -5l-4 -32q-2 -20 5.5 -32t21.5 -12q16 0 27 12z" />
    <glyph glyph-name="uni0292" unicode="&#x292;" horiz-adv-x="394" 
d="M241 254q0 -2 3 -3q57 -21 89 -68.5t32 -109.5q0 -10 -2 -30q-8 -66 -46 -120.5t-97 -86t-128 -31.5q-45 0 -93 15q-9 3 -8 13l18 121q2 14 14 9q29 -13 63 -13q45 0 78 25.5t40 79.5q1 6 1 17q0 37 -18 61.5t-49 24.5q-20 0 -50 -14q-3 -2 -7 -2q-5 0 -8 6l-29 88
q-1 2 -1 5q0 6 6 12l134 108q2 2 2 4t-3 2h-121q-11 0 -11 12l16 126q1 5 4.5 8.5t8.5 3.5h302q5 0 8 -3.5t2 -8.5l-16 -129q-1 -9 -9 -15l-123 -103q-2 -2 -2 -4z" />
    <glyph glyph-name="uni02BB" unicode="&#x2bb;" horiz-adv-x="204" 
d="M69 690q0 10 11 10h137q11 0 11 -11l13 -209v-3q0 -10 -11 -10h-105q-9 0 -11 10l-44 209z" />
    <glyph glyph-name="uni02BC" unicode="&#x2bc;" horiz-adv-x="204" 
d="M266 696q2 -4 -1 -10l-96 -209q-5 -10 -14 -10h-104q-12 0 -10 13l65 209q3 11 14 11h138q6 0 8 -4z" />
    <glyph glyph-name="circumflex" unicode="&#x2c6;" horiz-adv-x="318" 
d="M67 578q0 4 3 8l74 106q5 8 15 8h149q9 0 13 -8l51 -106q1 -2 1 -5q0 -9 -11 -9h-102q-9 0 -12 9l-19 51q-3 5 -6 0l-31 -51q-6 -9 -15 -9h-101q-9 0 -9 6z" />
    <glyph glyph-name="caron" unicode="&#x2c7;" horiz-adv-x="340" 
d="M83 692q0 8 11 8h101q9 0 12 -9l19 -51q3 -4 6 0l31 51q6 9 15 9h102q9 0 9 -6q0 -3 -3 -8l-77 -106q-5 -8 -15 -8h-149q-10 0 -13 8l-48 106q-1 2 -1 6z" />
    <glyph glyph-name="uni02C9" unicode="&#x2c9;" horiz-adv-x="219" 
d="M54 601l11 87q1 5 4.5 8.5t8.5 3.5h196q5 0 8 -3.5t2 -8.5l-10 -87q-1 -5 -4.5 -8.5t-8.5 -3.5h-196q-11 0 -11 12z" />
    <glyph glyph-name="breve" unicode="&#x2d8;" horiz-adv-x="265" 
d="M99.5 576q-29.5 30 -27.5 80q2 12 13 12h59q11 0 11 -12q1 -18 10 -29t24 -11t27 11t17 29q3 12 14 12h59q12 0 10 -12q-10 -50 -47 -80t-88 -30q-52 0 -81.5 30z" />
    <glyph glyph-name="dotaccent" unicode="&#x2d9;" horiz-adv-x="189" 
d="M90.5 584q-20.5 21 -20.5 54q0 43 28 71t68 28q34 0 54 -20t20 -54q0 -42 -28 -71t-67 -29q-34 0 -54.5 21z" />
    <glyph glyph-name="ring" unicode="&#x2da;" horiz-adv-x="272" 
d="M106 588.5q-31 31.5 -31 79.5q0 40 19.5 74t52.5 54t71 20q48 0 79 -31.5t31 -79.5q0 -41 -19 -75t-52 -53.5t-71 -19.5q-49 0 -80 31.5zM230 657.5q15 15.5 15 36.5q0 17 -10.5 28t-27.5 11q-20 0 -34.5 -15t-14.5 -37q0 -17 11 -28t27 -11q19 0 34 15.5z" />
    <glyph glyph-name="ogonek" unicode="&#x2db;" horiz-adv-x="157" 
d="M99 -185q-26 -8 -52 -8q-35 0 -57.5 17.5t-22.5 60.5q0 57 56 109q6 6 15 6h75q9 0 9 -5q0 -4 -6 -10q-44 -38 -44 -66q0 -26 25 -24h3q9 0 9 -9v-56q0 -11 -10 -15z" />
    <glyph glyph-name="tilde" unicode="&#x2dc;" horiz-adv-x="321" 
d="M209 594q-7 4 -14 9t-12 7t-12 2q-19 0 -34 -21q-4 -5 -8.5 -6.5t-8.5 2.5l-45 36q-7 6 -3 16q16 38 43 57t56 19t61 -23q3 -2 9.5 -7t13 -7.5t13.5 -2.5q21 0 36 18q7 11 16 5l44 -35q4 -4 4 -8q0 -6 -6 -15q-21 -33 -48 -47.5t-54 -14.5q-22 0 -51 16z" />
    <glyph glyph-name="hungarumlaut" unicode="&#x2dd;" horiz-adv-x="388" 
d="M70 592q0 4 3 8l67 100q6 8 16 8h106q9 0 9 -7q0 -4 -4 -8l-87 -100q-6 -7 -15 -7h-85q-10 0 -10 6zM235 592q0 4 3 8l68 100q5 8 16 8h105q10 0 10 -7q0 -4 -4 -8l-87 -100q-6 -7 -15 -7h-86q-10 0 -10 6z" />
    <glyph glyph-name="gravecomb" unicode="&#x300;" horiz-adv-x="0" 
d="M38 587q0 -9 -12 -9h-88q-8 0 -14 7l-63 100q-2 4 -2 6q0 4 3.5 6.5t8.5 2.5h108q10 0 13 -8l45 -100q1 -2 1 -5z" />
    <glyph glyph-name="acutecomb" unicode="&#x301;" horiz-adv-x="0" 
d="M-156 584q0 4 3 8l69 100q5 8 15 8h108q9 0 9 -6q0 -5 -4 -9l-88 -100q-6 -7 -15 -7h-87q-10 0 -10 6z" />
    <glyph glyph-name="uni0302" unicode="&#x302;" horiz-adv-x="0" 
d="M-271 578q0 4 3 8l74 106q5 8 15 8h149q9 0 13 -8l51 -106q1 -2 1 -5q0 -9 -11 -9h-102q-9 0 -12 9l-19 51q-3 5 -6 0l-31 -51q-6 -9 -15 -9h-101q-9 0 -9 6z" />
    <glyph glyph-name="tildecomb" unicode="&#x303;" horiz-adv-x="0" 
d="M-102 594q-7 4 -14 9t-12 7t-12 2q-19 0 -34 -21q-4 -5 -8.5 -6.5t-8.5 2.5l-45 36q-7 6 -3 16q16 38 43 57t56 19t61 -23q3 -2 9.5 -7t13 -7.5t13.5 -2.5q21 0 36 18q7 11 16 5l44 -35q4 -4 4 -8q0 -6 -6 -15q-21 -33 -48 -47.5t-54 -14.5q-22 0 -51 16z" />
    <glyph glyph-name="uni0304" unicode="&#x304;" horiz-adv-x="0" 
d="M-163 587.5q-3 3.5 -2 8.5l10 87q1 5 5 8.5t9 3.5h196q5 0 8 -3.5t2 -8.5l-11 -87q-1 -5 -4.5 -8.5t-8.5 -3.5h-196q-5 0 -8 3.5z" />
    <glyph glyph-name="uni0306" unicode="&#x306;" horiz-adv-x="0" 
d="M-164 590q-29 30 -27 80q1 12 13 12h59q11 0 11 -12q0 -18 9 -29t25 -11q15 0 27 11t17 29q3 12 14 12h59q12 0 10 -12q-11 -50 -47.5 -80t-88.5 -30t-81 30z" />
    <glyph glyph-name="uni0307" unicode="&#x307;" horiz-adv-x="0" 
d="M-98.5 584q-20.5 21 -20.5 54q0 43 28 71t68 28q34 0 54 -20t20 -54q0 -42 -28 -71t-67 -29q-34 0 -54.5 21z" />
    <glyph glyph-name="uni0308" unicode="&#x308;" horiz-adv-x="0" 
d="M-88.5 584q-20.5 21 -20.5 54q0 43 28 71t68 28q34 0 54 -20t20 -54q0 -42 -28 -71t-67 -29q-34 0 -54.5 21zM-279.5 584q-20.5 21 -20.5 54q0 43 28 71t68 28q34 0 54 -20t20 -54q0 -42 -28 -71t-67 -29q-34 0 -54.5 21z" />
    <glyph glyph-name="hookabovecomb" unicode="&#x309;" horiz-adv-x="0" 
d="M-273 574q15 29 37 51q11 12 15.5 19t6.5 20v2q0 7 -6 12.5t-14 5.5q-11 0 -20.5 -6t-24.5 -23q-5 -5 -10 -5q-3 0 -7 3l-37 30q-5 5 -5 8q0 5 4 9q26 33 51.5 47t61.5 14q43 0 67 -21t24 -59q0 -31 -11.5 -49.5t-34.5 -40.5q-24 -24 -30 -34q-7 -8 -16 -7l-45 9
q-13 3 -6 15z" />
    <glyph glyph-name="uni030A" unicode="&#x30a;" horiz-adv-x="0" 
d="M-136 588.5q-31 31.5 -31 79.5q0 40 19.5 74t52.5 54t71 20q48 0 79 -31.5t31 -79.5q0 -41 -19 -75t-52 -53.5t-71 -19.5q-49 0 -80 31.5zM-12 657.5q15 15.5 15 36.5q0 17 -10.5 28t-27.5 11q-20 0 -34.5 -15t-14.5 -37q0 -17 11 -28t27 -11q19 0 34 15.5z" />
    <glyph glyph-name="uni030B" unicode="&#x30b;" horiz-adv-x="0" 
d="M-309 581.5q-2 3.5 2 10.5l56 99q4 9 14 9h113q7 0 9 -3.5t-2 -10.5l-63 -99q-5 -9 -14 -9h-106q-7 0 -9 3.5zM-144 582q-2 4 2 10l62 99q6 9 16 9h105q6 0 8.5 -3.5t-1.5 -10.5l-63 -99q-6 -9 -15 -9h-105q-7 0 -9 4z" />
    <glyph glyph-name="uni030C" unicode="&#x30c;" horiz-adv-x="0" 
d="M-257 692q0 8 11 8h101q9 0 12 -9l19 -51q3 -4 6 0l31 51q6 9 15 9h102q9 0 9 -6q0 -3 -3 -8l-77 -106q-5 -8 -15 -8h-149q-10 0 -13 8l-48 106q-1 2 -1 6z" />
    <glyph glyph-name="uni0312" unicode="&#x312;" horiz-adv-x="0" 
d="M49 694q0 -3 -3 -8l-69 -100q-5 -8 -15 -8h-108q-10 0 -10 7q0 4 4 8l88 100q6 7 15 7h88q10 0 10 -6z" />
    <glyph glyph-name="uni0313" unicode="&#x313;" horiz-adv-x="0" 
d="M-156 584q0 4 3 8l69 100q5 8 15 8h108q9 0 9 -6q0 -5 -4 -9l-88 -100q-6 -7 -15 -7h-87q-10 0 -10 6z" />
    <glyph glyph-name="uni031B" unicode="&#x31b;" horiz-adv-x="0" 
d="M-95 459l6 47q0 10 12 12q43 9 54 74q1 12 14 12h59q5 0 7.5 -5t1.5 -13q-13 -69 -51.5 -102t-92.5 -37q-12 0 -10 12z" />
    <glyph glyph-name="dotbelowcomb" unicode="&#x323;" horiz-adv-x="0" 
d="M-197.5 -238q-19.5 20 -19.5 51q0 42 26.5 69t66.5 27q32 0 51.5 -19.5t19.5 -52.5q0 -39 -27 -67t-65 -28q-33 0 -52.5 20z" />
    <glyph glyph-name="uni0326" unicode="&#x326;" horiz-adv-x="0" 
d="M-266 -162q0 4 3 8l69 100q5 8 15 8h108q9 0 9 -6q0 -5 -4 -9l-88 -100q-6 -7 -15 -7h-87q-10 0 -10 6z" />
    <glyph glyph-name="uni0327" unicode="&#x327;" horiz-adv-x="0" 
d="M-190 -170l14 56q3 11 15 9q22 -2 30 21q2 8 2 11q0 26 -30 58q-4 4 -4 8q0 7 11 7h76q8 0 14 -6q32 -39 32 -83q0 -21 -7 -41q-24 -63 -95 -63q-27 0 -51 8q-8 4 -7 15z" />
    <glyph glyph-name="uni0328" unicode="&#x328;" horiz-adv-x="0" 
d="M-58 -185q-26 -8 -52 -8q-35 0 -57.5 17.5t-22.5 60.5q0 57 56 109q6 6 15 6h75q9 0 9 -5q0 -4 -6 -10q-44 -38 -44 -66q0 -26 25 -24h3q9 0 9 -9v-56q0 -11 -10 -15z" />
    <glyph glyph-name="uni0335" unicode="&#x335;" horiz-adv-x="0" 
d="M-230.5 645.5q3.5 3.5 8.5 3.5h260q5 0 8 -3.5t2 -8.5l-9 -74q-1 -5 -4.5 -8.5t-8.5 -3.5h-260q-5 0 -8 3.5t-2 8.5l9 74q1 5 4.5 8.5z" />
    <glyph glyph-name="uni0336" unicode="&#x336;" horiz-adv-x="0" 
d="M-448 510.5q-3 3.5 -2 8.5l11 87q1 5 4.5 8.5t8.5 3.5h471q5 0 8 -3.5t2 -8.5l-11 -87q-1 -5 -4.5 -8.5t-8.5 -3.5h-471q-5 0 -8 3.5z" />
    <glyph glyph-name="uni0337" unicode="&#x337;" horiz-adv-x="0" 
d="M-350 119q-5 0 -8 5l-53 77q-3 5 -3 8q0 5 6 9l424 336q6 4 9 4t8 -5l53 -77q3 -4 3 -8t-6 -9l-424 -336q-6 -4 -9 -4z" />
    <glyph glyph-name="uni0338" unicode="&#x338;" horiz-adv-x="0" 
d="M-423 -30.5q-2 3.5 2 10.5l415 746q4 9 14 9h49q6 0 8.5 -3.5t-1.5 -10.5l-416 -746q-5 -9 -14 -9h-48q-7 0 -9 3.5z" />
    <glyph glyph-name="uni0394" unicode="&#x394;" horiz-adv-x="538" 
d="M-4 3.5q-3 3.5 -2 8.5l15 122q0 3 4 15l261 541q4 10 15 10h93q11 0 12 -10l129 -542q1 -6 1 -15l-15 -121q-1 -5 -4.5 -8.5t-8.5 -3.5h-492q-5 0 -8 3.5zM172 143h191q6 0 4 6l-55 328q-1 4 -2.5 4t-3.5 -4l-137 -328q-3 -6 3 -6z" />
    <glyph glyph-name="uni03A9" unicode="&#x3a9;" horiz-adv-x="486" 
d="M10 3.5q-3 3.5 -2 8.5l15 118q1 5 4.5 8.5t8.5 3.5h27q6 0 4 6q-19 36 -19 82q0 10 2 30l30 241q11 94 74.5 150.5t157.5 56.5q84 0 133 -46.5t49 -126.5q0 -10 -2 -34l-29 -241q-9 -65 -45 -112q-4 -6 2 -6h27q5 0 8 -3.5t2 -8.5l-14 -118q-1 -5 -4.5 -8.5t-8.5 -3.5
h-182q-5 0 -8 3.5t-2 8.5l15 120q1 8 11 14q12 6 20 20t10 33l38 309l1 12q0 21 -10 33.5t-28 12.5q-22 0 -36 -15.5t-17 -42.5l-38 -309q-1 -4 -1 -12q0 -30 18 -41q8 -5 7 -13l-15 -121q-1 -5 -4.5 -8.5t-8.5 -3.5h-182q-5 0 -8 3.5z" />
    <glyph glyph-name="uni03BC" unicode="&#x3bc;" horiz-adv-x="444" 
d="M301.5 513.5q3.5 3.5 8.5 3.5h138q5 0 8 -3.5t2 -8.5l-61 -493q-1 -5 -4.5 -8.5t-8.5 -3.5h-138q-5 0 -8 3.5t-2 8.5l2 13q0 7 -6 2q-23 -27 -58 -32q-4 -2 -6 -6l-21 -177q-1 -5 -4.5 -8.5t-8.5 -3.5h-138q-5 0 -8 3.5t-2 8.5l85 693q1 5 4.5 8.5t8.5 3.5h138
q5 0 8 -3.5t2 -8.5l-40 -325q-1 -5 -1 -13q0 -32 27 -32q33 0 39 46l40 324q1 5 4.5 8.5z" />
    <glyph glyph-name="pi" unicode="&#x3c0;" horiz-adv-x="532" 
d="M536 379.5q-4 -3.5 -9 -3.5h-37q-2 0 -3.5 -1.5t-1.5 -3.5l-21 -170q-2 -20 -2 -25q0 -24 7.5 -31.5t19.5 -5.5h2q12 0 10 -11l-15 -116q0 -5 -3.5 -8.5t-8.5 -3.5q-57 -3 -66 -3q-53 0 -86 18.5t-33 69.5q0 7 2 23l32 263q0 5 -4 5h-54q-5 0 -5 -5l-44 -359
q-1 -5 -4.5 -8.5t-8.5 -3.5h-138q-5 0 -8 3.5t-2 8.5l44 359q0 5 -4 5h-36q-5 0 -8 3.5t-2 8.5l14 117q1 5 4.5 8.5t8.5 3.5h469q5 0 8 -3.5t2 -8.5l-15 -117q0 -5 -4 -8.5z" />
    <glyph glyph-name="Wgrave" unicode="&#x1e80;" horiz-adv-x="680" 
d="M131 11l-49 676q0 13 12 13h142q12 0 12 -11l3 -329q0 -3 2.5 -3t3.5 3l84 329q3 11 14 11h113q11 0 11 -11l8 -329q1 -3 3 -3t2 3l81 329q1 11 12 11h140q12 0 9 -13l-208 -676q-3 -11 -14 -11h-124q-11 0 -11 11l-7 342q0 3 -2.5 3t-3.5 -3l-84 -342q-3 -11 -13 -11
h-124q-12 0 -12 11zM463 770q0 -9 -12 -9h-88q-8 0 -14 7l-63 100q-2 4 -2 6q0 4 3.5 6.5t8.5 2.5h108q10 0 13 -8l45 -100q1 -2 1 -5z" />
    <glyph glyph-name="wgrave" unicode="&#x1e81;" horiz-adv-x="615" 
d="M100 11l-44 494v2q0 11 12 11h131q11 0 11 -11l1 -250q0 -3 2.5 -3t3.5 3l64 250q1 11 13 11h117q11 0 11 -11l4 -250q1 -4 3.5 -3.5t2.5 3.5l63 250q3 11 13 11l129 -2q12 0 8 -13l-164 -492q-3 -11 -14 -11h-134q-12 0 -12 11l-5 214q-1 4 -3 4t-3 -4l-56 -214
q-3 -11 -14 -11h-128q-12 0 -12 11zM412 587q0 -9 -12 -9h-88q-8 0 -14 7l-63 100q-2 4 -2 6q0 4 3.5 6.5t8.5 2.5h108q10 0 13 -8l45 -100q1 -2 1 -5z" />
    <glyph glyph-name="Wacute" unicode="&#x1e82;" horiz-adv-x="680" 
d="M131 11l-49 676q0 13 12 13h142q12 0 12 -11l3 -329q0 -3 2.5 -3t3.5 3l84 329q3 11 14 11h113q11 0 11 -11l8 -329q1 -3 3 -3t2 3l81 329q1 11 12 11h140q12 0 9 -13l-208 -676q-3 -11 -14 -11h-124q-11 0 -11 11l-7 342q0 3 -2.5 3t-3.5 -3l-84 -342q-3 -11 -13 -11
h-124q-12 0 -12 11zM341 767q0 4 3 8l69 100q5 8 15 8h108q9 0 9 -6q0 -5 -4 -9l-88 -100q-6 -7 -15 -7h-87q-10 0 -10 6z" />
    <glyph glyph-name="wacute" unicode="&#x1e83;" horiz-adv-x="615" 
d="M100 11l-44 494v2q0 11 12 11h131q11 0 11 -11l1 -250q0 -3 2.5 -3t3.5 3l64 250q1 11 13 11h117q11 0 11 -11l4 -250q1 -4 3.5 -3.5t2.5 3.5l63 250q3 11 13 11l129 -2q12 0 8 -13l-164 -492q-3 -11 -14 -11h-134q-12 0 -12 11l-5 214q-1 4 -3 4t-3 -4l-56 -214
q-3 -11 -14 -11h-128q-12 0 -12 11zM289 584q0 4 3 8l69 100q5 8 15 8h108q9 0 9 -6q0 -5 -4 -9l-88 -100q-6 -7 -15 -7h-87q-10 0 -10 6z" />
    <glyph glyph-name="Wdieresis" unicode="&#x1e84;" horiz-adv-x="680" 
d="M131 11l-49 676q0 13 12 13h142q12 0 12 -11l3 -329q0 -3 2.5 -3t3.5 3l84 329q3 11 14 11h113q11 0 11 -11l8 -329q1 -3 3 -3t2 3l81 329q1 11 12 11h140q12 0 9 -13l-208 -676q-3 -11 -14 -11h-124q-11 0 -11 11l-7 342q0 3 -2.5 3t-3.5 -3l-84 -342q-3 -11 -13 -11
h-124q-12 0 -12 11zM449.5 767q-20.5 21 -20.5 54q0 43 28 71t68 28q34 0 54 -20t20 -54q0 -42 -28 -71t-67 -29q-34 0 -54.5 21zM258.5 767q-20.5 21 -20.5 54q0 43 28 71t68 28q34 0 54 -20t20 -54q0 -42 -28 -71t-67 -29q-34 0 -54.5 21z" />
    <glyph glyph-name="wdieresis" unicode="&#x1e85;" horiz-adv-x="615" 
d="M100 11l-44 494v2q0 11 12 11h131q11 0 11 -11l1 -250q0 -3 2.5 -3t3.5 3l64 250q1 11 13 11h117q11 0 11 -11l4 -250q1 -4 3.5 -3.5t2.5 3.5l63 250q3 11 13 11l129 -2q12 0 8 -13l-164 -492q-3 -11 -14 -11h-134q-12 0 -12 11l-5 214q-1 4 -3 4t-3 -4l-56 -214
q-3 -11 -14 -11h-128q-12 0 -12 11zM397.5 584q-20.5 21 -20.5 54q0 43 28 71t68 28q34 0 54 -20t20 -54q0 -42 -28 -71t-67 -29q-34 0 -54.5 21zM206.5 584q-20.5 21 -20.5 54q0 43 28 71t68 28q34 0 54 -20t20 -54q0 -42 -28 -71t-67 -29q-34 0 -54.5 21z" />
    <glyph glyph-name="uni1EA0" unicode="&#x1ea0;" horiz-adv-x="493" 
d="M297 11l-2 87q1 2 -1 3.5t-4 1.5h-105q-6 0 -6 -5l-22 -87q-3 -11 -14 -11h-138q-12 0 -8 13l223 676q3 11 14 11h158q12 0 12 -11l56 -676v-3q0 -10 -11 -10h-141q-11 0 -11 11zM220 231h65q5 0 5 5l-7 228q0 4 -2 4t-4 -4l-60 -228q0 -5 3 -5zM143.5 -238
q-19.5 20 -19.5 51q0 42 26.5 69t66.5 27q32 0 51.5 -19.5t19.5 -52.5q0 -39 -27 -67t-65 -28q-33 0 -52.5 20z" />
    <glyph glyph-name="uni1EA1" unicode="&#x1ea1;" horiz-adv-x="443" 
d="M297.5 513.5q3.5 3.5 8.5 3.5h138q5 0 8 -3.5t2 -8.5l-61 -493q-1 -5 -4.5 -8.5t-8.5 -3.5h-138q-5 0 -8 3.5t-2 8.5l4 26q0 4 -2 4t-4 -3q-34 -47 -94 -47q-115 0 -115 129q0 22 3 44l23 187q22 173 154 173q60 0 83 -48q1 -4 3 -3.5t3 4.5l3 27q1 5 4.5 8.5zM240 146
q11 12 13 32l19 161q1 3 1 10q0 15 -8 24.5t-21 9.5q-14 0 -24.5 -12t-12.5 -32l-20 -161q-2 -20 5 -32t21 -12q16 0 27 12zM118.5 -238q-19.5 20 -19.5 51q0 42 26.5 69t66.5 27q32 0 51.5 -19.5t19.5 -52.5q0 -39 -27 -67t-65 -28q-33 0 -52.5 20z" />
    <glyph glyph-name="uni1EA2" unicode="&#x1ea2;" horiz-adv-x="493" 
d="M297 11l-2 87q1 2 -1 3.5t-4 1.5h-105q-6 0 -6 -5l-22 -87q-3 -11 -14 -11h-138q-12 0 -8 13l223 676q3 11 14 11h158q12 0 12 -11l56 -676v-3q0 -10 -11 -10h-141q-11 0 -11 11zM220 231h65q5 0 5 5l-7 228q0 4 -2 4t-4 -4l-60 -228q0 -5 3 -5zM296 757q15 29 37 51
q11 12 15.5 19t6.5 20v2q0 7 -6 12.5t-14 5.5q-11 0 -20.5 -6t-24.5 -23q-5 -5 -10 -5q-3 0 -7 3l-37 30q-5 5 -5 8q0 5 4 9q26 33 51.5 47t61.5 14q43 0 67 -21t24 -59q0 -31 -11.5 -49.5t-34.5 -40.5q-24 -24 -30 -34q-7 -8 -16 -7l-45 9q-13 3 -6 15z" />
    <glyph glyph-name="uni1EA3" unicode="&#x1ea3;" horiz-adv-x="443" 
d="M297.5 513.5q3.5 3.5 8.5 3.5h138q5 0 8 -3.5t2 -8.5l-61 -493q-1 -5 -4.5 -8.5t-8.5 -3.5h-138q-5 0 -8 3.5t-2 8.5l4 26q0 4 -2 4t-4 -3q-34 -47 -94 -47q-115 0 -115 129q0 22 3 44l23 187q22 173 154 173q60 0 83 -48q1 -4 3 -3.5t3 4.5l3 27q1 5 4.5 8.5zM240 146
q11 12 13 32l19 161q1 3 1 10q0 15 -8 24.5t-21 9.5q-14 0 -24.5 -12t-12.5 -32l-20 -161q-2 -20 5 -32t21 -12q16 0 27 12zM249 574q15 29 37 51q11 12 15.5 19t6.5 20v2q0 7 -6 12.5t-14 5.5q-11 0 -20.5 -6t-24.5 -23q-5 -5 -10 -5q-3 0 -7 3l-37 30q-5 5 -5 8q0 5 4 9
q26 33 51.5 47t61.5 14q43 0 67 -21t24 -59q0 -31 -11.5 -49.5t-34.5 -40.5q-24 -24 -30 -34q-7 -8 -16 -7l-45 9q-13 3 -6 15z" />
    <glyph glyph-name="uni1EA4" unicode="&#x1ea4;" horiz-adv-x="493" 
d="M297 11l-2 87q1 2 -1 3.5t-4 1.5h-105q-6 0 -6 -5l-22 -87q-3 -11 -14 -11h-138q-12 0 -8 13l223 676q3 11 14 11h158q12 0 12 -11l56 -676v-3q0 -10 -11 -10h-141q-11 0 -11 11zM220 231h65q5 0 5 5l-7 228q0 4 -2 4t-4 -4l-60 -228q0 -5 3 -5zM166 761q0 4 3 8l74 106
q5 8 15 8h149q9 0 13 -8l51 -106q1 -2 1 -5q0 -9 -11 -9h-102q-9 0 -12 9l-19 51q-3 5 -6 0l-31 -51q-6 -9 -15 -9h-101q-9 0 -9 6zM470 850q0 4 3 8l69 100q5 8 15 8h108q9 0 9 -6q0 -5 -4 -9l-88 -100q-6 -7 -15 -7h-87q-10 0 -10 6z" />
    <glyph glyph-name="uni1EA5" unicode="&#x1ea5;" horiz-adv-x="443" 
d="M297.5 513.5q3.5 3.5 8.5 3.5h138q5 0 8 -3.5t2 -8.5l-61 -493q-1 -5 -4.5 -8.5t-8.5 -3.5h-138q-5 0 -8 3.5t-2 8.5l4 26q0 4 -2 4t-4 -3q-34 -47 -94 -47q-115 0 -115 129q0 22 3 44l23 187q22 173 154 173q60 0 83 -48q1 -4 3 -3.5t3 4.5l3 27q1 5 4.5 8.5zM240 146
q11 12 13 32l19 161q1 3 1 10q0 15 -8 24.5t-21 9.5q-14 0 -24.5 -12t-12.5 -32l-20 -161q-2 -20 5 -32t21 -12q16 0 27 12zM119 578q0 4 3 8l74 106q5 8 15 8h149q9 0 13 -8l51 -106q1 -2 1 -5q0 -9 -11 -9h-102q-9 0 -12 9l-19 51q-3 5 -6 0l-31 -51q-6 -9 -15 -9h-101
q-9 0 -9 6zM423 667q0 4 3 8l69 100q5 8 15 8h108q9 0 9 -6q0 -5 -4 -9l-88 -100q-6 -7 -15 -7h-87q-10 0 -10 6z" />
    <glyph glyph-name="uni1EA6" unicode="&#x1ea6;" horiz-adv-x="493" 
d="M297 11l-2 87q1 2 -1 3.5t-4 1.5h-105q-6 0 -6 -5l-22 -87q-3 -11 -14 -11h-138q-12 0 -8 13l223 676q3 11 14 11h158q12 0 12 -11l56 -676v-3q0 -10 -11 -10h-141q-11 0 -11 11zM220 231h65q5 0 5 5l-7 228q0 4 -2 4t-4 -4l-60 -228q0 -5 3 -5zM166 761q0 4 3 8l74 106
q5 8 15 8h149q9 0 13 -8l51 -106q1 -2 1 -5q0 -9 -11 -9h-102q-9 0 -12 9l-19 51q-3 5 -6 0l-31 -51q-6 -9 -15 -9h-101q-9 0 -9 6zM556 889q0 -9 -12 -9h-88q-8 0 -14 7l-63 100q-2 4 -2 6q0 4 3.5 6.5t8.5 2.5h108q10 0 13 -8l45 -100q1 -2 1 -5z" />
    <glyph glyph-name="uni1EA7" unicode="&#x1ea7;" horiz-adv-x="443" 
d="M297.5 513.5q3.5 3.5 8.5 3.5h138q5 0 8 -3.5t2 -8.5l-61 -493q-1 -5 -4.5 -8.5t-8.5 -3.5h-138q-5 0 -8 3.5t-2 8.5l4 26q0 4 -2 4t-4 -3q-34 -47 -94 -47q-115 0 -115 129q0 22 3 44l23 187q22 173 154 173q60 0 83 -48q1 -4 3 -3.5t3 4.5l3 27q1 5 4.5 8.5zM240 146
q11 12 13 32l19 161q1 3 1 10q0 15 -8 24.5t-21 9.5q-14 0 -24.5 -12t-12.5 -32l-20 -161q-2 -20 5 -32t21 -12q16 0 27 12zM119 578q0 4 3 8l74 106q5 8 15 8h149q9 0 13 -8l51 -106q1 -2 1 -5q0 -9 -11 -9h-102q-9 0 -12 9l-19 51q-3 5 -6 0l-31 -51q-6 -9 -15 -9h-101
q-9 0 -9 6zM509 706q0 -9 -12 -9h-88q-8 0 -14 7l-63 100q-2 4 -2 6q0 4 3.5 6.5t8.5 2.5h108q10 0 13 -8l45 -100q1 -2 1 -5z" />
    <glyph glyph-name="uni1EA8" unicode="&#x1ea8;" horiz-adv-x="493" 
d="M297 11l-2 87q1 2 -1 3.5t-4 1.5h-105q-6 0 -6 -5l-22 -87q-3 -11 -14 -11h-138q-12 0 -8 13l223 676q3 11 14 11h158q12 0 12 -11l56 -676v-3q0 -10 -11 -10h-141q-11 0 -11 11zM220 231h65q5 0 5 5l-7 228q0 4 -2 4t-4 -4l-60 -228q0 -5 3 -5zM469 877q14 28 34 46
q10 11 14.5 18t5.5 18v2q0 7 -5 12t-13 5q-10 0 -18.5 -5.5t-22.5 -20.5q-8 -10 -17 -3l-33 28q-4 4 -4 8q0 5 4 9q24 30 47.5 42.5t56.5 12.5q39 0 61 -20t22 -55q0 -28 -11 -45.5t-33 -37.5q-5 -5 -13.5 -14t-13.5 -16q-6 -8 -15 -7l-40 8q-13 4 -6 15zM166 761q0 4 3 8
l74 106q5 8 15 8h149q9 0 13 -8l51 -106q1 -2 1 -5q0 -9 -11 -9h-102q-9 0 -12 9l-19 51q-3 5 -6 0l-31 -51q-6 -9 -15 -9h-101q-9 0 -9 6z" />
    <glyph glyph-name="uni1EA9" unicode="&#x1ea9;" horiz-adv-x="443" 
d="M297.5 513.5q3.5 3.5 8.5 3.5h138q5 0 8 -3.5t2 -8.5l-61 -493q-1 -5 -4.5 -8.5t-8.5 -3.5h-138q-5 0 -8 3.5t-2 8.5l4 26q0 4 -2 4t-4 -3q-34 -47 -94 -47q-115 0 -115 129q0 22 3 44l23 187q22 173 154 173q60 0 83 -48q1 -4 3 -3.5t3 4.5l3 27q1 5 4.5 8.5zM240 146
q11 12 13 32l19 161q1 3 1 10q0 15 -8 24.5t-21 9.5q-14 0 -24.5 -12t-12.5 -32l-20 -161q-2 -20 5 -32t21 -12q16 0 27 12zM422 694q14 28 34 46q10 11 14.5 18t5.5 18v2q0 7 -5 12t-13 5q-10 0 -18.5 -5.5t-22.5 -20.5q-8 -10 -17 -3l-33 28q-4 4 -4 8q0 5 4 9
q24 30 47.5 42.5t56.5 12.5q39 0 61 -20t22 -55q0 -28 -11 -45.5t-33 -37.5q-5 -5 -13.5 -14t-13.5 -16q-6 -8 -15 -7l-40 8q-13 4 -6 15zM119 578q0 4 3 8l74 106q5 8 15 8h149q9 0 13 -8l51 -106q1 -2 1 -5q0 -9 -11 -9h-102q-9 0 -12 9l-19 51q-3 5 -6 0l-31 -51
q-6 -9 -15 -9h-101q-9 0 -9 6z" />
    <glyph glyph-name="uni1EAA" unicode="&#x1eaa;" horiz-adv-x="493" 
d="M297 11l-2 87q1 2 -1 3.5t-4 1.5h-105q-6 0 -6 -5l-22 -87q-3 -11 -14 -11h-138q-12 0 -8 13l223 676q3 11 14 11h158q12 0 12 -11l56 -676v-3q0 -10 -11 -10h-141q-11 0 -11 11zM220 231h65q5 0 5 5l-7 228q0 4 -2 4t-4 -4l-60 -228q0 -5 3 -5zM166 761q0 4 3 8l74 106
q5 8 15 8h149q9 0 13 -8l51 -106q1 -2 1 -5q0 -9 -11 -9h-102q-9 0 -12 9l-19 51q-3 5 -6 0l-31 -51q-6 -9 -15 -9h-101q-9 0 -9 6zM334 937q-7 4 -14 9t-12 7t-12 2q-19 0 -34 -21q-4 -5 -8.5 -6.5t-8.5 2.5l-45 36q-7 6 -3 16q16 38 43 57t56 19t61 -23q3 -2 9.5 -7
t13 -7.5t13.5 -2.5q21 0 36 18q7 11 16 5l44 -35q4 -4 4 -8q0 -6 -6 -15q-21 -33 -48 -47.5t-54 -14.5q-22 0 -51 16z" />
    <glyph glyph-name="uni1EAB" unicode="&#x1eab;" horiz-adv-x="443" 
d="M297.5 513.5q3.5 3.5 8.5 3.5h138q5 0 8 -3.5t2 -8.5l-61 -493q-1 -5 -4.5 -8.5t-8.5 -3.5h-138q-5 0 -8 3.5t-2 8.5l4 26q0 4 -2 4t-4 -3q-34 -47 -94 -47q-115 0 -115 129q0 22 3 44l23 187q22 173 154 173q60 0 83 -48q1 -4 3 -3.5t3 4.5l3 27q1 5 4.5 8.5zM240 146
q11 12 13 32l19 161q1 3 1 10q0 15 -8 24.5t-21 9.5q-14 0 -24.5 -12t-12.5 -32l-20 -161q-2 -20 5 -32t21 -12q16 0 27 12zM119 578q0 4 3 8l74 106q5 8 15 8h149q9 0 13 -8l51 -106q1 -2 1 -5q0 -9 -11 -9h-102q-9 0 -12 9l-19 51q-3 5 -6 0l-31 -51q-6 -9 -15 -9h-101
q-9 0 -9 6zM287 754q-7 4 -14 9t-12 7t-12 2q-19 0 -34 -21q-4 -5 -8.5 -6.5t-8.5 2.5l-45 36q-7 6 -3 16q16 38 43 57t56 19t61 -23q3 -2 9.5 -7t13 -7.5t13.5 -2.5q21 0 36 18q7 11 16 5l44 -35q4 -4 4 -8q0 -6 -6 -15q-21 -33 -48 -47.5t-54 -14.5q-22 0 -51 16z" />
    <glyph glyph-name="uni1EAC" unicode="&#x1eac;" horiz-adv-x="493" 
d="M297 11l-2 87q1 2 -1 3.5t-4 1.5h-105q-6 0 -6 -5l-22 -87q-3 -11 -14 -11h-138q-12 0 -8 13l223 676q3 11 14 11h158q12 0 12 -11l56 -676v-3q0 -10 -11 -10h-141q-11 0 -11 11zM220 231h65q5 0 5 5l-7 228q0 4 -2 4t-4 -4l-60 -228q0 -5 3 -5zM143.5 -238
q-19.5 20 -19.5 51q0 42 26.5 69t66.5 27q32 0 51.5 -19.5t19.5 -52.5q0 -39 -27 -67t-65 -28q-33 0 -52.5 20zM166 761q0 4 3 8l74 106q5 8 15 8h149q9 0 13 -8l51 -106q1 -2 1 -5q0 -9 -11 -9h-102q-9 0 -12 9l-19 51q-3 5 -6 0l-31 -51q-6 -9 -15 -9h-101q-9 0 -9 6z" />
    <glyph glyph-name="uni1EAD" unicode="&#x1ead;" horiz-adv-x="443" 
d="M297.5 513.5q3.5 3.5 8.5 3.5h138q5 0 8 -3.5t2 -8.5l-61 -493q-1 -5 -4.5 -8.5t-8.5 -3.5h-138q-5 0 -8 3.5t-2 8.5l4 26q0 4 -2 4t-4 -3q-34 -47 -94 -47q-115 0 -115 129q0 22 3 44l23 187q22 173 154 173q60 0 83 -48q1 -4 3 -3.5t3 4.5l3 27q1 5 4.5 8.5zM240 146
q11 12 13 32l19 161q1 3 1 10q0 15 -8 24.5t-21 9.5q-14 0 -24.5 -12t-12.5 -32l-20 -161q-2 -20 5 -32t21 -12q16 0 27 12zM118.5 -238q-19.5 20 -19.5 51q0 42 26.5 69t66.5 27q32 0 51.5 -19.5t19.5 -52.5q0 -39 -27 -67t-65 -28q-33 0 -52.5 20zM119 578q0 4 3 8l74 106
q5 8 15 8h149q9 0 13 -8l51 -106q1 -2 1 -5q0 -9 -11 -9h-102q-9 0 -12 9l-19 51q-3 5 -6 0l-31 -51q-6 -9 -15 -9h-101q-9 0 -9 6z" />
    <glyph glyph-name="uni1EAE" unicode="&#x1eae;" horiz-adv-x="493" 
d="M297 11l-2 87q1 2 -1 3.5t-4 1.5h-105q-6 0 -6 -5l-22 -87q-3 -11 -14 -11h-138q-12 0 -8 13l223 676q3 11 14 11h158q12 0 12 -11l56 -676v-3q0 -10 -11 -10h-141q-11 0 -11 11zM220 231h65q5 0 5 5l-7 228q0 4 -2 4t-4 -4l-60 -228q0 -5 3 -5zM238 773q-29 30 -27 80
q1 12 13 12h59q11 0 11 -12q0 -18 9 -29t25 -11q15 0 27 11t17 29q3 12 14 12h59q12 0 10 -12q-11 -50 -47.5 -80t-88.5 -30t-81 30zM271 928q0 4 3 8l69 100q5 8 15 8h108q9 0 9 -6q0 -5 -4 -9l-88 -100q-6 -7 -15 -7h-87q-10 0 -10 6z" />
    <glyph glyph-name="uni1EAF" unicode="&#x1eaf;" horiz-adv-x="443" 
d="M297.5 513.5q3.5 3.5 8.5 3.5h138q5 0 8 -3.5t2 -8.5l-61 -493q-1 -5 -4.5 -8.5t-8.5 -3.5h-138q-5 0 -8 3.5t-2 8.5l4 26q0 4 -2 4t-4 -3q-34 -47 -94 -47q-115 0 -115 129q0 22 3 44l23 187q22 173 154 173q60 0 83 -48q1 -4 3 -3.5t3 4.5l3 27q1 5 4.5 8.5zM240 146
q11 12 13 32l19 161q1 3 1 10q0 15 -8 24.5t-21 9.5q-14 0 -24.5 -12t-12.5 -32l-20 -161q-2 -20 5 -32t21 -12q16 0 27 12zM190 590q-29 30 -27 80q1 12 13 12h59q11 0 11 -12q0 -18 9 -29t25 -11q15 0 27 11t17 29q3 12 14 12h59q12 0 10 -12q-11 -50 -47.5 -80t-88.5 -30
t-81 30zM223 745q0 4 3 8l69 100q5 8 15 8h108q9 0 9 -6q0 -5 -4 -9l-88 -100q-6 -7 -15 -7h-87q-10 0 -10 6z" />
    <glyph glyph-name="uni1EB0" unicode="&#x1eb0;" horiz-adv-x="493" 
d="M297 11l-2 87q1 2 -1 3.5t-4 1.5h-105q-6 0 -6 -5l-22 -87q-3 -11 -14 -11h-138q-12 0 -8 13l223 676q3 11 14 11h158q12 0 12 -11l56 -676v-3q0 -10 -11 -10h-141q-11 0 -11 11zM220 231h65q5 0 5 5l-7 228q0 4 -2 4t-4 -4l-60 -228q0 -5 3 -5zM238 773q-29 30 -27 80
q1 12 13 12h59q11 0 11 -12q0 -18 9 -29t25 -11q15 0 27 11t17 29q3 12 14 12h59q12 0 10 -12q-11 -50 -47.5 -80t-88.5 -30t-81 30zM394 931q0 -9 -12 -9h-88q-8 0 -14 7l-63 100q-2 4 -2 6q0 4 3.5 6.5t8.5 2.5h108q10 0 13 -8l45 -100q1 -2 1 -5z" />
    <glyph glyph-name="uni1EB1" unicode="&#x1eb1;" horiz-adv-x="443" 
d="M297.5 513.5q3.5 3.5 8.5 3.5h138q5 0 8 -3.5t2 -8.5l-61 -493q-1 -5 -4.5 -8.5t-8.5 -3.5h-138q-5 0 -8 3.5t-2 8.5l4 26q0 4 -2 4t-4 -3q-34 -47 -94 -47q-115 0 -115 129q0 22 3 44l23 187q22 173 154 173q60 0 83 -48q1 -4 3 -3.5t3 4.5l3 27q1 5 4.5 8.5zM240 146
q11 12 13 32l19 161q1 3 1 10q0 15 -8 24.5t-21 9.5q-14 0 -24.5 -12t-12.5 -32l-20 -161q-2 -20 5 -32t21 -12q16 0 27 12zM190 590q-29 30 -27 80q1 12 13 12h59q11 0 11 -12q0 -18 9 -29t25 -11q15 0 27 11t17 29q3 12 14 12h59q12 0 10 -12q-11 -50 -47.5 -80t-88.5 -30
t-81 30zM346 748q0 -9 -12 -9h-88q-8 0 -14 7l-63 100q-2 4 -2 6q0 4 3.5 6.5t8.5 2.5h108q10 0 13 -8l45 -100q1 -2 1 -5z" />
    <glyph glyph-name="uni1EB2" unicode="&#x1eb2;" horiz-adv-x="493" 
d="M297 11l-2 87q1 2 -1 3.5t-4 1.5h-105q-6 0 -6 -5l-22 -87q-3 -11 -14 -11h-138q-12 0 -8 13l223 676q3 11 14 11h158q12 0 12 -11l56 -676v-3q0 -10 -11 -10h-141q-11 0 -11 11zM220 231h65q5 0 5 5l-7 228q0 4 -2 4t-4 -4l-60 -228q0 -5 3 -5zM320 911q11 22 31 42
q9 10 13 16t5 17v3q0 6 -5 10t-12 4q-9 0 -16.5 -5t-20.5 -19q-7 -9 -16 -2l-30 24q-4 4 -4 8q0 5 4 9q22 27 43.5 38.5t51.5 11.5q36 0 56.5 -18t20.5 -50q0 -27 -10 -42.5t-30 -34.5q-4 -4 -11.5 -12t-12.5 -15q-7 -8 -16 -7l-35 7q-12 3 -6 15zM238 773q-29 30 -27 80
q1 12 13 12h59q11 0 11 -12q0 -18 9 -29t25 -11q15 0 27 11t17 29q3 12 14 12h59q11 0 10 -12q-11 -50 -48 -80t-88 -30q-52 0 -81 30z" />
    <glyph glyph-name="uni1EB3" unicode="&#x1eb3;" horiz-adv-x="443" 
d="M297.5 513.5q3.5 3.5 8.5 3.5h138q5 0 8 -3.5t2 -8.5l-61 -493q-1 -5 -4.5 -8.5t-8.5 -3.5h-138q-5 0 -8 3.5t-2 8.5l4 26q0 4 -2 4t-4 -3q-34 -47 -94 -47q-115 0 -115 129q0 22 3 44l23 187q22 173 154 173q60 0 83 -48q1 -4 3 -3.5t3 4.5l3 27q1 5 4.5 8.5zM240 146
q11 12 13 32l19 161q1 3 1 10q0 15 -8 24.5t-21 9.5q-14 0 -24.5 -12t-12.5 -32l-20 -161q-2 -20 5 -32t21 -12q16 0 27 12zM272 728q11 22 31 42q9 10 13 16t5 17v3q0 6 -5 10t-12 4q-9 0 -16.5 -5t-20.5 -19q-7 -9 -16 -2l-30 24q-4 4 -4 8q0 5 4 9q22 27 43.5 38.5
t51.5 11.5q36 0 56.5 -18t20.5 -50q0 -27 -10 -42.5t-30 -34.5q-4 -4 -11.5 -12t-12.5 -15q-7 -8 -16 -7l-35 7q-12 3 -6 15zM190 590q-29 30 -27 80q1 12 13 12h59q11 0 11 -12q0 -18 9 -29t25 -11q15 0 27 11t17 29q3 12 14 12h59q11 0 10 -12q-11 -50 -48 -80t-88 -30
q-52 0 -81 30z" />
    <glyph glyph-name="uni1EB4" unicode="&#x1eb4;" horiz-adv-x="493" 
d="M297 11l-2 87q1 2 -1 3.5t-4 1.5h-105q-6 0 -6 -5l-22 -87q-3 -11 -14 -11h-138q-12 0 -8 13l223 676q3 11 14 11h158q12 0 12 -11l56 -676v-3q0 -10 -11 -10h-141q-11 0 -11 11zM220 231h65q5 0 5 5l-7 228q0 4 -2 4t-4 -4l-60 -228q0 -5 3 -5zM238 773q-29 30 -27 80
q1 12 13 12h59q11 0 11 -12q0 -18 9 -29t25 -11q15 0 27 11t17 29q3 12 14 12h59q12 0 10 -12q-11 -50 -47.5 -80t-88.5 -30t-81 30zM353 930q-7 4 -14 9t-12 7t-12 2q-19 0 -34 -21q-4 -5 -8.5 -6.5t-8.5 2.5l-45 36q-7 6 -3 16q16 38 43 57t56 19t61 -23q3 -2 9.5 -7
t13 -7.5t13.5 -2.5q21 0 36 18q7 11 16 5l44 -35q4 -4 4 -8q0 -6 -6 -15q-21 -33 -48 -47.5t-54 -14.5q-22 0 -51 16z" />
    <glyph glyph-name="uni1EB5" unicode="&#x1eb5;" horiz-adv-x="443" 
d="M297.5 513.5q3.5 3.5 8.5 3.5h138q5 0 8 -3.5t2 -8.5l-61 -493q-1 -5 -4.5 -8.5t-8.5 -3.5h-138q-5 0 -8 3.5t-2 8.5l4 26q0 4 -2 4t-4 -3q-34 -47 -94 -47q-115 0 -115 129q0 22 3 44l23 187q22 173 154 173q60 0 83 -48q1 -4 3 -3.5t3 4.5l3 27q1 5 4.5 8.5zM240 146
q11 12 13 32l19 161q1 3 1 10q0 15 -8 24.5t-21 9.5q-14 0 -24.5 -12t-12.5 -32l-20 -161q-2 -20 5 -32t21 -12q16 0 27 12zM190 590q-29 30 -27 80q1 12 13 12h59q11 0 11 -12q0 -18 9 -29t25 -11q15 0 27 11t17 29q3 12 14 12h59q12 0 10 -12q-11 -50 -47.5 -80t-88.5 -30
t-81 30zM305 747q-7 4 -14 9t-12 7t-12 2q-19 0 -34 -21q-4 -5 -8.5 -6.5t-8.5 2.5l-45 36q-7 6 -3 16q16 38 43 57t56 19t61 -23q3 -2 9.5 -7t13 -7.5t13.5 -2.5q21 0 36 18q7 11 16 5l44 -35q4 -4 4 -8q0 -6 -6 -15q-21 -33 -48 -47.5t-54 -14.5q-22 0 -51 16z" />
    <glyph glyph-name="uni1EB6" unicode="&#x1eb6;" horiz-adv-x="493" 
d="M297 11l-2 87q1 2 -1 3.5t-4 1.5h-105q-6 0 -6 -5l-22 -87q-3 -11 -14 -11h-138q-12 0 -8 13l223 676q3 11 14 11h158q12 0 12 -11l56 -676v-3q0 -10 -11 -10h-141q-11 0 -11 11zM220 231h65q5 0 5 5l-7 228q0 4 -2 4t-4 -4l-60 -228q0 -5 3 -5zM143.5 -238
q-19.5 20 -19.5 51q0 42 26.5 69t66.5 27q32 0 51.5 -19.5t19.5 -52.5q0 -39 -27 -67t-65 -28q-33 0 -52.5 20zM238 773q-29 30 -27 80q1 12 13 12h59q11 0 11 -12q0 -18 9 -29t25 -11q15 0 27 11t17 29q3 12 14 12h59q12 0 10 -12q-11 -50 -47.5 -80t-88.5 -30t-81 30z" />
    <glyph glyph-name="uni1EB7" unicode="&#x1eb7;" horiz-adv-x="443" 
d="M297.5 513.5q3.5 3.5 8.5 3.5h138q5 0 8 -3.5t2 -8.5l-61 -493q-1 -5 -4.5 -8.5t-8.5 -3.5h-138q-5 0 -8 3.5t-2 8.5l4 26q0 4 -2 4t-4 -3q-34 -47 -94 -47q-115 0 -115 129q0 22 3 44l23 187q22 173 154 173q60 0 83 -48q1 -4 3 -3.5t3 4.5l3 27q1 5 4.5 8.5zM240 146
q11 12 13 32l19 161q1 3 1 10q0 15 -8 24.5t-21 9.5q-14 0 -24.5 -12t-12.5 -32l-20 -161q-2 -20 5 -32t21 -12q16 0 27 12zM118.5 -238q-19.5 20 -19.5 51q0 42 26.5 69t66.5 27q32 0 51.5 -19.5t19.5 -52.5q0 -39 -27 -67t-65 -28q-33 0 -52.5 20zM190 590q-29 30 -27 80
q1 12 13 12h59q11 0 11 -12q0 -18 9 -29t25 -11q15 0 27 11t17 29q3 12 14 12h59q12 0 10 -12q-11 -50 -47.5 -80t-88.5 -30t-81 30z" />
    <glyph glyph-name="uni1EB8" unicode="&#x1eb8;" horiz-adv-x="428" 
d="M452.5 561.5q-3.5 -3.5 -8.5 -3.5h-195q-4 0 -6 -5l-15 -126q0 -5 4 -5h107q5 0 8 -3.5t2 -8.5l-15 -119q0 -5 -4 -8.5t-9 -3.5h-106q-4 0 -6 -5l-15 -127q-2 -5 4 -5h195q5 0 8 -3.5t2 -8.5l-14 -118q-1 -5 -5 -8.5t-9 -3.5h-349q-5 0 -8 3.5t-2 8.5l83 676q1 5 4.5 8.5
t8.5 3.5h349q11 0 11 -12l-15 -118q-1 -5 -4.5 -8.5zM109.5 -238q-19.5 20 -19.5 51q0 42 26.5 69t66.5 27q32 0 51.5 -19.5t19.5 -52.5q0 -39 -27 -67t-65 -28q-33 0 -52.5 20z" />
    <glyph glyph-name="uni1EB9" unicode="&#x1eb9;" horiz-adv-x="433" 
d="M416 216.5q-4 -3.5 -9 -3.5h-211q-4 0 -6 -5l-3 -30q-2 -20 5.5 -32t22.5 -12q25 0 39 35q3 11 14 11l132 -8q5 0 8 -3.5t2 -9.5q-15 -84 -67.5 -125.5t-144.5 -41.5q-84 0 -130 38.5t-46 107.5q0 9 2 27l23 187q10 78 67.5 125.5t148.5 47.5q83 0 129 -39.5t46 -107.5
q0 -8 -2 -26l-16 -127q0 -5 -4 -8.5zM220 370.5q-11 -12.5 -13 -31.5l-4 -31q-2 -5 4 -5h57q4 0 6 5l3 31q1 3 1 10q0 15 -7.5 24.5t-20.5 9.5q-15 0 -26 -12.5zM113.5 -238q-19.5 20 -19.5 51q0 42 26.5 69t66.5 27q32 0 51.5 -19.5t19.5 -52.5q0 -39 -27 -67t-65 -28
q-33 0 -52.5 20z" />
    <glyph glyph-name="uni1EBA" unicode="&#x1eba;" horiz-adv-x="428" 
d="M452.5 561.5q-3.5 -3.5 -8.5 -3.5h-195q-4 0 -6 -5l-15 -126q0 -5 4 -5h107q5 0 8 -3.5t2 -8.5l-15 -119q0 -5 -4 -8.5t-9 -3.5h-106q-4 0 -6 -5l-15 -127q-2 -5 4 -5h195q5 0 8 -3.5t2 -8.5l-14 -118q-1 -5 -5 -8.5t-9 -3.5h-349q-5 0 -8 3.5t-2 8.5l83 676q1 5 4.5 8.5
t8.5 3.5h349q11 0 11 -12l-15 -118q-1 -5 -4.5 -8.5zM270 757q15 29 37 51q11 12 15.5 19t6.5 20v2q0 7 -6 12.5t-14 5.5q-11 0 -20.5 -6t-24.5 -23q-5 -5 -10 -5q-3 0 -7 3l-37 30q-5 5 -5 8q0 5 4 9q26 33 51.5 47t61.5 14q43 0 67 -21t24 -59q0 -31 -11.5 -49.5
t-34.5 -40.5q-24 -24 -30 -34q-7 -8 -16 -7l-45 9q-13 3 -6 15z" />
    <glyph glyph-name="uni1EBB" unicode="&#x1ebb;" horiz-adv-x="433" 
d="M416 216.5q-4 -3.5 -9 -3.5h-211q-4 0 -6 -5l-3 -30q-2 -20 5.5 -32t22.5 -12q25 0 39 35q3 11 14 11l132 -8q5 0 8 -3.5t2 -9.5q-15 -84 -67.5 -125.5t-144.5 -41.5q-84 0 -130 38.5t-46 107.5q0 9 2 27l23 187q10 78 67.5 125.5t148.5 47.5q83 0 129 -39.5t46 -107.5
q0 -8 -2 -26l-16 -127q0 -5 -4 -8.5zM220 370.5q-11 -12.5 -13 -31.5l-4 -31q-2 -5 4 -5h57q4 0 6 5l3 31q1 3 1 10q0 15 -7.5 24.5t-20.5 9.5q-15 0 -26 -12.5zM244 574q15 29 37 51q11 12 15.5 19t6.5 20v2q0 7 -6 12.5t-14 5.5q-11 0 -20.5 -6t-24.5 -23q-5 -5 -10 -5
q-3 0 -7 3l-37 30q-5 5 -5 8q0 5 4 9q26 33 51.5 47t61.5 14q43 0 67 -21t24 -59q0 -31 -11.5 -49.5t-34.5 -40.5q-24 -24 -30 -34q-7 -8 -16 -7l-45 9q-13 3 -6 15z" />
    <glyph glyph-name="uni1EBC" unicode="&#x1ebc;" horiz-adv-x="428" 
d="M452.5 561.5q-3.5 -3.5 -8.5 -3.5h-195q-4 0 -6 -5l-15 -126q0 -5 4 -5h107q5 0 8 -3.5t2 -8.5l-15 -119q0 -5 -4 -8.5t-9 -3.5h-106q-4 0 -6 -5l-15 -127q-2 -5 4 -5h195q5 0 8 -3.5t2 -8.5l-14 -118q-1 -5 -5 -8.5t-9 -3.5h-349q-5 0 -8 3.5t-2 8.5l83 676q1 5 4.5 8.5
t8.5 3.5h349q11 0 11 -12l-15 -118q-1 -5 -4.5 -8.5zM310 777q-7 4 -14 9t-12 7t-12 2q-19 0 -34 -21q-4 -5 -8.5 -6.5t-8.5 2.5l-45 36q-7 6 -3 16q16 38 43 57t56 19t61 -23q3 -2 9.5 -7t13 -7.5t13.5 -2.5q21 0 36 18q7 11 16 5l44 -35q4 -4 4 -8q0 -6 -6 -15
q-21 -33 -48 -47.5t-54 -14.5q-22 0 -51 16z" />
    <glyph glyph-name="uni1EBD" unicode="&#x1ebd;" horiz-adv-x="433" 
d="M416 216.5q-4 -3.5 -9 -3.5h-211q-4 0 -6 -5l-3 -30q-2 -20 5.5 -32t22.5 -12q25 0 39 35q3 11 14 11l132 -8q5 0 8 -3.5t2 -9.5q-15 -84 -67.5 -125.5t-144.5 -41.5q-84 0 -130 38.5t-46 107.5q0 9 2 27l23 187q10 78 67.5 125.5t148.5 47.5q83 0 129 -39.5t46 -107.5
q0 -8 -2 -26l-16 -127q0 -5 -4 -8.5zM220 370.5q-11 -12.5 -13 -31.5l-4 -31q-2 -5 4 -5h57q4 0 6 5l3 31q1 3 1 10q0 15 -7.5 24.5t-20.5 9.5q-15 0 -26 -12.5zM283 594q-7 4 -14 9t-12 7t-12 2q-19 0 -34 -21q-4 -5 -8.5 -6.5t-8.5 2.5l-45 36q-7 6 -3 16q16 38 43 57
t56 19t61 -23q3 -2 9.5 -7t13 -7.5t13.5 -2.5q21 0 36 18q7 11 16 5l44 -35q4 -4 4 -8q0 -6 -6 -15q-21 -33 -48 -47.5t-54 -14.5q-22 0 -51 16z" />
    <glyph glyph-name="uni1EBE" unicode="&#x1ebe;" horiz-adv-x="428" 
d="M452.5 561.5q-3.5 -3.5 -8.5 -3.5h-195q-4 0 -6 -5l-15 -126q0 -5 4 -5h107q5 0 8 -3.5t2 -8.5l-15 -119q0 -5 -4 -8.5t-9 -3.5h-106q-4 0 -6 -5l-15 -127q-2 -5 4 -5h195q5 0 8 -3.5t2 -8.5l-14 -118q-1 -5 -5 -8.5t-9 -3.5h-349q-5 0 -8 3.5t-2 8.5l83 676q1 5 4.5 8.5
t8.5 3.5h349q11 0 11 -12l-15 -118q-1 -5 -4.5 -8.5zM140 761q0 4 3 8l74 106q5 8 15 8h149q9 0 13 -8l51 -106q1 -2 1 -5q0 -9 -11 -9h-102q-9 0 -12 9l-19 51q-3 5 -6 0l-31 -51q-6 -9 -15 -9h-101q-9 0 -9 6zM444 850q0 4 3 8l69 100q5 8 15 8h108q9 0 9 -6q0 -5 -4 -9
l-88 -100q-6 -7 -15 -7h-87q-10 0 -10 6z" />
    <glyph glyph-name="uni1EBF" unicode="&#x1ebf;" horiz-adv-x="433" 
d="M416 216.5q-4 -3.5 -9 -3.5h-211q-4 0 -6 -5l-3 -30q-2 -20 5.5 -32t22.5 -12q25 0 39 35q3 11 14 11l132 -8q5 0 8 -3.5t2 -9.5q-15 -84 -67.5 -125.5t-144.5 -41.5q-84 0 -130 38.5t-46 107.5q0 9 2 27l23 187q10 78 67.5 125.5t148.5 47.5q83 0 129 -39.5t46 -107.5
q0 -8 -2 -26l-16 -127q0 -5 -4 -8.5zM220 370.5q-11 -12.5 -13 -31.5l-4 -31q-2 -5 4 -5h57q4 0 6 5l3 31q1 3 1 10q0 15 -7.5 24.5t-20.5 9.5q-15 0 -26 -12.5zM114 578q0 4 3 8l74 106q5 8 15 8h149q9 0 13 -8l51 -106q1 -2 1 -5q0 -9 -11 -9h-102q-9 0 -12 9l-19 51
q-3 5 -6 0l-31 -51q-6 -9 -15 -9h-101q-9 0 -9 6zM418 667q0 4 3 8l69 100q5 8 15 8h108q9 0 9 -6q0 -5 -4 -9l-88 -100q-6 -7 -15 -7h-87q-10 0 -10 6z" />
    <glyph glyph-name="uni1EC0" unicode="&#x1ec0;" horiz-adv-x="428" 
d="M452.5 561.5q-3.5 -3.5 -8.5 -3.5h-195q-4 0 -6 -5l-15 -126q0 -5 4 -5h107q5 0 8 -3.5t2 -8.5l-15 -119q0 -5 -4 -8.5t-9 -3.5h-106q-4 0 -6 -5l-15 -127q-2 -5 4 -5h195q5 0 8 -3.5t2 -8.5l-14 -118q-1 -5 -5 -8.5t-9 -3.5h-349q-5 0 -8 3.5t-2 8.5l83 676q1 5 4.5 8.5
t8.5 3.5h349q11 0 11 -12l-15 -118q-1 -5 -4.5 -8.5zM140 761q0 4 3 8l74 106q5 8 15 8h149q9 0 13 -8l51 -106q1 -2 1 -5q0 -9 -11 -9h-102q-9 0 -12 9l-19 51q-3 5 -6 0l-31 -51q-6 -9 -15 -9h-101q-9 0 -9 6zM530 889q0 -9 -12 -9h-88q-8 0 -14 7l-63 100q-2 4 -2 6
q0 4 3.5 6.5t8.5 2.5h108q10 0 13 -8l45 -100q1 -2 1 -5z" />
    <glyph glyph-name="uni1EC1" unicode="&#x1ec1;" horiz-adv-x="433" 
d="M416 216.5q-4 -3.5 -9 -3.5h-211q-4 0 -6 -5l-3 -30q-2 -20 5.5 -32t22.5 -12q25 0 39 35q3 11 14 11l132 -8q5 0 8 -3.5t2 -9.5q-15 -84 -67.5 -125.5t-144.5 -41.5q-84 0 -130 38.5t-46 107.5q0 9 2 27l23 187q10 78 67.5 125.5t148.5 47.5q83 0 129 -39.5t46 -107.5
q0 -8 -2 -26l-16 -127q0 -5 -4 -8.5zM220 370.5q-11 -12.5 -13 -31.5l-4 -31q-2 -5 4 -5h57q4 0 6 5l3 31q1 3 1 10q0 15 -7.5 24.5t-20.5 9.5q-15 0 -26 -12.5zM114 578q0 4 3 8l74 106q5 8 15 8h149q9 0 13 -8l51 -106q1 -2 1 -5q0 -9 -11 -9h-102q-9 0 -12 9l-19 51
q-3 5 -6 0l-31 -51q-6 -9 -15 -9h-101q-9 0 -9 6zM504 706q0 -9 -12 -9h-88q-8 0 -14 7l-63 100q-2 4 -2 6q0 4 3.5 6.5t8.5 2.5h108q10 0 13 -8l45 -100q1 -2 1 -5z" />
    <glyph glyph-name="uni1EC2" unicode="&#x1ec2;" horiz-adv-x="428" 
d="M452.5 561.5q-3.5 -3.5 -8.5 -3.5h-195q-4 0 -6 -5l-15 -126q0 -5 4 -5h107q5 0 8 -3.5t2 -8.5l-15 -119q0 -5 -4 -8.5t-9 -3.5h-106q-4 0 -6 -5l-15 -127q-2 -5 4 -5h195q5 0 8 -3.5t2 -8.5l-14 -118q-1 -5 -5 -8.5t-9 -3.5h-349q-5 0 -8 3.5t-2 8.5l83 676q1 5 4.5 8.5
t8.5 3.5h349q11 0 11 -12l-15 -118q-1 -5 -4.5 -8.5zM443 877q14 28 34 46q10 11 14.5 18t5.5 18v2q0 7 -5 12t-13 5q-10 0 -18.5 -5.5t-22.5 -20.5q-8 -10 -17 -3l-33 28q-4 4 -4 8q0 5 4 9q24 30 47.5 42.5t56.5 12.5q39 0 61 -20t22 -55q0 -28 -11 -45.5t-33 -37.5
q-5 -5 -13.5 -14t-13.5 -16q-6 -8 -15 -7l-40 8q-13 4 -6 15zM140 761q0 4 3 8l74 106q5 8 15 8h149q9 0 13 -8l51 -106q1 -2 1 -5q0 -9 -11 -9h-102q-9 0 -12 9l-19 51q-3 5 -6 0l-31 -51q-6 -9 -15 -9h-101q-9 0 -9 6z" />
    <glyph glyph-name="uni1EC3" unicode="&#x1ec3;" horiz-adv-x="433" 
d="M416 216.5q-4 -3.5 -9 -3.5h-211q-4 0 -6 -5l-3 -30q-2 -20 5.5 -32t22.5 -12q25 0 39 35q3 11 14 11l132 -8q5 0 8 -3.5t2 -9.5q-15 -84 -67.5 -125.5t-144.5 -41.5q-84 0 -130 38.5t-46 107.5q0 9 2 27l23 187q10 78 67.5 125.5t148.5 47.5q83 0 129 -39.5t46 -107.5
q0 -8 -2 -26l-16 -127q0 -5 -4 -8.5zM220 370.5q-11 -12.5 -13 -31.5l-4 -31q-2 -5 4 -5h57q4 0 6 5l3 31q1 3 1 10q0 15 -7.5 24.5t-20.5 9.5q-15 0 -26 -12.5zM417 694q14 28 34 46q10 11 14.5 18t5.5 18v2q0 7 -5 12t-13 5q-10 0 -18.5 -5.5t-22.5 -20.5q-8 -10 -17 -3
l-33 28q-4 4 -4 8q0 5 4 9q24 30 47.5 42.5t56.5 12.5q39 0 61 -20t22 -55q0 -28 -11 -45.5t-33 -37.5q-5 -5 -13.5 -14t-13.5 -16q-6 -8 -15 -7l-40 8q-13 4 -6 15zM114 578q0 4 3 8l74 106q5 8 15 8h149q9 0 13 -8l51 -106q1 -2 1 -5q0 -9 -11 -9h-102q-9 0 -12 9l-19 51
q-3 5 -6 0l-31 -51q-6 -9 -15 -9h-101q-9 0 -9 6z" />
    <glyph glyph-name="uni1EC4" unicode="&#x1ec4;" horiz-adv-x="428" 
d="M452.5 561.5q-3.5 -3.5 -8.5 -3.5h-195q-4 0 -6 -5l-15 -126q0 -5 4 -5h107q5 0 8 -3.5t2 -8.5l-15 -119q0 -5 -4 -8.5t-9 -3.5h-106q-4 0 -6 -5l-15 -127q-2 -5 4 -5h195q5 0 8 -3.5t2 -8.5l-14 -118q-1 -5 -5 -8.5t-9 -3.5h-349q-5 0 -8 3.5t-2 8.5l83 676q1 5 4.5 8.5
t8.5 3.5h349q11 0 11 -12l-15 -118q-1 -5 -4.5 -8.5zM140 761q0 4 3 8l74 106q5 8 15 8h149q9 0 13 -8l51 -106q1 -2 1 -5q0 -9 -11 -9h-102q-9 0 -12 9l-19 51q-3 5 -6 0l-31 -51q-6 -9 -15 -9h-101q-9 0 -9 6zM308 937q-7 4 -14 9t-12 7t-12 2q-19 0 -34 -21
q-4 -5 -8.5 -6.5t-8.5 2.5l-45 36q-7 6 -3 16q16 38 43 57t56 19t61 -23q3 -2 9.5 -7t13 -7.5t13.5 -2.5q21 0 36 18q7 11 16 5l44 -35q4 -4 4 -8q0 -6 -6 -15q-21 -33 -48 -47.5t-54 -14.5q-22 0 -51 16z" />
    <glyph glyph-name="uni1EC5" unicode="&#x1ec5;" horiz-adv-x="433" 
d="M416 216.5q-4 -3.5 -9 -3.5h-211q-4 0 -6 -5l-3 -30q-2 -20 5.5 -32t22.5 -12q25 0 39 35q3 11 14 11l132 -8q5 0 8 -3.5t2 -9.5q-15 -84 -67.5 -125.5t-144.5 -41.5q-84 0 -130 38.5t-46 107.5q0 9 2 27l23 187q10 78 67.5 125.5t148.5 47.5q83 0 129 -39.5t46 -107.5
q0 -8 -2 -26l-16 -127q0 -5 -4 -8.5zM220 370.5q-11 -12.5 -13 -31.5l-4 -31q-2 -5 4 -5h57q4 0 6 5l3 31q1 3 1 10q0 15 -7.5 24.5t-20.5 9.5q-15 0 -26 -12.5zM114 578q0 4 3 8l74 106q5 8 15 8h149q9 0 13 -8l51 -106q1 -2 1 -5q0 -9 -11 -9h-102q-9 0 -12 9l-19 51
q-3 5 -6 0l-31 -51q-6 -9 -15 -9h-101q-9 0 -9 6zM282 754q-7 4 -14 9t-12 7t-12 2q-19 0 -34 -21q-4 -5 -8.5 -6.5t-8.5 2.5l-45 36q-7 6 -3 16q16 38 43 57t56 19t61 -23q3 -2 9.5 -7t13 -7.5t13.5 -2.5q21 0 36 18q7 11 16 5l44 -35q4 -4 4 -8q0 -6 -6 -15
q-21 -33 -48 -47.5t-54 -14.5q-22 0 -51 16z" />
    <glyph glyph-name="uni1EC6" unicode="&#x1ec6;" horiz-adv-x="428" 
d="M452.5 561.5q-3.5 -3.5 -8.5 -3.5h-195q-4 0 -6 -5l-15 -126q0 -5 4 -5h107q5 0 8 -3.5t2 -8.5l-15 -119q0 -5 -4 -8.5t-9 -3.5h-106q-4 0 -6 -5l-15 -127q-2 -5 4 -5h195q5 0 8 -3.5t2 -8.5l-14 -118q-1 -5 -5 -8.5t-9 -3.5h-349q-5 0 -8 3.5t-2 8.5l83 676q1 5 4.5 8.5
t8.5 3.5h349q11 0 11 -12l-15 -118q-1 -5 -4.5 -8.5zM109.5 -238q-19.5 20 -19.5 51q0 42 26.5 69t66.5 27q32 0 51.5 -19.5t19.5 -52.5q0 -39 -27 -67t-65 -28q-33 0 -52.5 20zM140 761q0 4 3 8l74 106q5 8 15 8h149q9 0 13 -8l51 -106q1 -2 1 -5q0 -9 -11 -9h-102
q-9 0 -12 9l-19 51q-3 5 -6 0l-31 -51q-6 -9 -15 -9h-101q-9 0 -9 6z" />
    <glyph glyph-name="uni1EC7" unicode="&#x1ec7;" horiz-adv-x="433" 
d="M416 216.5q-4 -3.5 -9 -3.5h-211q-4 0 -6 -5l-3 -30q-2 -20 5.5 -32t22.5 -12q25 0 39 35q3 11 14 11l132 -8q5 0 8 -3.5t2 -9.5q-15 -84 -67.5 -125.5t-144.5 -41.5q-84 0 -130 38.5t-46 107.5q0 9 2 27l23 187q10 78 67.5 125.5t148.5 47.5q83 0 129 -39.5t46 -107.5
q0 -8 -2 -26l-16 -127q0 -5 -4 -8.5zM220 370.5q-11 -12.5 -13 -31.5l-4 -31q-2 -5 4 -5h57q4 0 6 5l3 31q1 3 1 10q0 15 -7.5 24.5t-20.5 9.5q-15 0 -26 -12.5zM113.5 -238q-19.5 20 -19.5 51q0 42 26.5 69t66.5 27q32 0 51.5 -19.5t19.5 -52.5q0 -39 -27 -67t-65 -28
q-33 0 -52.5 20zM114 578q0 4 3 8l74 106q5 8 15 8h149q9 0 13 -8l51 -106q1 -2 1 -5q0 -9 -11 -9h-102q-9 0 -12 9l-19 51q-3 5 -6 0l-31 -51q-6 -9 -15 -9h-101q-9 0 -9 6z" />
    <glyph glyph-name="uni1EC8" unicode="&#x1ec8;" horiz-adv-x="228" 
d="M18 3.5q-3 3.5 -2 8.5l83 676q1 5 4.5 8.5t8.5 3.5h138q5 0 8 -3.5t2 -8.5l-83 -676q-1 -5 -4.5 -8.5t-8.5 -3.5h-138q-5 0 -8 3.5zM164 757q15 29 37 51q11 12 15.5 19t6.5 20v2q0 7 -6 12.5t-14 5.5q-11 0 -20.5 -6t-24.5 -23q-5 -5 -10 -5q-3 0 -7 3l-37 30q-5 5 -5 8
q0 5 4 9q26 33 51.5 47t61.5 14q43 0 67 -21t24 -59q0 -31 -11.5 -49.5t-34.5 -40.5q-24 -24 -30 -34q-7 -8 -16 -7l-45 9q-13 3 -6 15z" />
    </font>
</defs>
</svg>
