<?xml version="1.0" standalone="no"?>
<!DOCTYPE svg PUBLIC "-//W3C//DTD SVG 1.1//EN" "http://www.w3.org/Graphics/SVG/1.1/DTD/svg11.dtd" >
<svg xmlns="http://www.w3.org/2000/svg" xmlns:xlink="http://www.w3.org/1999/xlink" version="1.1">
<metadata>
Created by FontForge 20201107 at Wed Nov  7 06:09:03 2018
 By 
Copyright 2017 The Barlow Project Authors (https://github.com/jpt/barlow)
</metadata>
<defs>
<font id="BarlowCondensed-BoldItalic" horiz-adv-x="0" >
  <font-face 
    font-family="Barlow Condensed"
    font-weight="700"
    font-style="italic"
    font-stretch="condensed"
    units-per-em="1000"
    panose-1="0 0 8 6 0 0 0 0 0 0"
    ascent="800"
    descent="-200"
    x-height="514"
    cap-height="700"
    bbox="-510 -240 991 1070"
    underline-thickness="50"
    underline-position="-100"
    slope="-7"
    unicode-range="U+000D-FB02"
  />
<missing-glyph horiz-adv-x="392" 
d="M-15 0h383q5 0 5 5l85 690q0 5 -4 5h-383q-5 0 -5 -5l-85 -690q0 -5 4 -5zM157 251.5q-3 3.5 -2 8.5l3 20q5 36 21.5 57.5t46.5 46.5q27 21 40 38t13 43q0 19 -9.5 29.5t-25.5 10.5q-20 0 -33 -15t-16 -39l-1 -8q-1 -11 -13 -11l-74 3q-5 0 -8 4t-2 9v3q8 65 53 105.5
t109 40.5q55 0 87 -31.5t32 -83.5q0 -8 -2 -24q-5 -45 -24.5 -71t-51.5 -51q-23 -19 -33.5 -31t-12.5 -31l-2 -14q-1 -5 -4.5 -8.5t-8.5 -3.5h-74q-5 0 -8 3.5zM147 101.5q-13 13.5 -13 34.5q0 28 18 46.5t44 18.5q22 0 35.5 -13.5t13.5 -35.5q0 -27 -18 -45.5t-45 -18.5
q-22 0 -35 13.5z" />
    <glyph glyph-name="fi" unicode="fi" horiz-adv-x="500" 
d="M309 510.5q3 -3.5 2 -8.5l-9 -75q-1 -5 -4.5 -8.5t-8.5 -3.5h-54q-5 0 -5 -5l-49 -398q-1 -5 -4.5 -8.5t-8.5 -3.5h-113q-5 0 -8 3.5t-2 8.5l49 398q0 5 -4 5h-29q-11 0 -11 12l10 75q1 5 4.5 8.5t8.5 3.5h29q5 0 5 5l4 27q11 90 59.5 124.5t143.5 32.5h4q5 0 8 -3.5
t2 -8.5l-10 -80q-1 -5 -5 -8.5t-9 -3.5h-2q-49 -1 -57 -62l-2 -18q0 -5 4 -5h54q5 0 8 -3.5zM396 591q-19 19 -19 48q0 40 25 65.5t62 25.5q31 0 49 -18t18 -48q0 -38 -25.5 -65t-60.5 -27q-30 0 -49 19zM311 3.5q-3 3.5 -2 8.5l60 490q1 5 4.5 8.5t8.5 3.5h114q5 0 8 -3.5
t2 -8.5l-60 -490q-1 -5 -4.5 -8.5t-8.5 -3.5h-114q-5 0 -8 3.5z" />
    <glyph glyph-name="fl" unicode="fl" horiz-adv-x="491" 
d="M309 510.5q3 -3.5 2 -8.5l-9 -75q-1 -5 -4.5 -8.5t-8.5 -3.5h-54q-5 0 -5 -5l-49 -398q-1 -5 -4.5 -8.5t-8.5 -3.5h-113q-5 0 -8 3.5t-2 8.5l49 398q0 5 -4 5h-29q-11 0 -11 12l10 75q1 5 4.5 8.5t8.5 3.5h29q5 0 5 5l4 27q11 90 59.5 124.5t143.5 32.5h4q5 0 8 -3.5
t2 -8.5l-10 -80q-1 -5 -5 -8.5t-9 -3.5h-2q-49 -1 -57 -62l-2 -18q0 -5 4 -5h54q5 0 8 -3.5zM305 3.5q-3 3.5 -2 8.5l83 676q1 5 4.5 8.5t8.5 3.5h114q5 0 8 -3.5t2 -8.5l-83 -676q-1 -5 -4.5 -8.5t-8.5 -3.5h-114q-5 0 -8 3.5z" />
    <glyph glyph-name="I_J.liga" unicode="IJ" horiz-adv-x="662" 
d="M27 3.5q-3 3.5 -2 8.5l83 676q1 5 4.5 8.5t8.5 3.5h113q11 0 11 -12l-83 -676q-1 -5 -5 -8.5t-9 -3.5h-113q-5 0 -8 3.5zM282.5 35q-45.5 43 -45.5 116q0 9 2 29l9 69q1 5 4.5 8.5t8.5 3.5h113q11 0 11 -12l-9 -71q-1 -4 -1 -13q0 -23 12.5 -37.5t33.5 -14.5
q25 0 42.5 18t20.5 47l63 510q1 5 4.5 8.5t8.5 3.5h114q5 0 8 -3.5t2 -8.5l-63 -508q-10 -85 -69.5 -136.5t-145.5 -51.5q-78 0 -123.5 43z" />
    <glyph glyph-name="f_f_i.liga" unicode="ffi" horiz-adv-x="761" 
d="M656.5 590.5q-18.5 18.5 -18.5 48.5q0 40 24.5 65.5t61.5 25.5q31 0 49.5 -18t18.5 -49q0 -38 -25.5 -64.5t-61.5 -26.5q-30 0 -48.5 18.5zM500 519q0 -5 4 -5h54q5 0 8 -3.5t2 -8.5l-9 -75q-1 -5 -4.5 -8.5t-8.5 -3.5h-54q-5 0 -5 -5l-49 -398q-1 -5 -4.5 -8.5
t-8.5 -3.5h-114q-5 0 -8 3.5t-2 8.5l49 398q0 5 -4 5h-110q-5 0 -5 -5l-49 -398q-1 -5 -4.5 -8.5t-8.5 -3.5h-114q-5 0 -8 3.5t-2 8.5l49 398q0 5 -4 5h-29q-11 0 -11 12l10 75q1 5 4.5 8.5t8.5 3.5h29q5 0 5 5l5 35q10 87 59 120t143 29h1q5 0 8 -3.5t2 -8.5l-8 -72
q-1 -5 -5 -8.5t-9 -3.5q-26 -1 -39 -18t-17 -47l-3 -23q0 -5 4 -5h110q5 0 5 5l5 35q10 87 59.5 120t143.5 29h1q5 0 8 -3.5t2 -8.5l-8 -72q-1 -5 -4.5 -8.5t-8.5 -3.5q-27 -1 -40.5 -18t-17.5 -47zM571 3.5q-3 3.5 -2 8.5l60 490q1 5 4.5 8.5t8.5 3.5h114q5 0 8 -3.5
t2 -8.5l-60 -490q-1 -5 -4.5 -8.5t-8.5 -3.5h-114q-5 0 -8 3.5z" />
    <glyph glyph-name="f_f_l.liga" unicode="ffl" horiz-adv-x="753" 
d="M505 519q0 -5 4 -5h54q5 0 8 -3.5t2 -8.5l-9 -75q-1 -5 -4.5 -8.5t-8.5 -3.5h-54q-5 0 -5 -5l-49 -398q-1 -5 -4.5 -8.5t-8.5 -3.5h-114q-5 0 -8 3.5t-2 8.5l49 398q0 5 -4 5h-115q-5 0 -5 -5l-49 -398q-1 -5 -4.5 -8.5t-8.5 -3.5h-114q-5 0 -8 3.5t-2 8.5l49 398
q0 5 -4 5h-29q-11 0 -11 12l10 75q1 5 4.5 8.5t8.5 3.5h29q5 0 5 5l5 35q10 87 59 120t143 29h1q5 0 8 -3.5t2 -8.5l-8 -72q-1 -5 -5 -8.5t-9 -3.5q-26 -1 -39 -18t-17 -47l-3 -23q0 -5 4 -5h115q5 0 5 5l5 35q10 87 59.5 120t143.5 29h1q5 0 8 -3.5t2 -8.5l-9 -72
q0 -5 -4 -8.5t-9 -3.5q-26 -1 -39.5 -18t-17.5 -47zM652.5 696.5q3.5 3.5 8.5 3.5h114q5 0 8 -3.5t2 -8.5l-83 -676q-1 -5 -4.5 -8.5t-8.5 -3.5h-114q-5 0 -8 3.5t-2 8.5l83 676q1 5 4.5 8.5z" />
    <glyph glyph-name="g_j.liga" unicode="gj" horiz-adv-x="638" 
d="M534 591.5q-19 19.5 -19 49.5q0 38 25.5 63.5t62.5 25.5q31 0 49.5 -18.5t18.5 -49.5q0 -38 -26 -64t-62 -26q-30 0 -49 19.5zM296 475q2 1 2 4l3 23q1 5 4.5 8.5t8.5 3.5h114q5 0 8 -3.5t2 -8.5l-59 -478q-13 -111 -71 -171t-190 -60q-27 0 -41 1q-12 1 -10 13l12 98
q2 13 13 11q57 -2 88.5 11.5t45 40.5t18.5 71q1 3 -1 3t-4 -3q-21 -24 -47 -33.5t-49 -9.5q-58 0 -86.5 33.5t-28.5 94.5q0 19 3 40l23 190q10 81 49 124.5t105 43.5q60 0 84 -45q2 -3 4 -2zM507 502q1 5 4.5 8.5t8.5 3.5h113q5 0 8 -3.5t2 -8.5l-62 -502q-9 -72 -28 -115.5
t-62.5 -66.5t-123.5 -22q-13 0 -10 12l19 97q3 11 12 11q26 0 39 21.5t18 62.5zM243 134q15 16 18 41l21 169q3 25 -8.5 41t-31.5 16t-34.5 -16t-17.5 -41l-21 -169q-3 -26 7.5 -41.5t31.5 -15.5q20 0 35 16z" />
    <glyph glyph-name="i_j.liga" unicode="ij" horiz-adv-x="417" 
d="M108 591q-19 19 -19 48q0 40 25 65.5t62 25.5q31 0 49 -18t18 -48q0 -38 -25.5 -65t-60.5 -27q-30 0 -49 19zM313 591.5q-19 19.5 -19 49.5q0 38 25.5 63.5t62.5 25.5q31 0 49.5 -18.5t18.5 -49.5q0 -38 -26 -64t-62 -26q-30 0 -49 19.5zM22 3.5q-3 3.5 -2 8.5l60 490
q1 5 4.5 8.5t8.5 3.5h114q5 0 8 -3.5t2 -8.5l-60 -490q-1 -5 -4.5 -8.5t-8.5 -3.5h-114q-5 0 -8 3.5zM110 -200.5q-3 3.5 -2 8.5l12 97q2 13 14 11q44 -1 64 20.5t25 63.5l62 502q1 5 4.5 8.5t8.5 3.5h113q11 0 11 -12l-62 -502q-9 -75 -27.5 -117t-68 -65t-145.5 -22
q-6 0 -9 3.5z" />
    <glyph glyph-name="hyphen_hyphen.liga" unicode="&#x2d;&#x2d;" horiz-adv-x="575" 
d="M36 235.5q-3 3.5 -2 8.5l12 97q1 5 4.5 8.5t8.5 3.5h505q5 0 8 -3.5t2 -8.5l-11 -97q-1 -5 -5 -8.5t-9 -3.5h-505q-5 0 -8 3.5z" />
    <glyph glyph-name=".notdef" horiz-adv-x="392" 
d="M-15 0h383q5 0 5 5l85 690q0 5 -4 5h-383q-5 0 -5 -5l-85 -690q0 -5 4 -5zM157 251.5q-3 3.5 -2 8.5l3 20q5 36 21.5 57.5t46.5 46.5q27 21 40 38t13 43q0 19 -9.5 29.5t-25.5 10.5q-20 0 -33 -15t-16 -39l-1 -8q-1 -11 -13 -11l-74 3q-5 0 -8 4t-2 9v3q8 65 53 105.5
t109 40.5q55 0 87 -31.5t32 -83.5q0 -8 -2 -24q-5 -45 -24.5 -71t-51.5 -51q-23 -19 -33.5 -31t-12.5 -31l-2 -14q-1 -5 -4.5 -8.5t-8.5 -3.5h-74q-5 0 -8 3.5zM147 101.5q-13 13.5 -13 34.5q0 28 18 46.5t44 18.5q22 0 35.5 -13.5t13.5 -35.5q0 -27 -18 -45.5t-45 -18.5
q-22 0 -35 13.5z" />
    <glyph glyph-name=".null" 
 />
    <glyph glyph-name="nonmarkingreturn" unicode="&#xd;" horiz-adv-x="194" 
 />
    <glyph glyph-name="NULL" 
 />
    <glyph glyph-name="NULL" 
 />
    <glyph glyph-name="space" unicode=" " horiz-adv-x="194" 
 />
    <glyph glyph-name="exclam" unicode="!" horiz-adv-x="271" 
d="M94 243.5q-3 3.5 -2 8.5l39 436q1 5 4.5 8.5t8.5 3.5h114q5 0 8 -3.5t2 -8.5l-67 -436q-1 -5 -4.5 -8.5t-8.5 -3.5h-86q-5 0 -8 3.5zM68 20q-19 19 -19 48q0 40 25 65.5t62 25.5q31 0 49 -18t18 -48q0 -38 -25.5 -65t-60.5 -27q-30 0 -49 19z" />
    <glyph glyph-name="quotedbl" unicode="&#x22;" horiz-adv-x="335" 
d="M69.5 474.5q-3.5 3.5 -2.5 8.5l12 203q2 12 13 12h106q12 0 9 -12l-37 -203q-1 -12 -14 -12h-78q-5 0 -8.5 3.5zM247.5 474.5q-3.5 3.5 -2.5 8.5l12 203q2 12 12 12h107q12 0 9 -12l-38 -203q-1 -12 -14 -12h-77q-5 0 -8.5 3.5z" />
    <glyph glyph-name="numbersign" unicode="#" horiz-adv-x="597" 
d="M591.5 407.5q-3.5 -3.5 -8.5 -3.5h-59q-6 0 -6 -5l-26 -99q-2 -5 3 -5h41q5 0 8 -3.5t2 -8.5l-12 -96q-1 -5 -4.5 -8.5t-8.5 -3.5h-58q-5 0 -7 -5l-34 -132q-3 -11 -14 -11h-114q-12 0 -9 13l35 130q0 5 -4 5h-80q-5 0 -7 -5l-34 -132q-3 -11 -14 -11h-114q-12 0 -9 13
l35 130q0 5 -4 5h-42q-5 0 -8 3.5t-2 8.5l11 96q1 5 4.5 8.5t8.5 3.5h61q2 0 4 1.5t2 3.5l26 99q0 5 -4 5h-41q-5 0 -8 3.5t-2 8.5l12 97q0 5 4 8.5t9 3.5h59q6 0 6 5l35 132q3 11 14 11h113q12 0 9 -13l-34 -130q0 -5 3 -5h81q6 0 6 5l35 132q3 11 14 11h113q12 0 9 -13
l-34 -130q0 -5 3 -5h42q5 0 8 -3.5t2 -8.5l-12 -97q-1 -5 -4.5 -8.5zM353 296.5q2 1.5 2 3.5l26 99q0 5 -4 5h-80q-6 0 -6 -5l-26 -99q-2 -5 3 -5h81q2 0 4 1.5z" />
    <glyph glyph-name="dollar" unicode="$" horiz-adv-x="431" 
d="M357.5 61q-43.5 -49 -108.5 -63q-4 -2 -6 -6l-5 -56q-1 -5 -5 -8.5t-9 -3.5h-78q-5 0 -8 3.5t-2 8.5l8 58q0 4 -4 5q-52 14 -81.5 54t-29.5 95q0 9 2 27l4 29q1 5 4.5 8.5t8.5 3.5h111q11 0 11 -12l-3 -22q-1 -4 -1 -12q0 -26 13 -41.5t34 -15.5q26 0 44.5 21.5
t18.5 53.5q0 26 -17 46t-65 59q-40 32 -65 57.5t-42.5 61t-17.5 81.5q0 80 44 136t114 73q4 1 4 6l7 65q1 5 5 8.5t9 3.5h77q5 0 8 -3.5t2 -8.5l-9 -65q0 -5 4 -6q54 -14 84.5 -55.5t30.5 -102.5q0 -8 -2 -28l-3 -24q-1 -5 -5 -8.5t-9 -3.5h-111q-5 0 -8 3.5t-2 8.5l3 27
q1 4 1 13q0 25 -12.5 40t-34.5 15q-26 0 -43.5 -21.5t-17.5 -57.5q0 -24 16.5 -45.5t60.5 -58.5q50 -42 75.5 -67.5t40.5 -55.5t15 -69q0 -8 -2 -28q-10 -74 -53.5 -123z" />
    <glyph glyph-name="percent" unicode="%" horiz-adv-x="743" 
d="M127.5 432q-37.5 39 -37.5 98q0 47 24 88.5t63.5 66t84.5 24.5q57 0 94 -40t37 -99q0 -47 -24 -87.5t-63 -65t-83 -24.5q-58 0 -95.5 39zM125 6q0 4 3 8l436 678q5 8 16 8h72q9 0 9 -6q0 -3 -3 -8l-436 -678q-5 -8 -15 -8h-73q-9 0 -9 6zM293.5 495q26.5 29 26.5 68
q0 31 -19 51.5t-48 20.5q-36 0 -63 -28.5t-27 -67.5q0 -32 19.5 -52.5t49.5 -20.5q35 0 61.5 29zM435 30.5q-37 39.5 -37 98.5q0 47 23.5 88t63 65.5t83.5 24.5q57 0 94.5 -39t37.5 -97q0 -48 -23.5 -89.5t-63 -66t-84.5 -24.5q-57 0 -94 39.5zM601 93.5q27 28.5 27 66.5
q0 32 -19.5 53t-49.5 21q-35 0 -62 -28t-27 -67q0 -32 19.5 -53t49.5 -21q35 0 62 28.5z" />
    <glyph glyph-name="ampersand" unicode="&#x26;" horiz-adv-x="584" 
d="M534 8q0 -8 -10 -8h-123q-10 0 -14 7l-20 31q-2 4 -6 1q-77 -48 -166 -48q-81 0 -125.5 37t-44.5 110q0 10 2 30q8 65 41.5 110.5t86.5 82.5q4 2 2 7q-30 50 -41.5 79t-11.5 55q0 8 2 26q10 82 65 131t135 49q75 0 121 -43.5t46 -114.5q0 -72 -37 -121.5t-101 -92.5
q-4 -3 -2 -7l22 -35l38 -61q4 -4 8 0q25 30 53 74q6 11 16 5l78 -49q5 -2 5 -9q0 -5 -2 -8q-43 -66 -86 -117q-2 -2 -1 -7l68 -107q2 -3 2 -7zM255.5 560q-14.5 -20 -14.5 -52q0 -12 5.5 -26.5t19.5 -41.5q3 -3 7 -1q62 45 62 95q0 21 -11.5 33.5t-29.5 12.5
q-24 0 -38.5 -20zM297 137q5 5 2 7l-23 36l-50 77q-3 4 -7 1q-26 -21 -39.5 -43t-13.5 -47q0 -24 14.5 -40.5t43.5 -16.5q30 0 73 26z" />
    <glyph glyph-name="quotesingle" unicode="'" horiz-adv-x="165" 
d="M68.5 476.5q-3.5 3.5 -2.5 8.5l14 202q0 12 12 12h114q12 0 9 -12l-38 -202q-3 -12 -14 -12h-86q-5 0 -8.5 3.5z" />
    <glyph glyph-name="parenleft" unicode="(" horiz-adv-x="302" 
d="M79 -83q-64 125 -64 298q0 58 7 117q16 131 58.5 236.5t100.5 182.5q5 8 15 8h112q6 0 8 -4t-1 -10q-113 -196 -139 -412q-8 -70 -8 -125q0 -145 46 -285l1 -4q0 -4 -3.5 -7t-8.5 -3h-111q-10 0 -13 8z" />
    <glyph glyph-name="parenright" unicode=")" horiz-adv-x="302" 
d="M266 751q64 -128 64 -297q0 -52 -8 -119q-16 -130 -58.5 -236t-100.5 -182q-4 -8 -14 -8h-112q-6 0 -8.5 4t1.5 10q113 199 139 412q8 70 8 123q0 145 -46 287l-1 4q0 4 3.5 7t8.5 3h111q10 0 13 -8z" />
    <glyph glyph-name="asterisk" unicode="*" horiz-adv-x="351" 
d="M167 408l12 83q0 3 -2 4t-4 -1l-75 -42q-4 -2 -6 -2q-5 0 -9 7l-21 50q-1 2 -1 5q0 6 7 11l80 44q6 4 1 7l-69 43q-5 3 -5 8q0 4 3 8l33 53q4 5 8.5 6.5t8.5 -1.5l64 -44q2 -2 4 -1t2 4l9 84q1 5 5 8.5t9 3.5h54q5 0 8 -3.5t2 -8.5l-11 -84q-1 -3 1 -4t4 1l75 44q4 2 6 2
q6 0 9 -7l21 -53q1 -2 1 -5q0 -7 -7 -11l-79 -43q-5 -3 -1 -7l69 -44q7 -6 2 -16l-34 -53q-4 -5 -8.5 -6t-8.5 2l-64 44q-2 2 -3.5 1t-2.5 -4l-9 -83q-1 -5 -4.5 -8.5t-8.5 -3.5h-54q-11 0 -11 12z" />
    <glyph glyph-name="plus" unicode="+" horiz-adv-x="425" 
d="M424 360.5q3 -3.5 2 -8.5l-10 -82q-1 -5 -4.5 -8.5t-8.5 -3.5h-122q-5 0 -5 -5l-16 -125q-1 -5 -4.5 -8.5t-8.5 -3.5h-79q-5 0 -8.5 3.5t-2.5 8.5l16 125q0 5 -5 5h-121q-5 0 -8 3.5t-2 8.5l10 82q1 5 4.5 8.5t8.5 3.5h121q6 0 6 5l15 126q1 5 5 8.5t9 3.5h79q5 0 8 -3.5
t2 -8.5l-15 -126q-2 -5 4 -5h122q5 0 8 -3.5z" />
    <glyph glyph-name="comma" unicode="," horiz-adv-x="204" 
d="M1 -94.5q-3 3.5 -2 9.5l50 232q3 11 13 11h99q13 0 9 -13l-80 -232q-5 -11 -14 -11h-67q-5 0 -8 3.5z" />
    <glyph glyph-name="hyphen" unicode="-" horiz-adv-x="321" 
d="M36 238.5q-3 3.5 -2 8.5l12 97q1 5 4.5 8.5t8.5 3.5h251q11 0 11 -12l-12 -97q-1 -5 -4.5 -8.5t-8.5 -3.5h-252q-5 0 -8 3.5z" />
    <glyph glyph-name="period" unicode="." horiz-adv-x="217" 
d="M39 15.5q-19 19.5 -19 49.5q0 38 25.5 63.5t62.5 25.5q31 0 49.5 -18.5t18.5 -49.5q0 -38 -26 -64t-62 -26q-30 0 -49 19.5z" />
    <glyph glyph-name="slash" unicode="/" horiz-adv-x="403" 
d="M-0.5 3.5q-2.5 3.5 0.5 10.5l295 676q5 10 14 10h114q6 0 8.5 -4t-0.5 -10l-296 -676q-5 -10 -14 -10h-113q-6 0 -8.5 3.5z" />
    <glyph glyph-name="zero" unicode="0" horiz-adv-x="439" 
d="M76 35q-45 46 -45 123q0 11 2 33l39 318q11 91 70.5 146.5t144.5 55.5q78 0 123 -45.5t45 -123.5q0 -11 -2 -33l-39 -318q-10 -91 -70 -146.5t-146 -55.5q-77 0 -122 46zM255 130q17 20 22 53l41 334q1 5 1 14q0 27 -12.5 43t-34.5 16q-24 0 -41 -20t-21 -53l-41 -334
q-1 -5 -1 -15q0 -26 12 -42t33 -16q25 0 42 20z" />
    <glyph glyph-name="one" unicode="1" horiz-adv-x="276" 
d="M178 700h117q11 0 11 -12l-83 -676q-1 -5 -4.5 -8.5t-8.5 -3.5h-114q-5 0 -8 3.5t-2 8.5l67 546q0 4 -4 4l-76 -9h-2q-10 0 -10 11l8 86q1 10 11 14l83 33q8 3 15 3z" />
    <glyph glyph-name="two" unicode="2" horiz-adv-x="425" 
d="M186 123q1 -2 3 -2h203q5 0 8 -3.5t2 -8.5l-12 -97q0 -5 -4 -8.5t-9 -3.5h-359q-5 0 -8 3.5t-2 8.5l13 101q0 8 6 15q31 37 63 72q101 115 143 171q71 98 71 162q0 26 -11 40t-30 14q-23 0 -38.5 -18.5t-17.5 -47.5l-5 -41q-1 -5 -5 -8.5t-9 -3.5h-115q-5 0 -8 3.5
t-2 8.5l6 47q14 82 73 131.5t142 49.5q73 0 116.5 -44t43.5 -118q0 -9 -2 -31q-7 -52 -29 -98.5t-64 -101.5q-46 -58 -111 -130q-12 -15 -25 -29t-26 -29q-2 -2 -1 -4z" />
    <glyph glyph-name="three" unicode="3" horiz-adv-x="423" 
d="M400 222q-7 -48 -13 -75q-17 -72 -68.5 -113.5t-128.5 -41.5q-80 0 -125 44t-40 117q0 18 4 58q2 12 13 12h113q13 0 11 -12q-3 -22 -3 -43q0 -26 11 -40.5t31 -14.5q19 0 33.5 14t21.5 38q3 15 12 72q5 47 4 74q-1 22 -12 35t-29 13q-15 0 -31 -13q-6 -4 -8 -4
q-5 0 -8 5l-51 61q-2 2 -2 7q0 6 4 10l135 149q4 6 -2 6h-175q-5 0 -8 3.5t-2 8.5l12 96q1 5 4.5 8.5t8.5 3.5h334q5 0 8 -3.5t2 -8.5l-12 -100q-1 -7 -7 -15l-126 -141q-4 -6 1 -6q42 -4 67 -40t25 -90q0 -39 -4 -74z" />
    <glyph glyph-name="four" unicode="4" horiz-adv-x="469" 
d="M470 300.5q3 -3.5 2 -8.5l-12 -103q-1 -5 -4.5 -8.5t-8.5 -3.5h-30q-6 0 -6 -5l-20 -160q0 -5 -4 -8.5t-9 -3.5h-113q-5 0 -8 3.5t-2 8.5l19 160q2 5 -4 5h-242q-11 0 -11 12l10 82l4 15l179 404q5 10 14 10h123q6 0 8.5 -3.5t-0.5 -10.5l-163 -376q-1 -6 3 -6h91
q5 0 5 5l13 104q1 5 4.5 8.5t8.5 3.5h113q5 0 8.5 -3.5t2.5 -8.5l-13 -104q0 -5 4 -5h30q5 0 8 -3.5z" />
    <glyph glyph-name="five" unicode="5" horiz-adv-x="426" 
d="M414 253.5q-1 -18.5 -3 -35.5q-5 -40 -11 -63q-13 -77 -67 -120t-137 -43q-78 0 -120.5 40t-42.5 119l1 28q2 12 13 12h113q11 0 11 -12v-16q3 -50 40 -50q19 0 33 13.5t21 37.5q6 26 9 55q3 19 3 51q-3 47 -41 47t-52 -35q-5 -11 -14 -11h-114q-11 0 -11 12l50 405
q1 5 4.5 8.5t8.5 3.5h343q5 0 8 -3.5t2 -8.5l-12 -97q-1 -5 -4.5 -8.5t-8.5 -3.5h-213q-5 0 -5 -5l-21 -168q0 -3 1.5 -4t4.5 2q18 17 41.5 26t48.5 9q62 0 94.5 -42t27.5 -117q0 -8 -1 -26.5z" />
    <glyph glyph-name="six" unicode="6" horiz-adv-x="427" 
d="M412 218l-9 -60q-13 -79 -67.5 -122.5t-137.5 -43.5q-78 0 -121 40t-42 119q-2 25 3 55l38 323q10 82 66.5 130.5t141.5 48.5q72 0 115 -40.5t43 -109.5q0 -9 -2 -29l-3 -30q-1 -5 -4.5 -8.5t-8.5 -3.5h-114q-5 0 -8 3.5t-2 8.5l3 22q3 27 -7.5 45t-26.5 18
q-22 0 -37.5 -17.5t-19.5 -45.5l-12 -101q-1 -3 1 -3.5t5 1.5q35 28 76 28q63 0 98.5 -40t35.5 -108q0 -14 -1 -21q1 -17 -3 -59zM274 228q4 30 4 62q0 23 -10 36t-28 13q-20 0 -34 -13.5t-19 -37.5q-9 -49 -11 -60q-2 -20 -4 -62q-1 -26 9.5 -40t30.5 -14q19 0 33 15t20 42
q7 42 9 59z" />
    <glyph glyph-name="seven" unicode="7" horiz-adv-x="395" 
d="M63 4q-2 4 0 10l227 559q2 6 -4 6h-106q-4 0 -6 -5l-4 -35q-1 -5 -4.5 -8.5t-8.5 -3.5h-87q-11 0 -11 12l20 149q1 5 4.5 8.5t8.5 3.5h348q5 0 8 -3.5t2 -8.5l-12 -102q-2 -8 -4 -14l-229 -562q-5 -10 -14 -10h-120q-6 0 -8 4z" />
    <glyph glyph-name="eight" unicode="8" horiz-adv-x="427" 
d="M355 362q30 -21 41 -59q9 -28 9 -65q0 -23 -2 -36q-5 -44 -27 -92q-27 -55 -75 -86.5t-108 -31.5t-100 31t-54 87q-7 24 -7 53q0 20 3 39q6 55 29 98q18 37 57 61q6 3 1 6q-31 23 -41 60q-9 29 -9 61q0 21 2 32q6 55 29 93q26 47 73.5 73.5t105.5 26.5q56 0 96.5 -25.5
t55.5 -73.5q10 -26 10 -62q0 -10 -2 -32q-5 -48 -30 -92q-20 -37 -56 -59q-5 -4 -1 -7zM207 507q-1 -7 -1 -19q0 -11 2 -27q1 -20 11 -32t26 -12q17 0 30 12t19 33q9 19 12 44q1 6 1 17q0 15 -3 27q-2 19 -12 30.5t-25 11.5q-17 0 -29.5 -11.5t-19.5 -32.5q-8 -16 -11 -41z
M269 211q2 11 2 30q0 15 -1 22q-2 22 -12 34.5t-26 12.5q-17 0 -30.5 -13t-20.5 -36q-8 -27 -10 -48q-3 -28 -2 -48q1 -24 11 -38t28 -14t32 14.5t20 39.5q6 19 9 44z" />
    <glyph glyph-name="nine" unicode="9" horiz-adv-x="422" 
d="M326.5 40.5q-56.5 -48.5 -141.5 -48.5q-72 0 -115 40.5t-43 109.5q0 9 2 29l3 30q1 5 5 8.5t9 3.5h113q5 0 8 -3.5t2 -8.5l-2 -22q-1 -5 -1 -13q0 -22 10 -36t24 -14q22 0 37 17.5t19 45.5l12 100q1 3 -1 3.5t-5 -1.5q-34 -27 -75 -27q-63 0 -99 40.5t-36 109.5l1 19
q0 17 4 59q6 39 10 60q12 78 67 122t137 44q77 0 120 -38.5t43 -115.5q0 -38 -3 -60l-38 -323q-10 -82 -66.5 -130.5zM292 472q4 32 5 62q1 26 -9.5 40t-30.5 14q-19 0 -33 -15t-20 -42q-5 -23 -9 -59q-4 -28 -5 -62q1 -23 11 -36t29 -13t32.5 13.5t19.5 37.5q4 16 10 60z
" />
    <glyph glyph-name="colon" unicode=":" horiz-adv-x="267" 
d="M106 348.5q-19 19.5 -19 49.5q0 38 25.5 63.5t62.5 25.5q31 0 49.5 -18.5t18.5 -49.5q0 -38 -26 -64t-62 -26q-30 0 -49 19.5zM66 20.5q-19 19.5 -19 49.5q0 38 25.5 63.5t62.5 25.5q31 0 49.5 -18.5t18.5 -49.5q0 -38 -26 -64t-62 -26q-30 0 -49 19.5z" />
    <glyph glyph-name="semicolon" unicode=";" horiz-adv-x="225" 
d="M79 334q-20 21 -20 54q0 26 14 48.5t36 36t44 13.5q30 0 51.5 -22t21.5 -54q0 -39 -28 -68t-66 -29q-33 0 -53 21zM7 -85l45 229q1 5 5 8.5t9 3.5h99q12 0 8 -13l-75 -229q-3 -11 -14 -11h-68q-12 0 -9 12z" />
    <glyph glyph-name="less" unicode="&#x3c;" horiz-adv-x="425" 
d="M385.5 54q-4.5 -3 -9.5 0l-336 170q-8 5 -7 14l13 101q0 9 10 14l378 170q2 1 5 1q9 0 7 -11l-13 -109q-2 -9 -11 -14l-245 -98q-6 -3 0 -6l220 -99q9 -4 7 -14l-13 -109q-1 -7 -5.5 -10z" />
    <glyph glyph-name="equal" unicode="=" horiz-adv-x="425" 
d="M51 357.5q-3 3.5 -2 8.5l10 82q1 5 4.5 8.5t8.5 3.5h356q5 0 8 -3.5t2 -8.5l-10 -82q-1 -5 -4.5 -8.5t-8.5 -3.5h-356q-5 0 -8 3.5zM28 173.5q-3 3.5 -2 8.5l10 82q1 5 4.5 8.5t8.5 3.5h356q5 0 8 -3.5t2 -8.5l-10 -82q-1 -5 -4.5 -8.5t-8.5 -3.5h-356q-5 0 -8 3.5z" />
    <glyph glyph-name="greater" unicode="&#x3e;" horiz-adv-x="425" 
d="M19 53q-9 0 -7 11l13 109q2 10 11 14l245 99q6 3 0 6l-221 98q-7 4 -7 14l14 109q1 7 5 10t10 0l336 -170q8 -5 7 -14l-13 -101q0 -9 -10 -14l-378 -170q-2 -1 -5 -1z" />
    <glyph glyph-name="question" unicode="?" horiz-adv-x="424" 
d="M142 225.5q-3 3.5 -2 8.5l4 32q6 50 30 80.5t66 63.5q37 30 55 54t18 60q0 26 -12.5 41.5t-34.5 15.5q-28 0 -47 -21t-23 -54l-2 -16q-1 -11 -13 -11l-113 5q-5 0 -8 3.5t-2 8.5l1 10q7 60 38.5 106.5t80 72t107.5 25.5q78 0 122.5 -44t44.5 -119q0 -10 -2 -32
q-5 -44 -21 -75.5t-35.5 -51t-49.5 -44.5q-32 -26 -47 -43.5t-18 -43.5l-3 -23q-1 -5 -4.5 -8.5t-8.5 -3.5h-113q-5 0 -8 3.5zM130.5 17q-18.5 19 -18.5 49q0 38 25 63.5t61 25.5q31 0 50 -18.5t19 -49.5q0 -38 -26 -63.5t-62 -25.5q-30 0 -48.5 19z" />
    <glyph glyph-name="at" unicode="@" horiz-adv-x="737" 
d="M610.5 624q59.5 -31 92 -87.5t32.5 -131.5q0 -43 -12 -93q-25 -99 -83 -154.5t-134 -55.5q-65 0 -95 41q-3 3 -7 -1q-17 -21 -40 -30t-43 -9q-47 0 -71 27t-24 66q0 7 2 23q3 17 16 73q9 42 16 60q16 61 47.5 89.5t80.5 28.5q12 0 26 -5t23 -17q7 -5 7 2l1 3q3 11 14 11
h68q13 0 9 -13l-43 -175q-4 -17 -4 -33q0 -25 11.5 -37.5t30.5 -12.5q32 0 56 33.5t39 88.5q10 37 10 74q0 82 -49.5 130t-133.5 48q-68 0 -132 -36.5t-111 -101t-67 -146.5q-10 -43 -10 -81q0 -60 24 -102t63.5 -63t85.5 -21q64 0 126 40q5 3 7 3q5 0 8 -6l25 -55
q2 -4 2 -6q0 -7 -7 -11q-87 -55 -188 -55q-71 0 -126 30.5t-86 88t-31 134.5q0 53 14 108q25 106 89.5 190t152.5 131t181 47q78 0 137.5 -31zM371.5 192q11.5 11 16.5 30q5 23 16 64q5 29 15 61q2 10 2 13q0 13 -7 20.5t-19 7.5q-16 0 -28 -11.5t-17 -29.5q-12 -46 -16 -64
q-4 -17 -5 -22q-9 -37 -10 -39q-1 -5 -1 -13q0 -13 6.5 -20.5t19.5 -7.5q16 0 27.5 11z" />
    <glyph glyph-name="A" unicode="A" horiz-adv-x="468" 
d="M297 11l-4 96q1 2 -1 3.5t-4 1.5h-123q-6 0 -6 -5l-28 -96q-3 -11 -14 -11h-113q-12 0 -8 13l225 676q3 11 14 11h131q10 0 12 -11l58 -676v-3q0 -10 -11 -10h-117q-11 0 -11 11zM196 221h87q5 0 5 5l-12 273q-1 3 -3 3t-3 -3l-77 -273q-2 -5 3 -5z" />
    <glyph glyph-name="B" unicode="B" horiz-adv-x="456" 
d="M366.5 51q-60.5 -51 -148.5 -51h-183q-5 0 -8 3.5t-2 8.5l83 676q1 5 4.5 8.5t8.5 3.5h162q88 0 136.5 -39.5t48.5 -117.5q0 -10 -2 -34q-12 -98 -84 -144q-4 -3 -1 -6q58 -46 58 -131q0 -9 -2 -31q-10 -95 -70.5 -146zM231 574l-20 -157q0 -5 4 -5h35q38 0 59.5 27
t21.5 75q0 32 -15.5 48.5t-44.5 16.5h-35q-5 0 -5 -5zM276 146q21 24 27 68q1 7 1 21q0 35 -15 55t-42 20h-44q-4 0 -6 -5l-21 -178q-2 -5 4 -5h43q32 0 53 24z" />
    <glyph glyph-name="C" unicode="C" horiz-adv-x="450" 
d="M81 36.5q-46 44.5 -46 120.5q0 10 2 32l40 324q10 89 69.5 142t147.5 53q80 0 126 -44.5t46 -120.5q0 -10 -2 -30l-2 -11q-1 -5 -4.5 -8.5t-8.5 -3.5l-114 -5q-11 0 -10 11l3 26q1 4 1 12q0 24 -13.5 38.5t-36.5 14.5q-25 0 -43 -18t-22 -47l-42 -345q-1 -4 -1 -11
q0 -24 13.5 -38.5t35.5 -14.5q26 0 44 17.5t22 46.5l3 27q1 5 4.5 8.5t8.5 3.5l113 -5q5 0 8 -3.5t2 -8.5l-1 -10q-11 -90 -71 -143.5t-147 -53.5q-79 0 -125 44.5z" />
    <glyph glyph-name="D" unicode="D" horiz-adv-x="462" 
d="M27 3.5q-3 3.5 -2 8.5l83 676q1 5 4.5 8.5t8.5 3.5h175q81 0 127.5 -44.5t46.5 -119.5q0 -10 -2 -30l-39 -312q-11 -88 -70.5 -141t-148.5 -53h-175q-5 0 -8 3.5zM180 121l44 1q26 1 45.5 23t24.5 58l36 294q1 6 1 17q0 30 -13.5 47.5t-38.5 17.5h-43q-5 0 -5 -5
l-55 -448q-2 -5 4 -5z" />
    <glyph glyph-name="E" unicode="E" horiz-adv-x="425" 
d="M447.5 582.5q-3.5 -3.5 -8.5 -3.5h-203q-5 0 -5 -5l-20 -158q0 -5 4 -5h117q5 0 8 -3.5t2 -8.5l-12 -97q-1 -5 -4.5 -8.5t-8.5 -3.5h-116q-6 0 -6 -5l-19 -159q-2 -5 4 -5h202q5 0 8.5 -3.5t2.5 -8.5l-12 -97q-1 -5 -4.5 -8.5t-8.5 -3.5h-333q-5 0 -8 3.5t-2 8.5l83 676
q1 5 4.5 8.5t8.5 3.5h333q5 0 8 -3.5t2 -8.5l-12 -97q-1 -5 -4.5 -8.5z" />
    <glyph glyph-name="F" unicode="F" horiz-adv-x="408" 
d="M446.5 582.5q-3.5 -3.5 -8.5 -3.5h-202q-5 0 -5 -5l-20 -158q0 -5 4 -5h116q5 0 8 -3.5t2 -8.5l-12 -97q-1 -5 -4.5 -8.5t-8.5 -3.5h-115q-6 0 -6 -5l-33 -273q-1 -5 -5 -8.5t-9 -3.5h-113q-5 0 -8 3.5t-2 8.5l83 676q1 5 4.5 8.5t8.5 3.5h332q5 0 8 -3.5t2 -8.5l-12 -97
q-1 -5 -4.5 -8.5z" />
    <glyph glyph-name="G" unicode="G" horiz-adv-x="453" 
d="M80 35q-46 43 -46 117q0 9 2 29l41 338q10 86 69.5 137.5t147.5 51.5q79 0 125.5 -43.5t46.5 -117.5q0 -9 -2 -29l-4 -38q-1 -5 -5 -8.5t-9 -3.5h-113q-5 0 -8 3.5t-2 8.5l5 40q1 4 1 12q0 25 -13.5 40t-36.5 15q-25 0 -43 -18.5t-22 -48.5l-42 -340q-3 -30 10 -48.5
t38 -18.5q26 0 44 18.5t22 48.5l10 80q0 5 -4 5h-43q-5 0 -8 3.5t-2 8.5l11 89q0 5 4 8.5t9 3.5h172q11 0 11 -12l-23 -185q-10 -86 -70 -137.5t-147 -51.5q-80 0 -126 43z" />
    <glyph glyph-name="H" unicode="H" horiz-adv-x="466" 
d="M355.5 696.5q3.5 3.5 8.5 3.5h114q5 0 8 -3.5t2 -8.5l-83 -676q-1 -5 -4.5 -8.5t-8.5 -3.5h-114q-5 0 -8 3.5t-2 8.5l34 273q0 5 -4 5h-97q-6 0 -6 -5l-33 -273q-1 -5 -5 -8.5t-9 -3.5h-113q-5 0 -8 3.5t-2 8.5l83 676q1 5 4.5 8.5t8.5 3.5h113q11 0 11 -12l-34 -272
q0 -5 4 -5h97q4 0 6 5l33 272q1 5 4.5 8.5z" />
    <glyph glyph-name="I" unicode="I" horiz-adv-x="223" 
d="M27 3.5q-3 3.5 -2 8.5l83 676q1 5 4.5 8.5t8.5 3.5h113q11 0 11 -12l-83 -676q-1 -5 -5 -8.5t-9 -3.5h-113q-5 0 -8 3.5z" />
    <glyph glyph-name="J" unicode="J" horiz-adv-x="439" 
d="M59.5 35q-45.5 43 -45.5 116q0 9 2 29l9 69q1 5 4.5 8.5t8.5 3.5h113q11 0 11 -12l-9 -71q-1 -4 -1 -13q0 -23 12.5 -37.5t33.5 -14.5q25 0 42.5 18t20.5 47l63 510q1 5 4.5 8.5t8.5 3.5h114q5 0 8 -3.5t2 -8.5l-63 -508q-10 -85 -69.5 -136.5t-145.5 -51.5
q-78 0 -123.5 43z" />
    <glyph glyph-name="K" unicode="K" horiz-adv-x="476" 
d="M27 3.5q-3 3.5 -2 8.5l83 676q1 5 4.5 8.5t8.5 3.5h113q11 0 11 -12l-31 -252q-1 -4 1.5 -4.5t3.5 3.5l157 256q5 9 15 9h120q7 0 9 -3.5t-2 -10.5l-179 -288q-1 -1 -1.5 -2.5t-0.5 -3.5l106 -378l1 -4q0 -10 -11 -10h-122q-10 0 -12 9l-69 262q0 3 -2.5 2.5t-4.5 -2.5
l-34 -52q-1 -1 -2 -2.5t-1 -3.5l-24 -201q-1 -5 -5 -8.5t-9 -3.5h-113q-5 0 -8 3.5z" />
    <glyph glyph-name="L" unicode="L" horiz-adv-x="413" 
d="M27 3.5q-3 3.5 -2 8.5l83 676q1 5 4.5 8.5t8.5 3.5h113q11 0 11 -12l-69 -562q-2 -5 4 -5h203q11 0 11 -12l-12 -97q-1 -5 -4.5 -8.5t-8.5 -3.5h-334q-5 0 -8 3.5z" />
    <glyph glyph-name="M" unicode="M" horiz-adv-x="531" 
d="M434 700h113q5 0 8 -3.5t2 -8.5l-83 -676q-1 -5 -4.5 -8.5t-8.5 -3.5h-114q-5 0 -8 3.5t-2 8.5l55 449q1 4 -1 4t-4 -3l-93 -138q-6 -8 -9 -8q-2 0 -7 8l-58 138q-2 3 -4 3t-2 -4l-55 -449q-1 -5 -4.5 -8.5t-8.5 -3.5h-114q-5 0 -8 3.5t-2 8.5l83 676q1 5 4.5 8.5
t8.5 3.5h112q4 0 8 -2t5 -6l67 -159q2 -4 6 0l103 159q4 8 15 8z" />
    <glyph glyph-name="N" unicode="N" horiz-adv-x="499" 
d="M389.5 696.5q3.5 3.5 8.5 3.5h113q5 0 8 -3.5t2 -8.5l-83 -676q-1 -5 -4.5 -8.5t-8.5 -3.5h-128q-9 0 -12 10l-72 387q-1 3 -3.5 2.5t-2.5 -3.5l-46 -384q-1 -5 -5 -8.5t-9 -3.5h-112q-5 0 -8 3.5t-2 8.5l83 676q1 5 4.5 8.5t8.5 3.5h127q9 0 11 -10l74 -387
q1 -3 3.5 -2.5t2.5 3.5l46 384q1 5 4.5 8.5z" />
    <glyph glyph-name="O" unicode="O" horiz-adv-x="458" 
d="M81.5 36.5q-46.5 44.5 -46.5 121.5q0 10 2 32l39 320q11 90 71 144t149 54q81 0 128 -44.5t47 -121.5q0 -10 -2 -32l-39 -320q-11 -90 -71.5 -144t-149.5 -54q-81 0 -127.5 44.5zM269.5 132.5q18.5 19.5 22.5 51.5l41 332q1 4 1 12q0 27 -14 43t-38 16q-27 0 -45.5 -19.5
t-22.5 -51.5l-41 -332q-1 -4 -1 -12q0 -27 14 -43t37 -16q28 0 46.5 19.5z" />
    <glyph glyph-name="P" unicode="P" horiz-adv-x="451" 
d="M431.5 653q42.5 -48 42.5 -127q0 -25 -2 -38q-11 -93 -66.5 -149t-134.5 -56h-72q-4 0 -6 -5l-32 -266q-1 -5 -5 -8.5t-9 -3.5h-113q-5 0 -8 3.5t-2 8.5l83 677q1 5 4.5 8.5t8.5 3.5h196q73 0 115.5 -48zM313 423q23 30 23 82q0 35 -15.5 54.5t-42.5 19.5h-43q-5 0 -5 -5
l-22 -176q0 -5 4 -5h43q35 0 58 30z" />
    <glyph glyph-name="Q" unicode="Q" horiz-adv-x="447" 
d="M414 661.5q45 -46.5 45 -124.5q0 -10 -2 -34l-38 -306q-9 -70 -46.5 -121t-95.5 -72q-4 -1 -5 -5l-10 -85q-1 -5 -4.5 -8.5t-8.5 -3.5h-114q-5 0 -8 3.5t-2 8.5l11 85q0 4 -4 5q-45 18 -70.5 60t-25.5 99q0 22 2 34l37 306q11 92 70.5 148.5t145.5 56.5q78 0 123 -46.5z
M173 182q-1 -5 -1 -13q0 -26 12.5 -41t33.5 -15q25 0 41.5 19t20.5 50l42 336q1 5 1 13q0 26 -12.5 41t-34.5 15q-24 0 -41 -19t-21 -50z" />
    <glyph glyph-name="R" unicode="R" horiz-adv-x="457" 
d="M279 10l-41 276q-2 4 -5 4h-32q-6 0 -6 -5l-33 -273q-1 -5 -5 -8.5t-9 -3.5h-113q-5 0 -8 3.5t-2 8.5l83 676q1 5 4.5 8.5t8.5 3.5h196q72 0 115 -47.5t43 -126.5q0 -24 -2 -37q-7 -58 -34.5 -103.5t-69.5 -70.5q-2 -1 -3 -2.5t0 -3.5l53 -295v-2q0 -5 -3.5 -8.5
t-8.5 -3.5h-116q-10 0 -12 10zM231 574l-21 -171q-2 -5 4 -5h43q34 0 57 30t23 79q0 33 -15.5 52.5t-41.5 19.5h-44q-5 0 -5 -5z" />
    <glyph glyph-name="S" unicode="S" horiz-adv-x="431" 
d="M74.5 35q-45.5 43 -45.5 113q0 9 2 27l4 29q1 5 4.5 8.5t8.5 3.5h111q11 0 11 -12l-3 -22q-1 -4 -1 -12q0 -26 13 -41.5t34 -15.5q26 0 44.5 21.5t18.5 53.5q0 26 -17 46t-65 59q-40 32 -65 57.5t-42.5 61t-17.5 81.5q0 63 27.5 112t76 76t108.5 27q77 0 122.5 -44.5
t45.5 -118.5q0 -9 -2 -29l-3 -24q-1 -5 -5 -8.5t-9 -3.5h-111q-5 0 -8 3.5t-2 8.5l3 27q1 4 1 13q0 25 -12.5 40t-34.5 15q-26 0 -43.5 -21.5t-17.5 -57.5q0 -24 16.5 -45.5t60.5 -58.5q50 -42 75.5 -67.5t40.5 -55.5t15 -69q0 -8 -2 -28q-11 -88 -70 -140t-144 -52
q-77 0 -122.5 43z" />
    <glyph glyph-name="T" unicode="T" horiz-adv-x="454" 
d="M494 696.5q3 -3.5 2 -8.5l-12 -97q-1 -5 -4.5 -8.5t-8.5 -3.5h-122q-2 0 -3.5 -1.5t-1.5 -3.5l-69 -562q-1 -5 -4.5 -8.5t-8.5 -3.5h-114q-5 0 -8 3.5t-2 8.5l69 562q2 5 -4 5h-116q-11 0 -11 12l12 97q1 5 4.5 8.5t8.5 3.5h385q5 0 8 -3.5z" />
    <glyph glyph-name="U" unicode="U" horiz-adv-x="465" 
d="M88.5 38.5q-45.5 46.5 -45.5 124.5q0 24 2 36l60 489q1 5 4.5 8.5t8.5 3.5h113q11 0 11 -12l-62 -503q-1 -5 -1 -14q0 -26 13 -42t35 -16q25 0 42.5 20t21.5 52l62 503q1 5 4.5 8.5t8.5 3.5h114q5 0 8 -3.5t2 -8.5l-60 -489q-11 -94 -71 -150.5t-147 -56.5
q-78 0 -123.5 46.5z" />
    <glyph glyph-name="V" unicode="V" horiz-adv-x="474" 
d="M143 11l-56 676v2q0 11 12 11h125q11 0 11 -11l13 -440q0 -4 2.5 -4t3.5 4l119 440q3 11 14 11h121q12 0 8 -13l-223 -676q-3 -11 -14 -11h-125q-11 0 -11 11z" />
    <glyph glyph-name="W" unicode="W" horiz-adv-x="668" 
d="M133 11l-48 676v2q0 11 12 11h118q11 0 11 -11l11 -360q1 -4 3 -4t3 4l97 360q3 11 14 11h98q11 0 11 -11l13 -360q0 -4 2.5 -4t3.5 4l93 360q3 11 14 11h115q12 0 9 -13l-206 -676q-3 -11 -14 -11h-105q-11 0 -11 11l-12 370q0 4 -2 4t-4 -4l-97 -370q-3 -11 -14 -11
h-103q-12 0 -12 11z" />
    <glyph glyph-name="X" unicode="X" horiz-adv-x="461" 
d="M6.5 4q-1.5 4 1.5 10l172 333q2 3 1 6l-91 333l-1 4q0 10 11 10h117q9 0 11 -10l42 -192q0 -3 2.5 -3t3.5 3l88 192q5 10 14 10h115q7 0 8.5 -4t-1.5 -10l-172 -333q-2 -3 -1 -6l91 -333l1 -4q0 -4 -3.5 -7t-8.5 -3h-115q-9 0 -11 10l-42 191q0 3 -2 3t-4 -3l-89 -191
q-5 -10 -14 -10h-115q-7 0 -8.5 4z" />
    <glyph glyph-name="Y" unicode="Y" horiz-adv-x="460" 
d="M145 4.5q-3 3.5 -2 8.5l32 260q0 1 0.5 2.5t-0.5 3.5l-86 407v3q0 5 3 8t8 3h120q11 0 12 -10l31 -239q0 -3 2.5 -3t3.5 3l89 239q4 10 15 10h119q6 0 8.5 -3.5t-0.5 -10.5l-186 -407q-2 -3 -2 -6l-32 -260q-1 -5 -4.5 -8.5t-8.5 -3.5h-114q-5 0 -8 3.5z" />
    <glyph glyph-name="Z" unicode="Z" horiz-adv-x="400" 
d="M1 12l13 101q0 7 5 15l262 445q3 6 -3 6h-195q-5 0 -8 3.5t-2 8.5l11 97q1 5 5 8.5t9 3.5h333q5 0 8 -3.5t2 -8.5l-12 -101q-2 -10 -5 -15l-262 -445q-3 -6 3 -6h195q5 0 8 -3.5t2 -8.5l-12 -97q0 -5 -4 -8.5t-9 -3.5h-333q-11 0 -11 12z" />
    <glyph glyph-name="bracketleft" unicode="[" horiz-adv-x="334" 
d="M-7 -143.5q-3 3.5 -2 8.5l114 923q0 5 4 8.5t9 3.5h198q5 0 8 -3.5t2 -8.5l-12 -97q-1 -5 -4.5 -8.5t-8.5 -3.5h-68q-4 0 -6 -5l-85 -694q0 -5 4 -5h68q5 0 8 -3.5t2 -8.5l-12 -98q-1 -5 -4.5 -8.5t-8.5 -3.5h-198q-5 0 -8 3.5z" />
    <glyph glyph-name="backslash" unicode="\" horiz-adv-x="403" 
d="M368 10q0 -10 -11 -10h-114q-9 0 -11 10l-130 676v4q0 10 11 10h114q9 0 11 -10l130 -676v-4z" />
    <glyph glyph-name="bracketright" unicode="]" horiz-adv-x="334" 
d="M266 -143.5q-4 -3.5 -9 -3.5h-197q-11 0 -11 12l12 98q1 5 5 8.5t9 3.5h67q6 0 6 5l85 694q0 5 -4 5h-68q-5 0 -8 3.5t-2 8.5l12 97q1 5 4.5 8.5t8.5 3.5h198q5 0 8 -3.5t2 -8.5l-113 -923q-1 -5 -5 -8.5z" />
    <glyph glyph-name="asciicircum" unicode="^" horiz-adv-x="410" 
d="M45.5 301.5q-2.5 3.5 0.5 10.5l163 378q5 10 14 10h95q9 0 11 -10l73 -378v-3q0 -5 -3 -8t-8 -3h-92q-5 0 -8 3t-4 7l-33 230q0 3 -2 3t-4 -3l-89 -230q-5 -10 -15 -10h-90q-6 0 -8.5 3.5z" />
    <glyph glyph-name="underscore" unicode="_" horiz-adv-x="408" 
d="M-2 3.5q-3 3.5 -2 8.5l10 83q1 5 4.5 8.5t8.5 3.5h358q5 0 8 -3.5t2 -8.5l-10 -83q-1 -5 -4.5 -8.5t-8.5 -3.5h-358q-5 0 -8 3.5z" />
    <glyph glyph-name="grave" unicode="`" horiz-adv-x="213" 
d="M246 584q0 -8 -11 -8h-73q-7 0 -13 7l-61 102q-2 4 -2 7t3 5.5t8 2.5h90q9 0 13 -8l45 -102q1 -2 1 -6z" />
    <glyph glyph-name="a" unicode="a" horiz-adv-x="432" 
d="M304.5 510.5q3.5 3.5 8.5 3.5h114q5 0 8 -3.5t2 -8.5l-60 -490q-1 -5 -4.5 -8.5t-8.5 -3.5h-114q-5 0 -8 3.5t-2 8.5l4 28q0 4 -2 4t-4 -3q-36 -49 -96 -49q-58 0 -86 34t-28 95q0 25 2 39l24 194q10 82 48.5 125t104.5 43q60 0 84 -49q2 -3 3.5 -3t2.5 4l3 28
q1 5 4.5 8.5zM241.5 129q14.5 16 18.5 42l21 172q3 26 -8 42t-31 16t-34.5 -16t-17.5 -42l-22 -172q-3 -26 8 -42t31 -16t34.5 16z" />
    <glyph glyph-name="b" unicode="b" horiz-adv-x="432" 
d="M398.5 488.5q29.5 -33.5 29.5 -96.5q0 -25 -2 -38l-24 -194q-10 -79 -49.5 -123.5t-106.5 -44.5q-55 0 -82 38q-2 2 -4 1.5t-2 -3.5l-2 -16q-1 -5 -4.5 -8.5t-8.5 -3.5h-114q-5 0 -8 3.5t-2 8.5l83 676q1 5 4.5 8.5t8.5 3.5h114q5 0 8 -3.5t2 -8.5l-25 -203v-1l0.5 -0.5
l0.5 -0.5q4 0 9 5q36 34 87 34q58 0 87.5 -33.5zM280 385q-11 16 -31 16q-17 0 -31.5 -12t-19.5 -32l-24 -200q0 -20 11 -32t29 -12q20 0 34.5 16t17.5 41l22 174q3 25 -8 41z" />
    <glyph glyph-name="c" unicode="c" horiz-adv-x="421" 
d="M72 30q-43 38 -43 105q0 16 1 25l24 194q9 76 64 122t140 46q78 0 121.5 -38.5t43.5 -101.5q0 -15 -1 -22l-3 -18q-1 -5 -4.5 -8.5t-8.5 -3.5l-114 -5q-11 0 -10 12l1 12q3 22 -8.5 37t-31.5 15q-21 0 -35.5 -16t-17.5 -42l-22 -172q-3 -26 8 -42t32 -16q20 0 35 15.5
t18 36.5l1 13q1 5 5 8.5t9 3.5l113 -1q5 0 8 -3.5t2 -8.5l-3 -23q-9 -74 -63.5 -118t-139.5 -44q-78 0 -121 38z" />
    <glyph glyph-name="d" unicode="d" horiz-adv-x="432" 
d="M327.5 696.5q3.5 3.5 8.5 3.5h114q5 0 8 -3.5t2 -8.5l-83 -676q-1 -5 -4.5 -8.5t-8.5 -3.5h-114q-5 0 -8 3.5t-2 8.5l2 16q1 3 -1 3.5t-5 -1.5q-37 -38 -91 -38q-59 0 -88 34.5t-29 96.5q0 24 2 37l24 194q10 81 50 124.5t106 43.5q22 0 44 -8.5t38 -30.5q2 -2 4 -1.5
t2 3.5l25 203q1 5 4.5 8.5zM238.5 125q14.5 12 19.5 32l24 200q0 20 -11 32t-29 12q-20 0 -34.5 -16t-17.5 -41l-22 -174q-3 -25 8 -41t31 -16q17 0 31.5 12z" />
    <glyph glyph-name="e" unicode="e" horiz-adv-x="423" 
d="M400.5 216.5q-3.5 -3.5 -8.5 -3.5h-214q-2 0 -3.5 -1.5t-1.5 -3.5l-5 -37q-3 -25 8.5 -41.5t31.5 -16.5q18 0 31.5 12.5t19.5 31.5q4 10 14 10l111 -6q5 0 7.5 -3.5t1.5 -9.5q-16 -77 -66 -116.5t-134 -39.5q-79 0 -122 37t-43 104q0 9 2 27l24 194q9 76 64 122t140 46
q78 0 121.5 -38.5t43.5 -104.5q0 -7 -2 -25l-16 -129q-1 -5 -4.5 -8.5zM208 385q-15 -16 -18 -41l-5 -39q0 -5 4 -5h84q2 0 3.5 1.5t1.5 3.5l5 39q3 25 -8.5 41t-31.5 16t-35 -16z" />
    <glyph glyph-name="f" unicode="f" horiz-adv-x="289" 
d="M309 510.5q3 -3.5 2 -8.5l-9 -75q-1 -5 -4.5 -8.5t-8.5 -3.5h-54q-5 0 -5 -5l-49 -398q-1 -5 -4.5 -8.5t-8.5 -3.5h-113q-5 0 -8 3.5t-2 8.5l49 398q0 5 -4 5h-29q-11 0 -11 12l10 75q1 5 4.5 8.5t8.5 3.5h29q5 0 5 5l4 27q11 90 59.5 124.5t143.5 32.5h4q5 0 8 -3.5
t2 -8.5l-10 -80q-1 -5 -5 -8.5t-9 -3.5h-2q-49 -1 -57 -62l-2 -18q0 -5 4 -5h54q5 0 8 -3.5z" />
    <glyph glyph-name="g" unicode="g" horiz-adv-x="428" 
d="M305.5 510.5q3.5 3.5 8.5 3.5h114q5 0 8 -3.5t2 -8.5l-59 -478q-13 -111 -71 -171t-190 -60q-27 0 -41 1q-12 1 -10 13l12 98q2 13 13 11q57 -2 88.5 11.5t45 40.5t18.5 71q1 3 -1 3t-4 -3q-21 -24 -47 -33.5t-49 -9.5q-58 0 -86.5 33.5t-28.5 94.5q0 19 3 40l23 190
q10 81 49 124.5t105 43.5q60 0 84 -45q2 -3 4 -2t2 4l3 23q1 5 4.5 8.5zM243 134q15 16 18 41l21 169q3 25 -8.5 41t-31.5 16t-34.5 -16t-17.5 -41l-21 -169q-3 -26 7.5 -41.5t31.5 -15.5q20 0 35 16z" />
    <glyph glyph-name="h" unicode="h" horiz-adv-x="433" 
d="M398.5 488.5q28.5 -33.5 28.5 -96.5q0 -20 -3 -41l-41 -339q-1 -5 -4.5 -8.5t-8.5 -3.5h-114q-5 0 -8 3.5t-2 8.5l40 328q1 5 1 15q0 46 -37 46q-22 0 -36 -16.5t-18 -46.5l-40 -326q-1 -5 -4.5 -8.5t-8.5 -3.5h-114q-5 0 -8 3.5t-2 8.5l83 676q1 5 4.5 8.5t8.5 3.5h114
q5 0 8 -3.5t2 -8.5l-25 -205v-1q0 -2 2.5 -1.5t5.5 3.5q37 38 91 38q57 0 85.5 -33.5z" />
    <glyph glyph-name="i" unicode="i" horiz-adv-x="212" 
d="M108 591q-19 19 -19 48q0 40 25 65.5t62 25.5q31 0 49 -18t18 -48q0 -38 -25.5 -65t-60.5 -27q-30 0 -49 19zM23 3.5q-3 3.5 -2 8.5l60 490q1 5 4.5 8.5t8.5 3.5h114q5 0 8 -3.5t2 -8.5l-60 -490q-1 -5 -4.5 -8.5t-8.5 -3.5h-114q-5 0 -8 3.5z" />
    <glyph glyph-name="j" unicode="j" horiz-adv-x="210" 
d="M107 591q-19 19 -19 48q0 40 25 65.5t62 25.5q31 0 49.5 -18t18.5 -49q0 -38 -25.5 -64.5t-61.5 -26.5q-30 0 -49 19zM-97 -192l12 97q2 12 13 11q44 -1 64 20.5t25 63.5l62 502q1 5 4.5 8.5t8.5 3.5h114q5 0 8 -3.5t2 -8.5l-62 -502q-9 -75 -27.5 -117t-67.5 -65
t-146 -22q-12 0 -10 12z" />
    <glyph glyph-name="k" unicode="k" horiz-adv-x="436" 
d="M21 3.5q-3 3.5 -2 8.5l83 676q1 5 4.5 8.5t8.5 3.5h114q5 0 8 -3.5t2 -8.5l-41 -331q-1 -4 1.5 -4.5t4.5 2.5l103 151q4 8 15 8h117q6 0 8 -4t-2 -10l-126 -168q-2 -4 -2 -7l80 -311l1 -4q0 -10 -12 -10h-117q-9 0 -12 10l-37 198q-1 3 -3 3.5t-3 -2.5l-39 -52
q-2 -4 -2 -6l-17 -139q-1 -5 -4.5 -8.5t-8.5 -3.5h-114q-5 0 -8 3.5z" />
    <glyph glyph-name="l" unicode="l" horiz-adv-x="203" 
d="M17 3.5q-3 3.5 -2 8.5l83 676q1 5 4.5 8.5t8.5 3.5h114q5 0 8 -3.5t2 -8.5l-83 -676q-1 -5 -4.5 -8.5t-8.5 -3.5h-114q-5 0 -8 3.5z" />
    <glyph glyph-name="m" unicode="m" horiz-adv-x="655" 
d="M620 487.5q28 -34.5 28 -97.5q0 -20 -3 -43l-41 -335q-1 -5 -4.5 -8.5t-8.5 -3.5h-114q-5 0 -8 3.5t-2 8.5l40 326q1 5 1 15q0 23 -9.5 35.5t-26.5 12.5q-21 0 -35 -16.5t-18 -46.5l-40 -326q-1 -5 -4.5 -8.5t-8.5 -3.5h-113q-5 0 -8 3.5t-2 8.5l40 326q1 5 1 15
q0 23 -9.5 35.5t-26.5 12.5q-21 0 -35 -16.5t-18 -46.5l-40 -326q-1 -5 -4.5 -8.5t-8.5 -3.5h-114q-5 0 -8 3.5t-2 8.5l60 490q1 5 4.5 8.5t8.5 3.5h114q5 0 8 -3.5t2 -8.5l-2 -13q0 -7 6 -3q22 20 46 28t45 8q76 0 102 -62q0 -1 2 -1t7 6q24 32 54.5 44.5t59.5 12.5
q57 0 85 -34.5z" />
    <glyph glyph-name="n" unicode="n" horiz-adv-x="433" 
d="M398.5 488.5q28.5 -33.5 28.5 -96.5q0 -20 -3 -41l-41 -339q-1 -5 -4.5 -8.5t-8.5 -3.5h-114q-5 0 -8 3.5t-2 8.5l40 328q1 5 1 15q0 46 -37 46q-22 0 -36 -16.5t-18 -46.5l-40 -326q-1 -5 -4.5 -8.5t-8.5 -3.5h-114q-5 0 -8 3.5t-2 8.5l60 490q1 5 4.5 8.5t8.5 3.5h114
q5 0 8 -3.5t2 -8.5l-2 -19v-1q0 -2 2.5 -1.5t5.5 3.5q37 38 91 38q57 0 85.5 -33.5z" />
    <glyph glyph-name="o" unicode="o" horiz-adv-x="429" 
d="M72.5 30q-43.5 38 -43.5 105q0 16 1 25l24 194q9 76 64.5 122t140.5 46q79 0 123 -38.5t44 -104.5q0 -9 -2 -25l-24 -194q-10 -78 -64.5 -123t-141.5 -45q-78 0 -121.5 38zM245.5 130q15.5 16 18.5 41l22 173q3 25 -9 41t-33 16t-36 -16t-18 -41l-22 -173q-3 -25 8.5 -41
t32.5 -16t36.5 16z" />
    <glyph glyph-name="p" unicode="p" horiz-adv-x="435" 
d="M402.5 487.5q29.5 -34.5 29.5 -96.5q0 -23 -2 -36l-24 -195q-10 -81 -50 -124.5t-107 -43.5q-22 0 -44.5 8.5t-37.5 30.5q-2 3 -4 2t-2 -4l-25 -203q-1 -5 -4.5 -8.5t-8.5 -3.5h-114q-5 0 -8 3.5t-2 8.5l83 676q1 5 4.5 8.5t8.5 3.5h114q5 0 8 -3.5t2 -8.5l-2 -16v-1
l0.5 -0.5l0.5 -0.5q4 0 9 5q37 33 87 33q59 0 88.5 -34.5zM284 386q-11 16 -32 16q-20 0 -34.5 -16t-18.5 -42l-21 -173q-3 -26 7.5 -42t31.5 -16t35.5 16t17.5 42l22 173q3 26 -8 42z" />
    <glyph glyph-name="q" unicode="q" horiz-adv-x="435" 
d="M304.5 510.5q3.5 3.5 8.5 3.5h114q5 0 8 -3.5t2 -8.5l-83 -676q-1 -5 -4.5 -8.5t-8.5 -3.5h-114q-5 0 -8 3.5t-2 8.5l25 203q1 3 -1 3.5t-5 -1.5q-21 -22 -45 -30.5t-46 -8.5q-58 0 -87.5 33.5t-29.5 96.5q0 25 2 38l24 195q10 78 49.5 122.5t106.5 44.5q53 0 82 -37
q2 -2 4 -1.5t2 3.5l2 15q1 5 4.5 8.5zM238.5 125.5q14.5 12.5 19.5 32.5l24 199q0 20 -11 32.5t-29 12.5q-20 0 -34.5 -16t-17.5 -42l-22 -173q-3 -26 8 -42t31 -16q17 0 31.5 12.5z" />
    <glyph glyph-name="r" unicode="r" horiz-adv-x="315" 
d="M344 510q7 -6 4 -15l-33 -117q-2 -11 -15 -8q-9 4 -25 4q-15 0 -26 -4q-23 -4 -39 -27.5t-20 -54.5l-34 -275q-1 -5 -4.5 -8.5t-8.5 -3.5h-114q-5 0 -8 3.5t-2 8.5l60 489q1 5 4.5 8.5t8.5 3.5h114q5 0 8 -3.5t2 -8.5l-5 -39q-1 -4 1 -4.5t4 2.5q32 59 88 59q27 0 40 -10
z" />
    <glyph glyph-name="s" unicode="s" horiz-adv-x="399" 
d="M63.5 27.5q-43.5 34.5 -43.5 94.5q0 13 1 20l1 7q1 5 4.5 8.5t8.5 3.5h107q5 0 8 -3.5t2 -8.5v-3q-3 -21 10 -34.5t34 -13.5t34 13.5t13 33.5q0 19 -17 30.5t-38 19.5t-28 11q-46 18 -77 49t-31 87q0 14 1 22q9 73 61 115t129 42q74 0 115.5 -37t41.5 -101q0 -9 -2 -25
q-1 -5 -4.5 -8.5t-8.5 -3.5h-104q-5 0 -8 3.5t-2 8.5l1 8q2 20 -8.5 32.5t-29.5 12.5q-23 0 -36 -15.5t-13 -35.5q0 -22 17.5 -34t54.5 -27q56 -22 90.5 -51t34.5 -85q0 -78 -55.5 -124t-143.5 -46q-76 0 -119.5 34.5z" />
    <glyph glyph-name="t" unicode="t" horiz-adv-x="282" 
d="M292.5 418.5q-3.5 -3.5 -8.5 -3.5h-55q-2 0 -3.5 -1.5t-1.5 -3.5l-29 -238q-1 -5 -1 -14q0 -21 9.5 -29t27.5 -7h7q5 0 8 -3.5t2 -8.5l-12 -98q-1 -5 -4.5 -8.5t-8.5 -3.5h-39q-64 0 -97 19.5t-33 73.5q0 7 2 25l36 292q0 5 -4 5h-32q-5 0 -8 3.5t-2 8.5l9 75
q1 5 4.5 8.5t8.5 3.5h32q5 0 5 5l14 111q1 5 4.5 8.5t8.5 3.5h109q5 0 8 -3.5t2 -8.5l-14 -111q0 -5 5 -5h54q5 0 8 -3.5t2 -8.5l-9 -75q-1 -5 -4.5 -8.5z" />
    <glyph glyph-name="u" unicode="u" horiz-adv-x="433" 
d="M306.5 510.5q3.5 3.5 8.5 3.5h114q5 0 8 -3.5t2 -8.5l-60 -490q-1 -5 -4.5 -8.5t-8.5 -3.5h-114q-5 0 -8 3.5t-2 8.5l2 17q1 3 -1 4t-4 -2q-32 -38 -92 -38q-52 0 -85 29.5t-33 90.5q0 9 2 29l44 360q1 5 4.5 8.5t8.5 3.5h114q5 0 8 -3.5t2 -8.5l-40 -329q-1 -5 -1 -15
q0 -22 9.5 -33.5t27.5 -11.5q22 0 36 17t18 46l40 326q1 5 4.5 8.5z" />
    <glyph glyph-name="v" unicode="v" horiz-adv-x="422" 
d="M115 10l-57 492v2q0 11 12 11h125q11 0 11 -11l11 -275q1 -3 3 -3t3 3l78 275q1 11 13 11l125 -2q13 0 9 -13l-176 -490q-4 -10 -15 -10h-130q-11 0 -12 10z" />
    <glyph glyph-name="w" unicode="w" horiz-adv-x="595" 
d="M105 3q-3 3 -3 8l-44 491v2q0 11 12 11h108q11 0 11 -11l8 -274q0 -3 2.5 -3t3.5 3l76 274q3 11 14 11h96q11 0 11 -11l12 -275q1 -3 3 -2.5t3 3.5l75 274q3 11 14 11l106 -2q12 0 8 -13l-164 -489q-3 -11 -14 -11h-110q-12 0 -12 11l-10 254q-1 3 -2.5 3t-3.5 -3
l-71 -254q-3 -11 -14 -11h-107q-5 0 -8 3z" />
    <glyph glyph-name="x" unicode="x" horiz-adv-x="426" 
d="M-3 3.5q-2 3.5 2 10.5l140 240l1 6l-82 240l-1 4q0 10 12 10h124q10 0 13 -9l33 -113q3 -6 6 0l61 113q5 9 15 9h123q7 0 9 -3.5t-2 -10.5l-140 -240q-1 -3 0 -6l81 -240l1 -4q0 -10 -12 -10h-123q-10 0 -12 9l-34 117q-2 8 -5 0l-62 -117q-4 -9 -15 -9h-124q-7 0 -9 3.5
z" />
    <glyph glyph-name="y" unicode="y" horiz-adv-x="410" 
d="M-10.5 -195.5q-1.5 3.5 -0.5 8.5l11 92q2 12 10 12q50 1 73.5 16.5t32.5 63.5v6l-61 499v2q0 11 12 11h122q12 0 12 -11l8 -297q0 -4 2.5 -4t3.5 4l79 297q3 11 14 11l122 -2q6 0 8.5 -3.5t0.5 -9.5l-192 -519q-28 -73 -54.5 -109.5t-71 -53.5t-123.5 -17h-5
q-2 0 -3.5 3.5z" />
    <glyph glyph-name="z" unicode="z" horiz-adv-x="362" 
d="M2 3.5q-3 3.5 -2 8.5l13 108q0 8 6 15l181 246q3 6 -2 6h-135q-5 0 -8 3.5t-2 8.5l13 103q0 5 4 8.5t9 3.5h292q5 0 8 -3.5t2 -8.5l-13 -107q-1 -7 -6 -15l-187 -246q-4 -6 2 -6h152q5 0 8 -3.5t2 -8.5l-13 -104q0 -5 -4 -8.5t-9 -3.5h-303q-5 0 -8 3.5z" />
    <glyph glyph-name="braceleft" unicode="{" horiz-adv-x="334" 
d="M97.5 -121q-27.5 26 -27.5 74q0 8 2 24l25 207q2 18 2 24q0 59 -46 65q-12 1 -10 13l11 87q0 5 3.5 8.5t8.5 4.5q57 7 67 88l25 203q7 58 42.5 90.5t92.5 32.5h81q5 0 8 -3.5t2 -8.5l-12 -97q-1 -5 -4.5 -8.5t-8.5 -3.5h-18q-20 0 -35 -17.5t-19 -45.5l-20 -161
q-10 -94 -69 -122q-4 -3 0 -6q40 -24 40 -90q0 -22 -2 -34l-20 -165q-1 -4 -1 -13q0 -23 11 -36.5t29 -13.5h17q11 0 11 -12l-12 -98q-1 -5 -5 -8.5t-9 -3.5h-80q-52 0 -79.5 26z" />
    <glyph glyph-name="bar" unicode="|" horiz-adv-x="180" 
d="M-4 -76.5q-3 3.5 -2 8.5l100 816q1 5 4.5 8.5t8.5 3.5h113q11 0 11 -12l-101 -816q0 -5 -4 -8.5t-9 -3.5h-113q-5 0 -8 3.5z" />
    <glyph glyph-name="braceright" unicode="}" horiz-adv-x="334" 
d="M1 -147q-5 0 -8 3.5t-2 8.5l12 98q1 5 4.5 8.5t8.5 3.5h18q20 0 35.5 17.5t19.5 45.5l20 165q12 95 69 124q4 3 0 6q-40 22 -40 88q0 22 2 34l20 161q1 4 1 12q0 23 -11.5 37t-29.5 14h-17q-5 0 -8 3.5t-2 8.5l12 97q0 5 4 8.5t9 3.5h81q51 0 79 -26t28 -74q0 -7 -2 -23
l-25 -203q-1 -8 -1 -22q0 -60 45 -66q12 -1 10 -13l-11 -87q-2 -12 -13 -13q-56 -8 -65 -89l-26 -207q-7 -59 -42.5 -91.5t-92.5 -32.5h-82z" />
    <glyph glyph-name="asciitilde" unicode="~" horiz-adv-x="475" 
d="M286 208.5q-16 6.5 -39 20.5q-5 4 -18 13t-24 13.5t-22 4.5q-18 0 -35.5 -10t-30.5 -27q-8 -10 -16 -4l-57 38q-7 6 -4 16q21 47 61.5 77.5t83.5 30.5q22 0 38.5 -6.5t35.5 -18.5q25 -17 39 -24.5t31 -7.5q16 0 29.5 9t27.5 26q7 10 17 4l59 -41q5 -2 5 -9q0 -5 -2 -8
q-28 -44 -64.5 -73.5t-76.5 -29.5q-22 0 -38 6.5z" />
    <glyph glyph-name="uni00A0" unicode="&#xa0;" horiz-adv-x="194" 
 />
    <glyph glyph-name="exclamdown" unicode="&#xa1;" horiz-adv-x="271" 
d="M251.5 689.5q18.5 -18.5 18.5 -48.5q0 -39 -24.5 -64.5t-61.5 -25.5q-31 0 -49.5 18t-18.5 48q0 39 25.5 65t61.5 26q30 0 48.5 -18.5zM121.5 465.5q3.5 3.5 8.5 3.5h86q5 0 8 -3.5t2 -8.5l-40 -436q-1 -5 -4.5 -8.5t-8.5 -3.5h-114q-5 0 -8 3.5t-2 8.5l68 436
q1 5 4.5 8.5z" />
    <glyph glyph-name="cent" unicode="&#xa2;" horiz-adv-x="421" 
d="M426 423.5q-4 -3.5 -9 -3.5l-114 -5q-11 0 -10 12l1 12q3 22 -8.5 37t-31.5 15q-21 0 -35.5 -16t-17.5 -42l-22 -172q-3 -26 8 -42t32 -16q20 0 35 15.5t18 36.5l1 13q1 5 5 8.5t9 3.5l113 -1q5 0 8 -3.5t2 -8.5l-3 -23q-8 -61 -45.5 -102t-98.5 -54q-4 -1 -6 -6l-5 -69
q-1 -12 -12 -12h-92q-11 0 -10 12l12 69q0 4 -4 6q-51 13 -79 48.5t-28 88.5q0 7 2 25l24 194q8 62 45.5 104.5t98.5 56.5q5 2 6 6l5 70q2 12 13 12h92q11 0 9 -12l-12 -69q0 -4 4 -6q52 -13 80 -48.5t28 -85.5q0 -15 -1 -22l-3 -18q0 -5 -4 -8.5z" />
    <glyph glyph-name="sterling" unicode="&#xa3;" horiz-adv-x="501" 
d="M218 123q1 -2 3 -2h244q5 0 8 -3.5t2 -8.5l-12 -97q-1 -5 -4.5 -8.5t-8.5 -3.5h-383q-5 0 -8 3.5t-2 8.5l12 100q1 8 8 15q17 16 26 38.5t13 56.5l8 60q0 5 -4 5h-50q-5 0 -8 3.5t-2 8.5l11 90q1 5 4.5 8.5t8.5 3.5h50q5 0 5 5l10 84q13 102 70.5 160t142.5 58
q72 0 112.5 -43t46.5 -123q0 -12 -11 -13l-111 -13h-2q-10 0 -10 11q-3 30 -12.5 45t-27.5 15q-49 0 -60 -90l-11 -91q-2 -5 4 -5h126q5 0 8 -3.5t2 -8.5l-11 -90q-1 -5 -4.5 -8.5t-8.5 -3.5h-126q-5 0 -5 -5l-8 -60q-7 -62 -35 -95q-1 -2 0 -4z" />
    <glyph glyph-name="currency" unicode="&#xa4;" horiz-adv-x="550" 
d="M466 200q-2 -5 0 -7l55 -65q3 -3 3 -8t-5 -9l-78 -64q-4 -4 -8 -4q-5 0 -8 4l-53 61q-2 2 -6 1q-50 -25 -103 -25t-94 23q-3 2 -7 -1l-64 -59q-6 -4 -9 -4q-2 0 -8 4l-62 64q-3 3 -3 7q0 6 6 10l66 61q3 3 2 7q-17 37 -17 80q0 68 40 130q1 4 0 7l-55 65q-4 4 -4 7
q0 6 6 10l78 63q4 4 9 4t8 -4l52 -61q1 -3 6 -1q49 26 103 26q57 0 101 -28q3 -2 7 1l69 63q4 4 9 4t8 -4l62 -63q3 -3 3 -7q0 -5 -5 -10l-76 -69q-2 -2 -1 -7q12 -33 12 -74q0 -68 -39 -128zM215.5 228.5q24.5 -25.5 61.5 -25.5q28 0 53.5 15.5t41 41.5t15.5 56
q0 37 -24.5 62t-60.5 25q-29 0 -54.5 -15t-41 -41t-15.5 -55q0 -38 24.5 -63.5z" />
    <glyph glyph-name="yen" unicode="&#xa5;" horiz-adv-x="515" 
d="M527.5 696q2.5 -4 -0.5 -10l-159 -345q-3 -6 3 -6h92q5 0 8 -3.5t2 -8.5l-6 -54q-1 -5 -4.5 -8.5t-8.5 -3.5h-113q-5 0 -5 -5l-5 -38q-2 -5 4 -5h113q5 0 8 -3.5t2 -8.5l-7 -54q-1 -5 -4.5 -8.5t-8.5 -3.5h-112q-6 0 -6 -5l-14 -113q-1 -5 -4.5 -8.5t-8.5 -3.5h-113
q-11 0 -11 12l14 113q2 5 -4 5h-113q-11 0 -11 12l7 54q1 5 4.5 8.5t8.5 3.5h114q5 0 5 5l5 38q0 5 -4 5h-114q-5 0 -8 3.5t-2 8.5l6 54q1 5 5 8.5t9 3.5h93q6 0 4 6l-72 345v4q0 10 11 10h119q11 0 12 -10l31 -239q1 -3 3 -3t3 3l89 239q4 10 15 10h120q6 0 8.5 -4z" />
    <glyph glyph-name="brokenbar" unicode="&#xa6;" horiz-adv-x="180" 
d="M53 388.5q-3 3.5 -2 8.5l43 351q1 5 4.5 8.5t8.5 3.5h113q11 0 11 -12l-44 -351q0 -5 -4 -8.5t-9 -3.5h-113q-5 0 -8 3.5zM-4 -76.5q-3 3.5 -2 8.5l42 348q1 5 4.5 8.5t8.5 3.5h114q5 0 8 -3.5t2 -8.5l-43 -348q0 -5 -4 -8.5t-9 -3.5h-113q-5 0 -8 3.5z" />
    <glyph glyph-name="section" unicode="&#xa7;" horiz-adv-x="424" 
d="M50 -164.5q-44 38.5 -44 102.5q0 15 1 23l2 17q1 5 4.5 8.5t8.5 3.5h114q5 0 8 -3.5t2 -8.5l-1 -7q-3 -22 8 -37.5t31 -15.5q22 0 37.5 17t15.5 41q0 26 -22.5 45t-72.5 48q-41 25 -64.5 49t-31.5 57q-7 21 -7 47q0 9 2 25q7 50 38 92q23 29 56 47q5 3 1 7q-30 28 -46 58
t-16 68q0 53 26.5 96t73.5 68t105 25q75 0 119 -40t44 -107q0 -7 -2 -25l-1 -11q-1 -5 -4.5 -8.5t-8.5 -3.5h-114q-5 0 -8 3.5t-2 8.5l1 4q3 25 -8 41.5t-31 16.5q-24 0 -39 -20t-15 -46t17.5 -42.5t58.5 -39.5q48 -28 72 -45.5t39 -42.5q17 -28 17 -66q0 -58 -31 -108
q-25 -42 -67 -63q-3 -2 -3.5 -4t1.5 -3q30 -25 45.5 -52.5t15.5 -65.5q0 -56 -27 -100t-74.5 -68t-105.5 -24q-74 0 -118 38.5zM262 213q11 18 12 39q1 5 1 14q0 18 -8 31q-4 8 -13 13t-20 5q-14 0 -24.5 -7t-16.5 -17q-11 -15 -14 -40l-1 -12q0 -14 5 -27q8 -24 36 -24
q27 0 43 25z" />
    <glyph glyph-name="dieresis" unicode="&#xa8;" horiz-adv-x="358" 
d="M269 591.5q-19 19.5 -19 49.5q0 38 25.5 63.5t62.5 25.5q31 0 49.5 -18.5t18.5 -49.5q0 -38 -26 -64t-62 -26q-30 0 -49 19.5zM91 591.5q-19 19.5 -19 49.5q0 38 25.5 63.5t62.5 25.5q31 0 49.5 -18.5t18.5 -49.5q0 -38 -26 -64t-62 -26q-30 0 -49 19.5z" />
    <glyph glyph-name="copyright" unicode="&#xa9;" horiz-adv-x="767" 
d="M202 32q-70 40 -109 110.5t-39 160.5q0 25 3 50q12 100 68 181t141.5 127.5t184.5 46.5q91 0 161.5 -39.5t109.5 -109t39 -157.5q0 -23 -3 -49q-12 -102 -68 -184.5t-141.5 -129.5t-185.5 -47q-91 0 -161 40zM517 106.5q67 36.5 110.5 101.5t53.5 145q2 13 2 37
q0 68 -30.5 123t-85.5 86t-126 31q-77 0 -144 -36.5t-110 -99.5t-52 -141q-3 -21 -3 -41q0 -70 30 -125t84.5 -86t125.5 -31q78 0 145 36.5zM325.5 201.5q-23.5 21.5 -23.5 58.5q0 10 1 16l18 147q5 43 34.5 68.5t73.5 25.5q40 0 64 -21.5t24 -58.5q0 -9 -1 -14t-5 -9t-9 -4
l-48 -2q-12 0 -11 11l1 9q2 12 -4 19.5t-18 7.5t-19.5 -7.5t-9.5 -19.5l-19 -158q-2 -12 4 -19.5t18 -7.5t19.5 7.5t9.5 19.5l1 8q2 12 13 12l48 -2q11 0 11 -12q-6 -44 -36 -70t-74 -26q-39 0 -62.5 21.5z" />
    <glyph glyph-name="ordfeminine" unicode="&#xaa;" horiz-adv-x="283" 
d="M217 566q5 0 5 5l2 17q1 4 1 11q0 15 -7 23.5t-20 8.5q-10 0 -19 -6t-13 -16q-3 -6 -6 -8t-8 -2l-66 3q-5 0 -8 3.5t-2 9.5q10 41 45.5 67t83.5 26q50 0 80 -26t30 -69q0 -10 -1 -15l-27 -222q-1 -5 -4.5 -8.5t-8.5 -3.5h-65q-5 0 -8.5 2.5t-2.5 6.5v1q1 3 -1 3.5
t-4 -1.5q-21 -17 -54 -17q-36 0 -63.5 18.5t-27.5 65.5q0 13 1 20q8 59 44 81t98 22h26zM195 441.5q13 9.5 15 27.5l2 21q2 5 -4 5h-26q-19 0 -31 -10.5t-12 -29.5q0 -23 27 -23q16 0 29 9.5zM34 312.5q4 3.5 9 3.5h232q5 0 8.5 -3.5t2.5 -8.5l-6 -44q-1 -5 -4.5 -8.5
t-8.5 -3.5h-233q-5 0 -8 3.5t-2 8.5l6 44q0 5 4 8.5z" />
    <glyph glyph-name="guillemotleft" unicode="&#xab;" horiz-adv-x="445" 
d="M234 116q0 -4 -3 -6.5t-7 -2.5h-94q-10 0 -13 9l-59 157q-2 4 -2 6q0 4 4 10l98 157q5 9 14 9h94q9 0 9 -6q0 -3 -3 -8l-98 -157q-2 -3 -1 -6l60 -157q1 -2 1 -5zM391 116q0 -4 -3 -6.5t-7 -2.5h-94q-10 0 -13 9l-59 157q-1 2 -1 7t3 9l98 157q5 9 14 9h94q7 0 8.5 -4
t-1.5 -10l-100 -157q-2 -3 -1 -6l61 -157q1 -2 1 -5z" />
    <glyph glyph-name="logicalnot" unicode="&#xac;" horiz-adv-x="425" 
d="M424 358.5q3 -3.5 2 -8.5l-11 -87v-7h-1l-10 -80q-1 -5 -4.5 -8.5t-8.5 -3.5h-81q-5 0 -8 3.5t-2 8.5l9 75q2 5 -4 5h-258q-5 0 -8 3.5t-2 8.5l10 82q1 5 4.5 8.5t8.5 3.5h356q5 0 8 -3.5z" />
    <glyph glyph-name="uni00AD" unicode="&#xad;" horiz-adv-x="321" 
d="M36 238.5q-3 3.5 -2 8.5l12 97q1 5 4.5 8.5t8.5 3.5h251q11 0 11 -12l-12 -97q-1 -5 -4.5 -8.5t-8.5 -3.5h-252q-5 0 -8 3.5z" />
    <glyph glyph-name="registered" unicode="&#xae;" horiz-adv-x="421" 
d="M369 688q40 -22 62.5 -61t22.5 -88q0 -9 -2 -27q-7 -58 -39 -105t-80.5 -73.5t-103.5 -26.5q-78 0 -126 49.5t-48 127.5q0 62 30.5 114t81.5 82t111 30q51 0 91 -22zM341 407q45 41 53 105q1 6 1 18q0 53 -34.5 87.5t-89.5 34.5q-42 0 -78.5 -21.5t-57.5 -58.5t-21 -81
q0 -56 33.5 -90.5t88.5 -34.5q60 0 105 41zM320 520q-8 -15 -22 -23q-5 -2 -3 -6l13 -59v-3q0 -5 -3 -8t-8 -3h-25q-9 0 -11 10l-11 56q-2 4 -5 4h-2q-5 0 -5 -5l-7 -53q-1 -5 -4.5 -8.5t-8.5 -3.5h-21q-5 0 -8 3.5t-2 8.5l19 161q1 5 5 8.5t9 3.5h57q23 0 37 -14t14 -36
q0 -18 -8 -33zM248.5 561.5q-1.5 -1.5 -1.5 -3.5l-4 -30q0 -5 5 -5h12q9 0 15 6t7 14v3q0 8 -4.5 12.5t-12.5 4.5h-13q-2 0 -3.5 -1.5z" />
    <glyph glyph-name="macron" unicode="&#xaf;" horiz-adv-x="325" 
d="M111 584.5q-3 3.5 -2 8.5l9 72q0 5 4 8.5t9 3.5h190q5 0 8 -3.5t2 -8.5l-9 -72q-1 -5 -4.5 -8.5t-8.5 -3.5h-190q-5 0 -8 3.5z" />
    <glyph glyph-name="degree" unicode="&#xb0;" horiz-adv-x="348" 
d="M111 513.5q-40 41.5 -40 103.5q0 51 25 95t67 70t90 26q63 0 102.5 -41t39.5 -104q0 -52 -25.5 -96t-67.5 -69.5t-90 -25.5q-61 0 -101 41.5zM281.5 589q25.5 26 25.5 62q0 29 -18 48.5t-46 19.5q-33 0 -58.5 -26t-25.5 -62q0 -29 18.5 -48.5t45.5 -19.5q33 0 58.5 26z
" />
    <glyph glyph-name="plusminus" unicode="&#xb1;" horiz-adv-x="425" 
d="M433 437.5q3 -3.5 2 -8.5l-10 -82q-1 -5 -4.5 -8.5t-8.5 -3.5h-122q-5 0 -5 -5l-16 -125q-1 -5 -4.5 -8.5t-8.5 -3.5h-79q-5 0 -8.5 3.5t-2.5 8.5l16 125q0 5 -5 5h-121q-5 0 -8 3.5t-2 8.5l10 82q1 5 4.5 8.5t8.5 3.5h121q6 0 6 5l15 126q1 5 5 8.5t9 3.5h79q5 0 8 -3.5
t2 -8.5l-15 -126q-2 -5 4 -5h122q5 0 8 -3.5zM9 14.5q-3 3.5 -2 8.5l10 82q1 5 4.5 8.5t8.5 3.5h356q5 0 8 -3.5t2 -8.5l-10 -82q-1 -5 -4.5 -8.5t-8.5 -3.5h-356q-5 0 -8 3.5z" />
    <glyph glyph-name="uni00B2" unicode="&#xb2;" horiz-adv-x="258" 
d="M50 419.5q-3 3.5 -2 8.5l7 58q0 8 7 15l23 25q70 77 98 115q42 54 42 92q0 14 -6.5 22t-16.5 8q-12 0 -21 -10t-10 -26l-3 -20q-1 -5 -4.5 -8.5t-8.5 -3.5h-65q-5 0 -8 3.5t-2 8.5l3 24q8 52 43 81t88 29q45 0 72 -24t27 -73q0 -8 -2 -26q-4 -31 -13.5 -55.5t-27.5 -50.5
q-26 -35 -65 -82l-25 -30q-2 -2 -1.5 -4t3.5 -2h97q5 0 8 -3.5t2 -8.5l-7 -54q0 -5 -4 -8.5t-9 -3.5h-211q-5 0 -8 3.5z" />
    <glyph glyph-name="uni00B3" unicode="&#xb3;" horiz-adv-x="274" 
d="M303 549q-3 -23 -8 -44q-8 -43 -41 -69t-80 -26q-50 0 -78 28.5t-24 73.5q0 10 2 26q2 12 13 12h64q10 0 10 -10v-14q-2 -37 23 -37q12 0 19 7.5t11 22.5q7 26 9 40t2 37q0 32 -24 32q-7 0 -15 -5q-11 -8 -16 0l-27 34q-3 5 -3 8q0 4 5 9l75 78q3 3 2 4.5t-4 1.5h-98
q-5 0 -8 3.5t-2 8.5l6 53q1 5 5 8.5t9 3.5h194q5 0 8 -3.5t2 -8.5l-7 -57q-2 -10 -7 -15l-58 -63q-4 -6 0 -7q21 -8 32.5 -32t11.5 -54q0 -19 -3 -46z" />
    <glyph glyph-name="acute" unicode="&#xb4;" horiz-adv-x="213" 
d="M71 582q0 4 3 8l69 102q5 8 16 8h90q9 0 9 -6q0 -5 -4 -9l-87 -102q-7 -7 -15 -7h-71q-10 0 -10 6z" />
    <glyph glyph-name="uni00B5" unicode="&#xb5;" horiz-adv-x="437" 
d="M309.5 510.5q3.5 3.5 8.5 3.5h114q5 0 8 -3.5t2 -8.5l-60 -490q-1 -5 -4.5 -8.5t-8.5 -3.5h-114q-5 0 -8 3.5t-2 8.5l2 17q1 3 -1 3.5t-4 -2.5q-30 -35 -84 -37q-5 0 -5 -5l-22 -176q-1 -5 -4.5 -8.5t-8.5 -3.5h-113q-11 0 -11 12l85 690q1 5 4.5 8.5t8.5 3.5h114
q5 0 8 -3.5t2 -8.5l-41 -329l-1 -14q0 -46 38 -46q22 0 35.5 16.5t17.5 46.5l40 326q1 5 4.5 8.5z" />
    <glyph glyph-name="paragraph" unicode="&#xb6;" horiz-adv-x="499" 
d="M511 700q5 0 8 -3.5t2 -8.5l-108 -876q0 -5 -4 -8.5t-9 -3.5h-91q-5 0 -8 3.5t-2 8.5l94 769q2 5 -4 5h-44q-6 0 -6 -5l-94 -769q-1 -5 -4.5 -8.5t-8.5 -3.5h-92q-5 0 -8 3.5t-2 8.5l54 436q0 5 -4 6q-59 13 -91.5 61t-32.5 121q0 25 2 39q8 65 37.5 116t76.5 80t103 29
h236z" />
    <glyph glyph-name="periodcentered" unicode="&#xb7;" horiz-adv-x="218" 
d="M66 230.5q-19 19.5 -19 49.5q0 38 25.5 63.5t62.5 25.5q31 0 49.5 -18.5t18.5 -49.5q0 -38 -26 -64t-62 -26q-30 0 -49 19.5z" />
    <glyph glyph-name="cedilla" unicode="&#xb8;" horiz-adv-x="147" 
d="M-33 -170l11 46q3 12 15 10q11 -2 21 4t15 20q2 8 2 14q0 28 -30 61q-3 4 -3 8q0 7 11 7h60q8 0 14 -6q33 -37 33 -82q0 -23 -7 -41q-12 -34 -36 -48t-54 -14q-19 0 -45 7q-10 3 -7 14z" />
    <glyph glyph-name="uni00B9" unicode="&#xb9;" horiz-adv-x="152" 
d="M137 836h69q11 0 11 -12l-49 -396q-1 -5 -4.5 -8.5t-8.5 -3.5h-65q-5 0 -8 3.5t-2 8.5l39 323q2 5 -4 4l-16 -2h-2q-11 0 -9 12l5 43q2 9 11 14l18 10q12 4 15 4z" />
    <glyph glyph-name="ordmasculine" unicode="&#xba;" horiz-adv-x="286" 
d="M86.5 382.5q-28.5 24.5 -28.5 68.5q0 12 1 18l15 129q6 50 42.5 80t93.5 30q51 0 79.5 -25.5t28.5 -68.5q0 -10 -1 -16l-16 -129q-6 -52 -41.5 -81.5t-92.5 -29.5q-52 0 -80.5 24.5zM202 447.5q11 11.5 12 27.5l15 115q2 18 -6 29t-22 11q-15 0 -26 -11t-13 -29l-14 -115
q-2 -17 6 -28t23 -11q14 0 25 11.5zM30 251.5q-3 3.5 -2 8.5l5 44q1 5 5 8.5t9 3.5h231q11 0 11 -12l-6 -44q-1 -5 -4.5 -8.5t-8.5 -3.5h-232q-5 0 -8 3.5z" />
    <glyph glyph-name="guillemotright" unicode="&#xbb;" horiz-adv-x="445" 
d="M43 113q0 4 3 8l100 157q1 3 0 6l-61 157q-1 2 -1 5q0 4 3 6.5t8 2.5h94q9 0 12 -9l60 -157q1 -2 1 -6q0 -5 -3 -10l-98 -157q-6 -9 -15 -9h-94q-9 0 -9 6zM200 113q0 4 3 8l100 157q1 3 0 6l-61 157q-1 2 -1 5q0 4 3 6.5t8 2.5h94q9 0 12 -9l60 -157q1 -2 1 -6
q0 -5 -3 -10l-98 -157q-6 -9 -15 -9h-94q-9 0 -9 6z" />
    <glyph glyph-name="onequarter" unicode="&#xbc;" horiz-adv-x="695" 
d="M120 700h69q11 0 11 -12l-49 -396q-1 -5 -4.5 -8.5t-8.5 -3.5h-65q-5 0 -8 3.5t-2 8.5l39 323q2 5 -4 4l-16 -2h-2q-11 0 -9 12l5 43q2 9 11 14l18 10q12 4 15 4zM41 6q0 4 3 8l478 678q4 8 14 8h73q9 0 9 -6q0 -3 -3 -8l-478 -678q-5 -8 -15 -8h-72q-9 0 -9 6zM690 175
l-8 -58q0 -5 -4 -8.5t-9 -3.5h-11q-4 0 -6 -5l-11 -88q0 -5 -4 -8.5t-9 -3.5h-65q-5 0 -8 3.5t-2 8.5l11 88q0 5 -4 5h-138q-5 0 -8 3.5t-2 8.5l5 46l4 15l103 232q5 10 14 10h70q6 0 8 -4t0 -10l-90 -213q-3 -6 3 -6h41q5 0 5 5l6 51q1 5 5 8.5t9 3.5h65q5 0 8 -3.5t2 -8.5
l-7 -51q0 -5 5 -5h11q11 0 11 -12z" />
    <glyph glyph-name="onehalf" unicode="&#xbd;" horiz-adv-x="670" 
d="M120 700h69q11 0 11 -12l-49 -396q-1 -5 -4.5 -8.5t-8.5 -3.5h-65q-5 0 -8 3.5t-2 8.5l39 323q2 5 -4 4l-16 -2h-2q-11 0 -9 12l5 43q2 9 11 14l18 10q12 4 15 4zM41 6q0 4 3 8l478 678q4 8 14 8h73q9 0 9 -6q0 -3 -3 -8l-478 -678q-5 -8 -15 -8h-72q-9 0 -9 6zM412 3.5
q-3 3.5 -2 8.5l7 58q0 8 7 15l23 25q70 77 98 115q42 54 42 92q0 14 -6.5 22t-16.5 8q-12 0 -21 -10t-10 -26l-3 -20q-1 -5 -4.5 -8.5t-8.5 -3.5h-65q-5 0 -8 3.5t-2 8.5l3 24q8 52 43 81t88 29q45 0 72 -24t27 -73q0 -8 -2 -26q-4 -31 -13.5 -55.5t-27.5 -50.5
q-26 -35 -65 -82l-25 -30q-2 -2 -1.5 -4t3.5 -2h97q5 0 8 -3.5t2 -8.5l-7 -54q0 -5 -4 -8.5t-9 -3.5h-211q-5 0 -8 3.5z" />
    <glyph glyph-name="threequarters" unicode="&#xbe;" horiz-adv-x="769" 
d="M286 413q-3 -23 -8 -44q-8 -43 -41 -69t-80 -26q-50 0 -78 28.5t-24 73.5q0 10 2 26q2 12 13 12h64q10 0 10 -10v-14q-2 -37 23 -37q12 0 19 7.5t11 22.5q7 26 9 40t2 37q0 32 -24 32q-7 0 -15 -5q-11 -8 -16 0l-27 34q-3 5 -3 8q0 4 5 9l75 78q3 3 2 4.5t-4 1.5h-98
q-5 0 -8 3.5t-2 8.5l6 53q1 5 5 8.5t9 3.5h194q5 0 8 -3.5t2 -8.5l-7 -57q-2 -10 -7 -15l-58 -63q-4 -6 0 -7q21 -8 32.5 -32t11.5 -54q0 -19 -3 -46zM116 6q0 4 3 8l478 678q4 8 14 8h73q9 0 9 -6q0 -3 -3 -8l-478 -678q-5 -8 -15 -8h-72q-9 0 -9 6zM764 175l-8 -58
q0 -5 -4 -8.5t-9 -3.5h-11q-4 0 -6 -5l-11 -88q0 -5 -4 -8.5t-9 -3.5h-65q-5 0 -8 3.5t-2 8.5l11 88q0 5 -4 5h-138q-5 0 -8 3.5t-2 8.5l5 46l4 15l103 232q5 10 14 10h70q6 0 8 -4t0 -10l-90 -213q-3 -6 3 -6h41q5 0 5 5l6 51q1 5 5 8.5t9 3.5h65q5 0 8 -3.5t2 -8.5l-7 -51
q0 -5 5 -5h11q11 0 11 -12z" />
    <glyph glyph-name="questiondown" unicode="&#xbf;" horiz-adv-x="424" 
d="M316.5 483.5q18.5 -18.5 18.5 -48.5q0 -39 -25 -64.5t-62 -25.5q-31 0 -49.5 18t-18.5 48q0 39 25.5 65t61.5 26q31 0 49.5 -18.5zM304 274.5q3 -3.5 2 -8.5l-4 -32q-6 -50 -29.5 -80.5t-65.5 -64.5q-38 -31 -55.5 -54t-17.5 -60q0 -26 12.5 -41t34.5 -15q28 0 46.5 20.5
t22.5 54.5l2 16q1 11 13 11l113 -5q5 0 8 -3.5t2 -8.5l-1 -10q-7 -60 -38 -106.5t-80 -72t-108 -25.5q-78 0 -122.5 44t-44.5 120q0 9 2 31q6 44 22 75.5t35.5 51.5t49.5 44q32 26 47 43.5t18 43.5l2 23q1 5 5 8.5t9 3.5h112q5 0 8 -3.5z" />
    <glyph glyph-name="Agrave" unicode="&#xc0;" horiz-adv-x="468" 
d="M297 11l-4 96q1 2 -1 3.5t-4 1.5h-123q-6 0 -6 -5l-28 -96q-3 -11 -14 -11h-113q-12 0 -8 13l225 676q3 11 14 11h131q10 0 12 -11l58 -676v-3q0 -10 -11 -10h-117q-11 0 -11 11zM196 221h87q5 0 5 5l-12 273q-1 3 -3 3t-3 -3l-77 -273q-2 -5 3 -5zM353 770q0 -8 -11 -8
h-73q-7 0 -13 7l-61 102q-2 4 -2 7t3 5.5t8 2.5h90q9 0 13 -8l45 -102q1 -2 1 -6z" />
    <glyph glyph-name="Aacute" unicode="&#xc1;" horiz-adv-x="468" 
d="M297 11l-4 96q1 2 -1 3.5t-4 1.5h-123q-6 0 -6 -5l-28 -96q-3 -11 -14 -11h-113q-12 0 -8 13l225 676q3 11 14 11h131q10 0 12 -11l58 -676v-3q0 -10 -11 -10h-117q-11 0 -11 11zM196 221h87q5 0 5 5l-12 273q-1 3 -3 3t-3 -3l-77 -273q-2 -5 3 -5zM246 768q0 4 3 8
l69 102q5 8 16 8h90q9 0 9 -6q0 -5 -4 -9l-87 -102q-7 -7 -15 -7h-71q-10 0 -10 6z" />
    <glyph glyph-name="Acircumflex" unicode="&#xc2;" horiz-adv-x="468" 
d="M297 11l-4 96q1 2 -1 3.5t-4 1.5h-123q-6 0 -6 -5l-28 -96q-3 -11 -14 -11h-113q-12 0 -8 13l225 676q3 11 14 11h131q10 0 12 -11l58 -676v-3q0 -10 -11 -10h-117q-11 0 -11 11zM196 221h87q5 0 5 5l-12 273q-1 3 -3 3t-3 -3l-77 -273q-2 -5 3 -5zM167 766q0 4 3 8
l74 104q5 8 15 8h125q9 0 12 -8l52 -104q1 -2 1 -5q0 -9 -11 -9h-85q-10 0 -13 9l-22 56q-3 5 -6 0l-36 -56q-2 -4 -6.5 -6.5t-8.5 -2.5h-85q-9 0 -9 6z" />
    <glyph glyph-name="Atilde" unicode="&#xc3;" horiz-adv-x="468" 
d="M297 11l-4 96q1 2 -1 3.5t-4 1.5h-123q-6 0 -6 -5l-28 -96q-3 -11 -14 -11h-113q-12 0 -8 13l225 676q3 11 14 11h131q10 0 12 -11l58 -676v-3q0 -10 -11 -10h-117q-11 0 -11 11zM196 221h87q5 0 5 5l-12 273q-1 3 -3 3t-3 -3l-77 -273q-2 -5 3 -5zM324 790
q-8 4 -18.5 11t-19.5 7q-22 0 -38 -22q-7 -10 -17 -4l-37 30q-6 6 -2 16q17 34 41.5 51.5t51.5 17.5q31 0 59 -23q3 -2 9.5 -7t13.5 -8t15 -3q22 0 37 20q9 12 17 5l36 -28q4 -4 4 -8q0 -6 -6 -15q-20 -30 -46 -44t-49 -14q-22 0 -51 18z" />
    <glyph glyph-name="Adieresis" unicode="&#xc4;" horiz-adv-x="468" 
d="M297 11l-4 96q1 2 -1 3.5t-4 1.5h-123q-6 0 -6 -5l-28 -96q-3 -11 -14 -11h-113q-12 0 -8 13l225 676q3 11 14 11h131q10 0 12 -11l58 -676v-3q0 -10 -11 -10h-117q-11 0 -11 11zM196 221h87q5 0 5 5l-12 273q-1 3 -3 3t-3 -3l-77 -273q-2 -5 3 -5zM347 777.5
q-19 19.5 -19 49.5q0 38 25.5 63.5t62.5 25.5q31 0 49.5 -18.5t18.5 -49.5q0 -38 -26 -64t-62 -26q-30 0 -49 19.5zM169 777.5q-19 19.5 -19 49.5q0 38 25.5 63.5t62.5 25.5q31 0 49.5 -18.5t18.5 -49.5q0 -38 -26 -64t-62 -26q-30 0 -49 19.5z" />
    <glyph glyph-name="Aring" unicode="&#xc5;" horiz-adv-x="468" 
d="M297 11l-4 96q1 2 -1 3.5t-4 1.5h-123q-6 0 -6 -5l-28 -96q-3 -11 -14 -11h-113q-12 0 -8 13l225 676q3 11 14 11h131q10 0 12 -11l58 -676v-3q0 -10 -11 -10h-117q-11 0 -11 11zM196 221h87q5 0 5 5l-12 273q-1 3 -3 3t-3 -3l-77 -273q-2 -5 3 -5zM230.5 779.5
q-29.5 30.5 -29.5 77.5q0 38 18.5 70t50 51t67.5 19q46 0 76 -30t30 -77q0 -38 -18.5 -70.5t-50 -51.5t-67.5 -19q-47 0 -76.5 30.5zM354 840q17 17 17 40q0 19 -12.5 31.5t-30.5 12.5q-21 0 -37.5 -16.5t-16.5 -40.5q0 -19 11.5 -31.5t30.5 -12.5q21 0 38 17z" />
    <glyph glyph-name="AE" unicode="&#xc6;" horiz-adv-x="733" 
d="M754.5 582.5q-3.5 -3.5 -8.5 -3.5h-202q-2 0 -3.5 -1.5t-1.5 -3.5l-19 -158q-2 -5 4 -5h115q5 0 8 -3.5t2 -8.5l-11 -97q-1 -5 -5 -8.5t-9 -3.5h-115q-5 0 -5 -5l-20 -159q0 -5 4 -5h202q5 0 8 -3.5t2 -8.5l-12 -97q-1 -5 -4.5 -8.5t-8.5 -3.5h-333q-5 0 -8 3.5t-2 8.5
l12 95q0 5 -4 5h-145q-3 0 -5 -4l-49 -99q-4 -9 -15 -9h-120q-7 0 -8.5 4t1.5 10l356 677q3 9 14 9h392q5 0 8 -3.5t2 -8.5l-12 -97q-1 -5 -4.5 -8.5zM252 221h101q5 0 6 5l35 280q0 4 -2 4t-4 -3l-139 -280q-1 -6 3 -6z" />
    <glyph glyph-name="Ccedilla" unicode="&#xc7;" horiz-adv-x="450" 
d="M457.5 493.5q-3.5 -3.5 -8.5 -3.5l-114 -5q-11 0 -10 11l3 26q1 4 1 12q0 24 -13.5 38.5t-36.5 14.5q-25 0 -43 -18t-22 -47l-42 -345q-1 -4 -1 -11q0 -24 13.5 -38.5t35.5 -14.5q26 0 44 17.5t22 46.5l3 27q1 5 4.5 8.5t8.5 3.5l113 -5q5 0 8 -3.5t2 -8.5l-1 -10
q-10 -76 -54.5 -127t-112.5 -65q-7 -2 -3 -6q25 -35 25 -74q0 -22 -7 -40q-22 -62 -91 -62q-26 0 -45 7q-9 3 -6 14l12 46q3 11 15 9q11 -2 20.5 4.5t13.5 20.5q2 10 2 14q0 31 -31 65l-5 3q-58 13 -90 54.5t-32 104.5q0 10 2 32l40 324q10 89 69.5 142t147.5 53
q80 0 126 -44.5t46 -120.5q0 -10 -2 -30l-2 -11q-1 -5 -4.5 -8.5z" />
    <glyph glyph-name="Egrave" unicode="&#xc8;" horiz-adv-x="425" 
d="M447.5 582.5q-3.5 -3.5 -8.5 -3.5h-203q-5 0 -5 -5l-20 -158q0 -5 4 -5h117q5 0 8 -3.5t2 -8.5l-12 -97q-1 -5 -4.5 -8.5t-8.5 -3.5h-116q-6 0 -6 -5l-19 -159q-2 -5 4 -5h202q5 0 8.5 -3.5t2.5 -8.5l-12 -97q-1 -5 -4.5 -8.5t-8.5 -3.5h-333q-5 0 -8 3.5t-2 8.5l83 676
q1 5 4.5 8.5t8.5 3.5h333q5 0 8 -3.5t2 -8.5l-12 -97q-1 -5 -4.5 -8.5zM341 770q0 -8 -11 -8h-73q-7 0 -13 7l-61 102q-2 4 -2 7t3 5.5t8 2.5h90q9 0 13 -8l45 -102q1 -2 1 -6z" />
    <glyph glyph-name="Eacute" unicode="&#xc9;" horiz-adv-x="425" 
d="M447.5 582.5q-3.5 -3.5 -8.5 -3.5h-203q-5 0 -5 -5l-20 -158q0 -5 4 -5h117q5 0 8 -3.5t2 -8.5l-12 -97q-1 -5 -4.5 -8.5t-8.5 -3.5h-116q-6 0 -6 -5l-19 -159q-2 -5 4 -5h202q5 0 8.5 -3.5t2.5 -8.5l-12 -97q-1 -5 -4.5 -8.5t-8.5 -3.5h-333q-5 0 -8 3.5t-2 8.5l83 676
q1 5 4.5 8.5t8.5 3.5h333q5 0 8 -3.5t2 -8.5l-12 -97q-1 -5 -4.5 -8.5zM234 768q0 4 3 8l69 102q5 8 16 8h90q9 0 9 -6q0 -5 -4 -9l-87 -102q-7 -7 -15 -7h-71q-10 0 -10 6z" />
    <glyph glyph-name="Ecircumflex" unicode="&#xca;" horiz-adv-x="425" 
d="M447.5 582.5q-3.5 -3.5 -8.5 -3.5h-203q-5 0 -5 -5l-20 -158q0 -5 4 -5h117q5 0 8 -3.5t2 -8.5l-12 -97q-1 -5 -4.5 -8.5t-8.5 -3.5h-116q-6 0 -6 -5l-19 -159q-2 -5 4 -5h202q5 0 8.5 -3.5t2.5 -8.5l-12 -97q-1 -5 -4.5 -8.5t-8.5 -3.5h-333q-5 0 -8 3.5t-2 8.5l83 676
q1 5 4.5 8.5t8.5 3.5h333q5 0 8 -3.5t2 -8.5l-12 -97q-1 -5 -4.5 -8.5zM154 766q0 4 3 8l74 104q5 8 15 8h125q9 0 12 -8l52 -104q1 -2 1 -5q0 -9 -11 -9h-85q-10 0 -13 9l-22 56q-3 5 -6 0l-36 -56q-2 -4 -6.5 -6.5t-8.5 -2.5h-85q-9 0 -9 6z" />
    <glyph glyph-name="Edieresis" unicode="&#xcb;" horiz-adv-x="425" 
d="M447.5 582.5q-3.5 -3.5 -8.5 -3.5h-203q-5 0 -5 -5l-20 -158q0 -5 4 -5h117q5 0 8 -3.5t2 -8.5l-12 -97q-1 -5 -4.5 -8.5t-8.5 -3.5h-116q-6 0 -6 -5l-19 -159q-2 -5 4 -5h202q5 0 8.5 -3.5t2.5 -8.5l-12 -97q-1 -5 -4.5 -8.5t-8.5 -3.5h-333q-5 0 -8 3.5t-2 8.5l83 676
q1 5 4.5 8.5t8.5 3.5h333q5 0 8 -3.5t2 -8.5l-12 -97q-1 -5 -4.5 -8.5zM334 777.5q-19 19.5 -19 49.5q0 38 25.5 63.5t62.5 25.5q31 0 49.5 -18.5t18.5 -49.5q0 -38 -26 -64t-62 -26q-30 0 -49 19.5zM156 777.5q-19 19.5 -19 49.5q0 38 25.5 63.5t62.5 25.5q31 0 49.5 -18.5
t18.5 -49.5q0 -38 -26 -64t-62 -26q-30 0 -49 19.5z" />
    <glyph glyph-name="Igrave" unicode="&#xcc;" horiz-adv-x="223" 
d="M27 3.5q-3 3.5 -2 8.5l83 676q1 5 4.5 8.5t8.5 3.5h113q11 0 11 -12l-83 -676q-1 -5 -5 -8.5t-9 -3.5h-113q-5 0 -8 3.5zM231 770q0 -8 -11 -8h-73q-7 0 -13 7l-61 102q-2 4 -2 7t3 5.5t8 2.5h90q9 0 13 -8l45 -102q1 -2 1 -6z" />
    <glyph glyph-name="Iacute" unicode="&#xcd;" horiz-adv-x="223" 
d="M27 3.5q-3 3.5 -2 8.5l83 676q1 5 4.5 8.5t8.5 3.5h113q11 0 11 -12l-83 -676q-1 -5 -5 -8.5t-9 -3.5h-113q-5 0 -8 3.5zM123 768q0 4 3 8l69 102q5 8 16 8h90q9 0 9 -6q0 -5 -4 -9l-87 -102q-7 -7 -15 -7h-71q-10 0 -10 6z" />
    <glyph glyph-name="Icircumflex" unicode="&#xce;" horiz-adv-x="223" 
d="M27 3.5q-3 3.5 -2 8.5l83 676q1 5 4.5 8.5t8.5 3.5h113q11 0 11 -12l-83 -676q-1 -5 -5 -8.5t-9 -3.5h-113q-5 0 -8 3.5zM44 766q0 4 3 8l74 104q5 8 15 8h125q9 0 12 -8l52 -104q1 -2 1 -5q0 -9 -11 -9h-85q-10 0 -13 9l-22 56q-3 5 -6 0l-36 -56q-2 -4 -6.5 -6.5
t-8.5 -2.5h-85q-9 0 -9 6z" />
    <glyph glyph-name="Idieresis" unicode="&#xcf;" horiz-adv-x="223" 
d="M27 3.5q-3 3.5 -2 8.5l83 676q1 5 4.5 8.5t8.5 3.5h113q11 0 11 -12l-83 -676q-1 -5 -5 -8.5t-9 -3.5h-113q-5 0 -8 3.5zM224 777.5q-19 19.5 -19 49.5q0 38 25.5 63.5t62.5 25.5q31 0 49.5 -18.5t18.5 -49.5q0 -38 -26 -64t-62 -26q-30 0 -49 19.5zM46 777.5
q-19 19.5 -19 49.5q0 38 25.5 63.5t62.5 25.5q31 0 49.5 -18.5t18.5 -49.5q0 -38 -26 -64t-62 -26q-30 0 -49 19.5z" />
    <glyph glyph-name="Eth" unicode="&#xd0;" horiz-adv-x="491" 
d="M453.5 655.5q46.5 -44.5 46.5 -119.5q0 -10 -2 -30l-39 -312q-10 -88 -70 -141t-148 -53h-176q-5 0 -8 3.5t-2 8.5l38 309q0 5 -4 5h-14q-5 0 -8 3.5t-2 8.5l7 57q1 5 4.5 8.5t8.5 3.5h13q6 0 6 5l34 276q1 5 4.5 8.5t8.5 3.5h176q80 0 126.5 -44.5zM360 497q1 6 1 17
q0 30 -14 47.5t-39 17.5h-42q-5 0 -5 -5l-20 -162q-2 -5 4 -5h36q5 0 8 -3.5t2 -8.5l-7 -57q-1 -5 -4.5 -8.5t-8.5 -3.5h-36q-5 0 -5 -5l-24 -195q-2 -5 4 -5l43 1q26 1 45.5 22.5t25.5 58.5z" />
    <glyph glyph-name="Ntilde" unicode="&#xd1;" horiz-adv-x="499" 
d="M389.5 696.5q3.5 3.5 8.5 3.5h113q5 0 8 -3.5t2 -8.5l-83 -676q-1 -5 -4.5 -8.5t-8.5 -3.5h-128q-9 0 -12 10l-72 387q-1 3 -3.5 2.5t-2.5 -3.5l-46 -384q-1 -5 -5 -8.5t-9 -3.5h-112q-5 0 -8 3.5t-2 8.5l83 676q1 5 4.5 8.5t8.5 3.5h127q9 0 11 -10l74 -387
q1 -3 3.5 -2.5t2.5 3.5l46 384q1 5 4.5 8.5zM338 792q-8 4 -18.5 11t-19.5 7q-22 0 -38 -22q-7 -10 -17 -4l-37 30q-6 6 -2 16q17 34 41.5 51.5t51.5 17.5q31 0 59 -23q3 -2 9.5 -7t13.5 -8t15 -3q22 0 37 20q9 12 17 5l36 -28q4 -4 4 -8q0 -6 -6 -15q-20 -30 -46 -44
t-49 -14q-22 0 -51 18z" />
    <glyph glyph-name="Ograve" unicode="&#xd2;" horiz-adv-x="458" 
d="M81.5 36.5q-46.5 44.5 -46.5 121.5q0 10 2 32l39 320q11 90 71 144t149 54q81 0 128 -44.5t47 -121.5q0 -10 -2 -32l-39 -320q-11 -90 -71.5 -144t-149.5 -54q-81 0 -127.5 44.5zM269.5 132.5q18.5 19.5 22.5 51.5l41 332q1 4 1 12q0 27 -14 43t-38 16q-27 0 -45.5 -19.5
t-22.5 -51.5l-41 -332q-1 -4 -1 -12q0 -27 14 -43t37 -16q28 0 46.5 19.5zM348 769q0 -8 -11 -8h-73q-7 0 -13 7l-61 102q-2 4 -2 7t3 5.5t8 2.5h90q9 0 13 -8l45 -102q1 -2 1 -6z" />
    <glyph glyph-name="Oacute" unicode="&#xd3;" horiz-adv-x="458" 
d="M81.5 36.5q-46.5 44.5 -46.5 121.5q0 10 2 32l39 320q11 90 71 144t149 54q81 0 128 -44.5t47 -121.5q0 -10 -2 -32l-39 -320q-11 -90 -71.5 -144t-149.5 -54q-81 0 -127.5 44.5zM269.5 132.5q18.5 19.5 22.5 51.5l41 332q1 4 1 12q0 27 -14 43t-38 16q-27 0 -45.5 -19.5
t-22.5 -51.5l-41 -332q-1 -4 -1 -12q0 -27 14 -43t37 -16q28 0 46.5 19.5zM241 767q0 4 3 8l69 102q5 8 16 8h90q9 0 9 -6q0 -5 -4 -9l-87 -102q-7 -7 -15 -7h-71q-10 0 -10 6z" />
    <glyph glyph-name="Ocircumflex" unicode="&#xd4;" horiz-adv-x="458" 
d="M81.5 36.5q-46.5 44.5 -46.5 121.5q0 10 2 32l39 320q11 90 71 144t149 54q81 0 128 -44.5t47 -121.5q0 -10 -2 -32l-39 -320q-11 -90 -71.5 -144t-149.5 -54q-81 0 -127.5 44.5zM269.5 132.5q18.5 19.5 22.5 51.5l41 332q1 4 1 12q0 27 -14 43t-38 16q-27 0 -45.5 -19.5
t-22.5 -51.5l-41 -332q-1 -4 -1 -12q0 -27 14 -43t37 -16q28 0 46.5 19.5zM162 765q0 4 3 8l74 104q5 8 15 8h125q9 0 12 -8l52 -104q1 -2 1 -5q0 -9 -11 -9h-85q-10 0 -13 9l-22 56q-3 5 -6 0l-36 -56q-2 -4 -6.5 -6.5t-8.5 -2.5h-85q-9 0 -9 6z" />
    <glyph glyph-name="Otilde" unicode="&#xd5;" horiz-adv-x="458" 
d="M81.5 36.5q-46.5 44.5 -46.5 121.5q0 10 2 32l39 320q11 90 71 144t149 54q81 0 128 -44.5t47 -121.5q0 -10 -2 -32l-39 -320q-11 -90 -71.5 -144t-149.5 -54q-81 0 -127.5 44.5zM269.5 132.5q18.5 19.5 22.5 51.5l41 332q1 4 1 12q0 27 -14 43t-38 16q-27 0 -45.5 -19.5
t-22.5 -51.5l-41 -332q-1 -4 -1 -12q0 -27 14 -43t37 -16q28 0 46.5 19.5zM318 789q-8 4 -18.5 11t-19.5 7q-22 0 -38 -22q-7 -10 -17 -4l-37 30q-6 6 -2 16q17 34 41.5 51.5t51.5 17.5q31 0 59 -23q3 -2 9.5 -7t13.5 -8t15 -3q22 0 37 20q9 12 17 5l36 -28q4 -4 4 -8
q0 -6 -6 -15q-20 -30 -46 -44t-49 -14q-22 0 -51 18z" />
    <glyph glyph-name="Odieresis" unicode="&#xd6;" horiz-adv-x="458" 
d="M81.5 36.5q-46.5 44.5 -46.5 121.5q0 10 2 32l39 320q11 90 71 144t149 54q81 0 128 -44.5t47 -121.5q0 -10 -2 -32l-39 -320q-11 -90 -71.5 -144t-149.5 -54q-81 0 -127.5 44.5zM269.5 132.5q18.5 19.5 22.5 51.5l41 332q1 4 1 12q0 27 -14 43t-38 16q-27 0 -45.5 -19.5
t-22.5 -51.5l-41 -332q-1 -4 -1 -12q0 -27 14 -43t37 -16q28 0 46.5 19.5zM342 776.5q-19 19.5 -19 49.5q0 38 25.5 63.5t62.5 25.5q31 0 49.5 -18.5t18.5 -49.5q0 -38 -26 -64t-62 -26q-30 0 -49 19.5zM164 776.5q-19 19.5 -19 49.5q0 38 25.5 63.5t62.5 25.5
q31 0 49.5 -18.5t18.5 -49.5q0 -38 -26 -64t-62 -26q-30 0 -49 19.5z" />
    <glyph glyph-name="multiply" unicode="&#xd7;" horiz-adv-x="387" 
d="M390 412q0 -5 -5 -9l-96 -88q-2 -2 -2 -4.5t1 -3.5l75 -89q3 -3 3 -7t-5 -9l-64 -59q-6 -4 -8 -4t-8 4l-75 89q-2 2 -4 2t-4 -2l-97 -89q-4 -4 -8 -4q-2 0 -8 4l-50 59q-2 2 -2 7t4 9l98 89q3 3 1 8l-75 88q-3 3 -3 7q0 5 5 10l64 58q4 4 8 4t7 -4l76 -89q1 -1 3 -1t4 1
l98 89q4 4 8 4t7 -4l49 -58q3 -3 3 -8z" />
    <glyph glyph-name="Oslash" unicode="&#xd8;" horiz-adv-x="537" 
d="M500 692l-42 -73l-1 -6q13 -32 13 -71q0 -10 -2 -32l-39 -320q-11 -90 -71.5 -144t-149.5 -54q-55 0 -94 21q-2 1 -3.5 0t-2.5 -3l-31 -52q-2 -5 -7 -7t-9 2l-55 39q-5 3 -5 8q0 4 3 8l41 74l1 6q-12 32 -12 70q0 10 2 32l39 320q11 90 71 144t149 54q54 0 92 -20
q5 -2 7 3l30 51q6 11 16 5l57 -39q9 -6 3 -16zM332 516q1 4 1 12q0 27 -14 43t-38 16q-27 0 -45.5 -19.5t-22.5 -51.5l-41 -332q-1 -4 -1 -12q0 -27 14 -43t37 -16q28 0 46.5 19.5t22.5 51.5z" />
    <glyph glyph-name="Ugrave" unicode="&#xd9;" horiz-adv-x="465" 
d="M88.5 38.5q-45.5 46.5 -45.5 124.5q0 24 2 36l60 489q1 5 4.5 8.5t8.5 3.5h113q11 0 11 -12l-62 -503q-1 -5 -1 -14q0 -26 13 -42t35 -16q25 0 42.5 20t21.5 52l62 503q1 5 4.5 8.5t8.5 3.5h114q5 0 8 -3.5t2 -8.5l-60 -489q-11 -94 -71 -150.5t-147 -56.5
q-78 0 -123.5 46.5zM352 770q0 -8 -11 -8h-73q-7 0 -13 7l-61 102q-2 4 -2 7t3 5.5t8 2.5h90q9 0 13 -8l45 -102q1 -2 1 -6z" />
    <glyph glyph-name="Uacute" unicode="&#xda;" horiz-adv-x="465" 
d="M88.5 38.5q-45.5 46.5 -45.5 124.5q0 24 2 36l60 489q1 5 4.5 8.5t8.5 3.5h113q11 0 11 -12l-62 -503q-1 -5 -1 -14q0 -26 13 -42t35 -16q25 0 42.5 20t21.5 52l62 503q1 5 4.5 8.5t8.5 3.5h114q5 0 8 -3.5t2 -8.5l-60 -489q-11 -94 -71 -150.5t-147 -56.5
q-78 0 -123.5 46.5zM244 768q0 4 3 8l69 102q5 8 16 8h90q9 0 9 -6q0 -5 -4 -9l-87 -102q-7 -7 -15 -7h-71q-10 0 -10 6z" />
    <glyph glyph-name="Ucircumflex" unicode="&#xdb;" horiz-adv-x="465" 
d="M88.5 38.5q-45.5 46.5 -45.5 124.5q0 24 2 36l60 489q1 5 4.5 8.5t8.5 3.5h113q11 0 11 -12l-62 -503q-1 -5 -1 -14q0 -26 13 -42t35 -16q25 0 42.5 20t21.5 52l62 503q1 5 4.5 8.5t8.5 3.5h114q5 0 8 -3.5t2 -8.5l-60 -489q-11 -94 -71 -150.5t-147 -56.5
q-78 0 -123.5 46.5zM165 766q0 4 3 8l74 104q5 8 15 8h125q9 0 12 -8l52 -104q1 -2 1 -5q0 -9 -11 -9h-85q-10 0 -13 9l-22 56q-3 5 -6 0l-36 -56q-2 -4 -6.5 -6.5t-8.5 -2.5h-85q-9 0 -9 6z" />
    <glyph glyph-name="Udieresis" unicode="&#xdc;" horiz-adv-x="465" 
d="M88.5 38.5q-45.5 46.5 -45.5 124.5q0 24 2 36l60 489q1 5 4.5 8.5t8.5 3.5h113q11 0 11 -12l-62 -503q-1 -5 -1 -14q0 -26 13 -42t35 -16q25 0 42.5 20t21.5 52l62 503q1 5 4.5 8.5t8.5 3.5h114q5 0 8 -3.5t2 -8.5l-60 -489q-11 -94 -71 -150.5t-147 -56.5
q-78 0 -123.5 46.5zM345 777.5q-19 19.5 -19 49.5q0 38 25.5 63.5t62.5 25.5q31 0 49.5 -18.5t18.5 -49.5q0 -38 -26 -64t-62 -26q-30 0 -49 19.5zM167 777.5q-19 19.5 -19 49.5q0 38 25.5 63.5t62.5 25.5q31 0 49.5 -18.5t18.5 -49.5q0 -38 -26 -64t-62 -26q-30 0 -49 19.5
z" />
    <glyph glyph-name="Yacute" unicode="&#xdd;" horiz-adv-x="460" 
d="M145 4.5q-3 3.5 -2 8.5l32 260q0 1 0.5 2.5t-0.5 3.5l-86 407v3q0 5 3 8t8 3h120q11 0 12 -10l31 -239q0 -3 2.5 -3t3.5 3l89 239q4 10 15 10h119q6 0 8.5 -3.5t-0.5 -10.5l-186 -407q-2 -3 -2 -6l-32 -260q-1 -5 -4.5 -8.5t-8.5 -3.5h-114q-5 0 -8 3.5zM242 768q0 4 3 8
l69 102q5 8 16 8h90q9 0 9 -6q0 -5 -4 -9l-87 -102q-7 -7 -15 -7h-71q-10 0 -10 6z" />
    <glyph glyph-name="Thorn" unicode="&#xde;" horiz-adv-x="451" 
d="M413 512q43 -48 43 -129q0 -12 -2 -36q-11 -93 -66.5 -149.5t-134.5 -56.5h-72q-5 0 -5 -5l-15 -124q-1 -5 -5 -8.5t-9 -3.5h-113q-5 0 -8 3.5t-2 8.5l83 676q1 5 4.5 8.5t8.5 3.5h113q11 0 11 -12l-16 -123q0 -5 5 -5h65q72 0 115 -48zM295 282q23 30 23 83
q0 35 -15.5 54.5t-41.5 19.5h-43q-4 0 -6 -5l-21 -177q-2 -5 4 -5h43q34 0 57 30z" />
    <glyph glyph-name="germandbls" unicode="&#xdf;" horiz-adv-x="447" 
d="M21 4.5q-3 3.5 -2 8.5l58 471q13 107 67.5 165.5t141.5 58.5q80 0 123.5 -42.5t43.5 -116.5q0 -10 -2 -30q-12 -96 -79 -137q-6 -3 -1 -6q55 -41 55 -132q0 -18 -3 -39q-12 -97 -70.5 -151t-153.5 -54h-5q-5 0 -8 3.5t-2 8.5l12 96q0 5 4 9t9 4h5q34 0 56.5 34t22.5 92
q0 35 -13 53.5t-37 19.5h-5q-5 0 -8 3.5t-2 8.5l11 87q1 5 4.5 8.5t8.5 3.5h3q24 0 40.5 20.5t20.5 57.5q1 6 1 17q0 29 -12 45.5t-32 16.5q-22 0 -37 -21t-20 -61l-60 -494q-1 -5 -4.5 -8.5t-8.5 -3.5l-114 1q-5 0 -8 3.5z" />
    <glyph glyph-name="agrave" unicode="&#xe0;" horiz-adv-x="431" 
d="M304.5 510.5q3.5 3.5 8.5 3.5h114q5 0 8 -3.5t2 -8.5l-60 -490q-1 -5 -4.5 -8.5t-8.5 -3.5h-114q-5 0 -8 3.5t-2 8.5l4 28q0 4 -2 4t-4 -3q-36 -49 -96 -49q-58 0 -86 34t-28 95q0 25 2 39l24 194q10 82 48.5 125t104.5 43q60 0 84 -49q2 -3 3.5 -3t2.5 4l3 28
q1 5 4.5 8.5zM241.5 129q14.5 16 18.5 42l21 172q3 26 -8 42t-31 16t-34.5 -16t-17.5 -42l-22 -172q-3 -26 8 -42t31 -16t34.5 16zM312 584q0 -8 -11 -8h-73q-7 0 -13 7l-61 102q-2 4 -2 7t3 5.5t8 2.5h90q9 0 13 -8l45 -102q1 -2 1 -6z" />
    <glyph glyph-name="aacute" unicode="&#xe1;" horiz-adv-x="431" 
d="M304.5 510.5q3.5 3.5 8.5 3.5h114q5 0 8 -3.5t2 -8.5l-60 -490q-1 -5 -4.5 -8.5t-8.5 -3.5h-114q-5 0 -8 3.5t-2 8.5l4 28q0 4 -2 4t-4 -3q-36 -49 -96 -49q-58 0 -86 34t-28 95q0 25 2 39l24 194q10 82 48.5 125t104.5 43q60 0 84 -49q2 -3 3.5 -3t2.5 4l3 28
q1 5 4.5 8.5zM241.5 129q14.5 16 18.5 42l21 172q3 26 -8 42t-31 16t-34.5 -16t-17.5 -42l-22 -172q-3 -26 8 -42t31 -16t34.5 16zM205 582q0 4 3 8l69 102q5 8 16 8h90q9 0 9 -6q0 -5 -4 -9l-87 -102q-7 -7 -15 -7h-71q-10 0 -10 6z" />
    <glyph glyph-name="acircumflex" unicode="&#xe2;" horiz-adv-x="431" 
d="M304.5 510.5q3.5 3.5 8.5 3.5h114q5 0 8 -3.5t2 -8.5l-60 -490q-1 -5 -4.5 -8.5t-8.5 -3.5h-114q-5 0 -8 3.5t-2 8.5l4 28q0 4 -2 4t-4 -3q-36 -49 -96 -49q-58 0 -86 34t-28 95q0 25 2 39l24 194q10 82 48.5 125t104.5 43q60 0 84 -49q2 -3 3.5 -3t2.5 4l3 28
q1 5 4.5 8.5zM241.5 129q14.5 16 18.5 42l21 172q3 26 -8 42t-31 16t-34.5 -16t-17.5 -42l-22 -172q-3 -26 8 -42t31 -16t34.5 16zM126 580q0 4 3 8l74 104q5 8 15 8h125q9 0 12 -8l52 -104q1 -2 1 -5q0 -9 -11 -9h-85q-10 0 -13 9l-22 56q-3 5 -6 0l-36 -56
q-2 -4 -6.5 -6.5t-8.5 -2.5h-85q-9 0 -9 6z" />
    <glyph glyph-name="atilde" unicode="&#xe3;" horiz-adv-x="431" 
d="M304.5 510.5q3.5 3.5 8.5 3.5h114q5 0 8 -3.5t2 -8.5l-60 -490q-1 -5 -4.5 -8.5t-8.5 -3.5h-114q-5 0 -8 3.5t-2 8.5l4 28q0 4 -2 4t-4 -3q-36 -49 -96 -49q-58 0 -86 34t-28 95q0 25 2 39l24 194q10 82 48.5 125t104.5 43q60 0 84 -49q2 -3 3.5 -3t2.5 4l3 28
q1 5 4.5 8.5zM241.5 129q14.5 16 18.5 42l21 172q3 26 -8 42t-31 16t-34.5 -16t-17.5 -42l-22 -172q-3 -26 8 -42t31 -16t34.5 16zM283 604q-8 4 -18.5 11t-19.5 7q-22 0 -38 -22q-7 -10 -17 -4l-37 30q-6 6 -2 16q17 34 41.5 51.5t51.5 17.5q31 0 59 -23q3 -2 9.5 -7
t13.5 -8t15 -3q22 0 37 20q9 12 17 5l36 -28q4 -4 4 -8q0 -6 -6 -15q-20 -30 -46 -44t-49 -14q-22 0 -51 18z" />
    <glyph glyph-name="adieresis" unicode="&#xe4;" horiz-adv-x="431" 
d="M304.5 510.5q3.5 3.5 8.5 3.5h114q5 0 8 -3.5t2 -8.5l-60 -490q-1 -5 -4.5 -8.5t-8.5 -3.5h-114q-5 0 -8 3.5t-2 8.5l4 28q0 4 -2 4t-4 -3q-36 -49 -96 -49q-58 0 -86 34t-28 95q0 25 2 39l24 194q10 82 48.5 125t104.5 43q60 0 84 -49q2 -3 3.5 -3t2.5 4l3 28
q1 5 4.5 8.5zM241.5 129q14.5 16 18.5 42l21 172q3 26 -8 42t-31 16t-34.5 -16t-17.5 -42l-22 -172q-3 -26 8 -42t31 -16t34.5 16zM306 591.5q-19 19.5 -19 49.5q0 38 25.5 63.5t62.5 25.5q31 0 49.5 -18.5t18.5 -49.5q0 -38 -26 -64t-62 -26q-30 0 -49 19.5zM128 591.5
q-19 19.5 -19 49.5q0 38 25.5 63.5t62.5 25.5q31 0 49.5 -18.5t18.5 -49.5q0 -38 -26 -64t-62 -26q-30 0 -49 19.5z" />
    <glyph glyph-name="aring" unicode="&#xe5;" horiz-adv-x="431" 
d="M304.5 510.5q3.5 3.5 8.5 3.5h114q5 0 8 -3.5t2 -8.5l-60 -490q-1 -5 -4.5 -8.5t-8.5 -3.5h-114q-5 0 -8 3.5t-2 8.5l4 28q0 4 -2 4t-4 -3q-36 -49 -96 -49q-58 0 -86 34t-28 95q0 25 2 39l24 194q10 82 48.5 125t104.5 43q60 0 84 -49q2 -3 3.5 -3t2.5 4l3 28
q1 5 4.5 8.5zM241.5 129q14.5 16 18.5 42l21 172q3 26 -8 42t-31 16t-34.5 -16t-17.5 -42l-22 -172q-3 -26 8 -42t31 -16t34.5 16zM189.5 593.5q-29.5 30.5 -29.5 77.5q0 38 18.5 70t50 51t67.5 19q46 0 76 -30t30 -77q0 -38 -18.5 -70.5t-50 -51.5t-67.5 -19
q-47 0 -76.5 30.5zM313 654q17 17 17 40q0 19 -12.5 31.5t-30.5 12.5q-21 0 -37.5 -16.5t-16.5 -40.5q0 -19 11.5 -31.5t30.5 -12.5q21 0 38 17z" />
    <glyph glyph-name="ae" unicode="&#xe6;" horiz-adv-x="665" 
d="M57.5 16.5q-38.5 24.5 -38.5 96.5q0 9 2 33q11 90 62.5 122.5t144.5 32.5h50q2 0 3.5 1.5t1.5 3.5l4 33q1 4 1 13q0 23 -11.5 36t-31.5 13q-18 0 -32.5 -10.5t-20.5 -28.5q-3 -11 -13 -11l-114 3q-11 0 -10 12q13 72 69 114t132 42q37 0 63.5 -12t47.5 -36q3 -4 7 0
q53 48 131 48q74 0 117 -39t43 -104q0 -7 -2 -25l-16 -135q-1 -5 -4.5 -8.5t-8.5 -3.5h-214q-5 0 -5 -5l-4 -31q-3 -23 8 -38.5t32 -15.5q17 0 30 11t20 26q6 11 15 10l109 -10q12 -2 9 -13q-15 -71 -63.5 -110t-124.5 -39q-51 0 -85 18t-40 41q-1 1 -1.5 2.5t-1.5 0.5
q-13 -25 -60 -43.5t-107 -18.5q-55 0 -93.5 24.5zM432 301h83q4 0 6 5l4 38q3 25 -8 41t-31 16q-21 0 -36 -16t-18 -41l-4 -38q-2 -5 4 -5zM241.5 111q19.5 14 22.5 38l6 52q0 5 -4 5h-40q-29 0 -47.5 -18t-18.5 -50q0 -20 11 -30.5t29 -10.5q22 0 41.5 14z" />
    <glyph glyph-name="ccedilla" unicode="&#xe7;" horiz-adv-x="421" 
d="M414.5 333.5q-3.5 -3.5 -8.5 -3.5l-114 -5q-11 0 -10 12l1 12q3 22 -8.5 37t-31.5 15q-21 0 -35.5 -16t-17.5 -42l-22 -172q-3 -26 8 -42t32 -16q20 0 35 15.5t18 36.5l1 13q1 5 5 8.5t9 3.5l113 -1q5 0 8 -3.5t2 -8.5l-3 -23q-8 -62 -47.5 -103.5t-103.5 -54.5
q-6 -2 -3 -6q24 -34 24 -73q0 -22 -7 -40q-12 -34 -36 -48t-54 -14q-26 0 -45 7q-10 3 -7 14l11 46q3 11 15 9q11 -2 21 4.5t15 20.5q2 8 2 12q0 28 -31 66l-5 3q-57 10 -86.5 46t-29.5 92q0 16 1 25l24 194q9 76 64 122t140 46q78 0 121.5 -38.5t43.5 -101.5q0 -15 -1 -22
l-3 -18q-1 -5 -4.5 -8.5z" />
    <glyph glyph-name="egrave" unicode="&#xe8;" horiz-adv-x="423" 
d="M400.5 216.5q-3.5 -3.5 -8.5 -3.5h-214q-2 0 -3.5 -1.5t-1.5 -3.5l-5 -37q-3 -25 8.5 -41.5t31.5 -16.5q18 0 31.5 12.5t19.5 31.5q4 10 14 10l111 -6q5 0 7.5 -3.5t1.5 -9.5q-16 -77 -66 -116.5t-134 -39.5q-79 0 -122 37t-43 104q0 9 2 27l24 194q9 76 64 122t140 46
q78 0 121.5 -38.5t43.5 -104.5q0 -7 -2 -25l-16 -129q-1 -5 -4.5 -8.5zM208 385q-15 -16 -18 -41l-5 -39q0 -5 4 -5h84q2 0 3.5 1.5t1.5 3.5l5 39q3 25 -8.5 41t-31.5 16t-35 -16zM308 584q0 -8 -11 -8h-73q-7 0 -13 7l-61 102q-2 4 -2 7t3 5.5t8 2.5h90q9 0 13 -8l45 -102
q1 -2 1 -6z" />
    <glyph glyph-name="eacute" unicode="&#xe9;" horiz-adv-x="423" 
d="M400.5 216.5q-3.5 -3.5 -8.5 -3.5h-214q-2 0 -3.5 -1.5t-1.5 -3.5l-5 -37q-3 -25 8.5 -41.5t31.5 -16.5q18 0 31.5 12.5t19.5 31.5q4 10 14 10l111 -6q5 0 7.5 -3.5t1.5 -9.5q-16 -77 -66 -116.5t-134 -39.5q-79 0 -122 37t-43 104q0 9 2 27l24 194q9 76 64 122t140 46
q78 0 121.5 -38.5t43.5 -104.5q0 -7 -2 -25l-16 -129q-1 -5 -4.5 -8.5zM208 385q-15 -16 -18 -41l-5 -39q0 -5 4 -5h84q2 0 3.5 1.5t1.5 3.5l5 39q3 25 -8.5 41t-31.5 16t-35 -16zM201 582q0 4 3 8l69 102q5 8 16 8h90q9 0 9 -6q0 -5 -4 -9l-87 -102q-7 -7 -15 -7h-71
q-10 0 -10 6z" />
    <glyph glyph-name="ecircumflex" unicode="&#xea;" horiz-adv-x="423" 
d="M400.5 216.5q-3.5 -3.5 -8.5 -3.5h-214q-2 0 -3.5 -1.5t-1.5 -3.5l-5 -37q-3 -25 8.5 -41.5t31.5 -16.5q18 0 31.5 12.5t19.5 31.5q4 10 14 10l111 -6q5 0 7.5 -3.5t1.5 -9.5q-16 -77 -66 -116.5t-134 -39.5q-79 0 -122 37t-43 104q0 9 2 27l24 194q9 76 64 122t140 46
q78 0 121.5 -38.5t43.5 -104.5q0 -7 -2 -25l-16 -129q-1 -5 -4.5 -8.5zM208 385q-15 -16 -18 -41l-5 -39q0 -5 4 -5h84q2 0 3.5 1.5t1.5 3.5l5 39q3 25 -8.5 41t-31.5 16t-35 -16zM122 580q0 4 3 8l74 104q5 8 15 8h125q9 0 12 -8l52 -104q1 -2 1 -5q0 -9 -11 -9h-85
q-10 0 -13 9l-22 56q-3 5 -6 0l-36 -56q-2 -4 -6.5 -6.5t-8.5 -2.5h-85q-9 0 -9 6z" />
    <glyph glyph-name="edieresis" unicode="&#xeb;" horiz-adv-x="423" 
d="M400.5 216.5q-3.5 -3.5 -8.5 -3.5h-214q-2 0 -3.5 -1.5t-1.5 -3.5l-5 -37q-3 -25 8.5 -41.5t31.5 -16.5q18 0 31.5 12.5t19.5 31.5q4 10 14 10l111 -6q5 0 7.5 -3.5t1.5 -9.5q-16 -77 -66 -116.5t-134 -39.5q-79 0 -122 37t-43 104q0 9 2 27l24 194q9 76 64 122t140 46
q78 0 121.5 -38.5t43.5 -104.5q0 -7 -2 -25l-16 -129q-1 -5 -4.5 -8.5zM208 385q-15 -16 -18 -41l-5 -39q0 -5 4 -5h84q2 0 3.5 1.5t1.5 3.5l5 39q3 25 -8.5 41t-31.5 16t-35 -16zM302 591.5q-19 19.5 -19 49.5q0 38 25.5 63.5t62.5 25.5q31 0 49.5 -18.5t18.5 -49.5
q0 -38 -26 -64t-62 -26q-30 0 -49 19.5zM124 591.5q-19 19.5 -19 49.5q0 38 25.5 63.5t62.5 25.5q31 0 49.5 -18.5t18.5 -49.5q0 -38 -26 -64t-62 -26q-30 0 -49 19.5z" />
    <glyph glyph-name="igrave" unicode="&#xec;" horiz-adv-x="184" 
d="M7.5 3.5q-3.5 3.5 -2.5 8.5l61 490q0 5 4 8.5t9 3.5h113q5 0 8 -3.5t2 -8.5l-60 -490q-1 -5 -4.5 -8.5t-8.5 -3.5h-113q-5 0 -8.5 3.5zM188 584q0 -8 -11 -8h-73q-7 0 -13 7l-61 102q-2 4 -2 7t3 5.5t8 2.5h90q9 0 13 -8l45 -102q1 -2 1 -6z" />
    <glyph glyph-name="iacute" unicode="&#xed;" horiz-adv-x="184" 
d="M7.5 3.5q-3.5 3.5 -2.5 8.5l61 490q0 5 4 8.5t9 3.5h113q5 0 8 -3.5t2 -8.5l-60 -490q-1 -5 -4.5 -8.5t-8.5 -3.5h-113q-5 0 -8.5 3.5zM81 582q0 4 3 8l69 102q5 8 16 8h90q9 0 9 -6q0 -5 -4 -9l-87 -102q-7 -7 -15 -7h-71q-10 0 -10 6z" />
    <glyph glyph-name="icircumflex" unicode="&#xee;" horiz-adv-x="184" 
d="M7.5 3.5q-3.5 3.5 -2.5 8.5l61 490q0 5 4 8.5t9 3.5h113q5 0 8 -3.5t2 -8.5l-60 -490q-1 -5 -4.5 -8.5t-8.5 -3.5h-113q-5 0 -8.5 3.5zM2 580q0 4 3 8l74 104q5 8 15 8h125q9 0 12 -8l52 -104q1 -2 1 -5q0 -9 -11 -9h-85q-10 0 -13 9l-22 56q-3 5 -6 0l-36 -56
q-2 -4 -6.5 -6.5t-8.5 -2.5h-85q-9 0 -9 6z" />
    <glyph glyph-name="idieresis" unicode="&#xef;" horiz-adv-x="184" 
d="M7.5 3.5q-3.5 3.5 -2.5 8.5l61 490q0 5 4 8.5t9 3.5h113q5 0 8 -3.5t2 -8.5l-60 -490q-1 -5 -4.5 -8.5t-8.5 -3.5h-113q-5 0 -8.5 3.5zM182 591.5q-19 19.5 -19 49.5q0 38 25.5 63.5t62.5 25.5q31 0 49.5 -18.5t18.5 -49.5q0 -38 -26 -64t-62 -26q-30 0 -49 19.5z
M4 591.5q-19 19.5 -19 49.5q0 38 25.5 63.5t62.5 25.5q31 0 49.5 -18.5t18.5 -49.5q0 -38 -26 -64t-62 -26q-30 0 -49 19.5z" />
    <glyph glyph-name="eth" unicode="&#xf0;" horiz-adv-x="436" 
d="M457 607q0 -9 -10 -12l-54 -14q-5 -2 -4 -6q35 -91 35 -183q0 -35 -4 -66l-20 -166q-10 -78 -64.5 -123t-141.5 -45q-78 0 -121.5 38t-43.5 105q0 16 1 25l21 166q6 49 32 87t65 59.5t84 21.5q38 0 55 -17q3 -3 3 2q-6 34 -19 68q-2 5 -6 3l-76 -19l-3 -1q-8 0 -10 10
l-5 35v2q0 9 11 13l57 15q5 2 4 6q-17 34 -41 74q-2 6 -2 7q0 8 11 8h107q9 0 13 -7t29 -52q2 -5 5 -3l76 19l3 1q8 0 10 -10l3 -38v-3zM273.5 356q-11.5 16 -32.5 16t-36.5 -16t-18.5 -41l-18 -144q-3 -25 8.5 -41.5t32.5 -16.5t36.5 16.5t18.5 41.5l18 144q3 25 -8.5 41z
" />
    <glyph glyph-name="ntilde" unicode="&#xf1;" horiz-adv-x="433" 
d="M213 601q-7 -12 -17 -4l-34 29q-6 6 -3 16q16 34 39.5 51.5t49.5 17.5q29 0 57 -23q10 -9 17.5 -13.5t17.5 -4.5q21 0 36 20q8 11 17 4l32 -27q9 -6 3 -16q-19 -34 -45 -49.5t-50 -15.5q-12 0 -22.5 4.5t-25.5 13.5q-7 4 -12.5 8t-11.5 7t-13 3q-20 0 -35 -21z
M398.5 488.5q28.5 -33.5 28.5 -96.5q0 -20 -3 -41l-41 -339q-1 -5 -4.5 -8.5t-8.5 -3.5h-114q-5 0 -8 3.5t-2 8.5l40 328q1 5 1 15q0 46 -37 46q-22 0 -36 -16.5t-18 -46.5l-40 -326q-1 -5 -4.5 -8.5t-8.5 -3.5h-114q-5 0 -8 3.5t-2 8.5l60 490q1 5 4.5 8.5t8.5 3.5h114
q5 0 8 -3.5t2 -8.5l-2 -19v-1q0 -2 2.5 -1.5t5.5 3.5q37 38 91 38q57 0 85.5 -33.5z" />
    <glyph glyph-name="ograve" unicode="&#xf2;" horiz-adv-x="429" 
d="M72.5 30q-43.5 38 -43.5 105q0 16 1 25l24 194q9 76 64.5 122t140.5 46q79 0 123 -38.5t44 -104.5q0 -9 -2 -25l-24 -194q-10 -78 -64.5 -123t-141.5 -45q-78 0 -121.5 38zM245.5 130q15.5 16 18.5 41l22 173q3 25 -9 41t-33 16t-36 -16t-18 -41l-22 -173q-3 -25 8.5 -41
t32.5 -16t36.5 16zM311 584q0 -8 -11 -8h-73q-7 0 -13 7l-61 102q-2 4 -2 7t3 5.5t8 2.5h90q9 0 13 -8l45 -102q1 -2 1 -6z" />
    <glyph glyph-name="oacute" unicode="&#xf3;" horiz-adv-x="429" 
d="M72.5 30q-43.5 38 -43.5 105q0 16 1 25l24 194q9 76 64.5 122t140.5 46q79 0 123 -38.5t44 -104.5q0 -9 -2 -25l-24 -194q-10 -78 -64.5 -123t-141.5 -45q-78 0 -121.5 38zM245.5 130q15.5 16 18.5 41l22 173q3 25 -9 41t-33 16t-36 -16t-18 -41l-22 -173q-3 -25 8.5 -41
t32.5 -16t36.5 16zM204 582q0 4 3 8l69 102q5 8 16 8h90q9 0 9 -6q0 -5 -4 -9l-87 -102q-7 -7 -15 -7h-71q-10 0 -10 6z" />
    <glyph glyph-name="ocircumflex" unicode="&#xf4;" horiz-adv-x="429" 
d="M72.5 30q-43.5 38 -43.5 105q0 16 1 25l24 194q9 76 64.5 122t140.5 46q79 0 123 -38.5t44 -104.5q0 -9 -2 -25l-24 -194q-10 -78 -64.5 -123t-141.5 -45q-78 0 -121.5 38zM245.5 130q15.5 16 18.5 41l22 173q3 25 -9 41t-33 16t-36 -16t-18 -41l-22 -173q-3 -25 8.5 -41
t32.5 -16t36.5 16zM125 580q0 4 3 8l74 104q5 8 15 8h125q9 0 12 -8l52 -104q1 -2 1 -5q0 -9 -11 -9h-85q-10 0 -13 9l-22 56q-3 5 -6 0l-36 -56q-2 -4 -6.5 -6.5t-8.5 -2.5h-85q-9 0 -9 6z" />
    <glyph glyph-name="otilde" unicode="&#xf5;" horiz-adv-x="429" 
d="M72.5 30q-43.5 38 -43.5 105q0 16 1 25l24 194q9 76 64.5 122t140.5 46q79 0 123 -38.5t44 -104.5q0 -9 -2 -25l-24 -194q-10 -78 -64.5 -123t-141.5 -45q-78 0 -121.5 38zM245.5 130q15.5 16 18.5 41l22 173q3 25 -9 41t-33 16t-36 -16t-18 -41l-22 -173q-3 -25 8.5 -41
t32.5 -16t36.5 16zM281 604q-8 4 -18.5 11t-19.5 7q-22 0 -38 -22q-7 -10 -17 -4l-37 30q-6 6 -2 16q17 34 41.5 51.5t51.5 17.5q31 0 59 -23q3 -2 9.5 -7t13.5 -8t15 -3q22 0 37 20q9 12 17 5l36 -28q4 -4 4 -8q0 -6 -6 -15q-20 -30 -46 -44t-49 -14q-22 0 -51 18z" />
    <glyph glyph-name="odieresis" unicode="&#xf6;" horiz-adv-x="429" 
d="M72.5 30q-43.5 38 -43.5 105q0 16 1 25l24 194q9 76 64.5 122t140.5 46q79 0 123 -38.5t44 -104.5q0 -9 -2 -25l-24 -194q-10 -78 -64.5 -123t-141.5 -45q-78 0 -121.5 38zM245.5 130q15.5 16 18.5 41l22 173q3 25 -9 41t-33 16t-36 -16t-18 -41l-22 -173q-3 -25 8.5 -41
t32.5 -16t36.5 16zM305 591.5q-19 19.5 -19 49.5q0 38 25.5 63.5t62.5 25.5q31 0 49.5 -18.5t18.5 -49.5q0 -38 -26 -64t-62 -26q-30 0 -49 19.5zM127 591.5q-19 19.5 -19 49.5q0 38 25.5 63.5t62.5 25.5q31 0 49.5 -18.5t18.5 -49.5q0 -38 -26 -64t-62 -26q-30 0 -49 19.5z
" />
    <glyph glyph-name="divide" unicode="&#xf7;" horiz-adv-x="425" 
d="M202.5 429.5q-17.5 17.5 -17.5 42.5q0 31 23.5 54t52.5 23q25 0 42 -17t17 -42q0 -31 -23 -54.5t-52 -23.5q-25 0 -42.5 17.5zM39 261.5q-3 3.5 -2 8.5l10 82q1 5 4.5 8.5t8.5 3.5h356q5 0 8 -3.5t2 -8.5l-10 -82q-1 -5 -4.5 -8.5t-8.5 -3.5h-356q-5 0 -8 3.5z
M161.5 95.5q-17.5 17.5 -17.5 42.5q0 31 23.5 54t52.5 23q25 0 42 -17t17 -42q0 -31 -23 -54.5t-52 -23.5q-25 0 -42.5 17.5z" />
    <glyph glyph-name="oslash" unicode="&#xf8;" horiz-adv-x="443" 
d="M449 499l-35 -56l-1 -6q11 -28 11 -57q0 -8 -2 -26l-24 -194q-10 -78 -64.5 -123t-141.5 -45q-33 0 -65 8q-5 1 -6 -3l-26 -42q-2 -5 -7 -6.5t-10 1.5l-67 46q-8 6 -3 16l31 49q3 4 1 7q-13 29 -13 67q0 16 1 25l24 194q9 76 64.5 122t140.5 46q39 0 72 -11q4 -1 7 3
l26 43q3 5 8 6t9 -2l67 -46q9 -6 3 -16zM275 385q-12 16 -33 16t-36 -16t-18 -41l-22 -173q-3 -25 8.5 -41t32.5 -16t36.5 16t19.5 41l21 173q3 25 -9 41z" />
    <glyph glyph-name="ugrave" unicode="&#xf9;" horiz-adv-x="433" 
d="M306.5 510.5q3.5 3.5 8.5 3.5h114q5 0 8 -3.5t2 -8.5l-60 -490q-1 -5 -4.5 -8.5t-8.5 -3.5h-114q-5 0 -8 3.5t-2 8.5l2 17q1 3 -1 4t-4 -2q-32 -38 -92 -38q-52 0 -85 29.5t-33 90.5q0 9 2 29l44 360q1 5 4.5 8.5t8.5 3.5h114q5 0 8 -3.5t2 -8.5l-40 -329q-1 -5 -1 -15
q0 -22 9.5 -33.5t27.5 -11.5q22 0 36 17t18 46l40 326q1 5 4.5 8.5zM311 584q0 -8 -11 -8h-73q-7 0 -13 7l-61 102q-2 4 -2 7t3 5.5t8 2.5h90q9 0 13 -8l45 -102q1 -2 1 -6z" />
    <glyph glyph-name="uacute" unicode="&#xfa;" horiz-adv-x="433" 
d="M306.5 510.5q3.5 3.5 8.5 3.5h114q5 0 8 -3.5t2 -8.5l-60 -490q-1 -5 -4.5 -8.5t-8.5 -3.5h-114q-5 0 -8 3.5t-2 8.5l2 17q1 3 -1 4t-4 -2q-32 -38 -92 -38q-52 0 -85 29.5t-33 90.5q0 9 2 29l44 360q1 5 4.5 8.5t8.5 3.5h114q5 0 8 -3.5t2 -8.5l-40 -329q-1 -5 -1 -15
q0 -22 9.5 -33.5t27.5 -11.5q22 0 36 17t18 46l40 326q1 5 4.5 8.5zM203 582q0 4 3 8l69 102q5 8 16 8h90q9 0 9 -6q0 -5 -4 -9l-87 -102q-7 -7 -15 -7h-71q-10 0 -10 6z" />
    <glyph glyph-name="ucircumflex" unicode="&#xfb;" horiz-adv-x="433" 
d="M306.5 510.5q3.5 3.5 8.5 3.5h114q5 0 8 -3.5t2 -8.5l-60 -490q-1 -5 -4.5 -8.5t-8.5 -3.5h-114q-5 0 -8 3.5t-2 8.5l2 17q1 3 -1 4t-4 -2q-32 -38 -92 -38q-52 0 -85 29.5t-33 90.5q0 9 2 29l44 360q1 5 4.5 8.5t8.5 3.5h114q5 0 8 -3.5t2 -8.5l-40 -329q-1 -5 -1 -15
q0 -22 9.5 -33.5t27.5 -11.5q22 0 36 17t18 46l40 326q1 5 4.5 8.5zM124 580q0 4 3 8l74 104q5 8 15 8h125q9 0 12 -8l52 -104q1 -2 1 -5q0 -9 -11 -9h-85q-10 0 -13 9l-22 56q-3 5 -6 0l-36 -56q-2 -4 -6.5 -6.5t-8.5 -2.5h-85q-9 0 -9 6z" />
    <glyph glyph-name="udieresis" unicode="&#xfc;" horiz-adv-x="433" 
d="M306.5 510.5q3.5 3.5 8.5 3.5h114q5 0 8 -3.5t2 -8.5l-60 -490q-1 -5 -4.5 -8.5t-8.5 -3.5h-114q-5 0 -8 3.5t-2 8.5l2 17q1 3 -1 4t-4 -2q-32 -38 -92 -38q-52 0 -85 29.5t-33 90.5q0 9 2 29l44 360q1 5 4.5 8.5t8.5 3.5h114q5 0 8 -3.5t2 -8.5l-40 -329q-1 -5 -1 -15
q0 -22 9.5 -33.5t27.5 -11.5q22 0 36 17t18 46l40 326q1 5 4.5 8.5zM304 591.5q-19 19.5 -19 49.5q0 38 25.5 63.5t62.5 25.5q31 0 49.5 -18.5t18.5 -49.5q0 -38 -26 -64t-62 -26q-30 0 -49 19.5zM126 591.5q-19 19.5 -19 49.5q0 38 25.5 63.5t62.5 25.5q31 0 49.5 -18.5
t18.5 -49.5q0 -38 -26 -64t-62 -26q-30 0 -49 19.5z" />
    <glyph glyph-name="yacute" unicode="&#xfd;" horiz-adv-x="410" 
d="M-10.5 -195.5q-1.5 3.5 -0.5 8.5l11 92q2 12 10 12q50 1 73.5 16.5t32.5 63.5v6l-61 499v2q0 11 12 11h122q12 0 12 -11l8 -297q0 -4 2.5 -4t3.5 4l79 297q3 11 14 11l122 -2q6 0 8.5 -3.5t0.5 -9.5l-192 -519q-28 -73 -54.5 -109.5t-71 -53.5t-123.5 -17h-5
q-2 0 -3.5 3.5zM194 582q0 4 3 8l69 102q5 8 16 8h90q9 0 9 -6q0 -5 -4 -9l-87 -102q-7 -7 -15 -7h-71q-10 0 -10 6z" />
    <glyph glyph-name="thorn" unicode="&#xfe;" horiz-adv-x="429" 
d="M398 489q29 -33 29 -95q0 -19 -3 -40l-24 -194q-10 -80 -48 -124t-106 -44q-61 0 -85 51q-1 3 -3 2.5t-3 -4.5l-28 -229q-1 -5 -4.5 -8.5t-8.5 -3.5h-113q-11 0 -11 12l108 876q1 5 4.5 8.5t8.5 3.5h114q5 0 8 -3.5t2 -8.5l-27 -217q0 -2 2 -2q4 0 8 7q35 46 93 46
t87 -33zM278 385q-11 16 -32 16q-20 0 -34.5 -16t-18.5 -42l-21 -172q-3 -26 8 -42t31 -16q21 0 35.5 16t17.5 42l22 172q3 26 -8 42z" />
    <glyph glyph-name="ydieresis" unicode="&#xff;" horiz-adv-x="410" 
d="M-10.5 -195.5q-1.5 3.5 -0.5 8.5l11 92q2 12 10 12q50 1 73.5 16.5t32.5 63.5v6l-61 499v2q0 11 12 11h122q12 0 12 -11l8 -297q0 -4 2.5 -4t3.5 4l79 297q3 11 14 11l122 -2q6 0 8.5 -3.5t0.5 -9.5l-192 -519q-28 -73 -54.5 -109.5t-71 -53.5t-123.5 -17h-5
q-2 0 -3.5 3.5zM295 591.5q-19 19.5 -19 49.5q0 38 25.5 63.5t62.5 25.5q31 0 49.5 -18.5t18.5 -49.5q0 -38 -26 -64t-62 -26q-30 0 -49 19.5zM117 591.5q-19 19.5 -19 49.5q0 38 25.5 63.5t62.5 25.5q31 0 49.5 -18.5t18.5 -49.5q0 -38 -26 -64t-62 -26q-30 0 -49 19.5z
" />
    <glyph glyph-name="Amacron" unicode="&#x100;" horiz-adv-x="468" 
d="M297 11l-4 96q1 2 -1 3.5t-4 1.5h-123q-6 0 -6 -5l-28 -96q-3 -11 -14 -11h-113q-12 0 -8 13l225 676q3 11 14 11h131q10 0 12 -11l58 -676v-3q0 -10 -11 -10h-117q-11 0 -11 11zM196 221h87q5 0 5 5l-12 273q-1 3 -3 3t-3 -3l-77 -273q-2 -5 3 -5zM202 770.5
q-3 3.5 -2 8.5l9 72q0 5 4 8.5t9 3.5h190q5 0 8 -3.5t2 -8.5l-9 -72q-1 -5 -4.5 -8.5t-8.5 -3.5h-190q-5 0 -8 3.5z" />
    <glyph glyph-name="amacron" unicode="&#x101;" horiz-adv-x="431" 
d="M304.5 510.5q3.5 3.5 8.5 3.5h114q5 0 8 -3.5t2 -8.5l-60 -490q-1 -5 -4.5 -8.5t-8.5 -3.5h-114q-5 0 -8 3.5t-2 8.5l4 28q0 4 -2 4t-4 -3q-36 -49 -96 -49q-58 0 -86 34t-28 95q0 25 2 39l24 194q10 82 48.5 125t104.5 43q60 0 84 -49q2 -3 3.5 -3t2.5 4l3 28
q1 5 4.5 8.5zM241.5 129q14.5 16 18.5 42l21 172q3 26 -8 42t-31 16t-34.5 -16t-17.5 -42l-22 -172q-3 -26 8 -42t31 -16t34.5 16zM161 584.5q-3 3.5 -2 8.5l9 72q0 5 4 8.5t9 3.5h190q5 0 8 -3.5t2 -8.5l-9 -72q-1 -5 -4.5 -8.5t-8.5 -3.5h-190q-5 0 -8 3.5z" />
    <glyph glyph-name="Abreve" unicode="&#x102;" horiz-adv-x="468" 
d="M297 11l-4 96q1 2 -1 3.5t-4 1.5h-123q-6 0 -6 -5l-28 -96q-3 -11 -14 -11h-113q-12 0 -8 13l225 676q3 11 14 11h131q10 0 12 -11l58 -676v-3q0 -10 -11 -10h-117q-11 0 -11 11zM196 221h87q5 0 5 5l-12 273q-1 3 -3 3t-3 -3l-77 -273q-2 -5 3 -5zM228.5 764
q-27.5 29 -25.5 77q0 12 12 12h48q11 0 11 -12q1 -20 11.5 -32t27.5 -12t31 12t19 32q3 12 14 12h48q12 0 10 -12q-10 -48 -45.5 -77t-84.5 -29t-76.5 29z" />
    <glyph glyph-name="abreve" unicode="&#x103;" horiz-adv-x="431" 
d="M304.5 510.5q3.5 3.5 8.5 3.5h114q5 0 8 -3.5t2 -8.5l-60 -490q-1 -5 -4.5 -8.5t-8.5 -3.5h-114q-5 0 -8 3.5t-2 8.5l4 28q0 4 -2 4t-4 -3q-36 -49 -96 -49q-58 0 -86 34t-28 95q0 25 2 39l24 194q10 82 48.5 125t104.5 43q60 0 84 -49q2 -3 3.5 -3t2.5 4l3 28
q1 5 4.5 8.5zM241.5 129q14.5 16 18.5 42l21 172q3 26 -8 42t-31 16t-34.5 -16t-17.5 -42l-22 -172q-3 -26 8 -42t31 -16t34.5 16zM187.5 578q-27.5 29 -25.5 77q0 12 12 12h48q11 0 11 -12q1 -20 11.5 -32t27.5 -12t31 12t19 32q3 12 14 12h48q12 0 10 -12
q-10 -48 -45.5 -77t-84.5 -29t-76.5 29z" />
    <glyph glyph-name="Aogonek" unicode="&#x104;" horiz-adv-x="468" 
d="M297 11l-4 96q1 2 -1 3.5t-4 1.5h-123q-6 0 -6 -5l-28 -96q-3 -11 -14 -11h-113q-12 0 -8 13l225 676q3 11 14 11h131q10 0 12 -11l58 -676v-3q0 -10 -11 -10h-117q-11 0 -11 11zM196 221h87q5 0 5 5l-12 273q-1 3 -3 3t-3 -3l-77 -273q-2 -5 3 -5zM414 -179.5
q-2 -3.5 -8 -4.5q-28 -7 -47 -7q-32 0 -54 17t-22 57q0 60 58 111q6 6 15 6h61q9 0 9 -5q0 -4 -6 -10q-45 -40 -45 -73q0 -15 8 -21.5t21 -4.5h3q9 0 9 -10v-46q0 -6 -2 -9.5z" />
    <glyph glyph-name="aogonek" unicode="&#x105;" horiz-adv-x="438" 
d="M352 -114q9 0 9 -10v-46q0 -11 -10 -14q-28 -7 -47 -7q-32 0 -54 17t-22 57q0 58 56 111q4 2 3 4t-4 2h-26q-5 0 -8 3.5t-2 8.5l3 28q1 4 -1 4t-4 -3q-37 -49 -97 -49q-113 0 -113 129q0 25 2 39l24 194q10 82 48 125t104 43q61 0 85 -49q2 -3 3.5 -3t2.5 4l3 28
q1 5 4.5 8.5t8.5 3.5h114q5 0 8 -3.5t2 -8.5l-61 -493q0 -9 -8 -15q-59 -48 -55 -84q1 -14 9 -20t20 -4h3zM248.5 129q14.5 16 17.5 42l22 172q3 26 -8 42t-31 16t-34.5 -16t-18.5 -42l-21 -172q-3 -26 8 -42t31 -16t34.5 16z" />
    <glyph glyph-name="Cacute" unicode="&#x106;" horiz-adv-x="450" 
d="M81 36.5q-46 44.5 -46 120.5q0 10 2 32l40 324q10 89 69.5 142t147.5 53q80 0 126 -44.5t46 -120.5q0 -10 -2 -30l-2 -11q-1 -5 -4.5 -8.5t-8.5 -3.5l-114 -5q-11 0 -10 11l3 26q1 4 1 12q0 24 -13.5 38.5t-36.5 14.5q-25 0 -43 -18t-22 -47l-42 -345q-1 -4 -1 -11
q0 -24 13.5 -38.5t35.5 -14.5q26 0 44 17.5t22 46.5l3 27q1 5 4.5 8.5t8.5 3.5l113 -5q5 0 8 -3.5t2 -8.5l-1 -10q-11 -90 -71 -143.5t-147 -53.5q-79 0 -125 44.5zM238 768q0 4 3 8l69 102q5 8 16 8h90q9 0 9 -6q0 -5 -4 -9l-87 -102q-7 -7 -15 -7h-71q-10 0 -10 6z" />
    <glyph glyph-name="cacute" unicode="&#x107;" horiz-adv-x="421" 
d="M72 30q-43 38 -43 105q0 16 1 25l24 194q9 76 64 122t140 46q78 0 121.5 -38.5t43.5 -101.5q0 -15 -1 -22l-3 -18q-1 -5 -4.5 -8.5t-8.5 -3.5l-114 -5q-11 0 -10 12l1 12q3 22 -8.5 37t-31.5 15q-21 0 -35.5 -16t-17.5 -42l-22 -172q-3 -26 8 -42t32 -16q20 0 35 15.5
t18 36.5l1 13q1 5 5 8.5t9 3.5l113 -1q5 0 8 -3.5t2 -8.5l-3 -23q-9 -74 -63.5 -118t-139.5 -44q-78 0 -121 38zM203 582q0 4 3 8l69 102q5 8 16 8h90q9 0 9 -6q0 -5 -4 -9l-87 -102q-7 -7 -15 -7h-71q-10 0 -10 6z" />
    <glyph glyph-name="Ccircumflex" unicode="&#x108;" horiz-adv-x="450" 
d="M81 36.5q-46 44.5 -46 120.5q0 10 2 32l40 324q10 89 69.5 142t147.5 53q80 0 126 -44.5t46 -120.5q0 -10 -2 -30l-2 -11q-1 -5 -4.5 -8.5t-8.5 -3.5l-114 -5q-11 0 -10 11l3 26q1 4 1 12q0 24 -13.5 38.5t-36.5 14.5q-25 0 -43 -18t-22 -47l-42 -345q-1 -4 -1 -11
q0 -24 13.5 -38.5t35.5 -14.5q26 0 44 17.5t22 46.5l3 27q1 5 4.5 8.5t8.5 3.5l113 -5q5 0 8 -3.5t2 -8.5l-1 -10q-11 -90 -71 -143.5t-147 -53.5q-79 0 -125 44.5zM159 766q0 4 3 8l74 104q5 8 15 8h125q9 0 12 -8l52 -104q1 -2 1 -5q0 -9 -11 -9h-85q-10 0 -13 9l-22 56
q-3 5 -6 0l-36 -56q-2 -4 -6.5 -6.5t-8.5 -2.5h-85q-9 0 -9 6z" />
    <glyph glyph-name="ccircumflex" unicode="&#x109;" horiz-adv-x="421" 
d="M72 30q-43 38 -43 105q0 16 1 25l24 194q9 76 64 122t140 46q78 0 121.5 -38.5t43.5 -101.5q0 -15 -1 -22l-3 -18q-1 -5 -4.5 -8.5t-8.5 -3.5l-114 -5q-11 0 -10 12l1 12q3 22 -8.5 37t-31.5 15q-21 0 -35.5 -16t-17.5 -42l-22 -172q-3 -26 8 -42t32 -16q20 0 35 15.5
t18 36.5l1 13q1 5 5 8.5t9 3.5l113 -1q5 0 8 -3.5t2 -8.5l-3 -23q-9 -74 -63.5 -118t-139.5 -44q-78 0 -121 38zM123 580q0 4 3 8l74 104q5 8 15 8h125q9 0 12 -8l52 -104q1 -2 1 -5q0 -9 -11 -9h-85q-10 0 -13 9l-22 56q-3 5 -6 0l-36 -56q-2 -4 -6.5 -6.5t-8.5 -2.5h-85
q-9 0 -9 6z" />
    <glyph glyph-name="Cdotaccent" unicode="&#x10a;" horiz-adv-x="450" 
d="M81 36.5q-46 44.5 -46 120.5q0 10 2 32l40 324q10 89 69.5 142t147.5 53q80 0 126 -44.5t46 -120.5q0 -10 -2 -30l-2 -11q-1 -5 -4.5 -8.5t-8.5 -3.5l-114 -5q-11 0 -10 11l3 26q1 4 1 12q0 24 -13.5 38.5t-36.5 14.5q-25 0 -43 -18t-22 -47l-42 -345q-1 -4 -1 -11
q0 -24 13.5 -38.5t35.5 -14.5q26 0 44 17.5t22 46.5l3 27q1 5 4.5 8.5t8.5 3.5l113 -5q5 0 8 -3.5t2 -8.5l-1 -10q-11 -90 -71 -143.5t-147 -53.5q-79 0 -125 44.5zM251 777.5q-19 19.5 -19 49.5q0 38 25.5 63.5t62.5 25.5q31 0 49.5 -18.5t18.5 -49.5q0 -38 -26 -64
t-62 -26q-30 0 -49 19.5z" />
    <glyph glyph-name="cdotaccent" unicode="&#x10b;" horiz-adv-x="421" 
d="M72 30q-43 38 -43 105q0 16 1 25l24 194q9 76 64 122t140 46q78 0 121.5 -38.5t43.5 -101.5q0 -15 -1 -22l-3 -18q-1 -5 -4.5 -8.5t-8.5 -3.5l-114 -5q-11 0 -10 12l1 12q3 22 -8.5 37t-31.5 15q-21 0 -35.5 -16t-17.5 -42l-22 -172q-3 -26 8 -42t32 -16q20 0 35 15.5
t18 36.5l1 13q1 5 5 8.5t9 3.5l113 -1q5 0 8 -3.5t2 -8.5l-3 -23q-9 -74 -63.5 -118t-139.5 -44q-78 0 -121 38zM215 591.5q-19 19.5 -19 49.5q0 38 25.5 63.5t62.5 25.5q31 0 49.5 -18.5t18.5 -49.5q0 -38 -26 -64t-62 -26q-30 0 -49 19.5z" />
    <glyph glyph-name="Ccaron" unicode="&#x10c;" horiz-adv-x="450" 
d="M81 36.5q-46 44.5 -46 120.5q0 10 2 32l40 324q10 89 69.5 142t147.5 53q80 0 126 -44.5t46 -120.5q0 -10 -2 -30l-2 -11q-1 -5 -4.5 -8.5t-8.5 -3.5l-114 -5q-11 0 -10 11l3 26q1 4 1 12q0 24 -13.5 38.5t-36.5 14.5q-25 0 -43 -18t-22 -47l-42 -345q-1 -4 -1 -11
q0 -24 13.5 -38.5t35.5 -14.5q26 0 44 17.5t22 46.5l3 27q1 5 4.5 8.5t8.5 3.5l113 -5q5 0 8 -3.5t2 -8.5l-1 -10q-11 -90 -71 -143.5t-147 -53.5q-79 0 -125 44.5zM178 878q0 8 11 8h84q10 0 13 -9l23 -56q2 -5 5 0l36 56q6 9 15 9h86q9 0 9 -6q0 -3 -3 -8l-77 -104
q-6 -8 -15 -8h-125q-9 0 -13 8l-48 104q-1 2 -1 6z" />
    <glyph glyph-name="ccaron" unicode="&#x10d;" horiz-adv-x="421" 
d="M72 30q-43 38 -43 105q0 16 1 25l24 194q9 76 64 122t140 46q78 0 121.5 -38.5t43.5 -101.5q0 -15 -1 -22l-3 -18q-1 -5 -4.5 -8.5t-8.5 -3.5l-114 -5q-11 0 -10 12l1 12q3 22 -8.5 37t-31.5 15q-21 0 -35.5 -16t-17.5 -42l-22 -172q-3 -26 8 -42t32 -16q20 0 35 15.5
t18 36.5l1 13q1 5 5 8.5t9 3.5l113 -1q5 0 8 -3.5t2 -8.5l-3 -23q-9 -74 -63.5 -118t-139.5 -44q-78 0 -121 38zM142 692q0 8 11 8h84q10 0 13 -9l23 -56q2 -5 5 0l36 56q6 9 15 9h86q9 0 9 -6q0 -3 -3 -8l-77 -104q-6 -8 -15 -8h-125q-9 0 -13 8l-48 104q-1 2 -1 6z" />
    <glyph glyph-name="Dcaron" unicode="&#x10e;" horiz-adv-x="462" 
d="M27 3.5q-3 3.5 -2 8.5l83 676q1 5 4.5 8.5t8.5 3.5h175q81 0 127.5 -44.5t46.5 -119.5q0 -10 -2 -30l-39 -312q-11 -88 -70.5 -141t-148.5 -53h-175q-5 0 -8 3.5zM180 121l44 1q26 1 45.5 23t24.5 58l36 294q1 6 1 17q0 30 -13.5 47.5t-38.5 17.5h-43q-5 0 -5 -5
l-55 -448q-2 -5 4 -5zM175 877q0 8 11 8h84q10 0 13 -9l23 -56q2 -5 5 0l36 56q6 9 15 9h86q9 0 9 -6q0 -3 -3 -8l-77 -104q-6 -8 -15 -8h-125q-9 0 -13 8l-48 104q-1 2 -1 6z" />
    <glyph glyph-name="dcaron" unicode="&#x10f;" horiz-adv-x="432" 
d="M327.5 696.5q3.5 3.5 8.5 3.5h114q5 0 8 -3.5t2 -8.5l-83 -676q-1 -5 -4.5 -8.5t-8.5 -3.5h-114q-5 0 -8 3.5t-2 8.5l2 16q1 3 -1 3.5t-5 -1.5q-37 -38 -91 -38q-59 0 -88 34.5t-29 96.5q0 24 2 37l24 194q10 81 50 124.5t106 43.5q22 0 44 -8.5t38 -30.5q2 -2 4 -1.5
t2 3.5l25 203q1 5 4.5 8.5zM238.5 125q14.5 12 19.5 32l24 200q0 20 -11 32t-29 12q-20 0 -34.5 -16t-17.5 -41l-22 -174q-3 -25 8 -41t31 -16q17 0 31.5 12zM486 582q0 4 3 8l69 102q5 8 16 8h90q9 0 9 -6q0 -5 -4 -9l-87 -102q-7 -7 -15 -7h-71q-10 0 -10 6z" />
    <glyph glyph-name="Dcroat" unicode="&#x110;" horiz-adv-x="491" 
d="M453.5 655.5q46.5 -44.5 46.5 -119.5q0 -10 -2 -30l-39 -312q-10 -88 -70 -141t-148 -53h-176q-5 0 -8 3.5t-2 8.5l38 309q0 5 -4 5h-14q-5 0 -8 3.5t-2 8.5l7 57q1 5 4.5 8.5t8.5 3.5h13q6 0 6 5l34 276q1 5 4.5 8.5t8.5 3.5h176q80 0 126.5 -44.5zM360 497q1 6 1 17
q0 30 -14 47.5t-39 17.5h-42q-5 0 -5 -5l-20 -162q-2 -5 4 -5h36q5 0 8 -3.5t2 -8.5l-7 -57q-1 -5 -4.5 -8.5t-8.5 -3.5h-36q-5 0 -5 -5l-24 -195q-2 -5 4 -5l43 1q26 1 45.5 22.5t25.5 58.5z" />
    <glyph glyph-name="dcroat" unicode="&#x111;" horiz-adv-x="432" 
d="M490 636.5q3 -3.5 2 -8.5l-7 -61q-1 -5 -4.5 -8.5t-8.5 -3.5h-24q-5 0 -5 -5l-66 -538q-1 -5 -4.5 -8.5t-8.5 -3.5h-114q-5 0 -8 3.5t-2 8.5l2 16q1 3 -1 3.5t-5 -1.5q-37 -38 -91 -38q-59 0 -88 34.5t-29 96.5q0 24 2 37l24 194q10 81 50 124.5t106 43.5q22 0 44 -8.5
t38 -30.5q2 -2 4 -1.5t2 3.5l8 65q2 5 -4 5h-84q-5 0 -8.5 3.5t-2.5 8.5l8 61q1 5 4.5 8.5t8.5 3.5h84q4 0 6 5l5 43q1 5 4.5 8.5t8.5 3.5h114q5 0 8 -3.5t2 -8.5l-5 -43q-2 -5 4 -5h23q5 0 8 -3.5zM238.5 125q14.5 12 19.5 32l24 200q0 20 -11 32t-29 12q-20 0 -34.5 -16
t-17.5 -41l-22 -174q-3 -25 8 -41t31 -16q17 0 31.5 12z" />
    <glyph glyph-name="Emacron" unicode="&#x112;" horiz-adv-x="425" 
d="M447.5 582.5q-3.5 -3.5 -8.5 -3.5h-203q-5 0 -5 -5l-20 -158q0 -5 4 -5h117q5 0 8 -3.5t2 -8.5l-12 -97q-1 -5 -4.5 -8.5t-8.5 -3.5h-116q-6 0 -6 -5l-19 -159q-2 -5 4 -5h202q5 0 8.5 -3.5t2.5 -8.5l-12 -97q-1 -5 -4.5 -8.5t-8.5 -3.5h-333q-5 0 -8 3.5t-2 8.5l83 676
q1 5 4.5 8.5t8.5 3.5h333q5 0 8 -3.5t2 -8.5l-12 -97q-1 -5 -4.5 -8.5zM189 770.5q-3 3.5 -2 8.5l9 72q0 5 4 8.5t9 3.5h190q5 0 8 -3.5t2 -8.5l-9 -72q-1 -5 -4.5 -8.5t-8.5 -3.5h-190q-5 0 -8 3.5z" />
    <glyph glyph-name="emacron" unicode="&#x113;" horiz-adv-x="423" 
d="M400.5 216.5q-3.5 -3.5 -8.5 -3.5h-214q-2 0 -3.5 -1.5t-1.5 -3.5l-5 -37q-3 -25 8.5 -41.5t31.5 -16.5q18 0 31.5 12.5t19.5 31.5q4 10 14 10l111 -6q5 0 7.5 -3.5t1.5 -9.5q-16 -77 -66 -116.5t-134 -39.5q-79 0 -122 37t-43 104q0 9 2 27l24 194q9 76 64 122t140 46
q78 0 121.5 -38.5t43.5 -104.5q0 -7 -2 -25l-16 -129q-1 -5 -4.5 -8.5zM208 385q-15 -16 -18 -41l-5 -39q0 -5 4 -5h84q2 0 3.5 1.5t1.5 3.5l5 39q3 25 -8.5 41t-31.5 16t-35 -16zM159 596.5q-3 3.5 -2 8.5l9 72q1 5 4.5 8.5t8.5 3.5h190q5 0 8 -3.5t2 -8.5l-9 -72
q-1 -5 -4.5 -8.5t-8.5 -3.5h-190q-5 0 -8 3.5z" />
    <glyph glyph-name="Edotaccent" unicode="&#x116;" horiz-adv-x="425" 
d="M447.5 582.5q-3.5 -3.5 -8.5 -3.5h-203q-5 0 -5 -5l-20 -158q0 -5 4 -5h117q5 0 8 -3.5t2 -8.5l-12 -97q-1 -5 -4.5 -8.5t-8.5 -3.5h-116q-6 0 -6 -5l-19 -159q-2 -5 4 -5h202q5 0 8.5 -3.5t2.5 -8.5l-12 -97q-1 -5 -4.5 -8.5t-8.5 -3.5h-333q-5 0 -8 3.5t-2 8.5l83 676
q1 5 4.5 8.5t8.5 3.5h333q5 0 8 -3.5t2 -8.5l-12 -97q-1 -5 -4.5 -8.5zM246 777.5q-19 19.5 -19 49.5q0 38 25.5 63.5t62.5 25.5q31 0 49.5 -18.5t18.5 -49.5q0 -38 -26 -64t-62 -26q-30 0 -49 19.5z" />
    <glyph glyph-name="edotaccent" unicode="&#x117;" horiz-adv-x="423" 
d="M400.5 216.5q-3.5 -3.5 -8.5 -3.5h-214q-2 0 -3.5 -1.5t-1.5 -3.5l-5 -37q-3 -25 8.5 -41.5t31.5 -16.5q18 0 31.5 12.5t19.5 31.5q4 10 14 10l111 -6q5 0 7.5 -3.5t1.5 -9.5q-16 -77 -66 -116.5t-134 -39.5q-79 0 -122 37t-43 104q0 9 2 27l24 194q9 76 64 122t140 46
q78 0 121.5 -38.5t43.5 -104.5q0 -7 -2 -25l-16 -129q-1 -5 -4.5 -8.5zM208 385q-15 -16 -18 -41l-5 -39q0 -5 4 -5h84q2 0 3.5 1.5t1.5 3.5l5 39q3 25 -8.5 41t-31.5 16t-35 -16zM213 591.5q-19 19.5 -19 49.5q0 38 25.5 63.5t62.5 25.5q31 0 49.5 -18.5t18.5 -49.5
q0 -38 -26 -64t-62 -26q-30 0 -49 19.5z" />
    <glyph glyph-name="Eogonek" unicode="&#x118;" horiz-adv-x="425" 
d="M447.5 582.5q-3.5 -3.5 -8.5 -3.5h-203q-5 0 -5 -5l-20 -158q0 -5 4 -5h117q5 0 8 -3.5t2 -8.5l-12 -97q-1 -5 -4.5 -8.5t-8.5 -3.5h-116q-6 0 -6 -5l-19 -159q-2 -5 4 -5h202q5 0 8.5 -3.5t2.5 -8.5l-12 -97q-1 -5 -4.5 -8.5t-8.5 -3.5h-123q-4 0 -6 -2q-49 -44 -49 -76
q0 -16 8 -23t21 -5h3q9 0 9 -9v-46q0 -11 -9 -14q-21 -7 -47 -7q-33 0 -54.5 17t-21.5 57q0 54 47 102q2 2 1.5 4t-2.5 2h-110q-5 0 -8 3.5t-2 8.5l83 676q1 5 4.5 8.5t8.5 3.5h333q5 0 8 -3.5t2 -8.5l-12 -97q-1 -5 -4.5 -8.5z" />
    <glyph glyph-name="eogonek" unicode="&#x119;" horiz-adv-x="423" 
d="M400.5 216.5q-3.5 -3.5 -8.5 -3.5h-214q-2 0 -3.5 -1.5t-1.5 -3.5l-5 -37q-3 -25 8.5 -41.5t31.5 -16.5q18 0 31.5 12.5t19.5 31.5q4 10 14 10l111 -6q5 0 7.5 -3.5t1.5 -9.5q-14 -67 -53.5 -106t-104.5 -48q-2 0 -6 -2q-42 -40 -42 -71q0 -15 8.5 -22t20.5 -5h3
q9 0 9 -9l1 -46q0 -11 -10 -14q-21 -7 -47 -7q-76 0 -76 75q0 51 44 98q4 4 -1 6q-54 12 -82.5 47t-28.5 90q0 8 2 26l24 194q9 76 64 122t140 46q78 0 121.5 -38.5t43.5 -104.5q0 -7 -2 -25l-16 -129q-1 -5 -4.5 -8.5zM208 385q-15 -16 -18 -41l-5 -39q0 -5 4 -5h84
q2 0 3.5 1.5t1.5 3.5l5 39q3 25 -8.5 41t-31.5 16t-35 -16z" />
    <glyph glyph-name="Ecaron" unicode="&#x11a;" horiz-adv-x="425" 
d="M447.5 582.5q-3.5 -3.5 -8.5 -3.5h-203q-5 0 -5 -5l-20 -158q0 -5 4 -5h117q5 0 8 -3.5t2 -8.5l-12 -97q-1 -5 -4.5 -8.5t-8.5 -3.5h-116q-6 0 -6 -5l-19 -159q-2 -5 4 -5h202q5 0 8.5 -3.5t2.5 -8.5l-12 -97q-1 -5 -4.5 -8.5t-8.5 -3.5h-333q-5 0 -8 3.5t-2 8.5l83 676
q1 5 4.5 8.5t8.5 3.5h333q5 0 8 -3.5t2 -8.5l-12 -97q-1 -5 -4.5 -8.5zM173 878q0 8 11 8h84q10 0 13 -9l23 -56q2 -5 5 0l36 56q6 9 15 9h86q9 0 9 -6q0 -3 -3 -8l-77 -104q-6 -8 -15 -8h-125q-9 0 -13 8l-48 104q-1 2 -1 6z" />
    <glyph glyph-name="ecaron" unicode="&#x11b;" horiz-adv-x="423" 
d="M400.5 216.5q-3.5 -3.5 -8.5 -3.5h-214q-2 0 -3.5 -1.5t-1.5 -3.5l-5 -37q-3 -25 8.5 -41.5t31.5 -16.5q18 0 31.5 12.5t19.5 31.5q4 10 14 10l111 -6q5 0 7.5 -3.5t1.5 -9.5q-16 -77 -66 -116.5t-134 -39.5q-79 0 -122 37t-43 104q0 9 2 27l24 194q9 76 64 122t140 46
q78 0 121.5 -38.5t43.5 -104.5q0 -7 -2 -25l-16 -129q-1 -5 -4.5 -8.5zM208 385q-15 -16 -18 -41l-5 -39q0 -5 4 -5h84q2 0 3.5 1.5t1.5 3.5l5 39q3 25 -8.5 41t-31.5 16t-35 -16zM139 691q0 8 11 8h84q10 0 13 -9l23 -56q2 -5 5 0l36 56q6 9 15 9h86q9 0 9 -6q0 -3 -3 -8
l-77 -104q-6 -8 -15 -8h-125q-9 0 -13 8l-48 104q-1 2 -1 6z" />
    <glyph glyph-name="Gcircumflex" unicode="&#x11c;" horiz-adv-x="453" 
d="M80 35q-46 43 -46 117q0 9 2 29l41 338q10 86 69.5 137.5t147.5 51.5q79 0 125.5 -43.5t46.5 -117.5q0 -9 -2 -29l-4 -38q-1 -5 -5 -8.5t-9 -3.5h-113q-5 0 -8 3.5t-2 8.5l5 40q1 4 1 12q0 25 -13.5 40t-36.5 15q-25 0 -43 -18.5t-22 -48.5l-42 -340q-3 -30 10 -48.5
t38 -18.5q26 0 44 18.5t22 48.5l10 80q0 5 -4 5h-43q-5 0 -8 3.5t-2 8.5l11 89q0 5 4 8.5t9 3.5h172q11 0 11 -12l-23 -185q-10 -86 -70 -137.5t-147 -51.5q-80 0 -126 43zM159 766q0 4 3 8l74 104q5 8 15 8h125q9 0 12 -8l52 -104q1 -2 1 -5q0 -9 -11 -9h-85q-10 0 -13 9
l-22 56q-3 5 -6 0l-36 -56q-2 -4 -6.5 -6.5t-8.5 -2.5h-85q-9 0 -9 6z" />
    <glyph glyph-name="gcircumflex" unicode="&#x11d;" horiz-adv-x="428" 
d="M305.5 510.5q3.5 3.5 8.5 3.5h114q5 0 8 -3.5t2 -8.5l-59 -478q-13 -111 -71 -171t-190 -60q-27 0 -41 1q-12 1 -10 13l12 98q2 13 13 11q57 -2 88.5 11.5t45 40.5t18.5 71q1 3 -1 3t-4 -3q-21 -24 -47 -33.5t-49 -9.5q-58 0 -86.5 33.5t-28.5 94.5q0 19 3 40l23 190
q10 81 49 124.5t105 43.5q60 0 84 -45q2 -3 4 -2t2 4l3 23q1 5 4.5 8.5zM243 134q15 16 18 41l21 169q3 25 -8.5 41t-31.5 16t-34.5 -16t-17.5 -41l-21 -169q-3 -26 7.5 -41.5t31.5 -15.5q20 0 35 16zM125 580q0 4 3 8l74 104q5 8 15 8h125q9 0 12 -8l52 -104q1 -2 1 -5
q0 -9 -11 -9h-85q-10 0 -13 9l-22 56q-3 5 -6 0l-36 -56q-2 -4 -6.5 -6.5t-8.5 -2.5h-85q-9 0 -9 6z" />
    <glyph glyph-name="Gbreve" unicode="&#x11e;" horiz-adv-x="453" 
d="M80 35q-46 43 -46 117q0 9 2 29l41 338q10 86 69.5 137.5t147.5 51.5q79 0 125.5 -43.5t46.5 -117.5q0 -9 -2 -29l-4 -38q-1 -5 -5 -8.5t-9 -3.5h-113q-5 0 -8 3.5t-2 8.5l5 40q1 4 1 12q0 25 -13.5 40t-36.5 15q-25 0 -43 -18.5t-22 -48.5l-42 -340q-3 -30 10 -48.5
t38 -18.5q26 0 44 18.5t22 48.5l10 80q0 5 -4 5h-43q-5 0 -8 3.5t-2 8.5l11 89q0 5 4 8.5t9 3.5h172q11 0 11 -12l-23 -185q-10 -86 -70 -137.5t-147 -51.5q-80 0 -126 43zM220.5 764q-27.5 29 -25.5 77q0 12 12 12h48q11 0 11 -12q1 -20 11.5 -32t27.5 -12t31 12t19 32
q3 12 14 12h48q12 0 10 -12q-10 -48 -45.5 -77t-84.5 -29t-76.5 29z" />
    <glyph glyph-name="gbreve" unicode="&#x11f;" horiz-adv-x="428" 
d="M305.5 510.5q3.5 3.5 8.5 3.5h114q5 0 8 -3.5t2 -8.5l-59 -478q-13 -111 -71 -171t-190 -60q-27 0 -41 1q-12 1 -10 13l12 98q2 13 13 11q57 -2 88.5 11.5t45 40.5t18.5 71q1 3 -1 3t-4 -3q-21 -24 -47 -33.5t-49 -9.5q-58 0 -86.5 33.5t-28.5 94.5q0 19 3 40l23 190
q10 81 49 124.5t105 43.5q60 0 84 -45q2 -3 4 -2t2 4l3 23q1 5 4.5 8.5zM243 134q15 16 18 41l21 169q3 25 -8.5 41t-31.5 16t-34.5 -16t-17.5 -41l-21 -169q-3 -26 7.5 -41.5t31.5 -15.5q20 0 35 16zM186.5 578q-27.5 29 -25.5 77q0 12 12 12h48q11 0 11 -12
q1 -20 11.5 -32t27.5 -12t31 12t19 32q3 12 14 12h48q12 0 10 -12q-10 -48 -45.5 -77t-84.5 -29t-76.5 29z" />
    <glyph glyph-name="Gdotaccent" unicode="&#x120;" horiz-adv-x="453" 
d="M80 35q-46 43 -46 117q0 9 2 29l41 338q10 86 69.5 137.5t147.5 51.5q79 0 125.5 -43.5t46.5 -117.5q0 -9 -2 -29l-4 -38q-1 -5 -5 -8.5t-9 -3.5h-113q-5 0 -8 3.5t-2 8.5l5 40q1 4 1 12q0 25 -13.5 40t-36.5 15q-25 0 -43 -18.5t-22 -48.5l-42 -340q-3 -30 10 -48.5
t38 -18.5q26 0 44 18.5t22 48.5l10 80q0 5 -4 5h-43q-5 0 -8 3.5t-2 8.5l11 89q0 5 4 8.5t9 3.5h172q11 0 11 -12l-23 -185q-10 -86 -70 -137.5t-147 -51.5q-80 0 -126 43zM251 777.5q-19 19.5 -19 49.5q0 38 25.5 63.5t62.5 25.5q31 0 49.5 -18.5t18.5 -49.5q0 -38 -26 -64
t-62 -26q-30 0 -49 19.5z" />
    <glyph glyph-name="gdotaccent" unicode="&#x121;" horiz-adv-x="428" 
d="M305.5 510.5q3.5 3.5 8.5 3.5h114q5 0 8 -3.5t2 -8.5l-59 -478q-13 -111 -71 -171t-190 -60q-27 0 -41 1q-12 1 -10 13l12 98q2 13 13 11q57 -2 88.5 11.5t45 40.5t18.5 71q1 3 -1 3t-4 -3q-21 -24 -47 -33.5t-49 -9.5q-58 0 -86.5 33.5t-28.5 94.5q0 19 3 40l23 190
q10 81 49 124.5t105 43.5q60 0 84 -45q2 -3 4 -2t2 4l3 23q1 5 4.5 8.5zM243 134q15 16 18 41l21 169q3 25 -8.5 41t-31.5 16t-34.5 -16t-17.5 -41l-21 -169q-3 -26 7.5 -41.5t31.5 -15.5q20 0 35 16zM217 591.5q-19 19.5 -19 49.5q0 38 25.5 63.5t62.5 25.5
q31 0 49.5 -18.5t18.5 -49.5q0 -38 -26 -64t-62 -26q-30 0 -49 19.5z" />
    <glyph glyph-name="uni0122" unicode="&#x122;" horiz-adv-x="453" 
d="M80 35q-46 43 -46 117q0 9 2 29l41 338q10 86 69.5 137.5t147.5 51.5q79 0 125.5 -43.5t46.5 -117.5q0 -9 -2 -29l-4 -38q-1 -5 -5 -8.5t-9 -3.5h-113q-5 0 -8 3.5t-2 8.5l5 40q1 4 1 12q0 25 -13.5 40t-36.5 15q-25 0 -43 -18.5t-22 -48.5l-42 -340q-3 -30 10 -48.5
t38 -18.5q26 0 44 18.5t22 48.5l10 80q0 5 -4 5h-43q-5 0 -8 3.5t-2 8.5l11 89q0 5 4 8.5t9 3.5h172q11 0 11 -12l-23 -185q-10 -86 -70 -137.5t-147 -51.5q-80 0 -126 43zM95 -176q0 4 3 8l69 102q5 8 16 8h90q9 0 9 -6q0 -5 -4 -9l-87 -102q-7 -7 -15 -7h-71q-10 0 -10 6z
" />
    <glyph glyph-name="uni0123" unicode="&#x123;" horiz-adv-x="428" 
d="M368 682q0 -3 -3 -8l-71 -102q-4 -8 -14 -8h-90q-9 0 -9 6q0 5 4 9l87 102q6 7 14 7h72q10 0 10 -6zM305.5 510.5q3.5 3.5 8.5 3.5h114q5 0 8 -3.5t2 -8.5l-59 -478q-13 -111 -71 -171t-190 -60q-27 0 -41 1q-12 1 -10 13l12 98q2 13 13 11q57 -2 88.5 11.5t45 40.5
t18.5 71q1 3 -1 3t-4 -3q-21 -24 -47 -33.5t-49 -9.5q-58 0 -86.5 33.5t-28.5 94.5q0 19 3 40l23 190q10 81 49 124.5t105 43.5q60 0 84 -45q2 -3 4 -2t2 4l3 23q1 5 4.5 8.5zM243 134q15 16 18 41l21 169q3 25 -8.5 41t-31.5 16t-34.5 -16t-17.5 -41l-21 -169
q-3 -26 7.5 -41.5t31.5 -15.5q20 0 35 16z" />
    <glyph glyph-name="Hcircumflex" unicode="&#x124;" horiz-adv-x="466" 
d="M355.5 696.5q3.5 3.5 8.5 3.5h114q5 0 8 -3.5t2 -8.5l-83 -676q-1 -5 -4.5 -8.5t-8.5 -3.5h-114q-5 0 -8 3.5t-2 8.5l34 273q0 5 -4 5h-97q-6 0 -6 -5l-33 -273q-1 -5 -5 -8.5t-9 -3.5h-113q-5 0 -8 3.5t-2 8.5l83 676q1 5 4.5 8.5t8.5 3.5h113q11 0 11 -12l-34 -272
q0 -5 4 -5h97q4 0 6 5l33 272q1 5 4.5 8.5zM165 767q0 4 3 8l74 104q5 8 15 8h125q9 0 12 -8l52 -104q1 -2 1 -5q0 -9 -11 -9h-85q-10 0 -13 9l-22 56q-3 5 -6 0l-36 -56q-2 -4 -6.5 -6.5t-8.5 -2.5h-85q-9 0 -9 6z" />
    <glyph glyph-name="hcircumflex" unicode="&#x125;" horiz-adv-x="433" 
d="M398.5 488.5q28.5 -33.5 28.5 -96.5q0 -20 -3 -41l-41 -339q-1 -5 -4.5 -8.5t-8.5 -3.5h-114q-5 0 -8 3.5t-2 8.5l40 328q1 5 1 15q0 46 -37 46q-22 0 -36 -16.5t-18 -46.5l-40 -326q-1 -5 -4.5 -8.5t-8.5 -3.5h-114q-5 0 -8 3.5t-2 8.5l83 676q1 5 4.5 8.5t8.5 3.5h114
q5 0 8 -3.5t2 -8.5l-25 -205v-1q0 -2 2.5 -1.5t5.5 3.5q37 38 91 38q57 0 85.5 -33.5zM162 756q0 4 3 8l74 104q5 8 15 8h125q9 0 12 -8l52 -104q1 -2 1 -5q0 -9 -11 -9h-85q-10 0 -13 9l-22 56q-3 5 -6 0l-36 -56q-2 -4 -6.5 -6.5t-8.5 -2.5h-85q-9 0 -9 6z" />
    <glyph glyph-name="Hbar" unicode="&#x126;" horiz-adv-x="466" 
d="M520.5 599.5q3.5 -3.5 2.5 -8.5l-9 -72q-1 -5 -4.5 -8.5t-8.5 -3.5h-30q-4 0 -6 -5l-60 -490q-1 -5 -4.5 -8.5t-8.5 -3.5h-114q-5 0 -8 3.5t-2 8.5l34 273q0 5 -4 5h-97q-6 0 -6 -5l-33 -273q-1 -5 -5 -8.5t-9 -3.5h-113q-5 0 -8 3.5t-2 8.5l60 490q0 5 -4 5h-29
q-11 0 -11 12l9 72q1 5 4.5 8.5t8.5 3.5h29q6 0 6 5l10 80q1 5 4.5 8.5t8.5 3.5h113q11 0 11 -12l-10 -80q-2 -5 4 -5h97q5 0 5 5l10 80q1 5 4.5 8.5t8.5 3.5h114q5 0 8 -3.5t2 -8.5l-10 -80q0 -5 4 -5h30q5 0 8.5 -3.5zM318 416l10 86q2 5 -4 5h-97q-5 0 -5 -5l-11 -86
q0 -5 4 -5h97q4 0 6 5z" />
    <glyph glyph-name="hbar" unicode="&#x127;" horiz-adv-x="433" 
d="M398.5 488.5q28.5 -33.5 28.5 -96.5q0 -20 -3 -41l-41 -339q-1 -5 -4.5 -8.5t-8.5 -3.5h-114q-5 0 -8 3.5t-2 8.5l40 328q1 5 1 15q0 46 -37 46q-22 0 -36 -16.5t-18 -46.5l-40 -326q-1 -5 -4.5 -8.5t-8.5 -3.5h-114q-5 0 -8 3.5t-2 8.5l65 532q2 5 -4 5h-29q-5 0 -8 3.5
t-2 8.5l7 61q1 5 4.5 8.5t8.5 3.5h29q6 0 6 5l6 49q1 5 4.5 8.5t8.5 3.5h114q5 0 8 -3.5t2 -8.5l-6 -49q-2 -5 4 -5h78q5 0 8 -3.5t2 -8.5l-8 -61q-1 -5 -4.5 -8.5t-8.5 -3.5h-78q-2 0 -3.5 -1.5t-1.5 -3.5l-7 -61v-1q0 -2 2.5 -1.5t5.5 3.5q37 38 91 38q57 0 85.5 -33.5z
" />
    <glyph glyph-name="Itilde" unicode="&#x128;" horiz-adv-x="223" 
d="M27 3.5q-3 3.5 -2 8.5l83 676q1 5 4.5 8.5t8.5 3.5h113q11 0 11 -12l-83 -676q-1 -5 -5 -8.5t-9 -3.5h-113q-5 0 -8 3.5zM201 790q-8 4 -18.5 11t-19.5 7q-22 0 -38 -22q-7 -10 -17 -4l-37 30q-6 6 -2 16q17 34 41.5 51.5t51.5 17.5q31 0 59 -23q3 -2 9.5 -7t13.5 -8
t15 -3q22 0 37 20q9 12 17 5l36 -28q4 -4 4 -8q0 -6 -6 -15q-20 -30 -46 -44t-49 -14q-22 0 -51 18z" />
    <glyph glyph-name="itilde" unicode="&#x129;" horiz-adv-x="184" 
d="M7.5 3.5q-3.5 3.5 -2.5 8.5l61 490q0 5 4 8.5t9 3.5h113q5 0 8 -3.5t2 -8.5l-60 -490q-1 -5 -4.5 -8.5t-8.5 -3.5h-113q-5 0 -8.5 3.5zM159 604q-8 4 -18.5 11t-19.5 7q-22 0 -38 -22q-7 -10 -17 -4l-37 30q-6 6 -2 16q17 34 41.5 51.5t51.5 17.5q31 0 59 -23
q3 -2 9.5 -7t13.5 -8t15 -3q22 0 37 20q9 12 17 5l36 -28q4 -4 4 -8q0 -6 -6 -15q-20 -30 -46 -44t-49 -14q-22 0 -51 18z" />
    <glyph glyph-name="Imacron" unicode="&#x12a;" horiz-adv-x="223" 
d="M27 3.5q-3 3.5 -2 8.5l83 676q1 5 4.5 8.5t8.5 3.5h113q11 0 11 -12l-83 -676q-1 -5 -5 -8.5t-9 -3.5h-113q-5 0 -8 3.5zM79 770.5q-3 3.5 -2 8.5l9 72q0 5 4 8.5t9 3.5h190q5 0 8 -3.5t2 -8.5l-9 -72q-1 -5 -4.5 -8.5t-8.5 -3.5h-190q-5 0 -8 3.5z" />
    <glyph glyph-name="imacron" unicode="&#x12b;" horiz-adv-x="184" 
d="M7.5 3.5q-3.5 3.5 -2.5 8.5l61 490q0 5 4 8.5t9 3.5h113q5 0 8 -3.5t2 -8.5l-60 -490q-1 -5 -4.5 -8.5t-8.5 -3.5h-113q-5 0 -8.5 3.5zM37 584.5q-3 3.5 -2 8.5l9 72q0 5 4 8.5t9 3.5h190q5 0 8 -3.5t2 -8.5l-9 -72q-1 -5 -4.5 -8.5t-8.5 -3.5h-190q-5 0 -8 3.5z" />
    <glyph glyph-name="ibreve" unicode="&#x12d;" horiz-adv-x="184" 
d="M7.5 3.5q-3.5 3.5 -2.5 8.5l61 490q0 5 4 8.5t9 3.5h113q5 0 8 -3.5t2 -8.5l-60 -490q-1 -5 -4.5 -8.5t-8.5 -3.5h-113q-5 0 -8.5 3.5zM65.5 594q-27.5 29 -25.5 77q0 12 12 12h48q11 0 11 -12q1 -20 11.5 -32t27.5 -12t30.5 12t19.5 32q3 12 14 12h48q12 0 10 -12
q-10 -48 -45.5 -77t-84.5 -29t-76.5 29z" />
    <glyph glyph-name="Iogonek" unicode="&#x12e;" horiz-adv-x="212" 
d="M22 3.5q-3 3.5 -2 8.5l83 676q1 5 4.5 8.5t8.5 3.5h113q11 0 11 -12l-83 -676q-1 -5 -5 -8.5t-9 -3.5h-113q-5 0 -8 3.5zM132 -179.5q-2 -3.5 -8 -4.5q-28 -7 -47 -7q-32 0 -54 17t-22 57q0 60 58 111q6 6 15 6h61q9 0 9 -6q0 -5 -6 -9q-45 -40 -45 -73q0 -15 8 -21.5
t21 -4.5h3q9 0 9 -10v-46q0 -6 -2 -9.5z" />
    <glyph glyph-name="iogonek" unicode="&#x12f;" horiz-adv-x="218" 
d="M27.5 3.5q-3.5 3.5 -2.5 8.5l61 490q0 5 4 8.5t9 3.5h113q5 0 8 -3.5t2 -8.5l-60 -490q-1 -5 -4.5 -8.5t-8.5 -3.5h-113q-5 0 -8.5 3.5zM113 591.5q-19 19.5 -19 49.5q0 38 25.5 63.5t62.5 25.5q31 0 49.5 -18.5t18.5 -49.5q0 -38 -26 -64t-62 -26q-30 0 -49 19.5z
M138 -179.5q-2 -3.5 -8 -4.5q-28 -7 -47 -7q-32 0 -54 17t-22 57q0 60 58 111q6 6 15 6h61q9 0 9 -6q0 -5 -6 -9q-45 -40 -45 -73q0 -15 8 -21.5t21 -4.5h3q9 0 9 -10v-46q0 -6 -2 -9.5z" />
    <glyph glyph-name="Idotaccent" unicode="&#x130;" horiz-adv-x="223" 
d="M27 3.5q-3 3.5 -2 8.5l83 676q1 5 4.5 8.5t8.5 3.5h113q11 0 11 -12l-83 -676q-1 -5 -5 -8.5t-9 -3.5h-113q-5 0 -8 3.5zM136 777.5q-19 19.5 -19 49.5q0 38 25.5 63.5t62.5 25.5q31 0 49.5 -18.5t18.5 -49.5q0 -38 -26 -64t-62 -26q-30 0 -49 19.5z" />
    <glyph glyph-name="dotlessi" unicode="&#x131;" horiz-adv-x="184" 
d="M7.5 3.5q-3.5 3.5 -2.5 8.5l61 490q0 5 4 8.5t9 3.5h113q5 0 8 -3.5t2 -8.5l-60 -490q-1 -5 -4.5 -8.5t-8.5 -3.5h-113q-5 0 -8.5 3.5z" />
    <glyph glyph-name="ij" unicode="&#x133;" horiz-adv-x="418" 
d="M108 591q-19 19 -19 48q0 40 25 65.5t62 25.5q31 0 49 -18t18 -48q0 -38 -25.5 -65t-60.5 -27q-30 0 -49 19zM23 3.5q-3 3.5 -2 8.5l60 490q1 5 4.5 8.5t8.5 3.5h114q5 0 8 -3.5t2 -8.5l-60 -490q-1 -5 -4.5 -8.5t-8.5 -3.5h-114q-5 0 -8 3.5zM315 591q-19 19 -19 48
q0 40 25 65.5t62 25.5q31 0 49.5 -18t18.5 -49q0 -38 -25.5 -64.5t-61.5 -26.5q-30 0 -49 19zM111 -192l12 97q2 12 13 11q44 -1 64 20.5t25 63.5l62 502q1 5 4.5 8.5t8.5 3.5h114q5 0 8 -3.5t2 -8.5l-62 -502q-9 -75 -27.5 -117t-67.5 -65t-146 -22q-12 0 -10 12z" />
    <glyph glyph-name="Jcircumflex" unicode="&#x134;" horiz-adv-x="439" 
d="M59.5 35q-45.5 43 -45.5 116q0 9 2 29l9 69q1 5 4.5 8.5t8.5 3.5h113q11 0 11 -12l-9 -71q-1 -4 -1 -13q0 -23 12.5 -37.5t33.5 -14.5q25 0 42.5 18t20.5 47l63 510q1 5 4.5 8.5t8.5 3.5h114q5 0 8 -3.5t2 -8.5l-63 -508q-10 -85 -69.5 -136.5t-145.5 -51.5
q-78 0 -123.5 43zM257 767q0 4 3 8l74 104q5 8 15 8h125q9 0 12 -8l52 -104q1 -2 1 -5q0 -9 -11 -9h-85q-10 0 -13 9l-22 56q-3 5 -6 0l-36 -56q-2 -4 -6.5 -6.5t-8.5 -2.5h-85q-9 0 -9 6z" />
    <glyph glyph-name="jcircumflex" unicode="&#x135;" horiz-adv-x="213" 
d="M-97 -192l12 97q2 12 13 11q44 -1 64 20.5t25 63.5l62 502q1 5 4.5 8.5t8.5 3.5h114q5 0 8 -3.5t2 -8.5l-62 -502q-9 -75 -27.5 -117t-67.5 -65t-146 -22q-12 0 -10 12zM15 580q0 4 3 8l74 104q5 8 15 8h125q9 0 12 -8l52 -104q1 -2 1 -5q0 -9 -11 -9h-85q-10 0 -13 9
l-22 56q-3 5 -6 0l-36 -56q-2 -4 -6.5 -6.5t-8.5 -2.5h-85q-9 0 -9 6z" />
    <glyph glyph-name="uni0136" unicode="&#x136;" horiz-adv-x="476" 
d="M27 3.5q-3 3.5 -2 8.5l83 676q1 5 4.5 8.5t8.5 3.5h113q11 0 11 -12l-31 -252q-1 -4 1.5 -4.5t3.5 3.5l157 256q5 9 15 9h120q7 0 9 -3.5t-2 -10.5l-179 -288q-1 -1 -1.5 -2.5t-0.5 -3.5l106 -378l1 -4q0 -10 -11 -10h-122q-10 0 -12 9l-69 262q0 3 -2.5 2.5t-4.5 -2.5
l-34 -52q-1 -1 -2 -2.5t-1 -3.5l-24 -201q-1 -5 -5 -8.5t-9 -3.5h-113q-5 0 -8 3.5zM129 -168q0 4 3 8l69 102q5 8 16 8h90q9 0 9 -6q0 -5 -4 -9l-87 -102q-7 -7 -15 -7h-71q-10 0 -10 6z" />
    <glyph glyph-name="uni0137" unicode="&#x137;" horiz-adv-x="436" 
d="M21 3.5q-3 3.5 -2 8.5l83 676q1 5 4.5 8.5t8.5 3.5h114q5 0 8 -3.5t2 -8.5l-41 -331q-1 -4 1.5 -4.5t4.5 2.5l103 151q4 8 15 8h117q6 0 8 -4t-2 -10l-126 -168q-2 -4 -2 -7l80 -311l1 -4q0 -10 -12 -10h-117q-9 0 -12 10l-37 198q-1 3 -3 3.5t-3 -2.5l-39 -52
q-2 -4 -2 -6l-17 -139q-1 -5 -4.5 -8.5t-8.5 -3.5h-114q-5 0 -8 3.5zM96 -168q0 4 3 8l69 102q5 8 16 8h90q9 0 9 -6q0 -5 -4 -9l-87 -102q-7 -7 -15 -7h-71q-10 0 -10 6z" />
    <glyph glyph-name="Lacute" unicode="&#x139;" horiz-adv-x="413" 
d="M27 3.5q-3 3.5 -2 8.5l83 676q1 5 4.5 8.5t8.5 3.5h113q11 0 11 -12l-69 -562q-2 -5 4 -5h203q11 0 11 -12l-12 -97q-1 -5 -4.5 -8.5t-8.5 -3.5h-334q-5 0 -8 3.5zM126 768q0 4 3 8l69 102q5 8 16 8h90q9 0 9 -6q0 -5 -4 -9l-87 -102q-7 -7 -15 -7h-71q-10 0 -10 6z" />
    <glyph glyph-name="lacute" unicode="&#x13a;" horiz-adv-x="203" 
d="M17 3.5q-3 3.5 -2 8.5l83 676q1 5 4.5 8.5t8.5 3.5h114q5 0 8 -3.5t2 -8.5l-83 -676q-1 -5 -4.5 -8.5t-8.5 -3.5h-114q-5 0 -8 3.5zM115 768q0 4 3 8l69 102q5 8 16 8h90q9 0 9 -6q0 -5 -4 -9l-87 -102q-7 -7 -15 -7h-71q-10 0 -10 6z" />
    <glyph glyph-name="uni013B" unicode="&#x13b;" horiz-adv-x="413" 
d="M27 3.5q-3 3.5 -2 8.5l83 676q1 5 4.5 8.5t8.5 3.5h113q11 0 11 -12l-69 -562q-2 -5 4 -5h203q11 0 11 -12l-12 -97q-1 -5 -4.5 -8.5t-8.5 -3.5h-334q-5 0 -8 3.5zM69 -168q0 4 3 8l69 102q5 8 16 8h90q9 0 9 -6q0 -5 -4 -9l-87 -102q-7 -7 -15 -7h-71q-10 0 -10 6z" />
    <glyph glyph-name="uni013C" unicode="&#x13c;" horiz-adv-x="203" 
d="M17 3.5q-3 3.5 -2 8.5l83 676q1 5 4.5 8.5t8.5 3.5h114q5 0 8 -3.5t2 -8.5l-83 -676q-1 -5 -4.5 -8.5t-8.5 -3.5h-114q-5 0 -8 3.5zM-72 -168q0 4 3 8l69 102q5 8 16 8h90q9 0 9 -6q0 -5 -4 -9l-87 -102q-7 -7 -15 -7h-71q-10 0 -10 6z" />
    <glyph glyph-name="Lcaron" unicode="&#x13d;" horiz-adv-x="416" 
d="M27 3.5q-3 3.5 -2 8.5l83 676q1 5 4.5 8.5t8.5 3.5h113q11 0 11 -12l-69 -562q-2 -5 4 -5h203q11 0 11 -12l-12 -97q-1 -5 -4.5 -8.5t-8.5 -3.5h-334q-5 0 -8 3.5zM262 582q0 4 3 8l69 102q5 8 16 8h90q9 0 9 -6q0 -5 -4 -9l-87 -102q-7 -7 -15 -7h-71q-10 0 -10 6z" />
    <glyph glyph-name="lcaron" unicode="&#x13e;" horiz-adv-x="393" 
d="M17 3.5q-3 3.5 -2 8.5l83 676q1 5 4.5 8.5t8.5 3.5h114q5 0 8 -3.5t2 -8.5l-83 -676q-1 -5 -4.5 -8.5t-8.5 -3.5h-114q-5 0 -8 3.5zM245 583q0 4 3 8l69 102q5 8 16 8h90q9 0 9 -6q0 -5 -4 -9l-87 -102q-7 -7 -15 -7h-71q-10 0 -10 6z" />
    <glyph glyph-name="ldot" unicode="&#x140;" horiz-adv-x="220" 
d="M25 3.5q-3 3.5 -2 8.5l83 676q1 5 4.5 8.5t8.5 3.5h114q5 0 8 -3.5t2 -8.5l-83 -676q-1 -5 -4.5 -8.5t-8.5 -3.5h-114q-5 0 -8 3.5zM135 777.5q-19 19.5 -19 49.5q0 38 25.5 63.5t62.5 25.5q31 0 49.5 -18.5t18.5 -49.5q0 -38 -26 -64t-62 -26q-30 0 -49 19.5z" />
    <glyph glyph-name="Lslash" unicode="&#x141;" horiz-adv-x="477" 
d="M244 121h203q5 0 8.5 -3.5t2.5 -8.5l-12 -97q-1 -5 -4.5 -8.5t-8.5 -3.5h-334q-5 0 -8 3.5t-2 8.5l21 171q0 8 -6 3l-46 -35q-6 -4 -8 -4q-5 0 -8 5l-45 63q-2 2 -2 7q0 6 5 10l125 96q3 2 3 6l44 354q1 5 4.5 8.5t8.5 3.5h113q11 0 11 -12l-29 -234q-1 -3 1 -4t4 1
l123 94q6 4 9 4q5 0 8 -5l43 -64q3 -4 3 -8t-6 -9l-200 -154q-1 -1 -4 -6l-21 -177q-2 -5 4 -5z" />
    <glyph glyph-name="lslash" unicode="&#x142;" horiz-adv-x="375" 
d="M391 393q0 -6 -8 -11l-109 -58q-5 -2 -5 -6l-38 -306q0 -5 -4 -8.5t-9 -3.5h-113q-5 0 -8 3.5t-2 8.5l27 226q1 3 -1 4.5t-4 -0.5l-43 -23l-6 -2q-6 0 -9 7l-27 69l-1 4q0 7 7 12l95 51q5 3 5 6l40 322q0 5 4 8.5t9 3.5h113q5 0 8 -3.5t2 -8.5l-29 -240q-1 -3 1 -4.5
t4 0.5l55 29q4 2 7 2q5 0 8 -6l29 -70q2 -4 2 -6z" />
    <glyph glyph-name="Nacute" unicode="&#x143;" horiz-adv-x="499" 
d="M389.5 696.5q3.5 3.5 8.5 3.5h113q5 0 8 -3.5t2 -8.5l-83 -676q-1 -5 -4.5 -8.5t-8.5 -3.5h-128q-9 0 -12 10l-72 387q-1 3 -3.5 2.5t-2.5 -3.5l-46 -384q-1 -5 -5 -8.5t-9 -3.5h-112q-5 0 -8 3.5t-2 8.5l83 676q1 5 4.5 8.5t8.5 3.5h127q9 0 11 -10l74 -387
q1 -3 3.5 -2.5t2.5 3.5l46 384q1 5 4.5 8.5zM260 770q0 4 3 8l69 102q5 8 16 8h90q9 0 9 -6q0 -5 -4 -9l-87 -102q-7 -7 -15 -7h-71q-10 0 -10 6z" />
    <glyph glyph-name="nacute" unicode="&#x144;" horiz-adv-x="433" 
d="M398.5 488.5q28.5 -33.5 28.5 -96.5q0 -20 -3 -41l-41 -339q-1 -5 -4.5 -8.5t-8.5 -3.5h-114q-5 0 -8 3.5t-2 8.5l40 328q1 5 1 15q0 46 -37 46q-22 0 -36 -16.5t-18 -46.5l-40 -326q-1 -5 -4.5 -8.5t-8.5 -3.5h-114q-5 0 -8 3.5t-2 8.5l60 490q1 5 4.5 8.5t8.5 3.5h114
q5 0 8 -3.5t2 -8.5l-2 -19v-1q0 -2 2.5 -1.5t5.5 3.5q37 38 91 38q57 0 85.5 -33.5zM209 582q0 4 3 8l69 102q5 8 16 8h90q9 0 9 -6q0 -5 -4 -9l-87 -102q-7 -7 -15 -7h-71q-10 0 -10 6z" />
    <glyph glyph-name="uni0145" unicode="&#x145;" horiz-adv-x="499" 
d="M389.5 696.5q3.5 3.5 8.5 3.5h113q5 0 8 -3.5t2 -8.5l-83 -676q-1 -5 -4.5 -8.5t-8.5 -3.5h-128q-9 0 -12 10l-72 387q-1 3 -3.5 2.5t-2.5 -3.5l-46 -384q-1 -5 -5 -8.5t-9 -3.5h-112q-5 0 -8 3.5t-2 8.5l83 676q1 5 4.5 8.5t8.5 3.5h127q9 0 11 -10l74 -387
q1 -3 3.5 -2.5t2.5 3.5l46 384q1 5 4.5 8.5zM127 -168q0 4 3 8l69 102q5 8 16 8h90q9 0 9 -6q0 -5 -4 -9l-87 -102q-7 -7 -15 -7h-71q-10 0 -10 6z" />
    <glyph glyph-name="uni0146" unicode="&#x146;" horiz-adv-x="433" 
d="M398.5 488.5q28.5 -33.5 28.5 -96.5q0 -20 -3 -41l-41 -339q-1 -5 -4.5 -8.5t-8.5 -3.5h-114q-5 0 -8 3.5t-2 8.5l40 328q1 5 1 15q0 46 -37 46q-22 0 -36 -16.5t-18 -46.5l-40 -326q-1 -5 -4.5 -8.5t-8.5 -3.5h-114q-5 0 -8 3.5t-2 8.5l60 490q1 5 4.5 8.5t8.5 3.5h114
q5 0 8 -3.5t2 -8.5l-2 -19v-1q0 -2 2.5 -1.5t5.5 3.5q37 38 91 38q57 0 85.5 -33.5zM92 -168q0 4 3 8l69 102q5 8 16 8h90q9 0 9 -6q0 -5 -4 -9l-87 -102q-7 -7 -15 -7h-71q-10 0 -10 6z" />
    <glyph glyph-name="Ncaron" unicode="&#x147;" horiz-adv-x="499" 
d="M389.5 696.5q3.5 3.5 8.5 3.5h113q5 0 8 -3.5t2 -8.5l-83 -676q-1 -5 -4.5 -8.5t-8.5 -3.5h-128q-9 0 -12 10l-72 387q-1 3 -3.5 2.5t-2.5 -3.5l-46 -384q-1 -5 -5 -8.5t-9 -3.5h-112q-5 0 -8 3.5t-2 8.5l83 676q1 5 4.5 8.5t8.5 3.5h127q9 0 11 -10l74 -387
q1 -3 3.5 -2.5t2.5 3.5l46 384q1 5 4.5 8.5zM200 880q0 8 11 8h84q10 0 13 -9l23 -56q2 -5 5 0l36 56q6 9 15 9h86q9 0 9 -6q0 -3 -3 -8l-77 -104q-6 -8 -15 -8h-125q-9 0 -13 8l-48 104q-1 2 -1 6z" />
    <glyph glyph-name="ncaron" unicode="&#x148;" horiz-adv-x="433" 
d="M398.5 488.5q28.5 -33.5 28.5 -96.5q0 -20 -3 -41l-41 -339q-1 -5 -4.5 -8.5t-8.5 -3.5h-114q-5 0 -8 3.5t-2 8.5l40 328q1 5 1 15q0 46 -37 46q-22 0 -36 -16.5t-18 -46.5l-40 -326q-1 -5 -4.5 -8.5t-8.5 -3.5h-114q-5 0 -8 3.5t-2 8.5l60 490q1 5 4.5 8.5t8.5 3.5h114
q5 0 8 -3.5t2 -8.5l-2 -19v-1q0 -2 2.5 -1.5t5.5 3.5q37 38 91 38q57 0 85.5 -33.5zM149 692q0 8 11 8h84q10 0 13 -9l23 -56q2 -5 5 0l36 56q6 9 15 9h86q9 0 9 -6q0 -3 -3 -8l-77 -104q-6 -8 -15 -8h-125q-9 0 -13 8l-48 104q-1 2 -1 6z" />
    <glyph glyph-name="Eng" unicode="&#x14a;" horiz-adv-x="499" 
d="M389.5 696.5q3.5 3.5 8.5 3.5h113q5 0 8 -3.5t2 -8.5l-84 -688q-9 -71 -25 -109.5t-62 -59.5t-138 -20q-11 0 -11 12l11 97q1 11 14 11q34 0 45.5 15.5t15.5 50.5v6l-74 393q-1 3 -3.5 3t-2.5 -3l-46 -384q-1 -5 -5 -8.5t-9 -3.5h-112q-5 0 -8 3.5t-2 8.5l83 676
q1 5 4.5 8.5t8.5 3.5h127q9 0 11 -10l72 -372q0 -1 1 -2.5t3 -1.5q5 0 6 5l44 369q1 5 4.5 8.5z" />
    <glyph glyph-name="eng" unicode="&#x14b;" horiz-adv-x="433" 
d="M357.5 -104q-15.5 -38 -61.5 -61t-137 -22q-6 0 -9 3.5t-2 8.5l12 95q2 12 14 12q29 0 43.5 9.5t19.5 26t9 46.5l40 326q1 5 1 15q0 46 -37 46q-22 0 -36 -16.5t-18 -46.5l-40 -326q-1 -5 -4.5 -8.5t-8.5 -3.5h-114q-5 0 -8 3.5t-2 8.5l60 490q1 5 4.5 8.5t8.5 3.5h114
q5 0 8 -3.5t2 -8.5l-2 -19q-1 -3 1 -4t4 2q37 41 94 41t85.5 -33.5t28.5 -96.5q0 -20 -3 -41l-43 -351q-8 -66 -23.5 -104z" />
    <glyph glyph-name="Omacron" unicode="&#x14c;" horiz-adv-x="458" 
d="M81.5 36.5q-46.5 44.5 -46.5 121.5q0 10 2 32l39 320q11 90 71 144t149 54q81 0 128 -44.5t47 -121.5q0 -10 -2 -32l-39 -320q-11 -90 -71.5 -144t-149.5 -54q-81 0 -127.5 44.5zM269.5 132.5q18.5 19.5 22.5 51.5l41 332q1 4 1 12q0 27 -14 43t-38 16q-27 0 -45.5 -19.5
t-22.5 -51.5l-41 -332q-1 -4 -1 -12q0 -27 14 -43t37 -16q28 0 46.5 19.5zM197 769.5q-3 3.5 -2 8.5l9 72q0 5 4 8.5t9 3.5h190q5 0 8 -3.5t2 -8.5l-9 -72q-1 -5 -4.5 -8.5t-8.5 -3.5h-190q-5 0 -8 3.5z" />
    <glyph glyph-name="omacron" unicode="&#x14d;" horiz-adv-x="429" 
d="M72.5 30q-43.5 38 -43.5 105q0 16 1 25l24 194q9 76 64.5 122t140.5 46q79 0 123 -38.5t44 -104.5q0 -9 -2 -25l-24 -194q-10 -78 -64.5 -123t-141.5 -45q-78 0 -121.5 38zM245.5 130q15.5 16 18.5 41l22 173q3 25 -9 41t-33 16t-36 -16t-18 -41l-22 -173q-3 -25 8.5 -41
t32.5 -16t36.5 16zM160 584.5q-3 3.5 -2 8.5l9 72q0 5 4 8.5t9 3.5h190q5 0 8 -3.5t2 -8.5l-9 -72q-1 -5 -4.5 -8.5t-8.5 -3.5h-190q-5 0 -8 3.5z" />
    <glyph glyph-name="obreve" unicode="&#x14f;" horiz-adv-x="429" 
d="M72.5 30q-43.5 38 -43.5 105q0 16 1 25l24 194q9 76 64.5 122t140.5 46q79 0 123 -38.5t44 -104.5q0 -9 -2 -25l-24 -194q-10 -78 -64.5 -123t-141.5 -45q-78 0 -121.5 38zM245.5 130q15.5 16 18.5 41l22 173q3 25 -9 41t-33 16t-36 -16t-18 -41l-22 -173q-3 -25 8.5 -41
t32.5 -16t36.5 16zM188.5 594q-27.5 29 -25.5 77q0 12 12 12h48q11 0 11 -12q1 -20 11.5 -32t27.5 -12t30.5 12t19.5 32q3 12 14 12h48q12 0 10 -12q-10 -48 -45.5 -77t-84.5 -29t-76.5 29z" />
    <glyph glyph-name="Ohungarumlaut" unicode="&#x150;" horiz-adv-x="458" 
d="M81.5 36.5q-46.5 44.5 -46.5 121.5q0 10 2 32l39 320q11 90 71 144t149 54q81 0 128 -44.5t47 -121.5q0 -10 -2 -32l-39 -320q-11 -90 -71.5 -144t-149.5 -54q-81 0 -127.5 44.5zM269.5 132.5q18.5 19.5 22.5 51.5l41 332q1 4 1 12q0 27 -14 43t-38 16q-27 0 -45.5 -19.5
t-22.5 -51.5l-41 -332q-1 -4 -1 -12q0 -27 14 -43t37 -16q28 0 46.5 19.5zM182.5 764.5q-2.5 3.5 1.5 10.5l58 101q5 9 15 9h93q7 0 9 -4t-2 -10l-64 -101q-5 -9 -15 -9h-87q-6 0 -8.5 3.5zM336 765q-2 4 2 10l63 101q6 9 16 9h86q7 0 9 -4t-2 -10l-63 -101q-6 -9 -16 -9
h-86q-7 0 -9 4z" />
    <glyph glyph-name="ohungarumlaut" unicode="&#x151;" horiz-adv-x="429" 
d="M72.5 30q-43.5 38 -43.5 105q0 16 1 25l24 194q9 76 64.5 122t140.5 46q79 0 123 -38.5t44 -104.5q0 -9 -2 -25l-24 -194q-10 -78 -64.5 -123t-141.5 -45q-78 0 -121.5 38zM245.5 130q15.5 16 18.5 41l22 173q3 25 -9 41t-33 16t-36 -16t-18 -41l-22 -173q-3 -25 8.5 -41
t32.5 -16t36.5 16zM145.5 579.5q-2.5 3.5 1.5 10.5l58 101q5 9 15 9h93q7 0 9 -4t-2 -10l-64 -101q-5 -9 -15 -9h-87q-6 0 -8.5 3.5zM299 580q-2 4 2 10l63 101q6 9 16 9h86q7 0 9 -4t-2 -10l-63 -101q-6 -9 -16 -9h-86q-7 0 -9 4z" />
    <glyph glyph-name="OE" unicode="&#x152;" horiz-adv-x="670" 
d="M692.5 582.5q-3.5 -3.5 -8.5 -3.5h-202q-5 0 -5 -5l-19 -158q-2 -5 4 -5h115q5 0 8 -3.5t2 -8.5l-12 -97q0 -5 -4 -8.5t-9 -3.5h-115q-4 0 -6 -5l-19 -159q0 -5 4 -5h202q5 0 8 -3.5t2 -8.5l-12 -97q-1 -5 -4.5 -8.5t-8.5 -3.5h-332q-5 0 -8 3.5t-2 8.5l1 6q0 8 -6 3
q-40 -29 -92 -29q-38 0 -70 20.5t-50.5 58t-18.5 86.5q0 11 2 33l39 320q7 58 35 103t68.5 70t82.5 25q51 0 85 -29q2 -2 4 -1t2 4l1 6q1 5 4.5 8.5t8.5 3.5h332q5 0 8 -3.5t2 -8.5l-12 -97q-1 -5 -4.5 -8.5zM269.5 132.5q18.5 19.5 22.5 51.5l41 332q1 4 1 12q0 27 -14 43
t-38 16q-27 0 -45.5 -19.5t-22.5 -51.5l-41 -332q-1 -4 -1 -12q0 -27 14 -43t37 -16q28 0 46.5 19.5z" />
    <glyph glyph-name="oe" unicode="&#x153;" horiz-adv-x="670" 
d="M647.5 213.5q-3.5 -3.5 -8.5 -3.5h-214q-2 0 -3.5 -1.5t-1.5 -3.5l-4 -35q-3 -25 8 -41t31 -16q18 0 32 13t20 32q5 11 14 10l110 -7q12 -1 9 -13q-15 -75 -65.5 -115.5t-134.5 -40.5q-75 0 -112 53q-3 3 -7 0q-51 -53 -127 -53q-78 0 -121.5 38t-43.5 105q0 16 1 25
l24 194q9 76 64.5 122t140.5 46q74 0 114 -55q3 -3 7 0q52 55 125 55q78 0 121.5 -38.5t43.5 -104.5q0 -7 -2 -25l-16 -132q-1 -5 -4.5 -8.5zM277.5 385q-11.5 16 -33.5 16q-21 0 -36 -16t-18 -41l-22 -174q-3 -25 8.5 -41t32.5 -16q22 0 37 16t18 41l22 174q3 25 -8.5 41z
M455 385q-15 -16 -18 -41l-4 -35q-2 -5 4 -5h84q4 0 6 5l4 35q3 26 -8 41.5t-32 15.5t-36 -16z" />
    <glyph glyph-name="Racute" unicode="&#x154;" horiz-adv-x="457" 
d="M279 10l-41 276q-2 4 -5 4h-32q-6 0 -6 -5l-33 -273q-1 -5 -5 -8.5t-9 -3.5h-113q-5 0 -8 3.5t-2 8.5l83 676q1 5 4.5 8.5t8.5 3.5h196q72 0 115 -47.5t43 -126.5q0 -24 -2 -37q-7 -58 -34.5 -103.5t-69.5 -70.5q-2 -1 -3 -2.5t0 -3.5l53 -295v-2q0 -5 -3.5 -8.5
t-8.5 -3.5h-116q-10 0 -12 10zM231 574l-21 -171q-2 -5 4 -5h43q34 0 57 30t23 79q0 33 -15.5 52.5t-41.5 19.5h-44q-5 0 -5 -5zM234 768q0 4 3 8l69 102q5 8 16 8h90q9 0 9 -6q0 -5 -4 -9l-87 -102q-7 -7 -15 -7h-71q-10 0 -10 6z" />
    <glyph glyph-name="racute" unicode="&#x155;" horiz-adv-x="315" 
d="M344 510q7 -6 4 -15l-33 -117q-2 -11 -15 -8q-9 4 -25 4q-15 0 -26 -4q-23 -4 -39 -27.5t-20 -54.5l-34 -275q-1 -5 -4.5 -8.5t-8.5 -3.5h-114q-5 0 -8 3.5t-2 8.5l60 489q1 5 4.5 8.5t8.5 3.5h114q5 0 8 -3.5t2 -8.5l-5 -39q-1 -4 1 -4.5t4 2.5q32 59 88 59q27 0 40 -10
zM164 582q0 4 3 8l69 102q5 8 16 8h90q9 0 9 -6q0 -5 -4 -9l-87 -102q-7 -7 -15 -7h-71q-10 0 -10 6z" />
    <glyph glyph-name="uni0156" unicode="&#x156;" horiz-adv-x="457" 
d="M279 10l-41 276q-2 4 -5 4h-32q-6 0 -6 -5l-33 -273q-1 -5 -5 -8.5t-9 -3.5h-113q-5 0 -8 3.5t-2 8.5l83 676q1 5 4.5 8.5t8.5 3.5h196q72 0 115 -47.5t43 -126.5q0 -24 -2 -37q-7 -58 -34.5 -103.5t-69.5 -70.5q-2 -1 -3 -2.5t0 -3.5l53 -295v-2q0 -5 -3.5 -8.5
t-8.5 -3.5h-116q-10 0 -12 10zM231 574l-21 -171q-2 -5 4 -5h43q34 0 57 30t23 79q0 33 -15.5 52.5t-41.5 19.5h-44q-5 0 -5 -5zM105 -168q0 4 3 8l69 102q5 8 16 8h90q9 0 9 -6q0 -5 -4 -9l-87 -102q-7 -7 -15 -7h-71q-10 0 -10 6z" />
    <glyph glyph-name="uni0157" unicode="&#x157;" horiz-adv-x="315" 
d="M344 510q7 -6 4 -15l-33 -117q-2 -11 -15 -8q-9 4 -25 4q-15 0 -26 -4q-23 -4 -39 -27.5t-20 -54.5l-34 -275q-1 -5 -4.5 -8.5t-8.5 -3.5h-114q-5 0 -8 3.5t-2 8.5l60 489q1 5 4.5 8.5t8.5 3.5h114q5 0 8 -3.5t2 -8.5l-5 -39q-1 -4 1 -4.5t4 2.5q32 59 88 59q27 0 40 -10
zM-70 -168q0 4 3 8l69 102q5 8 16 8h90q9 0 9 -6q0 -5 -4 -9l-87 -102q-7 -7 -15 -7h-71q-10 0 -10 6z" />
    <glyph glyph-name="Rcaron" unicode="&#x158;" horiz-adv-x="457" 
d="M279 10l-41 276q-2 4 -5 4h-32q-6 0 -6 -5l-33 -273q-1 -5 -5 -8.5t-9 -3.5h-113q-5 0 -8 3.5t-2 8.5l83 676q1 5 4.5 8.5t8.5 3.5h196q72 0 115 -47.5t43 -126.5q0 -24 -2 -37q-7 -58 -34.5 -103.5t-69.5 -70.5q-2 -1 -3 -2.5t0 -3.5l53 -295v-2q0 -5 -3.5 -8.5
t-8.5 -3.5h-116q-10 0 -12 10zM231 574l-21 -171q-2 -5 4 -5h43q34 0 57 30t23 79q0 33 -15.5 52.5t-41.5 19.5h-44q-5 0 -5 -5zM174 878q0 8 11 8h84q10 0 13 -9l23 -56q2 -5 5 0l36 56q6 9 15 9h86q9 0 9 -6q0 -3 -3 -8l-77 -104q-6 -8 -15 -8h-125q-9 0 -13 8l-48 104
q-1 2 -1 6z" />
    <glyph glyph-name="rcaron" unicode="&#x159;" horiz-adv-x="315" 
d="M344 510q7 -6 4 -15l-33 -117q-2 -11 -15 -8q-9 4 -25 4q-15 0 -26 -4q-23 -4 -39 -27.5t-20 -54.5l-34 -275q-1 -5 -4.5 -8.5t-8.5 -3.5h-114q-5 0 -8 3.5t-2 8.5l60 489q1 5 4.5 8.5t8.5 3.5h114q5 0 8 -3.5t2 -8.5l-5 -39q-1 -4 1 -4.5t4 2.5q32 59 88 59q27 0 40 -10
zM104 692q0 8 11 8h84q10 0 13 -9l23 -56q2 -5 5 0l36 56q6 9 15 9h86q9 0 9 -6q0 -3 -3 -8l-77 -104q-6 -8 -15 -8h-125q-9 0 -13 8l-48 104q-1 2 -1 6z" />
    <glyph glyph-name="Sacute" unicode="&#x15a;" horiz-adv-x="431" 
d="M74.5 35q-45.5 43 -45.5 113q0 9 2 27l4 29q1 5 4.5 8.5t8.5 3.5h111q11 0 11 -12l-3 -22q-1 -4 -1 -12q0 -26 13 -41.5t34 -15.5q26 0 44.5 21.5t18.5 53.5q0 26 -17 46t-65 59q-40 32 -65 57.5t-42.5 61t-17.5 81.5q0 63 27.5 112t76 76t108.5 27q77 0 122.5 -44.5
t45.5 -118.5q0 -9 -2 -29l-3 -24q-1 -5 -5 -8.5t-9 -3.5h-111q-5 0 -8 3.5t-2 8.5l3 27q1 4 1 13q0 25 -12.5 40t-34.5 15q-26 0 -43.5 -21.5t-17.5 -57.5q0 -24 16.5 -45.5t60.5 -58.5q50 -42 75.5 -67.5t40.5 -55.5t15 -69q0 -8 -2 -28q-11 -88 -70 -140t-144 -52
q-77 0 -122.5 43zM225 768q0 4 3 8l69 102q5 8 16 8h90q9 0 9 -6q0 -5 -4 -9l-87 -102q-7 -7 -15 -7h-71q-10 0 -10 6z" />
    <glyph glyph-name="sacute" unicode="&#x15b;" horiz-adv-x="400" 
d="M63.5 27.5q-43.5 34.5 -43.5 94.5q0 13 1 20l1 7q1 5 4.5 8.5t8.5 3.5h107q5 0 8 -3.5t2 -8.5v-3q-3 -21 10 -34.5t34 -13.5t34 13.5t13 33.5q0 19 -17 30.5t-38 19.5t-28 11q-46 18 -77 49t-31 87q0 14 1 22q9 73 61 115t129 42q74 0 115.5 -37t41.5 -101q0 -9 -2 -25
q-1 -5 -4.5 -8.5t-8.5 -3.5h-104q-5 0 -8 3.5t-2 8.5l1 8q2 20 -8.5 32.5t-29.5 12.5q-23 0 -36 -15.5t-13 -35.5q0 -22 17.5 -34t54.5 -27q56 -22 90.5 -51t34.5 -85q0 -78 -55.5 -124t-143.5 -46q-76 0 -119.5 34.5zM188 582q0 4 3 8l69 102q5 8 16 8h90q9 0 9 -6
q0 -5 -4 -9l-87 -102q-7 -7 -15 -7h-71q-10 0 -10 6z" />
    <glyph glyph-name="Scircumflex" unicode="&#x15c;" horiz-adv-x="431" 
d="M74.5 35q-45.5 43 -45.5 113q0 9 2 27l4 29q1 5 4.5 8.5t8.5 3.5h111q11 0 11 -12l-3 -22q-1 -4 -1 -12q0 -26 13 -41.5t34 -15.5q26 0 44.5 21.5t18.5 53.5q0 26 -17 46t-65 59q-40 32 -65 57.5t-42.5 61t-17.5 81.5q0 63 27.5 112t76 76t108.5 27q77 0 122.5 -44.5
t45.5 -118.5q0 -9 -2 -29l-3 -24q-1 -5 -5 -8.5t-9 -3.5h-111q-5 0 -8 3.5t-2 8.5l3 27q1 4 1 13q0 25 -12.5 40t-34.5 15q-26 0 -43.5 -21.5t-17.5 -57.5q0 -24 16.5 -45.5t60.5 -58.5q50 -42 75.5 -67.5t40.5 -55.5t15 -69q0 -8 -2 -28q-11 -88 -70 -140t-144 -52
q-77 0 -122.5 43zM146 766q0 4 3 8l74 104q5 8 15 8h125q9 0 12 -8l52 -104q1 -2 1 -5q0 -9 -11 -9h-85q-10 0 -13 9l-22 56q-3 5 -6 0l-36 -56q-2 -4 -6.5 -6.5t-8.5 -2.5h-85q-9 0 -9 6z" />
    <glyph glyph-name="scircumflex" unicode="&#x15d;" horiz-adv-x="400" 
d="M63.5 27.5q-43.5 34.5 -43.5 94.5q0 13 1 20l1 7q1 5 4.5 8.5t8.5 3.5h107q5 0 8 -3.5t2 -8.5v-3q-3 -21 10 -34.5t34 -13.5t34 13.5t13 33.5q0 19 -17 30.5t-38 19.5t-28 11q-46 18 -77 49t-31 87q0 14 1 22q9 73 61 115t129 42q74 0 115.5 -37t41.5 -101q0 -9 -2 -25
q-1 -5 -4.5 -8.5t-8.5 -3.5h-104q-5 0 -8 3.5t-2 8.5l1 8q2 20 -8.5 32.5t-29.5 12.5q-23 0 -36 -15.5t-13 -35.5q0 -22 17.5 -34t54.5 -27q56 -22 90.5 -51t34.5 -85q0 -78 -55.5 -124t-143.5 -46q-76 0 -119.5 34.5zM109 580q0 4 3 8l74 104q5 8 15 8h125q9 0 12 -8
l52 -104q1 -2 1 -5q0 -9 -11 -9h-85q-10 0 -13 9l-22 56q-3 5 -6 0l-36 -56q-2 -4 -6.5 -6.5t-8.5 -2.5h-85q-9 0 -9 6z" />
    <glyph glyph-name="Scedilla" unicode="&#x15e;" horiz-adv-x="431" 
d="M357.5 60.5q-43.5 -49.5 -109.5 -63.5q-3 0 -4 -2t1 -4q25 -35 25 -73q0 -23 -7 -41q-12 -34 -36 -48t-54 -14q-26 0 -45 7q-10 3 -7 14l11 46q3 12 15 9q26 -4 36 25q2 8 2 13q0 30 -31 66l-6 3q-56 12 -87.5 52t-31.5 98q0 9 2 27l4 29q1 5 4.5 8.5t8.5 3.5h111
q11 0 11 -12l-3 -22q-1 -4 -1 -12q0 -26 13 -41.5t34 -15.5q26 0 44.5 21.5t18.5 53.5q0 26 -17 46t-65 59q-40 32 -65 57.5t-42.5 61t-17.5 81.5q0 63 27.5 112t76 76t108.5 27q77 0 122.5 -44.5t45.5 -118.5q0 -9 -2 -29l-3 -24q-1 -5 -5 -8.5t-9 -3.5h-111q-5 0 -8 3.5
t-2 8.5l3 27q1 4 1 13q0 25 -12.5 40t-34.5 15q-26 0 -43.5 -21.5t-17.5 -57.5q0 -24 16.5 -45.5t60.5 -58.5q50 -42 75.5 -67.5t40.5 -55.5t15 -69q0 -8 -2 -28q-10 -74 -53.5 -123.5z" />
    <glyph glyph-name="scedilla" unicode="&#x15f;" horiz-adv-x="400" 
d="M342.5 54.5q-39.5 -43.5 -106.5 -56.5q-6 -2 -3 -6q26 -36 26 -75q0 -21 -7 -39q-22 -62 -91 -62q-19 0 -45 7q-10 3 -7 14l11 46q3 11 15 9q26 -3 36 25q2 10 2 14q0 28 -30 63l-6 3q-56 10 -86.5 42.5t-30.5 82.5q0 13 1 20l1 7q1 5 4.5 8.5t8.5 3.5h107q5 0 8 -3.5
t2 -8.5v-3q-3 -21 10 -34.5t34 -13.5t34 13.5t13 33.5q0 19 -17 30.5t-38 19.5t-28 11q-46 18 -77 49t-31 87q0 14 1 22q9 73 61 115t129 42q74 0 115.5 -37t41.5 -101q0 -9 -2 -25q-1 -5 -4.5 -8.5t-8.5 -3.5h-104q-5 0 -8 3.5t-2 8.5l1 8q2 20 -8.5 32.5t-29.5 12.5
q-23 0 -36 -15.5t-13 -35.5q0 -22 17.5 -34t54.5 -27q56 -22 90.5 -51t34.5 -85q0 -65 -39.5 -108.5z" />
    <glyph glyph-name="Scaron" unicode="&#x160;" horiz-adv-x="431" 
d="M74.5 35q-45.5 43 -45.5 113q0 9 2 27l4 29q1 5 4.5 8.5t8.5 3.5h111q11 0 11 -12l-3 -22q-1 -4 -1 -12q0 -26 13 -41.5t34 -15.5q26 0 44.5 21.5t18.5 53.5q0 26 -17 46t-65 59q-40 32 -65 57.5t-42.5 61t-17.5 81.5q0 63 27.5 112t76 76t108.5 27q77 0 122.5 -44.5
t45.5 -118.5q0 -9 -2 -29l-3 -24q-1 -5 -5 -8.5t-9 -3.5h-111q-5 0 -8 3.5t-2 8.5l3 27q1 4 1 13q0 25 -12.5 40t-34.5 15q-26 0 -43.5 -21.5t-17.5 -57.5q0 -24 16.5 -45.5t60.5 -58.5q50 -42 75.5 -67.5t40.5 -55.5t15 -69q0 -8 -2 -28q-11 -88 -70 -140t-144 -52
q-77 0 -122.5 43zM165 878q0 8 11 8h84q10 0 13 -9l23 -56q2 -5 5 0l36 56q6 9 15 9h86q9 0 9 -6q0 -3 -3 -8l-77 -104q-6 -8 -15 -8h-125q-9 0 -13 8l-48 104q-1 2 -1 6z" />
    <glyph glyph-name="scaron" unicode="&#x161;" horiz-adv-x="400" 
d="M63.5 27.5q-43.5 34.5 -43.5 94.5q0 13 1 20l1 7q1 5 4.5 8.5t8.5 3.5h107q5 0 8 -3.5t2 -8.5v-3q-3 -21 10 -34.5t34 -13.5t34 13.5t13 33.5q0 19 -17 30.5t-38 19.5t-28 11q-46 18 -77 49t-31 87q0 14 1 22q9 73 61 115t129 42q74 0 115.5 -37t41.5 -101q0 -9 -2 -25
q-1 -5 -4.5 -8.5t-8.5 -3.5h-104q-5 0 -8 3.5t-2 8.5l1 8q2 20 -8.5 32.5t-29.5 12.5q-23 0 -36 -15.5t-13 -35.5q0 -22 17.5 -34t54.5 -27q56 -22 90.5 -51t34.5 -85q0 -78 -55.5 -124t-143.5 -46q-76 0 -119.5 34.5zM128 692q0 8 11 8h84q10 0 13 -9l23 -56q2 -5 5 0
l36 56q6 9 15 9h86q9 0 9 -6q0 -3 -3 -8l-77 -104q-6 -8 -15 -8h-125q-9 0 -13 8l-48 104q-1 2 -1 6z" />
    <glyph glyph-name="uni0162" unicode="&#x162;" horiz-adv-x="454" 
d="M494 696.5q3 -3.5 2 -8.5l-12 -97q-1 -5 -4.5 -8.5t-8.5 -3.5h-122q-2 0 -3.5 -1.5t-1.5 -3.5l-69 -562q-1 -5 -4.5 -8.5t-8.5 -3.5h-114q-5 0 -8 3.5t-2 8.5l69 562q2 5 -4 5h-116q-11 0 -11 12l12 97q1 5 4.5 8.5t8.5 3.5h385q5 0 8 -3.5zM163 -170l11 46q3 12 15 10
q11 -2 21 4t15 20q2 8 2 14q0 28 -30 61q-3 4 -3 8q0 7 11 7h60q8 0 14 -6q33 -37 33 -82q0 -23 -7 -41q-12 -34 -36 -48t-54 -14q-19 0 -45 7q-10 3 -7 14z" />
    <glyph glyph-name="uni0163" unicode="&#x163;" horiz-adv-x="282" 
d="M292.5 418.5q-3.5 -3.5 -8.5 -3.5h-55q-2 0 -3.5 -1.5t-1.5 -3.5l-29 -238q-1 -5 -1 -14q0 -21 9.5 -29t27.5 -7h7q5 0 8 -3.5t2 -8.5l-12 -98q-1 -5 -4.5 -8.5t-8.5 -3.5h-14q-3 0 -4.5 -2t0.5 -4q18 -28 18 -62q0 -22 -7 -42q-12 -33 -36 -47t-54 -14q-26 0 -45 7
q-10 3 -7 14l11 46q1 6 4.5 7.5t8.5 1.5h7q23 0 30 24q3 7 3 15q0 29 -35 66l-4 3q-22 11 -33.5 30t-11.5 50q0 7 2 25l36 292q0 5 -4 5h-32q-5 0 -8 3.5t-2 8.5l9 75q1 5 4.5 8.5t8.5 3.5h32q5 0 5 5l14 111q1 5 4.5 8.5t8.5 3.5h109q5 0 8 -3.5t2 -8.5l-14 -111q0 -5 5 -5
h54q5 0 8 -3.5t2 -8.5l-9 -75q-1 -5 -4.5 -8.5z" />
    <glyph glyph-name="Tcaron" unicode="&#x164;" horiz-adv-x="454" 
d="M494 696.5q3 -3.5 2 -8.5l-12 -97q-1 -5 -4.5 -8.5t-8.5 -3.5h-122q-2 0 -3.5 -1.5t-1.5 -3.5l-69 -562q-1 -5 -4.5 -8.5t-8.5 -3.5h-114q-5 0 -8 3.5t-2 8.5l69 562q2 5 -4 5h-116q-11 0 -11 12l12 97q1 5 4.5 8.5t8.5 3.5h385q5 0 8 -3.5zM178 877q0 8 11 8h84
q10 0 13 -9l23 -56q2 -5 5 0l36 56q6 9 15 9h86q9 0 9 -6q0 -3 -3 -8l-77 -104q-6 -8 -15 -8h-125q-9 0 -13 8l-48 104q-1 2 -1 6z" />
    <glyph glyph-name="tcaron" unicode="&#x165;" horiz-adv-x="282" 
d="M292.5 418.5q-3.5 -3.5 -8.5 -3.5h-55q-2 0 -3.5 -1.5t-1.5 -3.5l-29 -238q-1 -5 -1 -14q0 -21 9.5 -29t27.5 -7h7q5 0 8 -3.5t2 -8.5l-12 -98q-1 -5 -4.5 -8.5t-8.5 -3.5h-39q-64 0 -97 19.5t-33 73.5q0 7 2 25l36 292q0 5 -4 5h-32q-5 0 -8 3.5t-2 8.5l9 75
q1 5 4.5 8.5t8.5 3.5h32q5 0 5 5l14 111q1 5 4.5 8.5t8.5 3.5h109q5 0 8 -3.5t2 -8.5l-14 -111q0 -5 5 -5h54q5 0 8 -3.5t2 -8.5l-9 -75q-1 -5 -4.5 -8.5zM264 583q0 4 3 8l69 102q5 8 16 8h90q9 0 9 -6q0 -5 -4 -9l-87 -102q-7 -7 -15 -7h-71q-10 0 -10 6z" />
    <glyph glyph-name="Tbar" unicode="&#x166;" horiz-adv-x="454" 
d="M479.5 582.5q-3.5 -3.5 -8.5 -3.5h-122q-2 0 -3.5 -1.5t-1.5 -3.5l-20 -160q0 -5 5 -5h47q5 0 8 -3.5t2 -8.5l-7 -61q-1 -5 -4.5 -8.5t-8.5 -3.5h-48q-5 0 -5 -5l-38 -307q-1 -5 -4.5 -8.5t-8.5 -3.5h-114q-5 0 -8 3.5t-2 8.5l38 307q0 5 -4 5h-59q-11 0 -11 12l8 61
q1 5 4.5 8.5t8.5 3.5h59q4 0 6 5l19 160q2 5 -4 5h-116q-11 0 -11 12l12 97q1 5 4.5 8.5t8.5 3.5h385q5 0 8 -3.5t2 -8.5l-12 -97q-1 -5 -4.5 -8.5z" />
    <glyph glyph-name="tbar" unicode="&#x167;" horiz-adv-x="282" 
d="M277.5 272.5q-3.5 -3.5 -8.5 -3.5h-57q-6 0 -6 -5l-11 -92q-1 -5 -1 -14q0 -21 9.5 -29t27.5 -7h7q5 0 8 -3.5t2 -8.5l-12 -98q-1 -5 -4.5 -8.5t-8.5 -3.5h-39q-64 0 -97 19.5t-33 73.5q0 7 2 25l18 146q0 5 -4 5h-31q-5 0 -8 3.5t-2 8.5l7 61q1 5 4.5 8.5t8.5 3.5h31
q4 0 6 5l6 51q0 5 -4 5h-32q-5 0 -8 3.5t-2 8.5l9 75q1 5 4.5 8.5t8.5 3.5h32q5 0 5 5l14 111q1 5 4.5 8.5t8.5 3.5h109q5 0 8 -3.5t2 -8.5l-14 -111q0 -5 5 -5h54q5 0 8 -3.5t2 -8.5l-9 -75q-1 -5 -4.5 -8.5t-8.5 -3.5h-55q-2 0 -3.5 -1.5t-1.5 -3.5l-6 -51q-2 -5 4 -5h57
q5 0 8 -3.5t2 -8.5l-7 -61q-1 -5 -4.5 -8.5z" />
    <glyph glyph-name="Utilde" unicode="&#x168;" horiz-adv-x="465" 
d="M88.5 38.5q-45.5 46.5 -45.5 124.5q0 24 2 36l60 489q1 5 4.5 8.5t8.5 3.5h113q11 0 11 -12l-62 -503q-1 -5 -1 -14q0 -26 13 -42t35 -16q25 0 42.5 20t21.5 52l62 503q1 5 4.5 8.5t8.5 3.5h114q5 0 8 -3.5t2 -8.5l-60 -489q-11 -94 -71 -150.5t-147 -56.5
q-78 0 -123.5 46.5zM322 790q-8 4 -18.5 11t-19.5 7q-22 0 -38 -22q-7 -10 -17 -4l-37 30q-6 6 -2 16q17 34 41.5 51.5t51.5 17.5q31 0 59 -23q3 -2 9.5 -7t13.5 -8t15 -3q22 0 37 20q9 12 17 5l36 -28q4 -4 4 -8q0 -6 -6 -15q-20 -30 -46 -44t-49 -14q-22 0 -51 18z" />
    <glyph glyph-name="utilde" unicode="&#x169;" horiz-adv-x="433" 
d="M306.5 510.5q3.5 3.5 8.5 3.5h114q5 0 8 -3.5t2 -8.5l-60 -490q-1 -5 -4.5 -8.5t-8.5 -3.5h-114q-5 0 -8 3.5t-2 8.5l2 17q1 3 -1 4t-4 -2q-32 -38 -92 -38q-52 0 -85 29.5t-33 90.5q0 9 2 29l44 360q1 5 4.5 8.5t8.5 3.5h114q5 0 8 -3.5t2 -8.5l-40 -329q-1 -5 -1 -15
q0 -22 9.5 -33.5t27.5 -11.5q22 0 36 17t18 46l40 326q1 5 4.5 8.5zM281 604q-8 4 -18.5 11t-19.5 7q-22 0 -38 -22q-7 -10 -17 -4l-37 30q-6 6 -2 16q17 34 41.5 51.5t51.5 17.5q31 0 59 -23q3 -2 9.5 -7t13.5 -8t15 -3q22 0 37 20q9 12 17 5l36 -28q4 -4 4 -8q0 -6 -6 -15
q-20 -30 -46 -44t-49 -14q-22 0 -51 18z" />
    <glyph glyph-name="Umacron" unicode="&#x16a;" horiz-adv-x="465" 
d="M88.5 38.5q-45.5 46.5 -45.5 124.5q0 24 2 36l60 489q1 5 4.5 8.5t8.5 3.5h113q11 0 11 -12l-62 -503q-1 -5 -1 -14q0 -26 13 -42t35 -16q25 0 42.5 20t21.5 52l62 503q1 5 4.5 8.5t8.5 3.5h114q5 0 8 -3.5t2 -8.5l-60 -489q-11 -94 -71 -150.5t-147 -56.5
q-78 0 -123.5 46.5zM200 770.5q-3 3.5 -2 8.5l9 72q0 5 4 8.5t9 3.5h190q5 0 8 -3.5t2 -8.5l-9 -72q-1 -5 -4.5 -8.5t-8.5 -3.5h-190q-5 0 -8 3.5z" />
    <glyph glyph-name="umacron" unicode="&#x16b;" horiz-adv-x="433" 
d="M306.5 510.5q3.5 3.5 8.5 3.5h114q5 0 8 -3.5t2 -8.5l-60 -490q-1 -5 -4.5 -8.5t-8.5 -3.5h-114q-5 0 -8 3.5t-2 8.5l2 17q1 3 -1 4t-4 -2q-32 -38 -92 -38q-52 0 -85 29.5t-33 90.5q0 9 2 29l44 360q1 5 4.5 8.5t8.5 3.5h114q5 0 8 -3.5t2 -8.5l-40 -329q-1 -5 -1 -15
q0 -22 9.5 -33.5t27.5 -11.5q22 0 36 17t18 46l40 326q1 5 4.5 8.5zM159 584.5q-3 3.5 -2 8.5l9 72q0 5 4 8.5t9 3.5h190q5 0 8 -3.5t2 -8.5l-9 -72q-1 -5 -4.5 -8.5t-8.5 -3.5h-190q-5 0 -8 3.5z" />
    <glyph glyph-name="Ubreve" unicode="&#x16c;" horiz-adv-x="465" 
d="M88.5 38.5q-45.5 46.5 -45.5 124.5q0 24 2 36l60 489q1 5 4.5 8.5t8.5 3.5h113q11 0 11 -12l-62 -503q-1 -5 -1 -14q0 -26 13 -42t35 -16q25 0 42.5 20t21.5 52l62 503q1 5 4.5 8.5t8.5 3.5h114q5 0 8 -3.5t2 -8.5l-60 -489q-11 -94 -71 -150.5t-147 -56.5
q-78 0 -123.5 46.5zM228.5 780q-27.5 29 -25.5 77q0 12 12 12h48q11 0 11 -12q1 -20 11.5 -32t27.5 -12t30.5 12t19.5 32q3 12 14 12h48q12 0 10 -12q-10 -48 -45.5 -77t-84.5 -29t-76.5 29z" />
    <glyph glyph-name="ubreve" unicode="&#x16d;" horiz-adv-x="433" 
d="M306.5 510.5q3.5 3.5 8.5 3.5h114q5 0 8 -3.5t2 -8.5l-60 -490q-1 -5 -4.5 -8.5t-8.5 -3.5h-114q-5 0 -8 3.5t-2 8.5l2 17q1 3 -1 4t-4 -2q-32 -38 -92 -38q-52 0 -85 29.5t-33 90.5q0 9 2 29l44 360q1 5 4.5 8.5t8.5 3.5h114q5 0 8 -3.5t2 -8.5l-40 -329q-1 -5 -1 -15
q0 -22 9.5 -33.5t27.5 -11.5q22 0 36 17t18 46l40 326q1 5 4.5 8.5zM187.5 594q-27.5 29 -25.5 77q0 12 12 12h48q11 0 11 -12q1 -20 11.5 -32t27.5 -12t30.5 12t19.5 32q3 12 14 12h48q12 0 10 -12q-10 -48 -45.5 -77t-84.5 -29t-76.5 29z" />
    <glyph glyph-name="Uring" unicode="&#x16e;" horiz-adv-x="465" 
d="M88.5 38.5q-45.5 46.5 -45.5 124.5q0 24 2 36l60 489q1 5 4.5 8.5t8.5 3.5h113q11 0 11 -12l-62 -503q-1 -5 -1 -14q0 -26 13 -42t35 -16q25 0 42.5 20t21.5 52l62 503q1 5 4.5 8.5t8.5 3.5h114q5 0 8 -3.5t2 -8.5l-60 -489q-11 -94 -71 -150.5t-147 -56.5
q-78 0 -123.5 46.5zM228.5 779.5q-29.5 30.5 -29.5 77.5q0 38 18.5 70t50 51t67.5 19q46 0 76 -30t30 -77q0 -38 -18.5 -70.5t-50 -51.5t-67.5 -19q-47 0 -76.5 30.5zM352 840q17 17 17 40q0 19 -12.5 31.5t-30.5 12.5q-21 0 -37.5 -16.5t-16.5 -40.5q0 -19 11.5 -31.5
t30.5 -12.5q21 0 38 17z" />
    <glyph glyph-name="uring" unicode="&#x16f;" horiz-adv-x="433" 
d="M306.5 510.5q3.5 3.5 8.5 3.5h114q5 0 8 -3.5t2 -8.5l-60 -490q-1 -5 -4.5 -8.5t-8.5 -3.5h-114q-5 0 -8 3.5t-2 8.5l2 17q1 3 -1 4t-4 -2q-32 -38 -92 -38q-52 0 -85 29.5t-33 90.5q0 9 2 29l44 360q1 5 4.5 8.5t8.5 3.5h114q5 0 8 -3.5t2 -8.5l-40 -329q-1 -5 -1 -15
q0 -22 9.5 -33.5t27.5 -11.5q22 0 36 17t18 46l40 326q1 5 4.5 8.5zM187.5 593.5q-29.5 30.5 -29.5 77.5q0 38 18.5 70t50 51t67.5 19q46 0 76 -30t30 -77q0 -38 -18.5 -70.5t-50 -51.5t-67.5 -19q-47 0 -76.5 30.5zM311 654q17 17 17 40q0 19 -12.5 31.5t-30.5 12.5
q-21 0 -37.5 -16.5t-16.5 -40.5q0 -19 11.5 -31.5t30.5 -12.5q21 0 38 17z" />
    <glyph glyph-name="Uhungarumlaut" unicode="&#x170;" horiz-adv-x="465" 
d="M88.5 38.5q-45.5 46.5 -45.5 124.5q0 24 2 36l60 489q1 5 4.5 8.5t8.5 3.5h113q11 0 11 -12l-62 -503q-1 -5 -1 -14q0 -26 13 -42t35 -16q25 0 42.5 20t21.5 52l62 503q1 5 4.5 8.5t8.5 3.5h114q5 0 8 -3.5t2 -8.5l-60 -489q-11 -94 -71 -150.5t-147 -56.5
q-78 0 -123.5 46.5zM186.5 765.5q-2.5 3.5 1.5 10.5l58 101q5 9 15 9h93q7 0 9 -4t-2 -10l-64 -101q-5 -9 -15 -9h-87q-6 0 -8.5 3.5zM340 766q-2 4 2 10l63 101q6 9 16 9h86q7 0 9 -4t-2 -10l-63 -101q-6 -9 -16 -9h-86q-7 0 -9 4z" />
    <glyph glyph-name="uhungarumlaut" unicode="&#x171;" horiz-adv-x="433" 
d="M306.5 510.5q3.5 3.5 8.5 3.5h114q5 0 8 -3.5t2 -8.5l-60 -490q-1 -5 -4.5 -8.5t-8.5 -3.5h-114q-5 0 -8 3.5t-2 8.5l2 17q1 3 -1 4t-4 -2q-32 -38 -92 -38q-52 0 -85 29.5t-33 90.5q0 9 2 29l44 360q1 5 4.5 8.5t8.5 3.5h114q5 0 8 -3.5t2 -8.5l-40 -329q-1 -5 -1 -15
q0 -22 9.5 -33.5t27.5 -11.5q22 0 36 17t18 46l40 326q1 5 4.5 8.5zM145.5 579.5q-2.5 3.5 1.5 10.5l58 101q5 9 15 9h93q7 0 9 -4t-2 -10l-64 -101q-5 -9 -15 -9h-87q-6 0 -8.5 3.5zM299 580q-2 4 2 10l63 101q6 9 16 9h86q7 0 9 -4t-2 -10l-63 -101q-6 -9 -16 -9h-86
q-7 0 -9 4z" />
    <glyph glyph-name="Uogonek" unicode="&#x172;" horiz-adv-x="465" 
d="M357.5 696.5q3.5 3.5 8.5 3.5h114q5 0 8 -3.5t2 -8.5l-60 -489q-10 -80 -56 -134t-116 -68l-6 -3q-44 -42 -44 -71q0 -16 8 -23.5t21 -5.5h3q10 0 10 -9v-46q0 -11 -10 -14q-21 -7 -47 -7q-32 0 -54 16.5t-22 55.5q0 53 45 102q4 6 -2 6q-56 14 -86.5 58t-30.5 108
q0 23 2 35l60 489q1 5 4.5 8.5t8.5 3.5h113q11 0 11 -12l-62 -503q-1 -5 -1 -14q0 -26 13 -42t35 -16q25 0 42.5 20t21.5 52l62 503q1 5 4.5 8.5z" />
    <glyph glyph-name="uogonek" unicode="&#x173;" horiz-adv-x="433" 
d="M347 -114q9 0 9 -10v-46q0 -11 -10 -14q-28 -7 -47 -7q-32 0 -54 17t-22 57q0 58 57 111q2 2 1 4t-4 2h-25q-5 0 -8 3.5t-2 8.5l2 17q1 3 -1 4t-4 -2q-32 -38 -92 -38q-52 0 -85 29.5t-33 90.5q0 9 2 29l44 360q1 5 4.5 8.5t8.5 3.5h114q5 0 8 -3.5t2 -8.5l-40 -329
q-1 -5 -1 -15q0 -22 9.5 -33.5t27.5 -11.5q22 0 36 17t18 46l40 326q1 5 4.5 8.5t8.5 3.5h114q5 0 8 -3.5t2 -8.5l-61 -493q0 -9 -8 -15q-58 -48 -55 -84q1 -14 9 -20t20 -4h3z" />
    <glyph glyph-name="Wcircumflex" unicode="&#x174;" horiz-adv-x="659" 
d="M133 11l-48 676v2q0 11 12 11h118q11 0 11 -11l11 -360q1 -4 3 -4t3 4l97 360q3 11 14 11h98q11 0 11 -11l13 -360q0 -4 2.5 -4t3.5 4l93 360q3 11 14 11h115q12 0 9 -13l-206 -676q-3 -11 -14 -11h-105q-11 0 -11 11l-12 370q0 4 -2 4t-4 -4l-97 -370q-3 -11 -14 -11
h-103q-12 0 -12 11zM260 766q0 4 3 8l74 104q5 8 15 8h125q9 0 12 -8l52 -104q1 -2 1 -5q0 -9 -11 -9h-85q-10 0 -13 9l-22 56q-3 5 -6 0l-36 -56q-2 -4 -6.5 -6.5t-8.5 -2.5h-85q-9 0 -9 6z" />
    <glyph glyph-name="wcircumflex" unicode="&#x175;" horiz-adv-x="595" 
d="M105 3q-3 3 -3 8l-44 491v2q0 11 12 11h108q11 0 11 -11l8 -274q0 -3 2.5 -3t3.5 3l76 274q3 11 14 11h96q11 0 11 -11l12 -275q1 -3 3 -2.5t3 3.5l75 274q3 11 14 11l106 -2q12 0 8 -13l-164 -489q-3 -11 -14 -11h-110q-12 0 -12 11l-10 254q-1 3 -2.5 3t-3.5 -3
l-71 -254q-3 -11 -14 -11h-107q-5 0 -8 3zM207 580q0 4 3 8l74 104q5 8 15 8h125q9 0 12 -8l52 -104q1 -2 1 -5q0 -9 -11 -9h-85q-10 0 -13 9l-22 56q-3 5 -6 0l-36 -56q-2 -4 -6.5 -6.5t-8.5 -2.5h-85q-9 0 -9 6z" />
    <glyph glyph-name="Ycircumflex" unicode="&#x176;" horiz-adv-x="460" 
d="M145 4.5q-3 3.5 -2 8.5l32 260q0 1 0.5 2.5t-0.5 3.5l-86 407v3q0 5 3 8t8 3h120q11 0 12 -10l31 -239q0 -3 2.5 -3t3.5 3l89 239q4 10 15 10h119q6 0 8.5 -3.5t-0.5 -10.5l-186 -407q-2 -3 -2 -6l-32 -260q-1 -5 -4.5 -8.5t-8.5 -3.5h-114q-5 0 -8 3.5zM163 766q0 4 3 8
l74 104q5 8 15 8h125q9 0 12 -8l52 -104q1 -2 1 -5q0 -9 -11 -9h-85q-10 0 -13 9l-22 56q-3 5 -6 0l-36 -56q-2 -4 -6.5 -6.5t-8.5 -2.5h-85q-9 0 -9 6z" />
    <glyph glyph-name="ycircumflex" unicode="&#x177;" horiz-adv-x="410" 
d="M-10.5 -195.5q-1.5 3.5 -0.5 8.5l11 92q2 12 10 12q50 1 73.5 16.5t32.5 63.5v6l-61 499v2q0 11 12 11h122q12 0 12 -11l8 -297q0 -4 2.5 -4t3.5 4l79 297q3 11 14 11l122 -2q6 0 8.5 -3.5t0.5 -9.5l-192 -519q-28 -73 -54.5 -109.5t-71 -53.5t-123.5 -17h-5
q-2 0 -3.5 3.5zM115 580q0 4 3 8l74 104q5 8 15 8h125q9 0 12 -8l52 -104q1 -2 1 -5q0 -9 -11 -9h-85q-10 0 -13 9l-22 56q-3 5 -6 0l-36 -56q-2 -4 -6.5 -6.5t-8.5 -2.5h-85q-9 0 -9 6z" />
    <glyph glyph-name="Ydieresis" unicode="&#x178;" horiz-adv-x="460" 
d="M145 4.5q-3 3.5 -2 8.5l32 260q0 1 0.5 2.5t-0.5 3.5l-86 407v3q0 5 3 8t8 3h120q11 0 12 -10l31 -239q0 -3 2.5 -3t3.5 3l89 239q4 10 15 10h119q6 0 8.5 -3.5t-0.5 -10.5l-186 -407q-2 -3 -2 -6l-32 -260q-1 -5 -4.5 -8.5t-8.5 -3.5h-114q-5 0 -8 3.5zM343 777.5
q-19 19.5 -19 49.5q0 38 25.5 63.5t62.5 25.5q31 0 49.5 -18.5t18.5 -49.5q0 -38 -26 -64t-62 -26q-30 0 -49 19.5zM165 777.5q-19 19.5 -19 49.5q0 38 25.5 63.5t62.5 25.5q31 0 49.5 -18.5t18.5 -49.5q0 -38 -26 -64t-62 -26q-30 0 -49 19.5z" />
    <glyph glyph-name="Zacute" unicode="&#x179;" horiz-adv-x="400" 
d="M1 12l13 101q0 7 5 15l262 445q3 6 -3 6h-195q-5 0 -8 3.5t-2 8.5l11 97q1 5 5 8.5t9 3.5h333q5 0 8 -3.5t2 -8.5l-12 -101q-2 -10 -5 -15l-262 -445q-3 -6 3 -6h195q5 0 8 -3.5t2 -8.5l-12 -97q0 -5 -4 -8.5t-9 -3.5h-333q-11 0 -11 12zM210 768q0 4 3 8l69 102
q5 8 16 8h90q9 0 9 -6q0 -5 -4 -9l-87 -102q-7 -7 -15 -7h-71q-10 0 -10 6z" />
    <glyph glyph-name="zacute" unicode="&#x17a;" horiz-adv-x="362" 
d="M2 3.5q-3 3.5 -2 8.5l13 108q0 8 6 15l181 246q3 6 -2 6h-135q-5 0 -8 3.5t-2 8.5l13 103q0 5 4 8.5t9 3.5h292q5 0 8 -3.5t2 -8.5l-13 -107q-1 -7 -6 -15l-187 -246q-4 -6 2 -6h152q5 0 8 -3.5t2 -8.5l-13 -104q0 -5 -4 -8.5t-9 -3.5h-303q-5 0 -8 3.5zM170 582q0 4 3 8
l69 102q5 8 16 8h90q9 0 9 -6q0 -5 -4 -9l-87 -102q-7 -7 -15 -7h-71q-10 0 -10 6z" />
    <glyph glyph-name="Zdotaccent" unicode="&#x17b;" horiz-adv-x="400" 
d="M1 12l13 101q0 7 5 15l262 445q3 6 -3 6h-195q-5 0 -8 3.5t-2 8.5l11 97q1 5 5 8.5t9 3.5h333q5 0 8 -3.5t2 -8.5l-12 -101q-2 -10 -5 -15l-262 -445q-3 -6 3 -6h195q5 0 8 -3.5t2 -8.5l-12 -97q0 -5 -4 -8.5t-9 -3.5h-333q-11 0 -11 12zM223 777.5q-19 19.5 -19 49.5
q0 38 25.5 63.5t62.5 25.5q31 0 49.5 -18.5t18.5 -49.5q0 -38 -26 -64t-62 -26q-30 0 -49 19.5z" />
    <glyph glyph-name="zdotaccent" unicode="&#x17c;" horiz-adv-x="362" 
d="M2 3.5q-3 3.5 -2 8.5l13 108q0 8 6 15l181 246q3 6 -2 6h-135q-5 0 -8 3.5t-2 8.5l13 103q0 5 4 8.5t9 3.5h292q5 0 8 -3.5t2 -8.5l-13 -107q-1 -7 -6 -15l-187 -246q-4 -6 2 -6h152q5 0 8 -3.5t2 -8.5l-13 -104q0 -5 -4 -8.5t-9 -3.5h-303q-5 0 -8 3.5zM183 591.5
q-19 19.5 -19 49.5q0 38 25.5 63.5t62.5 25.5q31 0 49.5 -18.5t18.5 -49.5q0 -38 -26 -64t-62 -26q-30 0 -49 19.5z" />
    <glyph glyph-name="Zcaron" unicode="&#x17d;" horiz-adv-x="400" 
d="M1 12l13 101q0 7 5 15l262 445q3 6 -3 6h-195q-5 0 -8 3.5t-2 8.5l11 97q1 5 5 8.5t9 3.5h333q5 0 8 -3.5t2 -8.5l-12 -101q-2 -10 -5 -15l-262 -445q-3 -6 3 -6h195q5 0 8 -3.5t2 -8.5l-12 -97q0 -5 -4 -8.5t-9 -3.5h-333q-11 0 -11 12zM150 878q0 8 11 8h84q10 0 13 -9
l23 -56q2 -5 5 0l36 56q6 9 15 9h86q9 0 9 -6q0 -3 -3 -8l-77 -104q-6 -8 -15 -8h-125q-9 0 -13 8l-48 104q-1 2 -1 6z" />
    <glyph glyph-name="zcaron" unicode="&#x17e;" horiz-adv-x="362" 
d="M2 3.5q-3 3.5 -2 8.5l13 108q0 8 6 15l181 246q3 6 -2 6h-135q-5 0 -8 3.5t-2 8.5l13 103q0 5 4 8.5t9 3.5h292q5 0 8 -3.5t2 -8.5l-13 -107q-1 -7 -6 -15l-187 -246q-4 -6 2 -6h152q5 0 8 -3.5t2 -8.5l-13 -104q0 -5 -4 -8.5t-9 -3.5h-303q-5 0 -8 3.5zM110 692
q0 8 11 8h84q10 0 13 -9l23 -56q2 -5 5 0l36 56q6 9 15 9h86q9 0 9 -6q0 -3 -3 -8l-77 -104q-6 -8 -15 -8h-125q-9 0 -13 8l-48 104q-1 2 -1 6z" />
    <glyph glyph-name="uni018F" unicode="&#x18f;" horiz-adv-x="526" 
d="M480.5 658q54.5 -50 54.5 -137q0 -24 -2 -36l-34 -273q-8 -65 -42 -116t-90 -79t-127 -28q-96 0 -150.5 52t-54.5 137q0 10 2 34l21 171q1 5 4.5 8.5t8.5 3.5h309q4 0 6 5l9 76q1 6 1 18q0 42 -22.5 67t-60.5 25q-35 0 -61.5 -23.5t-38.5 -61.5q-4 -10 -14 -10l-113 6
q-5 0 -7.5 3.5t-1.5 8.5q20 95 85 147t166 52q98 0 152.5 -50zM327.5 142q30.5 31 36.5 80l7 55q0 5 -5 5h-180q-4 0 -6 -5l-6 -55q-1 -6 -1 -18q0 -42 22.5 -67.5t59.5 -25.5q42 0 72.5 31z" />
    <glyph glyph-name="florin" unicode="&#x192;" horiz-adv-x="463" 
d="M327.5 670.5q46.5 34.5 140.5 34.5q20 0 31 -1q12 -2 10 -13l-11 -82q-1 -5 -4.5 -8.5t-8.5 -3.5h-29q-26 -1 -41.5 -17.5t-25.5 -47.5l-31 -114q-2 -5 3 -5h58q5 0 8 -3.5t2 -8.5l-10 -84q-1 -5 -4.5 -8.5t-8.5 -3.5h-75q-6 0 -6 -5l-99 -354q-23 -82 -70 -116.5
t-140 -34.5q-20 0 -31 1q-12 1 -10 13l11 82q1 5 4.5 8.5t8.5 3.5h29q25 1 41.5 18.5t24.5 46.5l93 332q2 5 -3 5h-43q-5 0 -8 3.5t-2 8.5l10 84q1 5 5 8.5t9 3.5h59q6 0 6 5l38 136q23 82 69.5 116.5z" />
    <glyph glyph-name="Ohorn" unicode="&#x1a0;" horiz-adv-x="458" 
d="M430 656q41 -44 41 -114q0 -10 -2 -32l-39 -320q-11 -90 -71.5 -144t-149.5 -54q-81 0 -127.5 44.5t-46.5 121.5q0 10 2 32l39 320q11 90 71 144t149 54q28 0 59 -7q2 -1 6 -1q21 3 37.5 19.5t23.5 53.5q2 12 13 12h48q12 0 9 -18q-12 -69 -61 -104q-4 -3 -1 -7zM333 516
q1 4 1 12q0 27 -14 43t-38 16q-27 0 -45.5 -19.5t-22.5 -51.5l-41 -332q-1 -4 -1 -12q0 -27 14 -43t37 -16q28 0 46.5 19.5t22.5 51.5z" />
    <glyph glyph-name="ohorn" unicode="&#x1a1;" horiz-adv-x="429" 
d="M394 470q31 -35 31 -93q0 -15 -1 -23l-24 -194q-10 -78 -64.5 -123t-141.5 -45q-78 0 -121.5 38t-43.5 105q0 16 1 25l24 194q9 76 64.5 122t140.5 46q29 0 60 -7q2 -1 6 -1q20 3 37 20t24 53q1 6 4.5 9t8.5 3h49q12 0 9 -18q-14 -70 -62 -104q-2 -2 -1 -7zM277 385
q-12 16 -33 16t-36 -16t-18 -41l-22 -173q-3 -25 8.5 -41t32.5 -16t36.5 16t18.5 41l22 173q3 25 -9 41z" />
    <glyph glyph-name="Uhorn" unicode="&#x1af;" horiz-adv-x="465" 
d="M577 773q-9 -49 -32 -79.5t-56 -43.5q-4 -3 -4 -6l-55 -445q-11 -94 -71 -150.5t-147 -56.5q-78 0 -123.5 46.5t-45.5 124.5q0 24 2 36l60 489q1 5 4.5 8.5t8.5 3.5h113q11 0 11 -12l-62 -503q-1 -5 -1 -14q0 -26 13 -42t35 -16q25 0 42.5 20t21.5 52l62 503q1 5 4.5 8.5
t8.5 3.5h71q23 0 42 16.5t26 56.5q1 6 4.5 9t8.5 3h49q12 0 10 -12z" />
    <glyph glyph-name="uhorn" unicode="&#x1b0;" horiz-adv-x="433" 
d="M524 587q-17 -93 -86 -122q-4 -3 -4 -6l-55 -447q-1 -5 -4.5 -8.5t-8.5 -3.5h-114q-5 0 -8 3.5t-2 8.5l2 17q1 3 -1 4t-4 -2q-32 -38 -92 -38q-52 0 -85 29.5t-33 90.5q0 9 2 29l44 360q1 5 4.5 8.5t8.5 3.5h114q5 0 8 -3.5t2 -8.5l-40 -329q-1 -5 -1 -15
q0 -22 9.5 -33.5t27.5 -11.5q22 0 36 17t18 46l40 326q1 5 4.5 8.5t8.5 3.5h69q23 0 42 16.5t26 56.5q1 6 4.5 9t8.5 3h49q12 0 10 -12z" />
    <glyph glyph-name="uni01CD" unicode="&#x1cd;" horiz-adv-x="468" 
d="M297 11l-4 96q1 2 -1 3.5t-4 1.5h-123q-6 0 -6 -5l-28 -96q-3 -11 -14 -11h-113q-12 0 -8 13l225 676q3 11 14 11h131q10 0 12 -11l58 -676v-3q0 -10 -11 -10h-117q-11 0 -11 11zM196 221h87q5 0 5 5l-12 273q-1 3 -3 3t-3 -3l-77 -273q-2 -5 3 -5zM184 877q0 8 11 8h84
q10 0 13 -9l23 -56q2 -5 5 0l36 56q6 9 15 9h86q9 0 9 -6q0 -3 -3 -8l-77 -104q-6 -8 -15 -8h-125q-9 0 -13 8l-48 104q-1 2 -1 6z" />
    <glyph glyph-name="uni01CE" unicode="&#x1ce;" horiz-adv-x="431" 
d="M304.5 510.5q3.5 3.5 8.5 3.5h114q5 0 8 -3.5t2 -8.5l-60 -490q-1 -5 -4.5 -8.5t-8.5 -3.5h-114q-5 0 -8 3.5t-2 8.5l4 28q0 4 -2 4t-4 -3q-36 -49 -96 -49q-58 0 -86 34t-28 95q0 25 2 39l24 194q10 82 48.5 125t104.5 43q60 0 84 -49q2 -3 3.5 -3t2.5 4l3 28
q1 5 4.5 8.5zM241.5 129q14.5 16 18.5 42l21 172q3 26 -8 42t-31 16t-34.5 -16t-17.5 -42l-22 -172q-3 -26 8 -42t31 -16t34.5 16zM143 691q0 8 11 8h84q10 0 13 -9l23 -56q2 -5 5 0l36 56q6 9 15 9h86q9 0 9 -6q0 -3 -3 -8l-77 -104q-6 -8 -15 -8h-125q-9 0 -13 8l-48 104
q-1 2 -1 6z" />
    <glyph glyph-name="uni01D4" unicode="&#x1d4;" horiz-adv-x="433" 
d="M306.5 510.5q3.5 3.5 8.5 3.5h114q5 0 8 -3.5t2 -8.5l-60 -490q-1 -5 -4.5 -8.5t-8.5 -3.5h-114q-5 0 -8 3.5t-2 8.5l2 17q1 3 -1 4t-4 -2q-32 -38 -92 -38q-52 0 -85 29.5t-33 90.5q0 9 2 29l44 360q1 5 4.5 8.5t8.5 3.5h114q5 0 8 -3.5t2 -8.5l-40 -329q-1 -5 -1 -15
q0 -22 9.5 -33.5t27.5 -11.5q22 0 36 17t18 46l40 326q1 5 4.5 8.5zM141 691q0 8 11 8h84q10 0 13 -9l23 -56q2 -5 5 0l36 56q6 9 15 9h86q9 0 9 -6q0 -3 -3 -8l-77 -104q-6 -8 -15 -8h-125q-9 0 -13 8l-48 104q-1 2 -1 6z" />
    <glyph glyph-name="uni01E5" unicode="&#x1e5;" horiz-adv-x="440" 
d="M449 288l-8 -61q-1 -5 -4.5 -8.5t-8.5 -3.5h-20q-4 0 -6 -5l-23 -186q-13 -111 -71 -171t-190 -60q-27 0 -41 1q-12 1 -10 13l12 98q2 13 13 11q57 -2 88.5 11.5t45 40.5t18.5 71q1 3 -1 3t-4 -3q-21 -24 -47 -33.5t-49 -9.5q-58 0 -86.5 33.5t-28.5 94.5q0 19 3 40
l23 190q10 81 49 124.5t105 43.5q60 0 84 -45q2 -3 4 -2t2 4l3 23q1 5 4.5 8.5t8.5 3.5h114q5 0 8 -3.5t2 -8.5l-24 -197q-2 -5 4 -5h20q11 0 11 -12zM243 134q15 16 18 41l4 35q2 5 -4 5h-35q-5 0 -8 3.5t-2 8.5l8 61q0 5 4 8.5t9 3.5h35q2 0 3.5 1.5t1.5 3.5l5 39
q3 25 -8.5 41t-31.5 16t-34.5 -16t-17.5 -41l-21 -169q-3 -26 7.5 -41.5t31.5 -15.5q20 0 35 16z" />
    <glyph glyph-name="gcaron" unicode="&#x1e7;" horiz-adv-x="428" 
d="M305.5 510.5q3.5 3.5 8.5 3.5h114q5 0 8 -3.5t2 -8.5l-59 -478q-13 -111 -71 -171t-190 -60q-27 0 -41 1q-12 1 -10 13l12 98q2 13 13 11q57 -2 88.5 11.5t45 40.5t18.5 71q1 3 -1 3t-4 -3q-21 -24 -47 -33.5t-49 -9.5q-58 0 -86.5 33.5t-28.5 94.5q0 19 3 40l23 190
q10 81 49 124.5t105 43.5q60 0 84 -45q2 -3 4 -2t2 4l3 23q1 5 4.5 8.5zM243 134q15 16 18 41l21 169q3 25 -8.5 41t-31.5 16t-34.5 -16t-17.5 -41l-21 -169q-3 -26 7.5 -41.5t31.5 -15.5q20 0 35 16zM142 691q0 8 11 8h84q10 0 13 -9l23 -56q2 -5 5 0l36 56q6 9 15 9h86
q9 0 9 -6q0 -3 -3 -8l-77 -104q-6 -8 -15 -8h-125q-9 0 -13 8l-48 104q-1 2 -1 6z" />
    <glyph glyph-name="uni01E9" unicode="&#x1e9;" horiz-adv-x="436" 
d="M21 3.5q-3 3.5 -2 8.5l83 676q1 5 4.5 8.5t8.5 3.5h114q5 0 8 -3.5t2 -8.5l-41 -331q-1 -4 1.5 -4.5t4.5 2.5l103 151q4 8 15 8h117q6 0 8 -4t-2 -10l-126 -168q-2 -4 -2 -7l80 -311l1 -4q0 -10 -12 -10h-117q-9 0 -12 10l-37 198q-1 3 -3 3.5t-3 -2.5l-39 -52
q-2 -4 -2 -6l-17 -139q-1 -5 -4.5 -8.5t-8.5 -3.5h-114q-5 0 -8 3.5zM168 877q0 8 11 8h84q10 0 13 -9l23 -56q2 -5 5 0l36 56q6 9 15 9h86q9 0 9 -6q0 -3 -3 -8l-77 -104q-6 -8 -15 -8h-125q-9 0 -13 8l-48 104q-1 2 -1 6z" />
    <glyph glyph-name="uni01EF" unicode="&#x1ef;" horiz-adv-x="403" 
d="M231.5 255.5q0.5 -2.5 2.5 -3.5q63 -19 97.5 -67.5t34.5 -114.5q0 -11 -2 -33q-8 -68 -46 -122t-97 -84t-127 -30q-45 0 -90 15q-9 3 -9 13l16 100q2 14 14 9q31 -12 64 -12q52 0 92 29t48 93q1 7 1 20q0 42 -21 69t-62 27q-26 0 -55 -11l-5 -1q-7 0 -10 8l-23 73l-1 5
q0 4 7 11l151 131q2 2 1.5 4t-3.5 2h-139q-5 0 -8 3.5t-2 8.5l12 104q1 5 4.5 8.5t8.5 3.5h297q5 0 8 -3.5t2 -8.5l-13 -107q0 -8 -7 -15l-138 -121q-3 -1 -2.5 -3.5zM119 691q0 8 11 8h84q10 0 13 -9l23 -56q2 -5 5 0l36 56q6 9 15 9h86q9 0 9 -6q0 -3 -3 -8l-77 -104
q-6 -8 -15 -8h-125q-9 0 -13 8l-48 104q-1 2 -1 6z" />
    <glyph glyph-name="oslashacute" unicode="&#x1ff;" horiz-adv-x="429" 
d="M449 499l-35 -56l-1 -6q11 -28 11 -57q0 -8 -2 -26l-24 -194q-10 -78 -64.5 -123t-141.5 -45q-33 0 -65 8q-5 1 -6 -3l-26 -42q-2 -5 -7 -6.5t-10 1.5l-67 46q-8 6 -3 16l31 49q3 4 1 7q-13 29 -13 67q0 16 1 25l24 194q9 76 64.5 122t140.5 46q39 0 72 -11q4 -1 7 3
l26 43q3 5 8 6t9 -2l67 -46q9 -6 3 -16zM275 385q-12 16 -33 16t-36 -16t-18 -41l-22 -173q-3 -25 8.5 -41t32.5 -16t36.5 16t19.5 41l21 173q3 25 -9 41zM204 582q0 4 3 8l69 102q5 8 16 8h90q9 0 9 -6q0 -5 -4 -9l-87 -102q-7 -7 -15 -7h-71q-10 0 -10 6z" />
    <glyph glyph-name="uni0218" unicode="&#x218;" horiz-adv-x="431" 
d="M74.5 35q-45.5 43 -45.5 113q0 9 2 27l4 29q1 5 4.5 8.5t8.5 3.5h111q11 0 11 -12l-3 -22q-1 -4 -1 -12q0 -26 13 -41.5t34 -15.5q26 0 44.5 21.5t18.5 53.5q0 26 -17 46t-65 59q-40 32 -65 57.5t-42.5 61t-17.5 81.5q0 63 27.5 112t76 76t108.5 27q77 0 122.5 -44.5
t45.5 -118.5q0 -9 -2 -29l-3 -24q-1 -5 -5 -8.5t-9 -3.5h-111q-5 0 -8 3.5t-2 8.5l3 27q1 4 1 13q0 25 -12.5 40t-34.5 15q-26 0 -43.5 -21.5t-17.5 -57.5q0 -24 16.5 -45.5t60.5 -58.5q50 -42 75.5 -67.5t40.5 -55.5t15 -69q0 -8 -2 -28q-11 -88 -70 -140t-144 -52
q-77 0 -122.5 43zM88 -176q0 4 3 8l69 102q5 8 16 8h90q9 0 9 -6q0 -5 -4 -9l-87 -102q-7 -7 -15 -7h-71q-10 0 -10 6z" />
    <glyph glyph-name="uni0219" unicode="&#x219;" horiz-adv-x="400" 
d="M63.5 27.5q-43.5 34.5 -43.5 94.5q0 13 1 20l1 7q1 5 4.5 8.5t8.5 3.5h107q5 0 8 -3.5t2 -8.5v-3q-3 -21 10 -34.5t34 -13.5t34 13.5t13 33.5q0 19 -17 30.5t-38 19.5t-28 11q-46 18 -77 49t-31 87q0 14 1 22q9 73 61 115t129 42q74 0 115.5 -37t41.5 -101q0 -9 -2 -25
q-1 -5 -4.5 -8.5t-8.5 -3.5h-104q-5 0 -8 3.5t-2 8.5l1 8q2 20 -8.5 32.5t-29.5 12.5q-23 0 -36 -15.5t-13 -35.5q0 -22 17.5 -34t54.5 -27q56 -22 90.5 -51t34.5 -85q0 -78 -55.5 -124t-143.5 -46q-76 0 -119.5 34.5zM77 -175q0 4 3 8l69 102q5 8 16 8h90q9 0 9 -6
q0 -5 -4 -9l-87 -102q-7 -7 -15 -7h-71q-10 0 -10 6z" />
    <glyph glyph-name="uni021A" unicode="&#x21a;" horiz-adv-x="454" 
d="M494 696.5q3 -3.5 2 -8.5l-12 -97q-1 -5 -4.5 -8.5t-8.5 -3.5h-122q-2 0 -3.5 -1.5t-1.5 -3.5l-69 -562q-1 -5 -4.5 -8.5t-8.5 -3.5h-114q-5 0 -8 3.5t-2 8.5l69 562q2 5 -4 5h-116q-11 0 -11 12l12 97q1 5 4.5 8.5t8.5 3.5h385q5 0 8 -3.5zM46 -169q0 4 3 8l69 102
q5 8 16 8h90q9 0 9 -6q0 -5 -4 -9l-87 -102q-7 -7 -15 -7h-71q-10 0 -10 6z" />
    <glyph glyph-name="uni021B" unicode="&#x21b;" horiz-adv-x="282" 
d="M292.5 418.5q-3.5 -3.5 -8.5 -3.5h-55q-2 0 -3.5 -1.5t-1.5 -3.5l-29 -238q-1 -5 -1 -14q0 -21 9.5 -29t27.5 -7h7q5 0 8 -3.5t2 -8.5l-12 -98q-1 -5 -4.5 -8.5t-8.5 -3.5h-39q-64 0 -97 19.5t-33 73.5q0 7 2 25l36 292q0 5 -4 5h-32q-5 0 -8 3.5t-2 8.5l9 75
q1 5 4.5 8.5t8.5 3.5h32q5 0 5 5l14 111q1 5 4.5 8.5t8.5 3.5h109q5 0 8 -3.5t2 -8.5l-14 -111q0 -5 5 -5h54q5 0 8 -3.5t2 -8.5l-9 -75q-1 -5 -4.5 -8.5zM41 -162q0 4 3 8l69 102q5 8 16 8h90q9 0 9 -6q0 -5 -4 -9l-87 -102q-7 -7 -15 -7h-71q-10 0 -10 6z" />
    <glyph glyph-name="uni021F" unicode="&#x21f;" horiz-adv-x="433" 
d="M398.5 488.5q28.5 -33.5 28.5 -96.5q0 -20 -3 -41l-41 -339q-1 -5 -4.5 -8.5t-8.5 -3.5h-114q-5 0 -8 3.5t-2 8.5l40 328q1 5 1 15q0 46 -37 46q-22 0 -36 -16.5t-18 -46.5l-40 -326q-1 -5 -4.5 -8.5t-8.5 -3.5h-114q-5 0 -8 3.5t-2 8.5l83 676q1 5 4.5 8.5t8.5 3.5h114
q5 0 8 -3.5t2 -8.5l-25 -205v-1q0 -2 2.5 -1.5t5.5 3.5q37 38 91 38q57 0 85.5 -33.5zM171 877q0 8 11 8h84q10 0 13 -9l23 -56q2 -5 5 0l36 56q6 9 15 9h86q9 0 9 -6q0 -3 -3 -8l-77 -104q-6 -8 -15 -8h-125q-9 0 -13 8l-48 104q-1 2 -1 6z" />
    <glyph glyph-name="uni0228" unicode="&#x228;" horiz-adv-x="425" 
d="M447.5 582.5q-3.5 -3.5 -8.5 -3.5h-203q-5 0 -5 -5l-20 -158q0 -5 4 -5h117q5 0 8 -3.5t2 -8.5l-12 -97q-1 -5 -4.5 -8.5t-8.5 -3.5h-116q-6 0 -6 -5l-19 -159q-2 -5 4 -5h202q5 0 8.5 -3.5t2.5 -8.5l-12 -97q-1 -5 -4.5 -8.5t-8.5 -3.5h-118q-3 0 -4 -2t1 -4
q21 -35 21 -69q0 -22 -7 -40q-12 -34 -36 -48t-54 -14q-26 0 -45 7q-5 1 -6.5 4.5t0.5 9.5l11 46q3 11 15 9q11 -2 20.5 4.5t14.5 20.5q2 8 2 14q0 29 -27 59q-3 3 -7 3h-114q-5 0 -8 3.5t-2 8.5l83 676q1 5 4.5 8.5t8.5 3.5h333q5 0 8 -3.5t2 -8.5l-12 -97q-1 -5 -4.5 -8.5
z" />
    <glyph glyph-name="uni0229" unicode="&#x229;" horiz-adv-x="423" 
d="M400.5 216.5q-3.5 -3.5 -8.5 -3.5h-214q-2 0 -3.5 -1.5t-1.5 -3.5l-5 -37q-3 -25 8.5 -41.5t31.5 -16.5q18 0 31.5 12.5t19.5 31.5q4 10 14 10l111 -6q5 0 7.5 -3.5t1.5 -9.5q-26 -127 -144 -151q-6 -2 -3 -6q20 -32 20 -65q0 -20 -8 -41q-12 -34 -36 -48t-54 -14
q-26 0 -45 7q-5 1 -6.5 4.5t0.5 9.5l11 46q3 11 15 9q11 -2 21 4.5t14 20.5q2 8 2 14q0 25 -24 54q-1 3 -5 3q-59 9 -91 45t-32 94q0 8 2 26l24 194q9 76 64 122t140 46q78 0 121.5 -38.5t43.5 -104.5q0 -7 -2 -25l-16 -129q-1 -5 -4.5 -8.5zM208 385q-15 -16 -18 -41
l-5 -39q0 -5 4 -5h84q2 0 3.5 1.5t1.5 3.5l5 39q3 25 -8.5 41t-31.5 16t-35 -16z" />
    <glyph glyph-name="uni0237" unicode="&#x237;" horiz-adv-x="213" 
d="M-97 -192l12 97q2 12 13 11q44 -1 64 20.5t25 63.5l62 502q1 5 4.5 8.5t8.5 3.5h114q5 0 8 -3.5t2 -8.5l-62 -502q-9 -75 -27.5 -117t-67.5 -65t-146 -22q-12 0 -10 12z" />
    <glyph glyph-name="uni0259" unicode="&#x259;" horiz-adv-x="423" 
d="M376 485q43 -37 43 -104q0 -9 -2 -27l-24 -194q-9 -76 -63.5 -122t-140.5 -46q-78 0 -121.5 39t-43.5 104q0 9 2 25l16 129q1 5 4.5 8.5t8.5 3.5h214q5 0 5 5l5 38q3 26 -8 41.5t-32 15.5q-18 0 -31.5 -12.5t-19.5 -31.5q-3 -11 -13 -10l-111 7q-12 1 -10 12
q16 77 66 116.5t134 39.5q79 0 122 -37zM240 129q15 16 18 42l4 38q2 5 -4 5h-83q-4 0 -6 -5l-4 -38q-1 -4 -1 -12q0 -20 11 -33t29 -13q21 0 36 16z" />
    <glyph glyph-name="uni0292" unicode="&#x292;" horiz-adv-x="403" 
d="M231.5 255.5q0.5 -2.5 2.5 -3.5q63 -19 97.5 -67.5t34.5 -114.5q0 -11 -2 -33q-8 -68 -46 -122t-97 -84t-127 -30q-45 0 -90 15q-9 3 -9 13l16 100q2 14 14 9q31 -12 64 -12q52 0 92 29t48 93q1 7 1 20q0 42 -21 69t-62 27q-26 0 -55 -11l-5 -1q-7 0 -10 8l-23 73l-1 5
q0 4 7 11l151 131q2 2 1.5 4t-3.5 2h-139q-5 0 -8 3.5t-2 8.5l12 104q1 5 4.5 8.5t8.5 3.5h297q5 0 8 -3.5t2 -8.5l-13 -107q0 -8 -7 -15l-138 -121q-3 -1 -2.5 -3.5z" />
    <glyph glyph-name="uni02BB" unicode="&#x2bb;" horiz-adv-x="182" 
d="M69 690q0 10 11 10h114q5 0 8 -3t3 -8l15 -202v-2q0 -11 -11 -11h-87q-9 0 -11 10l-41 202z" />
    <glyph glyph-name="uni02BC" unicode="&#x2bc;" horiz-adv-x="182" 
d="M242 686l-91 -202q-5 -10 -14 -10h-86q-12 0 -8 13l65 202q3 11 14 11h113q13 0 7 -14z" />
    <glyph glyph-name="circumflex" unicode="&#x2c6;" horiz-adv-x="293" 
d="M71 580q0 4 3 8l74 104q5 8 15 8h125q9 0 12 -8l52 -104q1 -2 1 -5q0 -9 -11 -9h-85q-10 0 -13 9l-22 56q-3 5 -6 0l-36 -56q-2 -4 -6.5 -6.5t-8.5 -2.5h-85q-9 0 -9 6z" />
    <glyph glyph-name="caron" unicode="&#x2c7;" horiz-adv-x="321" 
d="M86 692q0 8 11 8h84q10 0 13 -9l23 -56q2 -5 5 0l36 56q6 9 15 9h86q9 0 9 -6q0 -3 -3 -8l-77 -104q-6 -8 -15 -8h-125q-9 0 -13 8l-48 104q-1 2 -1 6z" />
    <glyph glyph-name="uni02C9" unicode="&#x2c9;" horiz-adv-x="213" 
d="M58 607.5q-3 3.5 -2 8.5l9 72q1 5 4.5 8.5t8.5 3.5h190q5 0 8 -3.5t2 -8.5l-8 -72q-1 -5 -4.5 -8.5t-8.5 -3.5h-191q-5 0 -8 3.5z" />
    <glyph glyph-name="breve" unicode="&#x2d8;" horiz-adv-x="260" 
d="M101.5 578q-27.5 29 -25.5 77q0 12 12 12h48q11 0 11 -12q1 -20 11.5 -32t27.5 -12t31 12t19 32q3 12 14 12h48q12 0 10 -12q-10 -48 -45.5 -77t-84.5 -29t-76.5 29z" />
    <glyph glyph-name="dotaccent" unicode="&#x2d9;" horiz-adv-x="179" 
d="M91 591.5q-19 19.5 -19 49.5q0 38 25.5 63.5t62.5 25.5q31 0 49.5 -18.5t18.5 -49.5q0 -38 -26 -64t-62 -26q-30 0 -49 19.5z" />
    <glyph glyph-name="ring" unicode="&#x2da;" horiz-adv-x="266" 
d="M106.5 593.5q-29.5 30.5 -29.5 77.5q0 38 18.5 70t50 51t67.5 19q46 0 76 -30t30 -77q0 -38 -18.5 -70.5t-50 -51.5t-67.5 -19q-47 0 -76.5 30.5zM230 654q17 17 17 40q0 19 -12.5 31.5t-30.5 12.5q-21 0 -37.5 -16.5t-16.5 -40.5q0 -19 11.5 -31.5t30.5 -12.5
q21 0 38 17z" />
    <glyph glyph-name="ogonek" unicode="&#x2db;" horiz-adv-x="147" 
d="M97 -179.5q-2 -3.5 -8 -4.5q-28 -7 -47 -7q-32 0 -54 17t-22 57q0 60 58 111q6 6 15 6h61q9 0 9 -5q0 -4 -6 -10q-45 -40 -45 -73q0 -15 8 -21.5t21 -4.5h3q9 0 9 -10v-46q0 -6 -2 -9.5z" />
    <glyph glyph-name="tilde" unicode="&#x2dc;" horiz-adv-x="316" 
d="M208 604q-8 4 -18.5 11t-19.5 7q-22 0 -38 -22q-7 -10 -17 -4l-37 30q-6 6 -2 16q17 34 41.5 51.5t51.5 17.5q31 0 59 -23q3 -2 9.5 -7t13.5 -8t15 -3q22 0 37 20q9 12 17 5l36 -28q4 -4 4 -8q0 -6 -6 -15q-20 -30 -46 -44t-49 -14q-22 0 -51 18z" />
    <glyph glyph-name="hungarumlaut" unicode="&#x2dd;" horiz-adv-x="363" 
d="M73.5 588q-2.5 4 1.5 10l69 102q6 8 16 8h87q9 0 9 -6q0 -5 -4 -9l-85 -102q-7 -7 -15 -7h-70q-6 0 -8.5 4zM226 590q0 4 3 8l68 102q6 8 16 8h88q9 0 9 -6q0 -5 -4 -9l-85 -102q-7 -7 -15 -7h-70q-10 0 -10 6z" />
    <glyph glyph-name="gravecomb" unicode="&#x300;" 
d="M40 584q0 -8 -11 -8h-73q-7 0 -13 7l-61 102q-2 4 -2 7t3 5.5t8 2.5h90q9 0 13 -8l45 -102q1 -2 1 -6z" />
    <glyph glyph-name="acutecomb" unicode="&#x301;" 
d="M-135 582q0 4 3 8l69 102q5 8 16 8h90q9 0 9 -6q0 -5 -4 -9l-87 -102q-7 -7 -15 -7h-71q-10 0 -10 6z" />
    <glyph glyph-name="uni0302" unicode="&#x302;" 
d="M-249 580q0 4 3 8l74 104q5 8 15 8h125q9 0 12 -8l52 -104q1 -2 1 -5q0 -9 -11 -9h-85q-10 0 -13 9l-22 56q-3 5 -6 0l-36 -56q-2 -4 -6.5 -6.5t-8.5 -2.5h-85q-9 0 -9 6z" />
    <glyph glyph-name="tildecomb" unicode="&#x303;" 
d="M-95 604q-8 4 -18.5 11t-19.5 7q-22 0 -38 -22q-7 -10 -17 -4l-37 30q-6 6 -2 16q17 34 41.5 51.5t51.5 17.5q31 0 59 -23q3 -2 9.5 -7t13.5 -8t15 -3q22 0 37 20q9 12 17 5l36 -28q4 -4 4 -8q0 -6 -6 -15q-20 -30 -46 -44t-49 -14q-22 0 -51 18z" />
    <glyph glyph-name="uni0304" unicode="&#x304;" 
d="M-156 596.5q-3 3.5 -2 8.5l9 72q1 5 4.5 8.5t8.5 3.5h190q5 0 8 -3.5t2 -8.5l-9 -72q-1 -5 -4.5 -8.5t-8.5 -3.5h-190q-5 0 -8 3.5z" />
    <glyph glyph-name="uni0306" unicode="&#x306;" 
d="M-156.5 594q-27.5 29 -25.5 77q0 12 12 12h48q11 0 11 -12q1 -20 11.5 -32t27.5 -12t30.5 12t19.5 32q3 12 14 12h48q12 0 10 -12q-10 -48 -45.5 -77t-84.5 -29t-76.5 29z" />
    <glyph glyph-name="uni0307" unicode="&#x307;" 
d="M-83 591.5q-19 19.5 -19 49.5q0 38 25.5 63.5t62.5 25.5q31 0 49.5 -18.5t18.5 -49.5q0 -38 -26 -64t-62 -26q-30 0 -49 19.5z" />
    <glyph glyph-name="uni0308" unicode="&#x308;" 
d="M-75 591.5q-19 19.5 -19 49.5q0 38 25.5 63.5t62.5 25.5q31 0 49.5 -18.5t18.5 -49.5q0 -38 -26 -64t-62 -26q-30 0 -49 19.5zM-253 591.5q-19 19.5 -19 49.5q0 38 25.5 63.5t62.5 25.5q31 0 49.5 -18.5t18.5 -49.5q0 -38 -26 -64t-62 -26q-30 0 -49 19.5z" />
    <glyph glyph-name="hookabovecomb" unicode="&#x309;" 
d="M-272 571q13 26 38 51q11 11 16.5 19t6.5 21q1 10 -6 17t-18 7q-13 0 -23 -6.5t-25 -23.5q-4 -5 -9 -6t-9 3l-30 25q-4 3 -4 8t4 9q26 32 49.5 45.5t57.5 13.5q41 0 63.5 -20.5t22.5 -56.5q0 -30 -11.5 -48t-35.5 -41q-23 -23 -29 -32q-7 -8 -15 -7l-36 7q-13 3 -7 15z
" />
    <glyph glyph-name="uni030A" unicode="&#x30a;" 
d="M-129.5 593.5q-29.5 30.5 -29.5 77.5q0 38 18.5 70t50 51t67.5 19q46 0 76 -30t30 -77q0 -38 -18.5 -70.5t-50 -51.5t-67.5 -19q-47 0 -76.5 30.5zM-6 654q17 17 17 40q0 19 -12.5 31.5t-30.5 12.5q-21 0 -37.5 -16.5t-16.5 -40.5q0 -19 11.5 -31.5t30.5 -12.5
q21 0 38 17z" />
    <glyph glyph-name="uni030B" unicode="&#x30b;" 
d="M-282.5 579.5q-2.5 3.5 1.5 10.5l58 101q5 9 15 9h93q7 0 9 -4t-2 -10l-64 -101q-5 -9 -15 -9h-87q-6 0 -8.5 3.5zM-129 580q-2 4 2 10l63 101q6 9 16 9h86q7 0 9 -4t-2 -10l-63 -101q-6 -9 -16 -9h-86q-7 0 -9 4z" />
    <glyph glyph-name="uni030C" unicode="&#x30c;" 
d="M-235 692q0 8 11 8h84q10 0 13 -9l23 -56q2 -5 5 0l36 56q6 9 15 9h86q9 0 9 -6q0 -3 -3 -8l-77 -104q-6 -8 -15 -8h-125q-9 0 -13 8l-48 104q-1 2 -1 6z" />
    <glyph glyph-name="uni0312" unicode="&#x312;" 
d="M47 694q0 -3 -3 -8l-70 -102q-5 -8 -15 -8h-90q-8 0 -8 7q0 4 3 8l87 102q6 7 14 7h72q10 0 10 -6z" />
    <glyph glyph-name="uni0313" unicode="&#x313;" 
d="M-135 582q0 4 3 8l69 102q5 8 16 8h90q9 0 9 -6q0 -5 -4 -9l-87 -102q-7 -7 -15 -7h-71q-10 0 -10 6z" />
    <glyph glyph-name="uni031B" unicode="&#x31b;" 
d="M-92 464l4 39q1 10 13 12q44 8 57 72q1 12 13 12h48q12 0 9 -18q-11 -62 -47.5 -93.5t-86.5 -35.5q-12 0 -10 12z" />
    <glyph glyph-name="dotbelowcomb" unicode="&#x323;" 
d="M-180 -222q-18 18 -18 47q0 37 24 61t59 24q29 0 46.5 -17t17.5 -45q0 -37 -24 -62.5t-58 -25.5q-29 0 -47 18z" />
    <glyph glyph-name="uni0326" unicode="&#x326;" 
d="M-248 -168q0 4 3 8l69 102q5 8 16 8h90q9 0 9 -6q0 -5 -4 -9l-87 -102q-7 -7 -15 -7h-71q-10 0 -10 6z" />
    <glyph glyph-name="uni0327" unicode="&#x327;" 
d="M-180 -170l11 46q3 12 15 10q11 -2 21 4t15 20q2 8 2 14q0 28 -30 61q-3 4 -3 8q0 7 11 7h60q8 0 14 -6q33 -37 33 -82q0 -23 -7 -41q-12 -34 -36 -48t-54 -14q-19 0 -45 7q-10 3 -7 14z" />
    <glyph glyph-name="uni0328" unicode="&#x328;" 
d="M-50 -179.5q-2 -3.5 -8 -4.5q-28 -7 -47 -7q-32 0 -54 17t-22 57q0 60 58 111q6 6 15 6h61q9 0 9 -6q0 -5 -6 -9q-45 -40 -45 -73q0 -15 8 -21.5t21 -4.5h3q9 0 9 -10v-46q0 -6 -2 -9.5z" />
    <glyph glyph-name="uni0335" unicode="&#x335;" 
d="M-223 636.5q4 3.5 9 3.5h253q5 0 8 -3.5t2 -8.5l-7 -61q-1 -5 -5 -8.5t-9 -3.5h-253q-5 0 -8 3.5t-2 8.5l8 61q0 5 4 8.5z" />
    <glyph glyph-name="uni0336" unicode="&#x336;" 
d="M-425 512.5q-3 3.5 -2 8.5l8 72q1 5 5 8.5t9 3.5h449q5 0 8 -3.5t2 -8.5l-9 -72q-1 -5 -4.5 -8.5t-8.5 -3.5h-449q-5 0 -8 3.5z" />
    <glyph glyph-name="uni0337" unicode="&#x337;" 
d="M-331 124q-5 0 -8 5l-45 63q-2 2 -2 7q0 6 5 10l408 313q6 4 9 4q5 0 8 -5l43 -63q3 -4 3 -8t-6 -9l-407 -313q-6 -4 -8 -4z" />
    <glyph glyph-name="uni0338" unicode="&#x338;" 
d="M-420 -33.5q-2 3.5 2 10.5l413 754q5 9 15 9h47q7 0 9 -3.5t-2 -10.5l-415 -754q-5 -9 -15 -9h-45q-7 0 -9 3.5z" />
    <glyph glyph-name="uni0394" unicode="&#x394;" horiz-adv-x="524" 
d="M-5 3.5q-3 3.5 -2 8.5l12 101q2 8 5 15l266 562q3 10 14 10h77q9 0 12 -10l127 -563q3 -7 1 -15l-12 -100q-1 -5 -4.5 -8.5t-8.5 -3.5h-479q-5 0 -8 3.5zM146 122h223q5 0 5 6l-66 382q0 4 -2 4t-4 -4l-159 -382q-3 -6 3 -6z" />
    <glyph glyph-name="uni03A9" unicode="&#x3a9;" horiz-adv-x="481" 
d="M17 3.5q-3 3.5 -2 8.5l12 97q1 5 4.5 8.5t8.5 3.5h34q3 0 4.5 2t-0.5 4q-24 37 -24 87q0 9 2 29l33 267q11 90 71 144t149 54q80 0 127 -45.5t47 -122.5q0 -10 -2 -30l-33 -267q-9 -72 -50 -116q-3 -2 -2 -4t4 -2h32q5 0 8 -3.5t2 -8.5l-12 -97q-1 -5 -4.5 -8.5
t-8.5 -3.5h-169q-5 0 -8 3.5t-2 8.5l12 99q1 9 11 13q17 7 29 25t15 42l40 325q1 4 1 12q0 27 -14 43t-38 16q-27 0 -45.5 -19.5t-22.5 -51.5l-40 -325q-1 -4 -1 -12q0 -19 7.5 -33.5t19.5 -20.5q9 -5 8 -13l-12 -100q-1 -5 -4.5 -8.5t-8.5 -3.5h-170q-5 0 -8 3.5z" />
    <glyph glyph-name="uni03BC" unicode="&#x3bc;" horiz-adv-x="437" 
d="M309.5 510.5q3.5 3.5 8.5 3.5h114q5 0 8 -3.5t2 -8.5l-60 -490q-1 -5 -4.5 -8.5t-8.5 -3.5h-114q-5 0 -8 3.5t-2 8.5l2 17q1 3 -1 3.5t-4 -2.5q-30 -35 -84 -37q-5 0 -5 -5l-22 -176q-1 -5 -4.5 -8.5t-8.5 -3.5h-113q-11 0 -11 12l85 690q1 5 4.5 8.5t8.5 3.5h114
q5 0 8 -3.5t2 -8.5l-41 -329l-1 -14q0 -46 38 -46q22 0 35.5 16.5t17.5 46.5l40 326q1 5 4.5 8.5z" />
    <glyph glyph-name="pi" unicode="&#x3c0;" horiz-adv-x="522" 
d="M524.5 397.5q-3.5 -3.5 -8.5 -3.5h-39q-5 0 -5 -5l-26 -213q-2 -18 -2 -22q0 -23 8 -29.5t23 -4.5q13 0 11 -12l-12 -96q-2 -12 -13 -12q-30 -2 -50 -2q-51 0 -82 16.5t-31 64.5q0 14 1 21l36 289q0 5 -4 5h-82q-5 0 -5 -5l-47 -377q0 -5 -4 -8.5t-9 -3.5h-113
q-5 0 -8 3.5t-2 8.5l46 377q0 5 -4 5h-39q-5 0 -8 3.5t-2 8.5l12 96q0 5 4 8.5t9 3.5h452q5 0 8 -3.5t2 -8.5l-12 -96q-1 -5 -4.5 -8.5z" />
    <glyph glyph-name="Wgrave" unicode="&#x1e80;" horiz-adv-x="659" 
d="M133 11l-48 676v2q0 11 12 11h118q11 0 11 -11l11 -360q1 -4 3 -4t3 4l97 360q3 11 14 11h98q11 0 11 -11l13 -360q0 -4 2.5 -4t3.5 4l93 360q3 11 14 11h115q12 0 9 -13l-206 -676q-3 -11 -14 -11h-105q-11 0 -11 11l-12 370q0 4 -2 4t-4 -4l-97 -370q-3 -11 -14 -11
h-103q-12 0 -12 11zM446 770q0 -8 -11 -8h-73q-7 0 -13 7l-61 102q-2 4 -2 7t3 5.5t8 2.5h90q9 0 13 -8l45 -102q1 -2 1 -6z" />
    <glyph glyph-name="wgrave" unicode="&#x1e81;" horiz-adv-x="595" 
d="M105 3q-3 3 -3 8l-44 491v2q0 11 12 11h108q11 0 11 -11l8 -274q0 -3 2.5 -3t3.5 3l76 274q3 11 14 11h96q11 0 11 -11l12 -275q1 -3 3 -2.5t3 3.5l75 274q3 11 14 11l106 -2q12 0 8 -13l-164 -489q-3 -11 -14 -11h-110q-12 0 -12 11l-10 254q-1 3 -2.5 3t-3.5 -3
l-71 -254q-3 -11 -14 -11h-107q-5 0 -8 3zM393 584q0 -8 -11 -8h-73q-7 0 -13 7l-61 102q-2 4 -2 7t3 5.5t8 2.5h90q9 0 13 -8l45 -102q1 -2 1 -6z" />
    <glyph glyph-name="Wacute" unicode="&#x1e82;" horiz-adv-x="659" 
d="M133 11l-48 676v2q0 11 12 11h118q11 0 11 -11l11 -360q1 -4 3 -4t3 4l97 360q3 11 14 11h98q11 0 11 -11l13 -360q0 -4 2.5 -4t3.5 4l93 360q3 11 14 11h115q12 0 9 -13l-206 -676q-3 -11 -14 -11h-105q-11 0 -11 11l-12 370q0 4 -2 4t-4 -4l-97 -370q-3 -11 -14 -11
h-103q-12 0 -12 11zM339 768q0 4 3 8l69 102q5 8 16 8h90q9 0 9 -6q0 -5 -4 -9l-87 -102q-7 -7 -15 -7h-71q-10 0 -10 6z" />
    <glyph glyph-name="wacute" unicode="&#x1e83;" horiz-adv-x="595" 
d="M105 3q-3 3 -3 8l-44 491v2q0 11 12 11h108q11 0 11 -11l8 -274q0 -3 2.5 -3t3.5 3l76 274q3 11 14 11h96q11 0 11 -11l12 -275q1 -3 3 -2.5t3 3.5l75 274q3 11 14 11l106 -2q12 0 8 -13l-164 -489q-3 -11 -14 -11h-110q-12 0 -12 11l-10 254q-1 3 -2.5 3t-3.5 -3
l-71 -254q-3 -11 -14 -11h-107q-5 0 -8 3zM286 582q0 4 3 8l69 102q5 8 16 8h90q9 0 9 -6q0 -5 -4 -9l-87 -102q-7 -7 -15 -7h-71q-10 0 -10 6z" />
    <glyph glyph-name="Wdieresis" unicode="&#x1e84;" horiz-adv-x="659" 
d="M133 11l-48 676v2q0 11 12 11h118q11 0 11 -11l11 -360q1 -4 3 -4t3 4l97 360q3 11 14 11h98q11 0 11 -11l13 -360q0 -4 2.5 -4t3.5 4l93 360q3 11 14 11h115q12 0 9 -13l-206 -676q-3 -11 -14 -11h-105q-11 0 -11 11l-12 370q0 4 -2 4t-4 -4l-97 -370q-3 -11 -14 -11
h-103q-12 0 -12 11zM440 777.5q-19 19.5 -19 49.5q0 38 25.5 63.5t62.5 25.5q31 0 49.5 -18.5t18.5 -49.5q0 -38 -26 -64t-62 -26q-30 0 -49 19.5zM262 777.5q-19 19.5 -19 49.5q0 38 25.5 63.5t62.5 25.5q31 0 49.5 -18.5t18.5 -49.5q0 -38 -26 -64t-62 -26q-30 0 -49 19.5
z" />
    <glyph glyph-name="wdieresis" unicode="&#x1e85;" horiz-adv-x="595" 
d="M105 3q-3 3 -3 8l-44 491v2q0 11 12 11h108q11 0 11 -11l8 -274q0 -3 2.5 -3t3.5 3l76 274q3 11 14 11h96q11 0 11 -11l12 -275q1 -3 3 -2.5t3 3.5l75 274q3 11 14 11l106 -2q12 0 8 -13l-164 -489q-3 -11 -14 -11h-110q-12 0 -12 11l-10 254q-1 3 -2.5 3t-3.5 -3
l-71 -254q-3 -11 -14 -11h-107q-5 0 -8 3zM387 591.5q-19 19.5 -19 49.5q0 38 25.5 63.5t62.5 25.5q31 0 49.5 -18.5t18.5 -49.5q0 -38 -26 -64t-62 -26q-30 0 -49 19.5zM209 591.5q-19 19.5 -19 49.5q0 38 25.5 63.5t62.5 25.5q31 0 49.5 -18.5t18.5 -49.5q0 -38 -26 -64
t-62 -26q-30 0 -49 19.5z" />
    <glyph glyph-name="uni1EA0" unicode="&#x1ea0;" horiz-adv-x="468" 
d="M297 11l-4 96q1 2 -1 3.5t-4 1.5h-123q-6 0 -6 -5l-28 -96q-3 -11 -14 -11h-113q-12 0 -8 13l225 676q3 11 14 11h131q10 0 12 -11l58 -676v-3q0 -10 -11 -10h-117q-11 0 -11 11zM196 221h87q5 0 5 5l-12 273q-1 3 -3 3t-3 -3l-77 -273q-2 -5 3 -5zM139 -222
q-18 18 -18 47q0 37 24 61t59 24q29 0 46.5 -17t17.5 -45q0 -37 -24 -62.5t-58 -25.5q-29 0 -47 18z" />
    <glyph glyph-name="uni1EA1" unicode="&#x1ea1;" horiz-adv-x="431" 
d="M304.5 510.5q3.5 3.5 8.5 3.5h114q5 0 8 -3.5t2 -8.5l-60 -490q-1 -5 -4.5 -8.5t-8.5 -3.5h-114q-5 0 -8 3.5t-2 8.5l4 28q0 4 -2 4t-4 -3q-36 -49 -96 -49q-58 0 -86 34t-28 95q0 25 2 39l24 194q10 82 48.5 125t104.5 43q60 0 84 -49q2 -3 3.5 -3t2.5 4l3 28
q1 5 4.5 8.5zM241.5 129q14.5 16 18.5 42l21 172q3 26 -8 42t-31 16t-34.5 -16t-17.5 -42l-22 -172q-3 -26 8 -42t31 -16t34.5 16zM120 -222q-18 18 -18 47q0 37 24 61t59 24q29 0 46.5 -17t17.5 -45q0 -37 -24 -62.5t-58 -25.5q-29 0 -47 18z" />
    <glyph glyph-name="uni1EA2" unicode="&#x1ea2;" horiz-adv-x="468" 
d="M297 11l-4 96q1 2 -1 3.5t-4 1.5h-123q-6 0 -6 -5l-28 -96q-3 -11 -14 -11h-113q-12 0 -8 13l225 676q3 11 14 11h131q10 0 12 -11l58 -676v-3q0 -10 -11 -10h-117q-11 0 -11 11zM196 221h87q5 0 5 5l-12 273q-1 3 -3 3t-3 -3l-77 -273q-2 -5 3 -5zM287 757q13 26 38 51
q11 11 16.5 19t6.5 21q1 10 -6 17t-18 7q-13 0 -23 -6.5t-25 -23.5q-4 -5 -9 -6t-9 3l-30 25q-4 3 -4 8t4 9q26 32 49.5 45.5t57.5 13.5q41 0 63.5 -20.5t22.5 -56.5q0 -30 -11.5 -48t-35.5 -41q-23 -23 -29 -32q-7 -8 -15 -7l-36 7q-13 3 -7 15z" />
    <glyph glyph-name="uni1EA3" unicode="&#x1ea3;" horiz-adv-x="431" 
d="M304.5 510.5q3.5 3.5 8.5 3.5h114q5 0 8 -3.5t2 -8.5l-60 -490q-1 -5 -4.5 -8.5t-8.5 -3.5h-114q-5 0 -8 3.5t-2 8.5l4 28q0 4 -2 4t-4 -3q-36 -49 -96 -49q-58 0 -86 34t-28 95q0 25 2 39l24 194q10 82 48.5 125t104.5 43q60 0 84 -49q2 -3 3.5 -3t2.5 4l3 28
q1 5 4.5 8.5zM241.5 129q14.5 16 18.5 42l21 172q3 26 -8 42t-31 16t-34.5 -16t-17.5 -42l-22 -172q-3 -26 8 -42t31 -16t34.5 16zM246 571q13 26 38 51q11 11 16.5 19t6.5 21q1 10 -6 17t-18 7q-13 0 -23 -6.5t-25 -23.5q-4 -5 -9 -6t-9 3l-30 25q-4 3 -4 8t4 9
q26 32 49.5 45.5t57.5 13.5q41 0 63.5 -20.5t22.5 -56.5q0 -30 -11.5 -48t-35.5 -41q-23 -23 -29 -32q-7 -8 -15 -7l-36 7q-13 3 -7 15z" />
    <glyph glyph-name="uni1EA4" unicode="&#x1ea4;" horiz-adv-x="468" 
d="M297 11l-4 96q1 2 -1 3.5t-4 1.5h-123q-6 0 -6 -5l-28 -96q-3 -11 -14 -11h-113q-12 0 -8 13l225 676q3 11 14 11h131q10 0 12 -11l58 -676v-3q0 -10 -11 -10h-117q-11 0 -11 11zM196 221h87q5 0 5 5l-12 273q-1 3 -3 3t-3 -3l-77 -273q-2 -5 3 -5zM167 766q0 4 3 8
l74 104q5 8 15 8h125q9 0 12 -8l52 -104q1 -2 1 -5q0 -9 -11 -9h-85q-10 0 -13 9l-22 56q-3 5 -6 0l-36 -56q-2 -4 -6.5 -6.5t-8.5 -2.5h-85q-9 0 -9 6zM449 849q0 4 3 8l69 102q5 8 16 8h90q9 0 9 -6q0 -5 -4 -9l-87 -102q-7 -7 -15 -7h-71q-10 0 -10 6z" />
    <glyph glyph-name="uni1EA5" unicode="&#x1ea5;" horiz-adv-x="431" 
d="M304.5 510.5q3.5 3.5 8.5 3.5h114q5 0 8 -3.5t2 -8.5l-60 -490q-1 -5 -4.5 -8.5t-8.5 -3.5h-114q-5 0 -8 3.5t-2 8.5l4 28q0 4 -2 4t-4 -3q-36 -49 -96 -49q-58 0 -86 34t-28 95q0 25 2 39l24 194q10 82 48.5 125t104.5 43q60 0 84 -49q2 -3 3.5 -3t2.5 4l3 28
q1 5 4.5 8.5zM241.5 129q14.5 16 18.5 42l21 172q3 26 -8 42t-31 16t-34.5 -16t-17.5 -42l-22 -172q-3 -26 8 -42t31 -16t34.5 16zM126 580q0 4 3 8l74 104q5 8 15 8h125q9 0 12 -8l52 -104q1 -2 1 -5q0 -9 -11 -9h-85q-10 0 -13 9l-22 56q-3 5 -6 0l-36 -56
q-2 -4 -6.5 -6.5t-8.5 -2.5h-85q-9 0 -9 6zM408 663q0 4 3 8l69 102q5 8 16 8h90q9 0 9 -6q0 -5 -4 -9l-87 -102q-7 -7 -15 -7h-71q-10 0 -10 6z" />
    <glyph glyph-name="uni1EA6" unicode="&#x1ea6;" horiz-adv-x="468" 
d="M297 11l-4 96q1 2 -1 3.5t-4 1.5h-123q-6 0 -6 -5l-28 -96q-3 -11 -14 -11h-113q-12 0 -8 13l225 676q3 11 14 11h131q10 0 12 -11l58 -676v-3q0 -10 -11 -10h-117q-11 0 -11 11zM196 221h87q5 0 5 5l-12 273q-1 3 -3 3t-3 -3l-77 -273q-2 -5 3 -5zM167 766q0 4 3 8
l74 104q5 8 15 8h125q9 0 12 -8l52 -104q1 -2 1 -5q0 -9 -11 -9h-85q-10 0 -13 9l-22 56q-3 5 -6 0l-36 -56q-2 -4 -6.5 -6.5t-8.5 -2.5h-85q-9 0 -9 6zM528 890q0 -8 -11 -8h-73q-7 0 -13 7l-61 102q-2 4 -2 7t3 5.5t8 2.5h90q9 0 13 -8l45 -102q1 -2 1 -6z" />
    <glyph glyph-name="uni1EA7" unicode="&#x1ea7;" horiz-adv-x="431" 
d="M304.5 510.5q3.5 3.5 8.5 3.5h114q5 0 8 -3.5t2 -8.5l-60 -490q-1 -5 -4.5 -8.5t-8.5 -3.5h-114q-5 0 -8 3.5t-2 8.5l4 28q0 4 -2 4t-4 -3q-36 -49 -96 -49q-58 0 -86 34t-28 95q0 25 2 39l24 194q10 82 48.5 125t104.5 43q60 0 84 -49q2 -3 3.5 -3t2.5 4l3 28
q1 5 4.5 8.5zM241.5 129q14.5 16 18.5 42l21 172q3 26 -8 42t-31 16t-34.5 -16t-17.5 -42l-22 -172q-3 -26 8 -42t31 -16t34.5 16zM126 580q0 4 3 8l74 104q5 8 15 8h125q9 0 12 -8l52 -104q1 -2 1 -5q0 -9 -11 -9h-85q-10 0 -13 9l-22 56q-3 5 -6 0l-36 -56
q-2 -4 -6.5 -6.5t-8.5 -2.5h-85q-9 0 -9 6zM487 704q0 -8 -11 -8h-73q-7 0 -13 7l-61 102q-2 4 -2 7t3 5.5t8 2.5h90q9 0 13 -8l45 -102q1 -2 1 -6z" />
    <glyph glyph-name="uni1EA8" unicode="&#x1ea8;" horiz-adv-x="468" 
d="M297 11l-4 96q1 2 -1 3.5t-4 1.5h-123q-6 0 -6 -5l-28 -96q-3 -11 -14 -11h-113q-12 0 -8 13l225 676q3 11 14 11h131q10 0 12 -11l58 -676v-3q0 -10 -11 -10h-117q-11 0 -11 11zM196 221h87q5 0 5 5l-12 273q-1 3 -3 3t-3 -3l-77 -273q-2 -5 3 -5zM448 868q-2 4 1 10
q10 21 21.5 33t13.5 14q11 10 16 17.5t7 19.5q1 10 -6 16.5t-18 6.5t-20 -6t-24 -22q-8 -10 -17 -3l-27 23q-4 3 -4 8t4 9q23 29 45.5 41.5t54.5 12.5q37 0 58 -19t21 -53q0 -27 -10.5 -44t-32.5 -39q-20 -18 -27 -29q-6 -9 -15 -7l-33 6q-6 1 -8 5zM167 766q0 4 3 8l74 104
q5 8 15 8h125q9 0 12 -8l52 -104q1 -2 1 -5q0 -9 -11 -9h-85q-10 0 -13 9l-22 56q-3 5 -6 0l-36 -56q-2 -4 -6.5 -6.5t-8.5 -2.5h-85q-9 0 -9 6z" />
    <glyph glyph-name="uni1EA9" unicode="&#x1ea9;" horiz-adv-x="431" 
d="M304.5 510.5q3.5 3.5 8.5 3.5h114q5 0 8 -3.5t2 -8.5l-60 -490q-1 -5 -4.5 -8.5t-8.5 -3.5h-114q-5 0 -8 3.5t-2 8.5l4 28q0 4 -2 4t-4 -3q-36 -49 -96 -49q-58 0 -86 34t-28 95q0 25 2 39l24 194q10 82 48.5 125t104.5 43q60 0 84 -49q2 -3 3.5 -3t2.5 4l3 28
q1 5 4.5 8.5zM241.5 129q14.5 16 18.5 42l21 172q3 26 -8 42t-31 16t-34.5 -16t-17.5 -42l-22 -172q-3 -26 8 -42t31 -16t34.5 16zM407 682q-2 4 1 10q10 21 21.5 33t13.5 14q11 10 16 17.5t7 19.5q1 10 -6 16.5t-18 6.5t-20 -6t-24 -22q-8 -10 -17 -3l-27 23q-4 3 -4 8t4 9
q23 29 45.5 41.5t54.5 12.5q37 0 58 -19t21 -53q0 -27 -10.5 -44t-32.5 -39q-20 -18 -27 -29q-6 -9 -15 -7l-33 6q-6 1 -8 5zM126 580q0 4 3 8l74 104q5 8 15 8h125q9 0 12 -8l52 -104q1 -2 1 -5q0 -9 -11 -9h-85q-10 0 -13 9l-22 56q-3 5 -6 0l-36 -56q-2 -4 -6.5 -6.5
t-8.5 -2.5h-85q-9 0 -9 6z" />
    <glyph glyph-name="uni1EAA" unicode="&#x1eaa;" horiz-adv-x="468" 
d="M297 11l-4 96q1 2 -1 3.5t-4 1.5h-123q-6 0 -6 -5l-28 -96q-3 -11 -14 -11h-113q-12 0 -8 13l225 676q3 11 14 11h131q10 0 12 -11l58 -676v-3q0 -10 -11 -10h-117q-11 0 -11 11zM196 221h87q5 0 5 5l-12 273q-1 3 -3 3t-3 -3l-77 -273q-2 -5 3 -5zM167 766q0 4 3 8
l74 104q5 8 15 8h125q9 0 12 -8l52 -104q1 -2 1 -5q0 -9 -11 -9h-85q-10 0 -13 9l-22 56q-3 5 -6 0l-36 -56q-2 -4 -6.5 -6.5t-8.5 -2.5h-85q-9 0 -9 6zM325 940q-8 4 -18.5 11t-19.5 7q-22 0 -38 -22q-7 -10 -17 -4l-37 30q-6 6 -2 16q17 34 41.5 51.5t51.5 17.5
q31 0 59 -23q3 -2 9.5 -7t13.5 -8t15 -3q22 0 37 20q9 12 17 5l36 -28q4 -4 4 -8q0 -6 -6 -15q-20 -30 -46 -44t-49 -14q-22 0 -51 18z" />
    <glyph glyph-name="uni1EAB" unicode="&#x1eab;" horiz-adv-x="431" 
d="M304.5 510.5q3.5 3.5 8.5 3.5h114q5 0 8 -3.5t2 -8.5l-60 -490q-1 -5 -4.5 -8.5t-8.5 -3.5h-114q-5 0 -8 3.5t-2 8.5l4 28q0 4 -2 4t-4 -3q-36 -49 -96 -49q-58 0 -86 34t-28 95q0 25 2 39l24 194q10 82 48.5 125t104.5 43q60 0 84 -49q2 -3 3.5 -3t2.5 4l3 28
q1 5 4.5 8.5zM241.5 129q14.5 16 18.5 42l21 172q3 26 -8 42t-31 16t-34.5 -16t-17.5 -42l-22 -172q-3 -26 8 -42t31 -16t34.5 16zM126 580q0 4 3 8l74 104q5 8 15 8h125q9 0 12 -8l52 -104q1 -2 1 -5q0 -9 -11 -9h-85q-10 0 -13 9l-22 56q-3 5 -6 0l-36 -56
q-2 -4 -6.5 -6.5t-8.5 -2.5h-85q-9 0 -9 6zM284 754q-8 4 -18.5 11t-19.5 7q-22 0 -38 -22q-7 -10 -17 -4l-37 30q-6 6 -2 16q17 34 41.5 51.5t51.5 17.5q31 0 59 -23q3 -2 9.5 -7t13.5 -8t15 -3q22 0 37 20q9 12 17 5l36 -28q4 -4 4 -8q0 -6 -6 -15q-20 -30 -46 -44
t-49 -14q-22 0 -51 18z" />
    <glyph glyph-name="uni1EAC" unicode="&#x1eac;" horiz-adv-x="468" 
d="M297 11l-4 96q1 2 -1 3.5t-4 1.5h-123q-6 0 -6 -5l-28 -96q-3 -11 -14 -11h-113q-12 0 -8 13l225 676q3 11 14 11h131q10 0 12 -11l58 -676v-3q0 -10 -11 -10h-117q-11 0 -11 11zM196 221h87q5 0 5 5l-12 273q-1 3 -3 3t-3 -3l-77 -273q-2 -5 3 -5zM139 -222
q-18 18 -18 47q0 37 24 61t59 24q29 0 46.5 -17t17.5 -45q0 -37 -24 -62.5t-58 -25.5q-29 0 -47 18zM167 766q0 4 3 8l74 104q5 8 15 8h125q9 0 12 -8l52 -104q1 -2 1 -5q0 -9 -11 -9h-85q-10 0 -13 9l-22 56q-3 5 -6 0l-36 -56q-2 -4 -6.5 -6.5t-8.5 -2.5h-85q-9 0 -9 6z
" />
    <glyph glyph-name="uni1EAD" unicode="&#x1ead;" horiz-adv-x="431" 
d="M304.5 510.5q3.5 3.5 8.5 3.5h114q5 0 8 -3.5t2 -8.5l-60 -490q-1 -5 -4.5 -8.5t-8.5 -3.5h-114q-5 0 -8 3.5t-2 8.5l4 28q0 4 -2 4t-4 -3q-36 -49 -96 -49q-58 0 -86 34t-28 95q0 25 2 39l24 194q10 82 48.5 125t104.5 43q60 0 84 -49q2 -3 3.5 -3t2.5 4l3 28
q1 5 4.5 8.5zM241.5 129q14.5 16 18.5 42l21 172q3 26 -8 42t-31 16t-34.5 -16t-17.5 -42l-22 -172q-3 -26 8 -42t31 -16t34.5 16zM120 -222q-18 18 -18 47q0 37 24 61t59 24q29 0 46.5 -17t17.5 -45q0 -37 -24 -62.5t-58 -25.5q-29 0 -47 18zM126 580q0 4 3 8l74 104
q5 8 15 8h125q9 0 12 -8l52 -104q1 -2 1 -5q0 -9 -11 -9h-85q-10 0 -13 9l-22 56q-3 5 -6 0l-36 -56q-2 -4 -6.5 -6.5t-8.5 -2.5h-85q-9 0 -9 6z" />
    <glyph glyph-name="uni1EAE" unicode="&#x1eae;" horiz-adv-x="468" 
d="M297 11l-4 96q1 2 -1 3.5t-4 1.5h-123q-6 0 -6 -5l-28 -96q-3 -11 -14 -11h-113q-12 0 -8 13l225 676q3 11 14 11h131q10 0 12 -11l58 -676v-3q0 -10 -11 -10h-117q-11 0 -11 11zM196 221h87q5 0 5 5l-12 273q-1 3 -3 3t-3 -3l-77 -273q-2 -5 3 -5zM230.5 780
q-27.5 29 -25.5 77q0 12 12 12h48q11 0 11 -12q1 -20 11.5 -32t27.5 -12t30.5 12t19.5 32q3 12 14 12h48q12 0 10 -12q-10 -48 -45.5 -77t-84.5 -29t-76.5 29zM266 928q0 4 3 8l69 102q5 8 16 8h90q9 0 9 -6q0 -5 -4 -9l-87 -102q-7 -7 -15 -7h-71q-10 0 -10 6z" />
    <glyph glyph-name="uni1EAF" unicode="&#x1eaf;" horiz-adv-x="431" 
d="M304.5 510.5q3.5 3.5 8.5 3.5h114q5 0 8 -3.5t2 -8.5l-60 -490q-1 -5 -4.5 -8.5t-8.5 -3.5h-114q-5 0 -8 3.5t-2 8.5l4 28q0 4 -2 4t-4 -3q-36 -49 -96 -49q-58 0 -86 34t-28 95q0 25 2 39l24 194q10 82 48.5 125t104.5 43q60 0 84 -49q2 -3 3.5 -3t2.5 4l3 28
q1 5 4.5 8.5zM241.5 129q14.5 16 18.5 42l21 172q3 26 -8 42t-31 16t-34.5 -16t-17.5 -42l-22 -172q-3 -26 8 -42t31 -16t34.5 16zM189.5 594q-27.5 29 -25.5 77q0 12 12 12h48q11 0 11 -12q1 -20 11.5 -32t27.5 -12t30.5 12t19.5 32q3 12 14 12h48q12 0 10 -12
q-10 -48 -45.5 -77t-84.5 -29t-76.5 29zM225 742q0 4 3 8l69 102q5 8 16 8h90q9 0 9 -6q0 -5 -4 -9l-87 -102q-7 -7 -15 -7h-71q-10 0 -10 6z" />
    <glyph glyph-name="uni1EB0" unicode="&#x1eb0;" horiz-adv-x="468" 
d="M297 11l-4 96q1 2 -1 3.5t-4 1.5h-123q-6 0 -6 -5l-28 -96q-3 -11 -14 -11h-113q-12 0 -8 13l225 676q3 11 14 11h131q10 0 12 -11l58 -676v-3q0 -10 -11 -10h-117q-11 0 -11 11zM196 221h87q5 0 5 5l-12 273q-1 3 -3 3t-3 -3l-77 -273q-2 -5 3 -5zM230.5 780
q-27.5 29 -25.5 77q0 12 12 12h48q11 0 11 -12q1 -20 11.5 -32t27.5 -12t30.5 12t19.5 32q3 12 14 12h48q12 0 10 -12q-10 -48 -45.5 -77t-84.5 -29t-76.5 29zM373 930q0 -8 -11 -8h-73q-7 0 -13 7l-61 102q-2 4 -2 7t3 5.5t8 2.5h90q9 0 13 -8l45 -102q1 -2 1 -6z" />
    <glyph glyph-name="uni1EB1" unicode="&#x1eb1;" horiz-adv-x="431" 
d="M304.5 510.5q3.5 3.5 8.5 3.5h114q5 0 8 -3.5t2 -8.5l-60 -490q-1 -5 -4.5 -8.5t-8.5 -3.5h-114q-5 0 -8 3.5t-2 8.5l4 28q0 4 -2 4t-4 -3q-36 -49 -96 -49q-58 0 -86 34t-28 95q0 25 2 39l24 194q10 82 48.5 125t104.5 43q60 0 84 -49q2 -3 3.5 -3t2.5 4l3 28
q1 5 4.5 8.5zM241.5 129q14.5 16 18.5 42l21 172q3 26 -8 42t-31 16t-34.5 -16t-17.5 -42l-22 -172q-3 -26 8 -42t31 -16t34.5 16zM189.5 594q-27.5 29 -25.5 77q0 12 12 12h48q11 0 11 -12q1 -20 11.5 -32t27.5 -12t30.5 12t19.5 32q3 12 14 12h48q12 0 10 -12
q-10 -48 -45.5 -77t-84.5 -29t-76.5 29zM332 744q0 -8 -11 -8h-73q-7 0 -13 7l-61 102q-2 4 -2 7t3 5.5t8 2.5h90q9 0 13 -8l45 -102q1 -2 1 -6z" />
    <glyph glyph-name="uni1EB2" unicode="&#x1eb2;" horiz-adv-x="468" 
d="M297 11l-4 96q1 2 -1 3.5t-4 1.5h-123q-6 0 -6 -5l-28 -96q-3 -11 -14 -11h-113q-12 0 -8 13l225 676q3 11 14 11h131q10 0 12 -11l58 -676v-3q0 -10 -11 -10h-117q-11 0 -11 11zM196 221h87q5 0 5 5l-12 273q-1 3 -3 3t-3 -3l-77 -273q-2 -5 3 -5zM308 903q-2 4 2 10
q12 23 32 41q10 11 14.5 18t5.5 18v3q0 8 -6 13t-15 5q-11 0 -19.5 -5.5t-20.5 -19.5q-4 -5 -9 -6t-9 3l-25 21q-4 3 -4 7q0 6 4 10q22 27 43 38t51 11q35 0 55 -18t20 -50q0 -25 -10 -41t-30 -34q-21 -21 -26 -29q-7 -8 -16 -7l-29 6q-6 2 -8 6zM230.5 780
q-27.5 29 -25.5 77q0 12 12 12h48q11 0 11 -12q1 -20 11.5 -32t27.5 -12t30.5 12t19.5 32q3 12 14 12h48q11 0 10 -12q-10 -48 -45.5 -77t-84.5 -29t-76.5 29z" />
    <glyph glyph-name="uni1EB3" unicode="&#x1eb3;" horiz-adv-x="431" 
d="M304.5 510.5q3.5 3.5 8.5 3.5h114q5 0 8 -3.5t2 -8.5l-60 -490q-1 -5 -4.5 -8.5t-8.5 -3.5h-114q-5 0 -8 3.5t-2 8.5l4 28q0 4 -2 4t-4 -3q-36 -49 -96 -49q-58 0 -86 34t-28 95q0 25 2 39l24 194q10 82 48.5 125t104.5 43q60 0 84 -49q2 -3 3.5 -3t2.5 4l3 28
q1 5 4.5 8.5zM241.5 129q14.5 16 18.5 42l21 172q3 26 -8 42t-31 16t-34.5 -16t-17.5 -42l-22 -172q-3 -26 8 -42t31 -16t34.5 16zM267 717q-2 4 2 10q12 23 32 41q10 11 14.5 18t5.5 18v3q0 8 -6 13t-15 5q-11 0 -19.5 -5.5t-20.5 -19.5q-4 -5 -9 -6t-9 3l-25 21q-4 3 -4 7
q0 6 4 10q22 27 43 38t51 11q35 0 55 -18t20 -50q0 -25 -10 -41t-30 -34q-21 -21 -26 -29q-7 -8 -16 -7l-29 6q-6 2 -8 6zM189.5 594q-27.5 29 -25.5 77q0 12 12 12h48q11 0 11 -12q1 -20 11.5 -32t27.5 -12t30.5 12t19.5 32q3 12 14 12h48q11 0 10 -12q-10 -48 -45.5 -77
t-84.5 -29t-76.5 29z" />
    <glyph glyph-name="uni1EB4" unicode="&#x1eb4;" horiz-adv-x="468" 
d="M297 11l-4 96q1 2 -1 3.5t-4 1.5h-123q-6 0 -6 -5l-28 -96q-3 -11 -14 -11h-113q-12 0 -8 13l225 676q3 11 14 11h131q10 0 12 -11l58 -676v-3q0 -10 -11 -10h-117q-11 0 -11 11zM196 221h87q5 0 5 5l-12 273q-1 3 -3 3t-3 -3l-77 -273q-2 -5 3 -5zM230.5 780
q-27.5 29 -25.5 77q0 12 12 12h48q11 0 11 -12q1 -20 11.5 -32t27.5 -12t30.5 12t19.5 32q3 12 14 12h48q12 0 10 -12q-10 -48 -45.5 -77t-84.5 -29t-76.5 29zM338 935q-8 4 -18.5 11t-19.5 7q-22 0 -38 -22q-7 -10 -17 -4l-37 30q-6 6 -2 16q17 34 41.5 51.5t51.5 17.5
q31 0 59 -23q3 -2 9.5 -7t13.5 -8t15 -3q22 0 37 20q9 12 17 5l36 -28q4 -4 4 -8q0 -6 -6 -15q-20 -30 -46 -44t-49 -14q-22 0 -51 18z" />
    <glyph glyph-name="uni1EB5" unicode="&#x1eb5;" horiz-adv-x="431" 
d="M304.5 510.5q3.5 3.5 8.5 3.5h114q5 0 8 -3.5t2 -8.5l-60 -490q-1 -5 -4.5 -8.5t-8.5 -3.5h-114q-5 0 -8 3.5t-2 8.5l4 28q0 4 -2 4t-4 -3q-36 -49 -96 -49q-58 0 -86 34t-28 95q0 25 2 39l24 194q10 82 48.5 125t104.5 43q60 0 84 -49q2 -3 3.5 -3t2.5 4l3 28
q1 5 4.5 8.5zM241.5 129q14.5 16 18.5 42l21 172q3 26 -8 42t-31 16t-34.5 -16t-17.5 -42l-22 -172q-3 -26 8 -42t31 -16t34.5 16zM189.5 594q-27.5 29 -25.5 77q0 12 12 12h48q11 0 11 -12q1 -20 11.5 -32t27.5 -12t30.5 12t19.5 32q3 12 14 12h48q12 0 10 -12
q-10 -48 -45.5 -77t-84.5 -29t-76.5 29zM297 749q-8 4 -18.5 11t-19.5 7q-22 0 -38 -22q-7 -10 -17 -4l-37 30q-6 6 -2 16q17 34 41.5 51.5t51.5 17.5q31 0 59 -23q3 -2 9.5 -7t13.5 -8t15 -3q22 0 37 20q9 12 17 5l36 -28q4 -4 4 -8q0 -6 -6 -15q-20 -30 -46 -44t-49 -14
q-22 0 -51 18z" />
    <glyph glyph-name="uni1EB6" unicode="&#x1eb6;" horiz-adv-x="468" 
d="M297 11l-4 96q1 2 -1 3.5t-4 1.5h-123q-6 0 -6 -5l-28 -96q-3 -11 -14 -11h-113q-12 0 -8 13l225 676q3 11 14 11h131q10 0 12 -11l58 -676v-3q0 -10 -11 -10h-117q-11 0 -11 11zM196 221h87q5 0 5 5l-12 273q-1 3 -3 3t-3 -3l-77 -273q-2 -5 3 -5zM139 -222
q-18 18 -18 47q0 37 24 61t59 24q29 0 46.5 -17t17.5 -45q0 -37 -24 -62.5t-58 -25.5q-29 0 -47 18zM230.5 780q-27.5 29 -25.5 77q0 12 12 12h48q11 0 11 -12q1 -20 11.5 -32t27.5 -12t30.5 12t19.5 32q3 12 14 12h48q12 0 10 -12q-10 -48 -45.5 -77t-84.5 -29t-76.5 29z
" />
    <glyph glyph-name="uni1EB7" unicode="&#x1eb7;" horiz-adv-x="431" 
d="M304.5 510.5q3.5 3.5 8.5 3.5h114q5 0 8 -3.5t2 -8.5l-60 -490q-1 -5 -4.5 -8.5t-8.5 -3.5h-114q-5 0 -8 3.5t-2 8.5l4 28q0 4 -2 4t-4 -3q-36 -49 -96 -49q-58 0 -86 34t-28 95q0 25 2 39l24 194q10 82 48.5 125t104.5 43q60 0 84 -49q2 -3 3.5 -3t2.5 4l3 28
q1 5 4.5 8.5zM241.5 129q14.5 16 18.5 42l21 172q3 26 -8 42t-31 16t-34.5 -16t-17.5 -42l-22 -172q-3 -26 8 -42t31 -16t34.5 16zM120 -222q-18 18 -18 47q0 37 24 61t59 24q29 0 46.5 -17t17.5 -45q0 -37 -24 -62.5t-58 -25.5q-29 0 -47 18zM189.5 594q-27.5 29 -25.5 77
q0 12 12 12h48q11 0 11 -12q1 -20 11.5 -32t27.5 -12t30.5 12t19.5 32q3 12 14 12h48q12 0 10 -12q-10 -48 -45.5 -77t-84.5 -29t-76.5 29z" />
    <glyph glyph-name="uni1EB8" unicode="&#x1eb8;" horiz-adv-x="425" 
d="M447.5 582.5q-3.5 -3.5 -8.5 -3.5h-203q-5 0 -5 -5l-20 -158q0 -5 4 -5h117q5 0 8 -3.5t2 -8.5l-12 -97q-1 -5 -4.5 -8.5t-8.5 -3.5h-116q-6 0 -6 -5l-19 -159q-2 -5 4 -5h202q5 0 8.5 -3.5t2.5 -8.5l-12 -97q-1 -5 -4.5 -8.5t-8.5 -3.5h-333q-5 0 -8 3.5t-2 8.5l83 676
q1 5 4.5 8.5t8.5 3.5h333q5 0 8 -3.5t2 -8.5l-12 -97q-1 -5 -4.5 -8.5zM119 -222q-18 18 -18 47q0 37 24 61t59 24q29 0 46.5 -17t17.5 -45q0 -37 -24 -62.5t-58 -25.5q-29 0 -47 18z" />
    <glyph glyph-name="uni1EB9" unicode="&#x1eb9;" horiz-adv-x="423" 
d="M400.5 216.5q-3.5 -3.5 -8.5 -3.5h-214q-2 0 -3.5 -1.5t-1.5 -3.5l-5 -37q-3 -25 8.5 -41.5t31.5 -16.5q18 0 31.5 12.5t19.5 31.5q4 10 14 10l111 -6q5 0 7.5 -3.5t1.5 -9.5q-16 -77 -66 -116.5t-134 -39.5q-79 0 -122 37t-43 104q0 9 2 27l24 194q9 76 64 122t140 46
q78 0 121.5 -38.5t43.5 -104.5q0 -7 -2 -25l-16 -129q-1 -5 -4.5 -8.5zM208 385q-15 -16 -18 -41l-5 -39q0 -5 4 -5h84q2 0 3.5 1.5t1.5 3.5l5 39q3 25 -8.5 41t-31.5 16t-35 -16zM116 -222q-18 18 -18 47q0 37 24 61t59 24q29 0 46.5 -17t17.5 -45q0 -37 -24 -62.5
t-58 -25.5q-29 0 -47 18z" />
    <glyph glyph-name="uni1EBA" unicode="&#x1eba;" horiz-adv-x="425" 
d="M447.5 582.5q-3.5 -3.5 -8.5 -3.5h-203q-5 0 -5 -5l-20 -158q0 -5 4 -5h117q5 0 8 -3.5t2 -8.5l-12 -97q-1 -5 -4.5 -8.5t-8.5 -3.5h-116q-6 0 -6 -5l-19 -159q-2 -5 4 -5h202q5 0 8.5 -3.5t2.5 -8.5l-12 -97q-1 -5 -4.5 -8.5t-8.5 -3.5h-333q-5 0 -8 3.5t-2 8.5l83 676
q1 5 4.5 8.5t8.5 3.5h333q5 0 8 -3.5t2 -8.5l-12 -97q-1 -5 -4.5 -8.5zM274 757q13 26 38 51q11 11 16.5 19t6.5 21q1 10 -6 17t-18 7q-13 0 -23 -6.5t-25 -23.5q-4 -5 -9 -6t-9 3l-30 25q-4 3 -4 8t4 9q26 32 49.5 45.5t57.5 13.5q41 0 63.5 -20.5t22.5 -56.5
q0 -30 -11.5 -48t-35.5 -41q-23 -23 -29 -32q-7 -8 -15 -7l-36 7q-13 3 -7 15z" />
    <glyph glyph-name="uni1EBB" unicode="&#x1ebb;" horiz-adv-x="423" 
d="M400.5 216.5q-3.5 -3.5 -8.5 -3.5h-214q-2 0 -3.5 -1.5t-1.5 -3.5l-5 -37q-3 -25 8.5 -41.5t31.5 -16.5q18 0 31.5 12.5t19.5 31.5q4 10 14 10l111 -6q5 0 7.5 -3.5t1.5 -9.5q-16 -77 -66 -116.5t-134 -39.5q-79 0 -122 37t-43 104q0 9 2 27l24 194q9 76 64 122t140 46
q78 0 121.5 -38.5t43.5 -104.5q0 -7 -2 -25l-16 -129q-1 -5 -4.5 -8.5zM208 385q-15 -16 -18 -41l-5 -39q0 -5 4 -5h84q2 0 3.5 1.5t1.5 3.5l5 39q3 25 -8.5 41t-31.5 16t-35 -16zM242 571q13 26 38 51q11 11 16.5 19t6.5 21q1 10 -6 17t-18 7q-13 0 -23 -6.5t-25 -23.5
q-4 -5 -9 -6t-9 3l-30 25q-4 3 -4 8t4 9q26 32 49.5 45.5t57.5 13.5q41 0 63.5 -20.5t22.5 -56.5q0 -30 -11.5 -48t-35.5 -41q-23 -23 -29 -32q-7 -8 -15 -7l-36 7q-13 3 -7 15z" />
    <glyph glyph-name="uni1EBC" unicode="&#x1ebc;" horiz-adv-x="425" 
d="M447.5 582.5q-3.5 -3.5 -8.5 -3.5h-203q-5 0 -5 -5l-20 -158q0 -5 4 -5h117q5 0 8 -3.5t2 -8.5l-12 -97q-1 -5 -4.5 -8.5t-8.5 -3.5h-116q-6 0 -6 -5l-19 -159q-2 -5 4 -5h202q5 0 8.5 -3.5t2.5 -8.5l-12 -97q-1 -5 -4.5 -8.5t-8.5 -3.5h-333q-5 0 -8 3.5t-2 8.5l83 676
q1 5 4.5 8.5t8.5 3.5h333q5 0 8 -3.5t2 -8.5l-12 -97q-1 -5 -4.5 -8.5zM311 790q-8 4 -18.5 11t-19.5 7q-22 0 -38 -22q-7 -10 -17 -4l-37 30q-6 6 -2 16q17 34 41.5 51.5t51.5 17.5q31 0 59 -23q3 -2 9.5 -7t13.5 -8t15 -3q22 0 37 20q9 12 17 5l36 -28q4 -4 4 -8
q0 -6 -6 -15q-20 -30 -46 -44t-49 -14q-22 0 -51 18z" />
    <glyph glyph-name="uni1EBD" unicode="&#x1ebd;" horiz-adv-x="423" 
d="M400.5 216.5q-3.5 -3.5 -8.5 -3.5h-214q-2 0 -3.5 -1.5t-1.5 -3.5l-5 -37q-3 -25 8.5 -41.5t31.5 -16.5q18 0 31.5 12.5t19.5 31.5q4 10 14 10l111 -6q5 0 7.5 -3.5t1.5 -9.5q-16 -77 -66 -116.5t-134 -39.5q-79 0 -122 37t-43 104q0 9 2 27l24 194q9 76 64 122t140 46
q78 0 121.5 -38.5t43.5 -104.5q0 -7 -2 -25l-16 -129q-1 -5 -4.5 -8.5zM208 385q-15 -16 -18 -41l-5 -39q0 -5 4 -5h84q2 0 3.5 1.5t1.5 3.5l5 39q3 25 -8.5 41t-31.5 16t-35 -16zM278 604q-8 4 -18.5 11t-19.5 7q-22 0 -38 -22q-7 -10 -17 -4l-37 30q-6 6 -2 16
q17 34 41.5 51.5t51.5 17.5q31 0 59 -23q3 -2 9.5 -7t13.5 -8t15 -3q22 0 37 20q9 12 17 5l36 -28q4 -4 4 -8q0 -6 -6 -15q-20 -30 -46 -44t-49 -14q-22 0 -51 18z" />
    <glyph glyph-name="uni1EBE" unicode="&#x1ebe;" horiz-adv-x="425" 
d="M447.5 582.5q-3.5 -3.5 -8.5 -3.5h-203q-5 0 -5 -5l-20 -158q0 -5 4 -5h117q5 0 8 -3.5t2 -8.5l-12 -97q-1 -5 -4.5 -8.5t-8.5 -3.5h-116q-6 0 -6 -5l-19 -159q-2 -5 4 -5h202q5 0 8.5 -3.5t2.5 -8.5l-12 -97q-1 -5 -4.5 -8.5t-8.5 -3.5h-333q-5 0 -8 3.5t-2 8.5l83 676
q1 5 4.5 8.5t8.5 3.5h333q5 0 8 -3.5t2 -8.5l-12 -97q-1 -5 -4.5 -8.5zM154 766q0 4 3 8l74 104q5 8 15 8h125q9 0 12 -8l52 -104q1 -2 1 -5q0 -9 -11 -9h-85q-10 0 -13 9l-22 56q-3 5 -6 0l-36 -56q-2 -4 -6.5 -6.5t-8.5 -2.5h-85q-9 0 -9 6zM436 849q0 4 3 8l69 102
q5 8 16 8h90q9 0 9 -6q0 -5 -4 -9l-87 -102q-7 -7 -15 -7h-71q-10 0 -10 6z" />
    <glyph glyph-name="uni1EBF" unicode="&#x1ebf;" horiz-adv-x="423" 
d="M400.5 216.5q-3.5 -3.5 -8.5 -3.5h-214q-2 0 -3.5 -1.5t-1.5 -3.5l-5 -37q-3 -25 8.5 -41.5t31.5 -16.5q18 0 31.5 12.5t19.5 31.5q4 10 14 10l111 -6q5 0 7.5 -3.5t1.5 -9.5q-16 -77 -66 -116.5t-134 -39.5q-79 0 -122 37t-43 104q0 9 2 27l24 194q9 76 64 122t140 46
q78 0 121.5 -38.5t43.5 -104.5q0 -7 -2 -25l-16 -129q-1 -5 -4.5 -8.5zM208 385q-15 -16 -18 -41l-5 -39q0 -5 4 -5h84q2 0 3.5 1.5t1.5 3.5l5 39q3 25 -8.5 41t-31.5 16t-35 -16zM122 580q0 4 3 8l74 104q5 8 15 8h125q9 0 12 -8l52 -104q1 -2 1 -5q0 -9 -11 -9h-85
q-10 0 -13 9l-22 56q-3 5 -6 0l-36 -56q-2 -4 -6.5 -6.5t-8.5 -2.5h-85q-9 0 -9 6zM404 663q0 4 3 8l69 102q5 8 16 8h90q9 0 9 -6q0 -5 -4 -9l-87 -102q-7 -7 -15 -7h-71q-10 0 -10 6z" />
    <glyph glyph-name="uni1EC0" unicode="&#x1ec0;" horiz-adv-x="425" 
d="M447.5 582.5q-3.5 -3.5 -8.5 -3.5h-203q-5 0 -5 -5l-20 -158q0 -5 4 -5h117q5 0 8 -3.5t2 -8.5l-12 -97q-1 -5 -4.5 -8.5t-8.5 -3.5h-116q-6 0 -6 -5l-19 -159q-2 -5 4 -5h202q5 0 8.5 -3.5t2.5 -8.5l-12 -97q-1 -5 -4.5 -8.5t-8.5 -3.5h-333q-5 0 -8 3.5t-2 8.5l83 676
q1 5 4.5 8.5t8.5 3.5h333q5 0 8 -3.5t2 -8.5l-12 -97q-1 -5 -4.5 -8.5zM154 766q0 4 3 8l74 104q5 8 15 8h125q9 0 12 -8l52 -104q1 -2 1 -5q0 -9 -11 -9h-85q-10 0 -13 9l-22 56q-3 5 -6 0l-36 -56q-2 -4 -6.5 -6.5t-8.5 -2.5h-85q-9 0 -9 6zM515 890q0 -8 -11 -8h-73
q-7 0 -13 7l-61 102q-2 4 -2 7t3 5.5t8 2.5h90q9 0 13 -8l45 -102q1 -2 1 -6z" />
    <glyph glyph-name="uni1EC1" unicode="&#x1ec1;" horiz-adv-x="423" 
d="M400.5 216.5q-3.5 -3.5 -8.5 -3.5h-214q-2 0 -3.5 -1.5t-1.5 -3.5l-5 -37q-3 -25 8.5 -41.5t31.5 -16.5q18 0 31.5 12.5t19.5 31.5q4 10 14 10l111 -6q5 0 7.5 -3.5t1.5 -9.5q-16 -77 -66 -116.5t-134 -39.5q-79 0 -122 37t-43 104q0 9 2 27l24 194q9 76 64 122t140 46
q78 0 121.5 -38.5t43.5 -104.5q0 -7 -2 -25l-16 -129q-1 -5 -4.5 -8.5zM208 385q-15 -16 -18 -41l-5 -39q0 -5 4 -5h84q2 0 3.5 1.5t1.5 3.5l5 39q3 25 -8.5 41t-31.5 16t-35 -16zM122 580q0 4 3 8l74 104q5 8 15 8h125q9 0 12 -8l52 -104q1 -2 1 -5q0 -9 -11 -9h-85
q-10 0 -13 9l-22 56q-3 5 -6 0l-36 -56q-2 -4 -6.5 -6.5t-8.5 -2.5h-85q-9 0 -9 6zM483 704q0 -8 -11 -8h-73q-7 0 -13 7l-61 102q-2 4 -2 7t3 5.5t8 2.5h90q9 0 13 -8l45 -102q1 -2 1 -6z" />
    <glyph glyph-name="uni1EC2" unicode="&#x1ec2;" horiz-adv-x="425" 
d="M447.5 582.5q-3.5 -3.5 -8.5 -3.5h-203q-5 0 -5 -5l-20 -158q0 -5 4 -5h117q5 0 8 -3.5t2 -8.5l-12 -97q-1 -5 -4.5 -8.5t-8.5 -3.5h-116q-6 0 -6 -5l-19 -159q-2 -5 4 -5h202q5 0 8.5 -3.5t2.5 -8.5l-12 -97q-1 -5 -4.5 -8.5t-8.5 -3.5h-333q-5 0 -8 3.5t-2 8.5l83 676
q1 5 4.5 8.5t8.5 3.5h333q5 0 8 -3.5t2 -8.5l-12 -97q-1 -5 -4.5 -8.5zM435 868q-2 4 1 10q10 21 21.5 33t13.5 14q11 10 16 17.5t7 19.5q1 10 -6 16.5t-18 6.5t-20 -6t-24 -22q-8 -10 -17 -3l-27 23q-4 3 -4 8t4 9q23 29 45.5 41.5t54.5 12.5q37 0 58 -19t21 -53
q0 -27 -10.5 -44t-32.5 -39q-20 -18 -27 -29q-6 -9 -15 -7l-33 6q-6 1 -8 5zM154 766q0 4 3 8l74 104q5 8 15 8h125q9 0 12 -8l52 -104q1 -2 1 -5q0 -9 -11 -9h-85q-10 0 -13 9l-22 56q-3 5 -6 0l-36 -56q-2 -4 -6.5 -6.5t-8.5 -2.5h-85q-9 0 -9 6z" />
    <glyph glyph-name="uni1EC3" unicode="&#x1ec3;" horiz-adv-x="423" 
d="M400.5 216.5q-3.5 -3.5 -8.5 -3.5h-214q-2 0 -3.5 -1.5t-1.5 -3.5l-5 -37q-3 -25 8.5 -41.5t31.5 -16.5q18 0 31.5 12.5t19.5 31.5q4 10 14 10l111 -6q5 0 7.5 -3.5t1.5 -9.5q-16 -77 -66 -116.5t-134 -39.5q-79 0 -122 37t-43 104q0 9 2 27l24 194q9 76 64 122t140 46
q78 0 121.5 -38.5t43.5 -104.5q0 -7 -2 -25l-16 -129q-1 -5 -4.5 -8.5zM208 385q-15 -16 -18 -41l-5 -39q0 -5 4 -5h84q2 0 3.5 1.5t1.5 3.5l5 39q3 25 -8.5 41t-31.5 16t-35 -16zM403 682q-2 4 1 10q10 21 21.5 33t13.5 14q11 10 16 17.5t7 19.5q1 10 -6 16.5t-18 6.5
t-20 -6t-24 -22q-8 -10 -17 -3l-27 23q-4 3 -4 8t4 9q23 29 45.5 41.5t54.5 12.5q37 0 58 -19t21 -53q0 -27 -10.5 -44t-32.5 -39q-20 -18 -27 -29q-6 -9 -15 -7l-33 6q-6 1 -8 5zM122 580q0 4 3 8l74 104q5 8 15 8h125q9 0 12 -8l52 -104q1 -2 1 -5q0 -9 -11 -9h-85
q-10 0 -13 9l-22 56q-3 5 -6 0l-36 -56q-2 -4 -6.5 -6.5t-8.5 -2.5h-85q-9 0 -9 6z" />
    </font>
</defs>
</svg>
