<?xml version="1.0" standalone="no"?>
<!DOCTYPE svg PUBLIC "-//W3C//DTD SVG 1.1//EN" "http://www.w3.org/Graphics/SVG/1.1/DTD/svg11.dtd" >
<svg xmlns="http://www.w3.org/2000/svg" xmlns:xlink="http://www.w3.org/1999/xlink" version="1.1">
<metadata>
Created by FontForge 20201107 at Wed Nov  7 06:09:05 2018
 By 
Copyright 2017 The Barlow Project Authors (https://github.com/jpt/barlow)
</metadata>
<defs>
<font id="BarlowCondensed-BlackItalic" horiz-adv-x="0" >
  <font-face 
    font-family="Barlow Condensed Black"
    font-weight="900"
    font-style="italic"
    font-stretch="condensed"
    units-per-em="1000"
    panose-1="0 0 10 6 0 0 0 0 0 0"
    ascent="800"
    descent="-200"
    x-height="520"
    cap-height="700"
    bbox="-515 -274 1006 1066"
    underline-thickness="50"
    underline-position="-100"
    slope="-7"
    unicode-range="U+000D-FB02"
  />
<missing-glyph horiz-adv-x="433" 
d="M-15 0h423q4 0 6 5l85 690q0 5 -5 5h-423q-5 0 -5 -5l-85 -690q0 -5 4 -5zM164.5 263q-3.5 4 -2.5 11v5q5 40 25 63.5t53 47.5q21 15 32 26t13 27q2 15 -4 23.5t-19 8.5q-15 0 -24.5 -10.5t-11.5 -25.5q-3 -13 -17 -13l-100 4q-7 0 -10.5 2.5t-2.5 6.5q8 70 59.5 114
t125.5 44q65 0 101.5 -33.5t36.5 -91.5q0 -15 -1 -23q-6 -45 -26 -70.5t-54 -50.5q-23 -16 -34.5 -28.5t-13.5 -29.5q-2 -11 -16 -11h-100q-6 0 -9.5 4zM162 102q-16 16 -16 42q0 33 21.5 55t52.5 22q26 0 42 -15.5t16 -41.5q0 -33 -22 -55.5t-52 -22.5q-26 0 -42 16z" />
    <glyph glyph-name="fi" unicode="fi" horiz-adv-x="521" 
d="M330.5 516q3.5 -4 2.5 -11l-13 -100q-1 -7 -5 -11t-11 -4h-37q-5 0 -5 -5l-46 -370q-1 -7 -5 -11t-11 -4h-153q-7 0 -10.5 4t-2.5 11l45 370q2 5 -4 5h-20q-7 0 -10.5 4t-2.5 11l12 100q1 7 5.5 11t11.5 4h20q5 0 5 5l4 31q10 81 58 113t138 32q26 0 40 -1q7 0 5 -15
l-12 -95q-2 -15 -8 -15q-17 -2 -27.5 -12t-12.5 -24l-2 -14q-2 -5 4 -5h37q7 0 10.5 -4zM401 577.5q-22 22.5 -22 57.5q0 47 30 77.5t73 30.5q37 0 59 -22t22 -57q0 -46 -30 -77.5t-74 -31.5q-36 0 -58 22.5zM306.5 4q-3.5 4 -2.5 11l60 490q1 7 5.5 11t10.5 4h154
q6 0 9.5 -4t2.5 -11l-60 -490q-1 -7 -5 -11t-11 -4h-153q-7 0 -10.5 4z" />
    <glyph glyph-name="fl" unicode="fl" horiz-adv-x="523" 
d="M330.5 516q3.5 -4 2.5 -11l-13 -100q-1 -7 -5 -11t-11 -4h-37q-5 0 -5 -5l-46 -370q-1 -7 -5 -11t-11 -4h-153q-7 0 -10.5 4t-2.5 11l45 370q2 5 -4 5h-20q-7 0 -10.5 4t-2.5 11l12 100q1 7 5.5 11t11.5 4h20q5 0 5 5l4 31q10 81 58 113t138 32q26 0 40 -1q7 0 5 -15
l-12 -95q-2 -15 -8 -15q-17 -2 -27.5 -12t-12.5 -24l-2 -14q-2 -5 4 -5h37q7 0 10.5 -4zM306.5 4q-3.5 4 -2.5 11l82 670q1 7 5.5 11t10.5 4h154q6 0 9.5 -4t2.5 -11l-82 -670q-1 -7 -5 -11t-11 -4h-153q-7 0 -10.5 4z" />
    <glyph glyph-name="I_J.liga" unicode="IJ" horiz-adv-x="689" 
d="M10.5 4q-3.5 4 -2.5 11l82 670q1 7 5.5 11t10.5 4h154q6 0 9.5 -4t2.5 -11l-82 -670q-1 -7 -5.5 -11t-10.5 -4h-154q-6 0 -9.5 4zM294 38.5q-51 46.5 -51 123.5q0 10 2 30l7 58q1 7 5.5 11t10.5 4h154q6 0 9.5 -4t2.5 -11l-7 -60q-2 -16 4.5 -26.5t19.5 -10.5t23 10.5
t11 26.5l61 495q1 7 5.5 11t10.5 4h154q6 0 9.5 -4t2.5 -11l-60 -493q-7 -59 -39.5 -104.5t-83.5 -70.5t-114 -25q-86 0 -137 46.5z" />
    <glyph glyph-name="f_f_i.liga" unicode="ffi" horiz-adv-x="787" 
d="M666 577.5q-22 22.5 -22 58.5q0 47 30.5 77t73.5 30q37 0 59 -22t22 -59q0 -45 -30.5 -76t-73.5 -31q-37 0 -59 22.5zM537 525q-2 -5 4 -5h37q7 0 10.5 -4t2.5 -11l-13 -100q-1 -7 -5 -11t-11 -4h-37q-5 0 -5 -5l-46 -370q-1 -7 -5 -11t-11 -4h-153q-7 0 -10.5 4t-2.5 11
l45 370q2 5 -4 5h-66q-5 0 -5 -5l-46 -370q-1 -7 -5 -11t-11 -4h-153q-7 0 -10.5 4t-2.5 11l45 370q2 5 -4 5h-20q-7 0 -10.5 4t-2.5 11l12 100q1 7 5.5 11t11.5 4h20q5 0 5 5l4 31q10 81 58 113t138 32q26 0 40 -1q7 0 5 -15l-12 -95q-2 -15 -8 -15q-17 -2 -27.5 -12
t-12.5 -24l-2 -14q-2 -5 4 -5h66q5 0 5 5l4 31q10 81 58 113t138 32q26 0 40 -1q7 0 5 -15l-11 -95q-3 -15 -9 -15q-17 -2 -27.5 -12t-12.5 -24zM646 520h153q7 0 10.5 -4t2.5 -11l-60 -490q-1 -7 -5.5 -11t-11.5 -4h-153q-7 0 -10.5 4t-2.5 11l60 490q3 15 17 15z" />
    <glyph glyph-name="f_f_l.liga" unicode="ffl" horiz-adv-x="788" 
d="M544 525q-2 -5 4 -5h37q6 0 9.5 -4t2.5 -11l-12 -100q-1 -7 -5 -11t-11 -4h-37q-4 0 -6 -5l-45 -370q-1 -7 -5.5 -11t-10.5 -4h-154q-6 0 -9.5 4t-2.5 11l45 370q0 5 -4 5h-73q-5 0 -5 -5l-46 -370q-1 -7 -5 -11t-11 -4h-153q-7 0 -10.5 4t-2.5 11l45 370q2 5 -4 5h-20
q-7 0 -10.5 4t-2.5 11l12 100q1 7 5.5 11t11.5 4h20q5 0 5 5l4 31q10 81 58 113t138 32q26 0 40 -1q7 0 5 -15l-12 -95q-2 -15 -8 -15q-17 -2 -27.5 -12t-12.5 -24l-2 -14q-2 -5 4 -5h73q5 0 5 5l4 31q10 81 58 113t138 32q26 0 40 -1q7 0 5 -15l-12 -95q-2 -15 -8 -15
q-17 -2 -28 -12t-13 -24zM656 696q4 4 11 4h153q7 0 10.5 -4t2.5 -11l-82 -670q-1 -7 -5.5 -11t-11.5 -4h-153q-7 0 -10.5 4t-2.5 11l83 670q1 7 5 11z" />
    <glyph glyph-name="g_j.liga" unicode="gj" horiz-adv-x="667" 
d="M549 577.5q-22 22.5 -22 57.5q0 47 30 77.5t74 30.5q36 0 58 -22t22 -57q0 -46 -30 -77.5t-74 -31.5q-36 0 -58 22.5zM464.5 516q3.5 -4 2.5 -11l-57 -471q-9 -75 -36.5 -128t-88 -84.5t-162.5 -31.5q-37 0 -58 2q-15 0 -13 15l16 133q3 15 18 14q72 -4 101 13.5t38 56.5
q1 3 -3 4t-6 -2q-34 -34 -86 -34q-60 0 -87 33t-27 96q0 24 3 49l22 180q11 89 48.5 133.5t106.5 44.5q58 0 80 -46q2 -3 4 -3t2 4l3 22q1 7 5.5 11t10.5 4h154q6 0 9.5 -4zM510 505q1 7 5.5 11t11.5 4h153q7 0 10.5 -4t2.5 -11l-59 -476q-11 -85 -30 -132.5t-69.5 -73.5
t-149.5 -24q-15 0 -12 16l32 130q3 13 14 13q16 0 21.5 12t8 31t3.5 28zM237 162q7 9 9 23l18 150q2 14 -3 23t-15 9t-16 -9t-8 -23l-19 -150q-2 -15 2.5 -23.5t14.5 -8.5t17 9z" />
    <glyph glyph-name="i_j.liga" unicode="ij" horiz-adv-x="434" 
d="M99 577.5q-22 22.5 -22 57.5q0 47 30 77.5t73 30.5q37 0 59 -22t22 -57q0 -46 -30 -77.5t-74 -31.5q-36 0 -58 22.5zM315.5 577.5q-22.5 22.5 -22.5 57.5q0 47 30 77.5t74 30.5q36 0 58 -22t22 -57q0 -46 -30 -77.5t-73 -31.5q-36 0 -58.5 22.5zM3.5 4q-3.5 4 -2.5 11
l60 490q1 7 5.5 11t10.5 4h154q6 0 9.5 -4t2.5 -11l-60 -490q-1 -7 -5 -11t-11 -4h-153q-7 0 -10.5 4zM98 -186l16 129q2 15 18 15q45 -2 63 15.5t23 55.5l58 476q1 7 5.5 11t11.5 4h153q7 0 10.5 -4t2.5 -11l-59 -476q-11 -90 -30 -135.5t-77.5 -71.5t-180.5 -23
q-16 0 -14 15z" />
    <glyph glyph-name="hyphen_hyphen.liga" unicode="&#x2d;&#x2d;" horiz-adv-x="575" 
d="M27.5 210q-3.5 4 -2.5 11l16 130q1 7 5.5 11t11.5 4h511q6 0 9.5 -4t2.5 -11l-16 -130q-1 -7 -5 -11t-11 -4h-511q-7 0 -10.5 4z" />
    <glyph glyph-name=".notdef" horiz-adv-x="433" 
d="M-15 0h423q4 0 6 5l85 690q0 5 -5 5h-423q-5 0 -5 -5l-85 -690q0 -5 4 -5zM164.5 263q-3.5 4 -2.5 11v5q5 40 25 63.5t53 47.5q21 15 32 26t13 27q2 15 -4 23.5t-19 8.5q-15 0 -24.5 -10.5t-11.5 -25.5q-3 -13 -17 -13l-100 4q-7 0 -10.5 2.5t-2.5 6.5q8 70 59.5 114
t125.5 44q65 0 101.5 -33.5t36.5 -91.5q0 -15 -1 -23q-6 -45 -26 -70.5t-54 -50.5q-23 -16 -34.5 -28.5t-13.5 -29.5q-2 -11 -16 -11h-100q-6 0 -9.5 4zM162 102q-16 16 -16 42q0 33 21.5 55t52.5 22q26 0 42 -15.5t16 -41.5q0 -33 -22 -55.5t-52 -22.5q-26 0 -42 16z" />
    <glyph glyph-name=".null" 
 />
    <glyph glyph-name="nonmarkingreturn" unicode="&#xd;" horiz-adv-x="194" 
 />
    <glyph glyph-name="NULL" 
 />
    <glyph glyph-name="NULL" 
 />
    <glyph glyph-name="space" unicode=" " horiz-adv-x="194" 
 />
    <glyph glyph-name="exclam" unicode="!" horiz-adv-x="289" 
d="M86 252q-4 4 -3 11l34 422q2 15 16 15h153q14 0 12 -15l-70 -422q-1 -7 -5.5 -11t-11.5 -4h-115q-6 0 -10 4zM66.5 23q-22.5 23 -22.5 59q0 46 30.5 76t73.5 30q37 0 59 -22t22 -57q0 -46 -30 -77.5t-74 -31.5q-36 0 -58.5 23z" />
    <glyph glyph-name="quotedbl" unicode="&#x22;" horiz-adv-x="407" 
d="M65 474l8 210q2 16 17 16h141q8 0 11 -4.5t2 -11.5l-43 -210q-3 -14 -16 -14h-107q-13 0 -13 14zM284 474l9 210q0 16 16 16h142q7 0 10 -4.5t2 -11.5l-43 -210q-3 -14 -16 -14h-107q-13 0 -13 14z" />
    <glyph glyph-name="numbersign" unicode="#" horiz-adv-x="615" 
d="M609 387h-56q-5 0 -7 -5l-15 -59q0 -5 4 -5h31q6 0 9.5 -4t2.5 -11l-15 -130q-3 -15 -17 -15h-54q-5 0 -7 -5l-27 -105q-3 -14 -17 -14h-154q-14 0 -11 16l27 103q0 5 -3 5h-41q-6 0 -6 -5l-28 -105q-3 -14 -17 -14h-153q-15 0 -12 16l27 103q2 5 -3 5h-33q-7 0 -10.5 4
t-2.5 11l16 130q1 7 5.5 11t11.5 4h56q6 0 6 5l15 59q2 5 -3 5h-31q-7 0 -10.5 4t-2.5 11l16 131q1 7 5.5 11t11.5 4h54q5 0 7 5l27 105q3 14 17 14h153q15 0 12 -16l-27 -103q0 -5 3 -5h41q6 0 6 5l28 105q3 14 17 14h153q15 0 12 -16l-27 -103q-2 -5 3 -5h33q7 0 10.5 -4
t2.5 -11l-16 -131q-3 -15 -17 -15zM349 323l15 59q0 5 -3 5h-41q-6 0 -6 -5l-15 -59q-2 -5 3 -5h41q6 0 6 5z" />
    <glyph glyph-name="dollar" unicode="$" horiz-adv-x="449" 
d="M384.5 65.5q-45.5 -50.5 -114.5 -66.5q-6 -2 -6 -6l-4 -46q-1 -7 -5 -11t-11 -4h-106q-7 0 -10.5 4t-2.5 11l9 52q0 4 -4 5q-51 16 -79.5 56t-28.5 94q0 8 2 26l4 31q1 7 5.5 11t10.5 4h152q6 0 9.5 -4t2.5 -11l-2 -22q-2 -16 4 -26t18 -10q13 0 22 11t9 27
q0 15 -14.5 31t-55.5 49q-40 33 -66 58.5t-45 63t-19 85.5q0 9 2 31q8 69 50 119.5t107 69.5q4 1 4 5l6 60q1 7 5 11t11 4h104q6 0 9.5 -4t2.5 -11l-9 -57q0 -5 4 -6q58 -15 90 -57.5t32 -103.5q0 -10 -2 -30l-3 -22q-1 -7 -5.5 -11t-10.5 -4h-151q-6 0 -9.5 4t-2.5 11l3 26
q1 15 -5.5 24.5t-18.5 9.5q-14 0 -23 -12t-9 -32q0 -17 14 -35t52 -50q51 -43 78 -69.5t42.5 -58t15.5 -71.5q0 -8 -2 -28q-10 -75 -55.5 -125.5z" />
    <glyph glyph-name="percent" unicode="%" horiz-adv-x="733" 
d="M111 413.5q-40 42.5 -40 105.5q0 50 25.5 93.5t68 69.5t89.5 26q60 0 100 -41.5t40 -103.5q0 -51 -25 -95.5t-67 -70.5t-90 -26q-61 0 -101 42.5zM107 9q0 5 3 9l432 671q7 11 19 11h97q11 0 11 -9q0 -4 -3 -9l-433 -671q-7 -11 -19 -11h-97q-10 0 -10 9zM278 490
q23 25 23 60q0 27 -17 45.5t-42 18.5q-31 0 -54.5 -25t-23.5 -59q0 -28 17 -46.5t43 -18.5q31 0 54 25zM426 34.5q-40 42.5 -40 105.5q0 50 25.5 93.5t68 69.5t89.5 26q60 0 100 -41.5t40 -103.5q0 -51 -25 -95.5t-67 -70.5t-89 -26q-62 0 -102 42.5zM593 111q23 25 23 60
q0 27 -16.5 45.5t-41.5 18.5q-31 0 -54.5 -25.5t-23.5 -60.5q0 -27 17 -45t42 -18q31 0 54 25z" />
    <glyph glyph-name="ampersand" unicode="&#x26;" horiz-adv-x="624" 
d="M581 10q0 -4 -4 -7t-10 -3h-165q-11 0 -17 9l-12 17q-2 3 -7 1q-75 -37 -163 -37q-87 0 -136 39t-49 115q0 10 2 32q8 62 37.5 105.5t76.5 76.5q5 3 2 7q-27 42 -37 68.5t-10 51.5q0 8 2 26q10 88 73 142.5t155 54.5q87 0 140 -48t53 -127q0 -73 -35 -122.5t-95 -90.5
q-4 -3 -3 -6l3 -3l29 -45q4 -3 7 0q37 42 52 70q4 10 12 10q3 0 8 -3l105 -66q7 -5 7 -11q0 -4 -3 -9q-41 -67 -92 -124q-2 -2 -1 -7l72 -108q3 -4 3 -8zM280 525q-9 -13 -9 -31q0 -8 3.5 -16.5t12.5 -24.5q3 -4 7 -1q34 29 34 56q0 14 -6.5 22t-17.5 8q-15 0 -24 -13z
M273 155q7 2 3 7l-6 8q-22 32 -40 55q-1 5 -6 0q-19 -17 -19 -37q0 -15 9 -27t29 -12l9 1q7 1 21 5z" />
    <glyph glyph-name="quotesingle" unicode="'" horiz-adv-x="198" 
d="M64 474l9 210q2 16 17 16h151q8 0 11 -4.5t2 -11.5l-44 -210q-4 -14 -17 -14h-116q-13 0 -13 14z" />
    <glyph glyph-name="parenleft" unicode="(" horiz-adv-x="360" 
d="M96 -74q-78 132 -78 302q0 54 7 109q30 243 171 410q9 9 19 9h150q12 0 12 -9q0 -3 -3 -8q-55 -92 -92.5 -185t-52.5 -217q-7 -57 -7 -114q0 -84 14.5 -151.5t38.5 -137.5q1 -2 1 -6q0 -11 -14 -11h-150q-10 0 -16 9z" />
    <glyph glyph-name="parenright" unicode=")" horiz-adv-x="360" 
d="M308 747q78 -132 78 -302q0 -54 -7 -109q-30 -242 -172 -410q-7 -9 -18 -9h-151q-5 0 -8 2.5t-3 6.5l2 8q55 90 93 183.5t53 218.5q7 56 7 112q0 84 -14 150.5t-39 140.5q-1 2 -1 6q0 11 13 11h151q10 0 16 -9z" />
    <glyph glyph-name="asterisk" unicode="*" horiz-adv-x="351" 
d="M159.5 401q-3.5 4 -2.5 11l8 57q1 3 -1 4.5t-4 -0.5l-54 -30q-5 -3 -9 -3q-5 0 -10 9l-29 66q-1 2 -1 6q0 8 10 14l62 32q4 3 0 7l-54 31q-6 3 -6 10q0 6 3 10l45 69q10 13 20 6l47 -31q2 -2 4 -1t2 4l6 58q1 7 5.5 11t11.5 4h71q6 0 9.5 -4t2.5 -11l-8 -58q0 -6 6 -3
l53 31q3 2 8 2q6 0 11 -8l28 -69q2 -4 2 -6q0 -9 -10 -14l-60 -31q-3 -1 -3 -3t2 -4l52 -32q6 -4 6 -11q0 -4 -3 -9l-45 -69q-10 -13 -20 -6l-46 32q-2 2 -3.5 1t-2.5 -4l-6 -57q-1 -7 -5 -11t-11 -4h-71q-7 0 -10.5 4z" />
    <glyph glyph-name="plus" unicode="+" horiz-adv-x="423" 
d="M427.5 372q3.5 -4 2.5 -11l-13 -110q-1 -7 -5.5 -11t-11.5 -4h-106q-4 0 -6 -5l-13 -110q-1 -7 -5.5 -11t-11.5 -4h-106q-7 0 -10.5 4t-2.5 11l14 110q0 5 -5 5h-106q-7 0 -10.5 4t-2.5 11l13 110q1 7 5.5 11t11.5 4h106q6 0 6 5l13 110q3 15 17 15h107q6 0 9.5 -4
t2.5 -11l-13 -110q-2 -5 4 -5h107q6 0 9.5 -4z" />
    <glyph glyph-name="comma" unicode="," horiz-adv-x="226" 
d="M-7 -96l44 241q2 7 6.5 11t11.5 4h131q16 0 11 -17l-84 -241q-5 -13 -17 -13h-91q-15 0 -12 15z" />
    <glyph glyph-name="hyphen" unicode="-" horiz-adv-x="333" 
d="M27.5 209q-3.5 4 -2.5 11l16 130q1 7 5.5 11t10.5 4h269q7 0 10.5 -4t2.5 -11l-16 -130q-1 -7 -5.5 -11t-11.5 -4h-268q-7 0 -10.5 4z" />
    <glyph glyph-name="period" unicode="." horiz-adv-x="239" 
d="M40 14.5q-22 22.5 -22 57.5q0 47 30 77.5t74 30.5q36 0 58 -22t22 -57q0 -46 -30 -77.5t-73 -31.5q-37 0 -59 22.5z" />
    <glyph glyph-name="slash" unicode="/" horiz-adv-x="456" 
d="M-6 9l2 8l319 671q5 12 18 12h153q11 0 11 -9l-2 -8l-319 -671q-5 -12 -18 -12h-152q-12 0 -12 9z" />
    <glyph glyph-name="zero" unicode="0" horiz-adv-x="445" 
d="M68 37.5q-49 49.5 -49 133.5q0 11 2 35l36 288q8 65 39.5 114.5t82 76.5t111.5 27q84 0 133.5 -49.5t49.5 -133.5q0 -11 -2 -35l-35 -288q-8 -65 -40 -114.5t-82.5 -76.5t-112.5 -27q-84 0 -133 49.5zM241 161.5q8 12.5 11 33.5l38 310l1 12q0 34 -21 34q-11 0 -19 -12.5
t-11 -33.5l-38 -310l-1 -12q0 -16 5 -25t15 -9q12 0 20 12.5z" />
    <glyph glyph-name="one" unicode="1" horiz-adv-x="294" 
d="M167 700h160q6 0 9.5 -4t2.5 -11l-82 -670q-1 -7 -5.5 -11t-10.5 -4h-154q-6 0 -9.5 4t-2.5 11l62 509q0 5 -4 5h-65q-7 0 -10.5 4t-2.5 11l14 116q2 12 14 17l67 20q9 3 17 3z" />
    <glyph glyph-name="two" unicode="2" horiz-adv-x="449" 
d="M240 163q1 -2 4 -2h181q7 0 10.5 -4t2.5 -11l-16 -131q-1 -7 -5.5 -11t-11.5 -4h-392q-7 0 -10.5 4t-2.5 11l16 135q2 11 10 19l74 75q93 93 132 141q30 38 45.5 70t15.5 62q0 15 -5.5 22.5t-15.5 7.5q-12 0 -20.5 -9.5t-10.5 -25.5l-5 -42q-1 -7 -5 -11t-11 -4h-155
q-7 0 -10.5 4t-2.5 11l6 50q16 85 83 136.5t159 51.5q82 0 130 -47t48 -125q0 -10 -2 -32q-7 -56 -27.5 -99.5t-62.5 -92.5q-43 -50 -126 -127l-18 -18q-3 -2 -2 -4z" />
    <glyph glyph-name="three" unicode="3" horiz-adv-x="440" 
d="M486.5 696q3.5 -4 2.5 -11l-17 -134q-2 -12 -9 -19l-114 -109q-3 -2 -2.5 -4t3.5 -2q40 -3 65 -36t25 -81q0 -8 -2 -24l-12 -104q-6 -52 -37 -93t-79.5 -64t-106.5 -23q-85 0 -137 43.5t-52 113.5q0 15 1 23l6 45q1 7 5 11t11 4h153q7 0 10.5 -4t2.5 -11l-3 -27
q-2 -16 4 -26.5t18 -10.5q13 0 22 10t11 27l14 113q2 16 -4.5 26.5t-19.5 10.5q-16 0 -36 -17q-7 -5 -11 -5t-9 5l-67 83q-3 5 -3 9q0 8 6 12l122 107q2 2 1.5 4t-3.5 2h-154q-7 0 -10.5 4t-2.5 11l16 130q1 7 5 11t11 4h366q7 0 10.5 -4z" />
    <glyph glyph-name="four" unicode="4" horiz-adv-x="514" 
d="M523.5 333q3.5 -4 2.5 -11l-17 -140q-1 -7 -5 -11t-11 -4h-30q-4 0 -6 -5l-18 -147q-1 -7 -5 -11t-11 -4h-153q-7 0 -10.5 4t-2.5 11l18 147q0 5 -4 5h-248q-6 0 -9.5 4t-2.5 11l13 111q1 6 5 18l164 377q5 12 18 12h164q8 0 11 -4.5t0 -12.5l-142 -340q-3 -6 3 -6h45
q5 0 5 5l9 69q1 7 5 11t11 4h153q7 0 10.5 -4t2.5 -11l-9 -69q0 -5 5 -5h30q6 0 9.5 -4z" />
    <glyph glyph-name="five" unicode="5" horiz-adv-x="445" 
d="M412 405q34 -39 34 -108q0 -24 -2 -37l-11 -89q-10 -84 -72 -131.5t-157 -47.5q-87 0 -135.5 42.5t-48.5 127.5l1 27q2 15 17 15h153q15 0 13 -12v-12q1 -28 19 -28q12 0 19.5 9t9.5 23l9 66q2 14 -4 23t-18 9q-7 0 -13.5 -3.5t-9.5 -8.5q-4 -7 -8 -10t-10 -3h-155
q-7 0 -10.5 4t-2.5 11l51 413q1 7 5.5 11t11.5 4h384q6 0 9.5 -4t2.5 -11l-16 -131q-1 -7 -5 -11t-11 -4h-212q-2 0 -3.5 -1.5t-1.5 -3.5l-14 -117q-1 -3 1 -4t4 1q18 14 39 22t42 8q61 0 95 -39z" />
    <glyph glyph-name="six" unicode="6" horiz-adv-x="446" 
d="M413 405q34 -39 34 -108q0 -24 -2 -37l-11 -89q-10 -84 -72 -131.5t-157 -47.5q-89 0 -138.5 43t-45.5 129q1 7 1 17t2 23l37 320q10 85 72.5 134.5t156.5 49.5q82 0 131.5 -42t49.5 -115q0 -9 -2 -27l-5 -39q-1 -7 -5.5 -11t-10.5 -4h-154q-6 0 -9.5 4t-2.5 11l3 26
q1 14 -4 23t-12 9q-10 0 -17.5 -9t-8.5 -23l-11 -94q-1 -3 1 -4t4 1q18 14 39 22t42 8q61 0 95 -39zM259 303q-5 9 -16 9t-18.5 -9t-9.5 -23l-12 -96q-2 -14 4 -23t16 -9t18 9t10 23l11 96q2 14 -3 23z" />
    <glyph glyph-name="seven" unicode="7" horiz-adv-x="422" 
d="M51 4.5q-3 4.5 1 12.5l216 516q3 6 -3 6h-61q-4 0 -6 -5l-3 -29q-1 -7 -5.5 -11t-10.5 -4h-118q-7 0 -10.5 4t-2.5 11l23 180q3 15 17 15h380q7 0 10.5 -4t2.5 -11l-17 -137q-2 -12 -5 -18l-219 -518q-4 -12 -18 -12h-160q-8 0 -11 4.5z" />
    <glyph glyph-name="eight" unicode="8" horiz-adv-x="438" 
d="M383 358q31 -22 41 -60q7 -25 7 -58q0 -11 -2 -33q-5 -46 -28 -90q-29 -57 -83 -91t-119 -34t-111.5 33.5t-61.5 91.5q-6 26 -6 54q0 24 2 36q6 53 26 91q19 38 55 59q5 3 2 7q-29 23 -41 63q-7 25 -7 56q0 10 2 30q6 50 26 87q29 53 83 84t120 31q64 0 110.5 -29.5
t62.5 -85.5q7 -25 7 -59q0 -60 -29 -114q-21 -39 -56 -62q-4 -4 0 -7zM236 440q5 -11 16 -11t19.5 11t10.5 29l5 46q2 17 -3 28t-16 11t-19 -10.5t-10 -28.5l-6 -46q-2 -18 3 -29zM251.5 277q-5.5 11 -16.5 11t-19 -11t-10 -29l-7 -56q-2 -17 3.5 -28t16.5 -11t19 11t10 28
l7 56q2 18 -3.5 29z" />
    <glyph glyph-name="nine" unicode="9" horiz-adv-x="442" 
d="M355.5 41.5q-62.5 -49.5 -155.5 -49.5q-82 0 -131.5 42t-49.5 115q0 9 2 27l4 39q3 15 17 15h153q7 0 10.5 -4t2.5 -11l-3 -26l-1 -7q0 -11 5 -18t11 -7q10 0 17 9t9 23l12 94q0 6 -6 3q-18 -14 -39 -22t-42 -8q-61 0 -95 39t-34 108q0 24 2 37l11 89q10 84 72.5 131.5
t157.5 47.5q88 0 137.5 -43t45.5 -129q0 -19 -3 -40l-37 -320q-10 -85 -72.5 -134.5zM265 397q8 9 10 23l11 96q2 14 -3.5 23t-16.5 9q-10 0 -18 -9t-9 -23l-12 -96q-1 -14 4 -23t15 -9q11 0 19 9z" />
    <glyph glyph-name="colon" unicode=":" horiz-adv-x="308" 
d="M118 344.5q-22 22.5 -22 57.5q0 47 30 77.5t74 30.5q36 0 58 -22t22 -57q0 -46 -30 -77.5t-73 -31.5q-37 0 -59 22.5zM78 22.5q-22 22.5 -22 57.5q0 47 30 77.5t74 30.5q36 0 58 -22t22 -57q0 -46 -30 -77.5t-73 -31.5q-37 0 -59 22.5z" />
    <glyph glyph-name="semicolon" unicode=";" horiz-adv-x="250" 
d="M76.5 316.5q-24.5 25.5 -24.5 63.5q0 32 17 59.5t44 44t54 16.5q37 0 63.5 -26.5t26.5 -65.5q0 -48 -34 -82.5t-82 -34.5q-40 0 -64.5 25.5zM1 -96l44 241q1 7 6 11t11 4h132q16 0 11 -17l-84 -241q-5 -13 -17 -13h-91q-15 0 -12 15z" />
    <glyph glyph-name="less" unicode="&#x3c;" horiz-adv-x="423" 
d="M387 49.5q-5 -3.5 -12 0.5l-340 162q-10 5 -9 17l17 136q1 12 13 17l379 162l8 2q5 0 7.5 -3.5t1.5 -9.5l-18 -146q-2 -12 -14 -17l-203 -70q-6 -3 0 -6l185 -70q11 -5 9 -17l-17 -146q-2 -8 -7 -11.5z" />
    <glyph glyph-name="equal" unicode="=" horiz-adv-x="423" 
d="M42.5 324q-3.5 4 -2.5 11l13 110q1 7 5.5 11t11.5 4h358q7 0 10.5 -4t2.5 -11l-13 -110q-1 -7 -5.5 -11t-11.5 -4h-359q-6 0 -9.5 4zM21.5 154q-3.5 4 -2.5 11l13 110q1 7 5.5 11t11.5 4h358q7 0 10.5 -4t2.5 -11l-13 -110q-1 -7 -5.5 -11t-11.5 -4h-359q-6 0 -9.5 4z
" />
    <glyph glyph-name="greater" unicode="&#x3e;" horiz-adv-x="423" 
d="M14 48q-10 0 -8 13l17 146q2 12 14 17l203 70q6 3 1 6l-186 70q-11 5 -9 17l18 146q1 8 6 11.5t12 -0.5l340 -162q10 -5 9 -17l-17 -136q-1 -12 -13 -17l-379 -162z" />
    <glyph glyph-name="question" unicode="?" horiz-adv-x="469" 
d="M144.5 240q-3.5 4 -2.5 11l2 13q5 39 21.5 68t36 47t50.5 40q33 24 48.5 41t15.5 42q0 18 -8.5 27.5t-24.5 9.5q-21 0 -34.5 -14t-15.5 -37l-1 -4q-1 -14 -16 -14l-153 7q-6 0 -10 3t-3 8q8 65 43.5 115.5t91.5 78.5t124 28q91 0 142.5 -47.5t51.5 -128.5q0 -9 -2 -31
q-6 -45 -22.5 -76.5t-37.5 -51t-52 -41.5q-31 -23 -47 -40t-19 -42v-1q-1 -7 -5.5 -11t-11.5 -4h-151q-7 0 -10.5 4zM143 17.5q-22 22.5 -22 57.5q0 47 30 77.5t73 30.5q37 0 59 -22t22 -57q0 -46 -30 -77.5t-74 -31.5q-36 0 -58 22.5z" />
    <glyph glyph-name="at" unicode="@" horiz-adv-x="737" 
d="M620.5 649q61.5 -32 95.5 -90t34 -135q0 -43 -12 -91q-25 -103 -87 -160t-143 -57q-70 0 -102 41q-3 3 -7 -1q-31 -38 -86 -38q-52 0 -73.5 29.5t-21.5 69.5q0 10 2 24q2 13 4.5 25t4.5 23q4 14 5 21q3 13 7.5 30.5t5.5 21.5q20 68 51.5 96t82.5 28q31 0 45 -24
q2 -3 4 -2.5t2 3.5v2q4 14 18 14h91q15 0 12 -16l-40 -152q-5 -17 -5 -35q0 -21 9 -31t23 -10q25 0 43.5 29.5t28.5 72.5q8 37 8 64q0 76 -45 120t-120 44q-65 0 -124.5 -34.5t-103.5 -95.5t-63 -138q-10 -40 -10 -77q0 -56 23.5 -94t60 -56t74.5 -18q29 0 53 9.5t49 26.5
q5 3 9 3q6 0 11 -8l32 -74q1 -2 1 -7q0 -8 -9 -14q-91 -54 -182 -54q-72 0 -128.5 31.5t-89 91t-32.5 139.5q0 50 13 105q26 110 93 196.5t158.5 135t189.5 48.5q79 0 140.5 -32zM366.5 224q6.5 7 9.5 18q2 6 14 60l13 53q2 8 2 10q0 6 -3.5 10t-10.5 4q-9 0 -16 -6.5
t-9 -17.5l-15 -60l-14 -53q-1 -3 -1 -8q0 -17 16 -17q8 0 14.5 7z" />
    <glyph glyph-name="A" unicode="A" horiz-adv-x="515" 
d="M298 14l-2 76q1 2 -1 3.5t-4 1.5h-87q-5 0 -7 -5l-19 -76q-3 -14 -17 -14h-152q-15 0 -11 16l220 671q4 13 18 13h177q14 0 15 -13l55 -671v-2q0 -14 -15 -14h-157q-14 0 -13 14zM241 239h47q3 0 5 5l-4 185q0 4 -2.5 3.5t-2.5 -3.5l-46 -185q-2 -5 3 -5z" />
    <glyph glyph-name="B" unicode="B" horiz-adv-x="469" 
d="M382.5 52q-65.5 -52 -157.5 -52h-205q-6 0 -9.5 4t-2.5 11l82 670q1 7 5.5 11t10.5 4h176q96 0 149.5 -40.5t53.5 -122.5q0 -10 -2 -34q-12 -93 -73 -138q-6 -3 -3 -6q54 -46 54 -129q0 -9 -2 -29q-11 -97 -76.5 -149zM254 534l-13 -102q0 -5 4 -5h6q43 0 51 56l1 13
q0 43 -38 43h-6q-5 0 -5 -5zM266.5 182q14.5 21 14.5 60q0 23 -9 37t-25 14h-18q-5 0 -5 -5l-15 -122q-2 -5 4 -5h17q22 0 36.5 21z" />
    <glyph glyph-name="C" unicode="C" horiz-adv-x="462" 
d="M73.5 40q-50.5 48 -50.5 131q0 10 2 34l36 292q12 97 77 154t161 57q87 0 138 -47.5t51 -130.5q0 -9 -2 -33l-1 -5q-1 -7 -5.5 -11.5t-10.5 -4.5l-154 -5q-15 0 -13 14l3 25q2 17 -5 27t-20 10q-14 0 -23.5 -10t-11.5 -27l-39 -321q-2 -16 4.5 -26t20.5 -10t23.5 9.5
t11.5 26.5l3 27q1 7 5.5 10.5t10.5 3.5l153 -5q7 0 10.5 -4.5t2.5 -11.5l-1 -4q-12 -97 -77.5 -155t-161.5 -58q-87 0 -137.5 48z" />
    <glyph glyph-name="D" unicode="D" horiz-adv-x="469" 
d="M10.5 4q-3.5 4 -2.5 11l82 670q1 7 5.5 11t10.5 4h191q89 0 141.5 -46.5t52.5 -124.5q0 -9 -2 -29l-37 -300q-7 -59 -39.5 -104.5t-85 -70.5t-116.5 -25h-191q-6 0 -9.5 4zM213 161l14 1q16 1 28.5 15t16.5 36l33 275l1 11q0 19 -9 29.5t-24 10.5h-14q-5 0 -5 -5
l-45 -368q-2 -5 4 -5z" />
    <glyph glyph-name="E" unicode="E" horiz-adv-x="431" 
d="M456.5 543q-4.5 -4 -11.5 -4h-186q-5 0 -5 -5l-12 -98q-2 -5 4 -5h97q7 0 10.5 -4t2.5 -11l-16 -131q-3 -15 -17 -15h-97q-5 0 -5 -5l-12 -99q-2 -5 4 -5h186q7 0 10.5 -4t2.5 -11l-16 -131q-1 -7 -5.5 -11t-11.5 -4h-359q-6 0 -9.5 4t-2.5 11l82 670q1 7 5.5 11t10.5 4
h359q7 0 10.5 -4t2.5 -11l-16 -131q-1 -7 -5.5 -11z" />
    <glyph glyph-name="F" unicode="F" horiz-adv-x="419" 
d="M456.5 543q-4.5 -4 -11.5 -4h-186q-5 0 -5 -5l-12 -98q-2 -5 4 -5h97q7 0 10.5 -4t2.5 -11l-16 -131q-3 -15 -17 -15h-97q-5 0 -5 -5l-31 -250q-1 -7 -5.5 -11t-10.5 -4h-154q-6 0 -9.5 4t-2.5 11l82 670q1 7 5.5 11t10.5 4h359q7 0 10.5 -4t2.5 -11l-16 -131
q-1 -7 -5.5 -11z" />
    <glyph glyph-name="G" unicode="G" horiz-adv-x="464" 
d="M72.5 38.5q-50.5 46.5 -50.5 126.5q0 9 2 31l38 309q11 93 76 148t161 55q87 0 138.5 -47t51.5 -127q0 -11 -2 -31l-4 -33q-3 -15 -17 -15h-153q-7 0 -10.5 4t-2.5 11l5 35q2 19 -5 30.5t-20 11.5q-14 0 -24 -11.5t-12 -30.5l-38 -310q-2 -19 5 -30.5t20 -11.5
q14 0 23.5 11.5t11.5 30.5l7 50q0 5 -5 5h-8q-7 0 -10.5 4t-2.5 11l14 115q1 7 5.5 11t10.5 4h182q7 0 10.5 -4t2.5 -11l-23 -184q-11 -93 -76.5 -148.5t-161.5 -55.5q-88 0 -138.5 46.5z" />
    <glyph glyph-name="H" unicode="H" horiz-adv-x="471" 
d="M334 696q4 4 11 4h153q7 0 10.5 -4t2.5 -11l-82 -670q-1 -7 -5.5 -11t-11.5 -4h-153q-7 0 -10.5 4t-2.5 11l31 250q0 5 -4 5h-47q-5 0 -5 -5l-31 -250q-1 -7 -5.5 -11t-10.5 -4h-154q-6 0 -9.5 4t-2.5 11l82 670q1 7 5.5 11t10.5 4h154q6 0 9.5 -4t2.5 -11l-30 -249
q-2 -5 4 -5h47q2 0 3.5 1.5t1.5 3.5l31 249q1 7 5 11z" />
    <glyph glyph-name="I" unicode="I" horiz-adv-x="233" 
d="M10.5 4q-3.5 4 -2.5 11l82 670q1 7 5.5 11t10.5 4h154q6 0 9.5 -4t2.5 -11l-82 -670q-1 -7 -5.5 -11t-10.5 -4h-154q-6 0 -9.5 4z" />
    <glyph glyph-name="J" unicode="J" horiz-adv-x="456" 
d="M61 38.5q-51 46.5 -51 123.5q0 10 2 30l7 58q1 7 5.5 11t10.5 4h154q6 0 9.5 -4t2.5 -11l-7 -60q-2 -16 4.5 -26.5t19.5 -10.5t23 10.5t11 26.5l61 495q1 7 5.5 11t10.5 4h154q6 0 9.5 -4t2.5 -11l-60 -493q-7 -59 -39.5 -104.5t-83.5 -70.5t-114 -25q-86 0 -137 46.5z
" />
    <glyph glyph-name="K" unicode="K" horiz-adv-x="501" 
d="M10.5 4q-3.5 4 -2.5 11l82 670q1 7 5.5 11t10.5 4h154q6 0 9.5 -4t2.5 -11l-24 -201q-1 -4 1 -4t4 3l108 205q6 12 19 12h160q12 0 12 -9q0 -4 -3 -9l-173 -296q-1 -4 -1 -6l97 -363v-4q0 -13 -14 -13h-161q-13 0 -16 12l-51 206q0 3 -2 3.5t-3 -3.5l-12 -22l-1 -6
l-22 -175q-1 -7 -5.5 -11t-10.5 -4h-154q-6 0 -9.5 4z" />
    <glyph glyph-name="L" unicode="L" horiz-adv-x="433" 
d="M10.5 4q-3.5 4 -2.5 11l82 670q1 7 5.5 11t10.5 4h154q6 0 9.5 -4t2.5 -11l-63 -519q-2 -5 4 -5h190q7 0 10.5 -4t2.5 -11l-16 -131q-3 -15 -17 -15h-363q-6 0 -9.5 4z" />
    <glyph glyph-name="M" unicode="M" horiz-adv-x="549" 
d="M429 700h152q6 0 9.5 -4t2.5 -11l-82 -670q-1 -7 -5.5 -11t-10.5 -4h-154q-6 0 -9.5 4t-2.5 11l50 409q1 4 -1.5 4.5t-4.5 -2.5l-68 -98l-12 -18h-1l-51 116q-1 3 -3 2.5t-3 -4.5l-50 -409q-1 -7 -5 -11t-11 -4h-153q-7 0 -10.5 4t-2.5 11l82 670q1 7 5.5 11t10.5 4h152
q12 0 16 -11l53 -130q2 -4 6 0l83 130q6 11 18 11z" />
    <glyph glyph-name="N" unicode="N" horiz-adv-x="512" 
d="M376.5 696q4.5 4 11.5 4h151q7 0 10.5 -4t2.5 -11l-83 -670q-1 -7 -5 -11t-11 -4h-173q-12 0 -14 13l-38 307q0 3 -2 3t-2 -3l-36 -305q-1 -7 -5.5 -11t-10.5 -4h-152q-6 0 -9.5 4t-2.5 11l82 670q1 7 5.5 11t10.5 4h171q12 0 14 -13l39 -309q0 -3 2 -2t3 3l36 306
q1 7 5.5 11z" />
    <glyph glyph-name="O" unicode="O" horiz-adv-x="469" 
d="M74 40.5q-51 48.5 -51 131.5q0 10 2 34l36 288q12 98 77.5 156t163.5 58q88 0 139.5 -48.5t51.5 -131.5q0 -10 -2 -34l-35 -288q-12 -98 -78 -156t-164 -58q-89 0 -140 48.5zM259.5 165q10.5 12 13.5 33l37 304q2 21 -5 33t-22 12q-16 0 -26.5 -12t-12.5 -33l-37 -304
q-1 -4 -1 -11q0 -16 7.5 -25t20.5 -9q15 0 25.5 12z" />
    <glyph glyph-name="P" unicode="P" horiz-adv-x="467" 
d="M449.5 648.5q46.5 -51.5 46.5 -136.5q0 -24 -2 -37q-8 -64 -37.5 -113t-76 -75.5t-102.5 -26.5h-55q-5 0 -5 -5l-30 -240q-1 -7 -5.5 -11t-10.5 -4h-154q-6 0 -9.5 4t-2.5 11l82 670q1 7 5.5 11t10.5 4h219q80 0 126.5 -51.5zM291.5 421.5q15.5 16.5 19.5 49.5q1 6 1 17
q0 25 -11 38t-30 13h-14q-5 0 -5 -5l-15 -124q-2 -5 4 -5h13q22 0 37.5 16.5z" />
    <glyph glyph-name="Q" unicode="Q" horiz-adv-x="459" 
d="M432.5 657.5q49.5 -50.5 49.5 -136.5q0 -12 -2 -36l-34 -270q-8 -71 -45 -124.5t-95 -78.5q-3 -2 -5 -6l-9 -78q-1 -7 -5.5 -11t-11.5 -4h-153q-7 0 -10.5 4t-2.5 11l10 78q0 4 -3 6q-44 22 -68 65.5t-24 102.5q0 11 2 35l34 270q8 66 40 116.5t83 78.5t113 28
q87 0 136.5 -50.5zM206 195q-2 -19 4 -30.5t18 -11.5q13 0 22.5 11.5t11.5 30.5l38 310q2 19 -4 30.5t-19 11.5t-22 -11.5t-11 -30.5z" />
    <glyph glyph-name="R" unicode="R" horiz-adv-x="475" 
d="M257 13l-29 252q0 4 -3 4q-4 0 -4 -5l-31 -249q-1 -7 -5.5 -11t-10.5 -4h-154q-6 0 -9.5 4t-2.5 11l82 670q1 7 5.5 11t10.5 4h219q80 0 126.5 -51t46.5 -135q0 -24 -2 -37q-7 -55 -31 -98.5t-62 -70.5q-5 -3 -3 -7l43 -284v-4q0 -6 -4 -9.5t-10 -3.5h-158q-12 0 -14 13z
M259 539q-5 0 -5 -5l-15 -117q0 -5 5 -5h13q24 0 40.5 21t16.5 58q0 23 -11 35.5t-30 12.5h-14z" />
    <glyph glyph-name="S" unicode="S" horiz-adv-x="449" 
d="M72 36.5q-50 44.5 -50 118.5q0 7 2 25l4 31q1 7 5.5 11t10.5 4h152q6 0 9.5 -4t2.5 -11l-2 -22q-2 -16 4 -26t18 -10q13 0 22 11t9 27q0 15 -14.5 31t-55.5 49q-40 33 -66 58.5t-45 63t-19 85.5q0 9 2 31q11 89 74 144t157 55q86 0 135.5 -46t49.5 -124q0 -9 -2 -29
l-3 -22q-1 -7 -5.5 -11t-10.5 -4h-151q-6 0 -9.5 4t-2.5 11l3 26q1 15 -5.5 24.5t-18.5 9.5q-14 0 -23 -12t-9 -32q0 -17 14 -35t52 -50q51 -43 78 -69.5t42.5 -58t15.5 -71.5q0 -8 -2 -28q-12 -91 -75.5 -145t-156.5 -54q-86 0 -136 44.5z" />
    <glyph glyph-name="T" unicode="T" horiz-adv-x="484" 
d="M528.5 696q3.5 -4 2.5 -11l-16 -131q-1 -7 -5 -11t-11 -4h-116q-5 0 -5 -5l-64 -519q-1 -7 -5 -11t-11 -4h-153q-7 0 -10.5 4t-2.5 11l64 519q0 5 -5 5h-112q-7 0 -10.5 4t-2.5 11l16 131q1 7 5.5 11t11.5 4h420q6 0 9.5 -4z" />
    <glyph glyph-name="U" unicode="U" horiz-adv-x="467" 
d="M77 41q-50 49 -50 132q0 11 2 35l59 477q1 7 5.5 11t10.5 4h154q6 0 9.5 -4t2.5 -11l-60 -495q-2 -17 4 -27t19 -10t21.5 10t10.5 27l61 495q1 7 5 11t11 4h153q7 0 10.5 -4t2.5 -11l-59 -477q-8 -64 -40 -113t-83 -76t-113 -27q-86 0 -136 49z" />
    <glyph glyph-name="V" unicode="V" horiz-adv-x="505" 
d="M133 13l-54 671q0 16 16 16h167q14 0 13 -14v-359q-1 -3 2 -3t4 3l84 359q3 14 17 14h162q7 0 10.5 -4t0.5 -12l-220 -671q-4 -13 -18 -13h-170q-14 0 -14 13z" />
    <glyph glyph-name="W" unicode="W" horiz-adv-x="698" 
d="M129 13l-50 671q0 16 16 16h158q14 0 14 -14l-5 -310q-1 -3 2 -3t3 3l74 310q3 14 18 14h118q14 0 14 -14l3 -310q0 -2 2.5 -2.5t2.5 2.5l67 310q4 14 17 14h154q17 0 11 -16l-206 -671q-4 -13 -18 -13h-134q-14 0 -14 14l-2 326q1 3 -1.5 2.5t-3.5 -3.5l-73 -325
q-4 -14 -18 -14h-134q-14 0 -15 13z" />
    <glyph glyph-name="X" unicode="X" horiz-adv-x="488" 
d="M-1 9l2 8l169 330q1 3 0 6l-87 330q-1 2 -1 5q0 12 15 12h155q6 0 10 -3.5t5 -9.5l22 -139q1 -3 3 -3t3 3l57 139q5 13 18 13h154q12 0 12 -9l-2 -8l-169 -330q-1 -3 0 -6l87 -330q1 -2 1 -5q0 -12 -15 -12h-153q-6 0 -10 3.5t-5 9.5l-24 138q0 4 -2 4t-3 -4l-58 -138
q-5 -13 -18 -13h-154q-12 0 -12 9z" />
    <glyph glyph-name="Y" unicode="Y" horiz-adv-x="493" 
d="M139.5 6q-3.5 4 -2.5 11l28 231q1 2 0 6l-83 429v4q0 13 14 13h161q14 0 15 -13l12 -201q0 -3 2.5 -3t3.5 3l61 201q4 13 18 13h161q8 0 10.5 -4.5t-0.5 -12.5l-191 -429l-1 -6l-29 -231q-1 -7 -5 -11t-11 -4h-153q-7 0 -10.5 4z" />
    <glyph glyph-name="Z" unicode="Z" horiz-adv-x="411" 
d="M-3.5 4q-3.5 4 -2.5 11l17 136q2 11 7 19l231 363q3 6 -3 6h-173q-7 0 -10.5 4t-2.5 11l16 131q1 7 5.5 11t11.5 4h357q6 0 9.5 -4t2.5 -11l-16 -136q-1 -7 -7 -19l-233 -363q-5 -6 3 -6h175q6 0 9.5 -4t2.5 -11l-16 -131q-1 -7 -5.5 -11t-10.5 -4h-357q-7 0 -10.5 4z
" />
    <glyph glyph-name="bracketleft" unicode="[" horiz-adv-x="362" 
d="M-6.5 -160q-3.5 4 -2.5 11l117 952q1 7 5.5 11t11.5 4h226q6 0 9.5 -4t2.5 -11l-16 -131q-1 -7 -5 -11t-11 -4h-53q-6 0 -6 -5l-80 -650q0 -5 5 -5h53q7 0 10.5 -4t2.5 -11l-16 -131q-3 -15 -17 -15h-226q-7 0 -10.5 4z" />
    <glyph glyph-name="backslash" unicode="\" horiz-adv-x="456" 
d="M426 12q0 -12 -15 -12h-152q-12 0 -15 12l-154 671q-1 2 -1 5q0 12 14 12h153q12 0 15 -12l154 -671q1 -2 1 -5z" />
    <glyph glyph-name="bracketright" unicode="]" horiz-adv-x="362" 
d="M289.5 -160q-4.5 -4 -10.5 -4h-226q-7 0 -10.5 4t-2.5 11l16 131q1 7 5.5 11t10.5 4h54q5 0 5 5l80 650q0 5 -4 5h-54q-6 0 -9.5 4t-2.5 11l16 131q1 7 5 11t11 4h226q7 0 10.5 -4t2.5 -11l-117 -952q-1 -7 -5.5 -11z" />
    <glyph glyph-name="asciicircum" unicode="^" horiz-adv-x="427" 
d="M40.5 295.5q-3.5 4.5 0.5 12.5l157 379q5 13 18 13h125q14 0 15 -12l67 -380v-2q0 -15 -15 -15h-121q-13 0 -15 13l-16 180q0 4 -2 4t-3 -4l-60 -180q-5 -13 -18 -13h-122q-7 0 -10.5 4.5z" />
    <glyph glyph-name="underscore" unicode="_" horiz-adv-x="437" 
d="M-7.5 4q-3.5 4 -2.5 11l14 110q1 7 5 11t11 4h393q7 0 10.5 -4t2.5 -11l-14 -110q-1 -7 -5.5 -11t-10.5 -4h-393q-7 0 -10.5 4z" />
    <glyph glyph-name="grave" unicode="`" horiz-adv-x="239" 
d="M276 589q0 -10 -14 -10h-96q-10 0 -16 9l-63 94q-3 5 -3 8q0 4 4 7t10 3h118q12 0 16 -10l42 -93q2 -6 2 -8z" />
    <glyph glyph-name="a" unicode="a" horiz-adv-x="446" 
d="M290.5 516q4.5 4 10.5 4h154q6 0 9.5 -4t2.5 -11l-60 -490q-1 -7 -5 -11t-11 -4h-153q-7 0 -10.5 4t-2.5 11l3 22q0 4 -2 4t-4 -3q-34 -46 -92 -46q-60 0 -87 33t-27 96q0 24 3 49l22 180q11 89 48.5 133.5t106.5 44.5q58 0 80 -47q2 -3 4 -2.5t2 4.5l3 22q1 7 5.5 11z
M237 162q7 9 9 23l18 150q2 14 -3 23t-15 9t-16 -9t-8 -23l-19 -150q-2 -15 2.5 -23.5t14.5 -8.5t17 9z" />
    <glyph glyph-name="b" unicode="b" horiz-adv-x="446" 
d="M427 496q28 -32 28 -96q0 -23 -3 -50l-22 -180q-10 -86 -47.5 -132t-107.5 -46q-57 0 -80 46q-2 3 -4 3t-2 -4l-3 -22q-1 -7 -5.5 -11t-10.5 -4h-154q-6 0 -9.5 4t-2.5 11l82 670q1 7 5.5 11t10.5 4h154q6 0 9.5 -4t2.5 -11l-24 -202v-1q0 -1 1 -1q2 0 11 9q32 38 85 38
q58 0 86 -32zM268 342q0 11 -4.5 18t-11.5 7q-10 0 -17.5 -8.5t-9.5 -23.5l-18 -150q-2 -14 3 -23t15 -9t16.5 8.5t8.5 23.5l18 150v7z" />
    <glyph glyph-name="c" unicode="c" horiz-adv-x="441" 
d="M65 31q-48 39 -48 111q0 8 2 28l22 180q10 81 70.5 129.5t156.5 48.5q88 0 135.5 -41t47.5 -111q0 -8 -2 -26l-2 -22q-1 -7 -5.5 -11.5t-11.5 -4.5l-154 -5q-6 0 -10 3.5t-3 10.5l2 14l1 8q0 10 -5 17t-13 7q-10 0 -17 -9t-9 -23l-19 -150q-2 -14 3.5 -23t15.5 -9
q9 0 16 9t9 23l2 15q1 7 5 11t11 4l153 -2q7 0 10.5 -4t2.5 -11l-4 -28q-11 -85 -69.5 -131.5t-155.5 -46.5q-89 0 -137 39z" />
    <glyph glyph-name="d" unicode="d" horiz-adv-x="446" 
d="M312.5 696q4.5 4 11.5 4h153q7 0 10.5 -4t2.5 -11l-83 -670q-1 -7 -5 -11t-11 -4h-153q-7 0 -10.5 4t-2.5 11l3 22q0 4 -2 4t-4 -3q-34 -46 -92 -46q-60 0 -87 33t-27 96q0 24 3 49l22 180q11 89 48.5 133.5t106.5 44.5q58 0 80 -47q2 -3 4 -2.5t2 4.5l25 202q1 7 5.5 11
zM237 162q7 9 9 23l18 150q2 14 -3 23t-15 9t-16 -9t-8 -23l-19 -150q-2 -15 2.5 -23.5t14.5 -8.5t17 9z" />
    <glyph glyph-name="e" unicode="e" horiz-adv-x="441" 
d="M429 217q-4 -4 -11 -4h-207q-2 0 -3.5 -1.5t-1.5 -3.5l-3 -23q-2 -14 3.5 -23t15.5 -9q17 0 25 25q6 14 18 13l147 -10q15 -2 12 -16q-16 -88 -70 -130.5t-152 -42.5q-89 0 -137 39t-48 111q0 8 2 28l22 180q10 81 70.5 129.5t156.5 48.5q88 0 135.5 -41t47.5 -111
q0 -8 -2 -26l-15 -122q-1 -7 -5 -11zM231 358q-7 -9 -9 -23l-4 -25q0 -5 5 -5h34q5 0 5 5l3 25l1 8q0 10 -5 17t-13 7q-10 0 -17 -9z" />
    <glyph glyph-name="f" unicode="f" horiz-adv-x="302" 
d="M330.5 516q3.5 -4 2.5 -11l-13 -100q-1 -7 -5 -11t-11 -4h-37q-5 0 -5 -5l-46 -370q-1 -7 -5 -11t-11 -4h-153q-7 0 -10.5 4t-2.5 11l45 370q2 5 -4 5h-20q-7 0 -10.5 4t-2.5 11l12 100q1 7 5.5 11t11.5 4h20q5 0 5 5l4 31q10 81 58 113t138 32q26 0 40 -1q7 0 5 -15
l-12 -95q-2 -15 -8 -15q-17 -2 -27.5 -12t-12.5 -24l-2 -14q-2 -5 4 -5h37q7 0 10.5 -4z" />
    <glyph glyph-name="g" unicode="g" horiz-adv-x="446" 
d="M290.5 516q4.5 4 10.5 4h154q6 0 9.5 -4t2.5 -11l-57 -471q-9 -75 -36.5 -128t-88 -84.5t-162.5 -31.5q-37 0 -58 2q-15 0 -13 15l16 133q3 15 18 14q72 -4 101 13.5t38 56.5q1 3 -3 4t-6 -2q-34 -34 -86 -34q-60 0 -87 33t-27 96q0 24 3 49l22 180q11 89 48.5 133.5
t106.5 44.5q58 0 80 -46q2 -3 4 -3t2 4l3 22q1 7 5.5 11zM237 162q7 9 9 23l18 150q2 14 -3 23t-15 9t-16 -9t-8 -23l-19 -150q-2 -15 2.5 -23.5t14.5 -8.5t17 9z" />
    <glyph glyph-name="h" unicode="h" horiz-adv-x="448" 
d="M455 394q0 -22 -3 -46l-41 -333q-1 -7 -5 -11t-11 -4h-153q-7 0 -10.5 4t-2.5 11l39 320q1 4 1 10q0 22 -17 22q-22 0 -27 -32l-39 -320q-1 -7 -5.5 -11t-10.5 -4h-154q-6 0 -9.5 4t-2.5 11l82 670q1 7 5.5 11t10.5 4h154q6 0 9.5 -4t2.5 -11l-24 -196q0 -2 2 -2
q4 0 10 7q33 34 80 34q119 0 119 -134z" />
    <glyph glyph-name="i" unicode="i" horiz-adv-x="219" 
d="M99 577.5q-22 22.5 -22 57.5q0 47 30 77.5t73 30.5q37 0 59 -22t22 -57q0 -46 -30 -77.5t-74 -31.5q-36 0 -58 22.5zM4.5 4q-3.5 4 -2.5 11l60 490q1 7 5.5 11t10.5 4h154q6 0 9.5 -4t2.5 -11l-60 -490q-1 -7 -5 -11t-11 -4h-153q-7 0 -10.5 4z" />
    <glyph glyph-name="j" unicode="j" horiz-adv-x="221" 
d="M103 577.5q-22 22.5 -22 57.5q0 47 30 77.5t73 30.5q37 0 59 -22t22 -57q0 -46 -30 -77.5t-74 -31.5q-36 0 -58 22.5zM-114 -186l16 129q1 15 17 15q45 -2 63.5 15.5t23.5 55.5l58 476q1 7 5.5 11t10.5 4h154q6 0 9.5 -4t2.5 -11l-58 -476q-11 -89 -30 -135t-78 -72
t-180 -23q-16 0 -14 15z" />
    <glyph glyph-name="k" unicode="k" horiz-adv-x="465" 
d="M6.5 4q-3.5 4 -2.5 11l82 670q1 7 5.5 11t10.5 4h154q6 0 9.5 -4t2.5 -11l-34 -281q-1 -4 1.5 -4t4.5 3l58 106q6 11 18 11h157q12 0 12 -8q0 -2 -4 -10l-132 -184q-2 -4 -1 -7l83 -294v-4q0 -13 -14 -13h-157q-12 0 -15 12l-27 144q0 3 -2.5 3.5t-4.5 -3.5l-9 -17l-1 -6
l-15 -118q-1 -7 -5.5 -11t-10.5 -4h-154q-6 0 -9.5 4z" />
    <glyph glyph-name="l" unicode="l" horiz-adv-x="221" 
d="M4.5 4q-3.5 4 -2.5 11l82 670q1 7 5.5 11t10.5 4h154q6 0 9.5 -4t2.5 -11l-82 -670q-1 -7 -5 -11t-11 -4h-153q-7 0 -10.5 4z" />
    <glyph glyph-name="m" unicode="m" horiz-adv-x="673" 
d="M680 394q0 -22 -3 -46l-41 -333q-1 -7 -5 -11t-11 -4h-153q-7 0 -10.5 4t-2.5 11l39 320q1 4 1 10q0 22 -17 22q-22 0 -27 -32l-39 -320q-1 -7 -5 -11t-11 -4h-153q-7 0 -10.5 4t-2.5 11l39 320q1 4 1 10q0 22 -17 22q-22 0 -27 -32l-39 -320q-1 -7 -5.5 -11t-10.5 -4
h-154q-6 0 -9.5 4t-2.5 11l60 490q1 7 5.5 11t10.5 4h154q6 0 9.5 -4t2.5 -10v-6q-1 -3 1 -3.5t4 1.5q37 30 85 30q77 0 105 -58q0 -2 2 -2q4 0 9 8q42 52 109 52q119 0 119 -134z" />
    <glyph glyph-name="n" unicode="n" horiz-adv-x="448" 
d="M455 394q0 -22 -3 -46l-41 -333q-1 -7 -5 -11t-11 -4h-153q-7 0 -10.5 4t-2.5 11l39 320q1 4 1 10q0 22 -17 22q-22 0 -27 -32l-39 -320q-1 -7 -5.5 -11t-10.5 -4h-154q-6 0 -9.5 4t-2.5 11l60 490q1 7 5.5 11t10.5 4h154q6 0 9.5 -4t2.5 -11l-2 -16q0 -2 2 -2q4 0 10 7
q33 34 80 34q119 0 119 -134z" />
    <glyph glyph-name="o" unicode="o" horiz-adv-x="447" 
d="M65.5 31q-48.5 39 -48.5 111q0 8 2 28l22 180q10 81 71 129.5t158 48.5q89 0 137 -41t48 -111q0 -8 -2 -26l-22 -180q-11 -85 -69.5 -131.5t-157.5 -46.5q-90 0 -138.5 39zM241 162q8 9 10 23l18 150q1 14 -4 23t-15 9q-11 0 -18.5 -9t-9.5 -23l-19 -150q-2 -14 4 -23
t16 -9t18 9z" />
    <glyph glyph-name="p" unicode="p" horiz-adv-x="448" 
d="M430 495q27 -33 27 -96q0 -23 -3 -49l-22 -180q-11 -89 -48.5 -133.5t-106.5 -44.5q-58 0 -80 47q-2 3 -4 2.5t-2 -4.5l-25 -202q-1 -7 -5.5 -11t-10.5 -4h-154q-6 0 -9.5 4t-2.5 11l82 670q1 7 5.5 11t10.5 4h154q6 0 9.5 -4t2.5 -11l-2 -22v-1q0 -1 1 -1q2 0 11 9
q34 38 85 38q60 0 87 -33zM270 342q0 11 -4.5 18t-11.5 7q-10 0 -17.5 -8.5t-9.5 -23.5l-18 -150q-2 -14 3 -23t15 -9t16.5 8.5t8.5 23.5l18 150v7z" />
    <glyph glyph-name="q" unicode="q" horiz-adv-x="448" 
d="M290.5 516q4.5 4 10.5 4h154q6 0 9.5 -4t2.5 -11l-82 -670q-1 -7 -5 -11t-11 -4h-153q-7 0 -10.5 4t-2.5 11l25 202q0 4 -2 4.5t-4 -2.5q-34 -47 -92 -47t-86 32.5t-28 97.5q0 23 3 48l22 180q11 87 48 132.5t107 45.5q57 0 80 -46q2 -3 4 -3t2 4l3 22q1 7 5.5 11z
M237 162q7 9 9 23l18 150q2 14 -3 23t-15 9t-16 -9t-8 -23l-19 -150q-2 -15 2.5 -23.5t14.5 -8.5t17 9z" />
    <glyph glyph-name="r" unicode="r" horiz-adv-x="336" 
d="M368 517q8 -5 5 -19l-44 -157q-2 -8 -6 -10t-12 0q-9 3 -22 3q-20 0 -34 -7q-15 -7 -25 -22.5t-12 -31.5l-32 -257q-1 -7 -5 -11t-11 -4h-153q-7 0 -10.5 4t-2.5 11l60 489q1 7 5.5 11t10.5 4h154q6 0 9.5 -4t2.5 -11l-3 -23q0 -4 1.5 -4.5t3.5 2.5q30 47 82 47
q23 0 38 -10z" />
    <glyph glyph-name="s" unicode="s" horiz-adv-x="425" 
d="M60 31q-50 39 -50 104q0 14 1 21l1 3q1 7 5 11t11 4h146q6 0 10 -3.5t3 -9.5q-2 -15 5.5 -23t18.5 -8q10 0 15.5 6t5.5 15q0 13 -14 20.5t-44 16.5l-27 9q-44 16 -74.5 48.5t-30.5 88.5q0 16 1 24q10 78 67.5 124t143.5 46q81 0 128.5 -42.5t47.5 -113.5q0 -8 -2 -26
q-2 -10 -16 -10h-141q-7 0 -10.5 4t-2.5 11l1 6v5q0 21 -18 21q-11 0 -17.5 -9.5t-6.5 -19.5q0 -18 17 -28.5t45 -19.5q62 -20 99.5 -49t37.5 -85q0 -83 -61.5 -131.5t-158.5 -48.5q-86 0 -136 39z" />
    <glyph glyph-name="t" unicode="t" horiz-adv-x="298" 
d="M311 394q-4 -4 -11 -4h-42q-5 0 -5 -5l-24 -193q-2 -18 5 -24.5t22 -5.5h2q6 0 9.5 -4t2.5 -11l-16 -132q-1 -7 -5.5 -11t-10.5 -4h-47q-73 0 -110 19t-37 74q0 15 1 23l33 269q2 5 -4 5h-27q-7 0 -10.5 4t-2.5 11l12 100q3 15 17 15h27q4 0 6 5l13 108q1 7 5 11t11 4
h146q6 0 9.5 -4t2.5 -11l-13 -108q0 -5 4 -5h42q7 0 10.5 -4t2.5 -11l-13 -100q-1 -7 -5 -11z" />
    <glyph glyph-name="u" unicode="u" horiz-adv-x="448" 
d="M292.5 516q4.5 4 10.5 4h154q6 0 9.5 -4t2.5 -11l-60 -490q-1 -7 -5 -11t-11 -4h-153q-7 0 -10.5 4t-2.5 11l1 6q0 3 -2 4t-4 -2q-16 -18 -37 -24.5t-48 -6.5q-52 0 -86.5 29.5t-34.5 92.5q0 10 2 30l44 361q1 7 5.5 11t10.5 4h154q6 0 9.5 -4t2.5 -11l-39 -320
q-1 -4 -1 -10q0 -22 18 -22q21 0 26 32l39 320q1 7 5.5 11z" />
    <glyph glyph-name="v" unicode="v" horiz-adv-x="460" 
d="M108 13l-54 490v2q0 7 4 11t11 4h168q13 0 12 -14l-7 -223q1 -1 3 -1t3 1l48 223q3 14 16 14l168 -2q7 0 9.5 -4.5t0.5 -12.5l-174 -488q-5 -13 -17 -13h-177q-12 0 -14 13z" />
    <glyph glyph-name="w" unicode="w" horiz-adv-x="633" 
d="M98 13l-44 491q0 16 15 16h145q14 0 14 -14l-5 -226q-1 -1 2 -1t3 1l52 226q4 14 18 14h129q14 0 13 -14l-1 -226q0 -2 2 -2t3 2l51 226q3 14 16 14l142 -2q15 0 11 -16l-162 -489q-5 -13 -18 -13h-148q-14 0 -14 14l-2 176q1 3 -2 3t-4 -3l-43 -176q-3 -14 -17 -14h-141
q-13 0 -15 13z" />
    <glyph glyph-name="x" unicode="x" horiz-adv-x="468" 
d="M-7 9q0 5 3 9l135 239q2 3 1 6l-76 239q-1 2 -1 6q0 12 14 12h167q12 0 15 -12l14 -69q1 -3 3 -3t3 3l32 69q5 12 18 12h167q11 0 11 -9q0 -3 -3 -9l-135 -239l-1 -6l77 -239q1 -2 1 -6q0 -12 -14 -12h-167q-12 0 -15 12l-14 73q-1 4 -3 4t-3 -4l-32 -73q-5 -12 -18 -12
h-167q-12 0 -12 9z" />
    <glyph glyph-name="y" unicode="y" horiz-adv-x="445" 
d="M-15 -184l15 124q2 15 11 15q55 0 78.5 8.5t22.5 36.5l-60 503v2q0 7 4 11t11 4h165q13 0 12 -14l-9 -224q1 1 2.5 1t2.5 -1l45 224q3 14 16 14l166 -2q7 0 10 -4.5t1 -12.5l-184 -503q-31 -77 -61 -117t-85 -60t-153 -20h-6q-6 0 -4 15z" />
    <glyph glyph-name="z" unicode="z" horiz-adv-x="370" 
d="M-7.5 4q-3.5 4 -2.5 11l18 145q1 10 8 18l139 166q1 2 0 4t-3 2h-99q-7 0 -10.5 4t-2.5 11l17 140q1 7 5.5 11t11.5 4h309q7 0 10.5 -4t2.5 -11l-18 -145q-1 -8 -8 -18l-148 -166q-2 -2 -1 -4t4 -2h124q6 0 9.5 -4t2.5 -11l-17 -140q-1 -7 -5 -11t-11 -4h-325
q-7 0 -10.5 4z" />
    <glyph glyph-name="braceleft" unicode="{" horiz-adv-x="380" 
d="M108 -134q-32 30 -32 81q0 12 1 19l25 200q1 8 1 21q0 61 -48 68q-13 2 -12 15l14 118q1 13 16 15q59 9 69 88l24 197q8 60 48.5 95t103.5 35h100q6 0 9.5 -4t2.5 -11l-16 -131q-1 -7 -5 -11t-11 -4h-11q-16 0 -31.5 -17t-17.5 -39l-17 -139q-12 -98 -76 -130q-5 -3 0 -6
q45 -25 45 -98q0 -9 -2 -33l-18 -142q-2 -22 9 -39t27 -17h11q7 0 10.5 -4t2.5 -11l-17 -131q-1 -7 -5 -11t-11 -4h-100q-57 0 -89 30z" />
    <glyph glyph-name="bar" unicode="|" horiz-adv-x="208" 
d="M-12.5 -76q-3.5 4 -2.5 11l100 810q1 7 5 11t11 4h153q7 0 10.5 -4t2.5 -11l-99 -810q-3 -15 -17 -15h-153q-7 0 -10.5 4z" />
    <glyph glyph-name="braceright" unicode="}" horiz-adv-x="380" 
d="M4 -164q-7 0 -10.5 4t-2.5 11l16 131q3 15 17 15h11q16 0 31 17t18 39l18 142q12 100 75 131q5 3 0 6q-45 26 -45 97q0 9 2 33l17 139q3 22 -8 39t-27 17h-11q-7 0 -10.5 4t-2.5 11l16 131q1 7 5.5 11t11.5 4h100q56 0 88 -29.5t32 -79.5q0 -14 -1 -21l-24 -197
q-1 -7 -1 -20q0 -60 48 -68q14 -1 12 -15l-14 -118q-1 -13 -16 -15q-58 -9 -69 -89l-24 -200q-8 -59 -49 -94.5t-103 -35.5h-100z" />
    <glyph glyph-name="asciitilde" unicode="~" horiz-adv-x="494" 
d="M291.5 188q-15.5 6 -31.5 17q-7 5 -20.5 14.5t-23.5 14t-20 4.5q-14 0 -30 -9t-29 -23q-6 -7 -12 -7q-3 0 -8 3l-77 51q-7 4 -7 11q0 3 2 9q24 54 69.5 90t93.5 36q20 0 37 -6.5t35 -18.5l19.5 -13t23.5 -13.5t19 -4.5q27 0 51 31q6 8 12 8q3 0 8 -3l82 -55q6 -4 6 -11
q0 -4 -3 -9q-31 -51 -74 -86.5t-88 -35.5q-19 0 -34.5 6z" />
    <glyph glyph-name="uni00A0" unicode="&#xa0;" horiz-adv-x="194" 
 />
    <glyph glyph-name="exclamdown" unicode="&#xa1;" horiz-adv-x="289" 
d="M270.5 685q22.5 -23 22.5 -59q0 -46 -30.5 -76t-73.5 -30q-36 0 -58.5 22t-22.5 58q0 46 30 77t74 31q36 0 58.5 -23zM111 456q5 4 11 4h115q7 0 11 -4t3 -11l-35 -422q-2 -15 -15 -15h-153q-14 0 -12 15l69 422q1 7 6 11z" />
    <glyph glyph-name="cent" unicode="&#xa2;" horiz-adv-x="441" 
d="M452.5 406.5q-4.5 -4.5 -11.5 -4.5l-154 -5q-6 0 -9.5 4t-2.5 10l1 14l1 8q0 10 -5 17t-13 7q-10 0 -17 -9t-9 -23l-19 -150q-2 -14 3.5 -23t15.5 -9q9 0 16.5 9t8.5 23l2 15q1 7 5 11t11 4l153 -2q7 0 10.5 -4t2.5 -11l-4 -28q-8 -66 -46.5 -109.5t-101.5 -59.5
q-6 -2 -6 -6l-4 -68q-1 -15 -16 -15h-123q-15 0 -12 15l12 68q1 4 -3 6q-53 14 -81.5 50t-28.5 91q0 8 2 28l22 180q8 63 47 107.5t103 61.5q4 1 4 6l5 68q0 15 15 15h124q14 0 11 -15l-12 -68q0 -5 4 -6q52 -15 80.5 -52t28.5 -90q0 -9 -2 -27l-2 -22q-1 -7 -5.5 -11.5z
" />
    <glyph glyph-name="sterling" unicode="&#xa3;" horiz-adv-x="510" 
d="M256 161h228q7 0 10.5 -4t2.5 -11l-16 -131q-1 -7 -5.5 -11t-10.5 -4h-409q-6 0 -9.5 4t-2.5 11l16 135q1 10 9 19q15 16 21 32.5t9 43.5l3 23q0 5 -4 5h-44q-7 0 -10.5 4t-2.5 11l15 121q1 7 5.5 11t10.5 4h44q4 0 6 5l5 46q13 110 75.5 171.5t156.5 61.5
q81 0 126.5 -48t51.5 -135v-2q0 -14 -14 -16l-150 -16h-2q-11 0 -13 14q-1 42 -19 42q-13 0 -18.5 -14t-9.5 -48l-7 -56q0 -5 4 -5h118q6 0 9.5 -4t2.5 -11l-15 -121q-1 -7 -5 -11t-11 -4h-117q-4 0 -6 -5l-3 -23q-5 -48 -27 -78q-3 -6 2 -6z" />
    <glyph glyph-name="currency" unicode="&#xa4;" horiz-adv-x="586" 
d="M505 208q-3 -4 0 -7l56 -66q3 -4 3 -9q0 -6 -7 -12l-104 -85q-7 -5 -11 -5q-5 0 -10 5l-52 60q-1 3 -6 1q-46 -20 -95 -20q-47 0 -87 18q-4 2 -7 -1l-63 -58q-7 -5 -11 -5q-6 0 -9 5l-84 85q-4 4 -4 10t5 11l68 61q3 3 2 7q-12 33 -12 71q0 69 34 126q3 4 0 7l-56 65
q-3 5 -3 9q0 6 7 12l104 85q7 5 11 5t9 -5l50 -59q3 -2 7 -1q48 20 97 20q52 0 94 -22q5 -1 7 1l68 61q5 5 10 5t10 -5l84 -85q4 -4 4 -9q0 -6 -6 -12l-77 -70q-2 -2 -2 -7q9 -30 9 -62q0 -67 -33 -125zM365.5 357.5q-19.5 22.5 -48.5 22.5q-32 0 -58 -25.5t-26 -59.5
q0 -28 19 -47.5t47 -19.5q29 0 54 22.5t29 53.5q3 31 -16.5 53.5z" />
    <glyph glyph-name="yen" unicode="&#xa5;" horiz-adv-x="520" 
d="M553.5 695.5q2.5 -4.5 -0.5 -12.5l-153 -345q-1 -6 4 -6h71q7 0 10.5 -4t2.5 -11l-9 -71q-1 -7 -5 -11t-11 -4h-99q-5 0 -5 -5l-3 -20q0 -5 4 -5h99q7 0 10.5 -4t2.5 -11l-9 -71q-1 -7 -5 -11t-11 -4h-99q-4 0 -6 -5l-9 -78q-1 -7 -5.5 -11t-11.5 -4h-153q-7 0 -10.5 4
t-2.5 11l10 78q0 5 -4 5h-103q-7 0 -10.5 4t-2.5 11l9 71q1 7 5.5 11t10.5 4h103q4 0 6 5l2 20q2 5 -4 5h-103q-7 0 -10.5 4t-2.5 11l9 71q1 7 5.5 11t11.5 4h75q5 0 5 6l-66 345v4q0 13 13 13h161q14 0 15 -13l12 -201q1 -3 3 -3t3 3l62 201q4 13 18 13h161q7 0 9.5 -4.5z
" />
    <glyph glyph-name="brokenbar" unicode="&#xa6;" horiz-adv-x="208" 
d="M44.5 389q-3.5 4 -2.5 11l43 345q1 7 5 11t11 4h153q7 0 10.5 -4t2.5 -11l-42 -345q-1 -7 -5.5 -11t-11.5 -4h-153q-7 0 -10.5 4zM-12.5 -76q-3.5 4 -2.5 11l43 345q1 7 5 11t11 4h153q7 0 10.5 -4t2.5 -11l-42 -345q-3 -15 -17 -15h-153q-7 0 -10.5 4z" />
    <glyph glyph-name="section" unicode="&#xa7;" horiz-adv-x="456" 
d="M48.5 -160.5q-51.5 40.5 -51.5 107.5q0 14 1 21l2 17q1 7 5.5 11t10.5 4h154q6 0 9.5 -4t2.5 -11v-3q-1 -9 6 -16t18 -7q12 0 21 7.5t9 16.5q0 15 -21.5 32t-73.5 51q-43 28 -68.5 55.5t-34.5 61.5q-5 22 -5 42q0 15 1 23q4 28 13.5 49.5t26.5 40.5q18 19 49 41q4 4 1 7
q-31 36 -46 64t-15 62q0 55 30 100t83.5 70.5t119.5 25.5q87 0 138 -42.5t51 -113.5q0 -16 -1 -24l-1 -9q-1 -7 -5.5 -11t-11.5 -4h-153q-7 0 -10.5 4t-2.5 11q2 11 -5 19.5t-19 8.5q-15 0 -23 -10t-8 -20q0 -18 15 -31t54 -37q51 -30 80 -52t45 -45q18 -27 18 -63
q0 -54 -30 -101q-25 -39 -65 -65q-4 -3 -1 -7q31 -30 45 -55.5t14 -60.5q0 -60 -30.5 -105.5t-84 -70.5t-119.5 -25q-86 0 -137.5 40.5zM264 231q6 8 8 22v6q0 12 -5 20q-6 8 -18 8q-14 0 -22 -9q-7 -8 -10 -24v-7q0 -10 4 -17q5 -9 21 -9q13 0 22 10z" />
    <glyph glyph-name="dieresis" unicode="&#xa8;" horiz-adv-x="399" 
d="M290 577.5q-22 22.5 -22 57.5q0 47 30 77.5t74 30.5q36 0 58 -22t22 -57q0 -46 -30 -77.5t-73 -31.5q-37 0 -59 22.5zM89 577.5q-22 22.5 -22 57.5q0 47 30 77.5t74 30.5q36 0 58 -22t22 -57q0 -46 -30 -77.5t-73 -31.5q-37 0 -59 22.5z" />
    <glyph glyph-name="copyright" unicode="&#xa9;" horiz-adv-x="739" 
d="M187.5 31.5q-69.5 39.5 -108 110t-38.5 161.5q0 26 3 53q12 99 67 179.5t140.5 126.5t184.5 46q92 0 162.5 -39t109.5 -108t39 -156q0 -23 -3 -49q-13 -105 -68.5 -187.5t-141.5 -129.5t-186 -47q-91 0 -160.5 39.5zM494 125.5q62 33.5 102 94t49 136.5q2 24 2 35
q0 63 -28 112t-79 77t-116 28q-71 0 -132.5 -33t-101 -90.5t-47.5 -128.5q-2 -14 -2 -40q0 -66 27.5 -117t77 -79t114.5 -28q72 0 134 33.5zM305 203q-25 24 -25 65q0 11 1 17l16 131q6 48 38.5 76t80.5 28q44 0 69.5 -23.5t25.5 -64.5q0 -10 -1 -16q-1 -5 -5 -8t-11 -3
l-62 -3q-16 0 -13 14v6v4q0 6 -3.5 10.5t-9.5 4.5t-10.5 -5.5t-6.5 -13.5l-17 -145v-5q0 -13 12 -13q15 0 18 18v6q1 7 5.5 10.5t11.5 3.5l61 -2q7 0 11 -3t3 -7q-6 -48 -39 -77t-81 -29q-44 0 -69 24z" />
    <glyph glyph-name="ordfeminine" unicode="&#xaa;" horiz-adv-x="294" 
d="M210 568q4 0 6 5l1 11v6q0 18 -15 18q-9 0 -15 -8q-4 -5 -8 -8t-10 -3l-87 4q-7 0 -10 4.5t-2 11.5q11 44 49.5 71.5t91.5 27.5q56 0 89.5 -26t33.5 -69q0 -10 -1 -15l-27 -222q-1 -7 -5.5 -11t-10.5 -4h-86q-14 0 -14 5q1 2 -0.5 2t-4.5 -1q-19 -11 -43 -11
q-40 0 -69.5 19t-29.5 70q0 13 1 21q8 61 45.5 81.5t106.5 20.5h14zM194.5 455q7.5 5 8.5 14v3q2 5 -4 5h-14q-11 0 -17.5 -3.5t-7.5 -10.5v-3q0 -6 4 -8t13 -2q10 0 17.5 5zM28 307q4 4 11 4h250q7 0 10.5 -4t2.5 -11l-5 -40q-1 -7 -5 -11t-11 -4h-250q-7 0 -10.5 4
t-2.5 11l5 40q1 7 5 11z" />
    <glyph glyph-name="guillemotleft" unicode="&#xab;" horiz-adv-x="437" 
d="M236 120q0 -6 -4 -9.5t-10 -3.5h-120q-12 0 -15 12l-44 152q-1 2 -1 7q0 6 3 13l82 153q6 11 18 11h119q12 0 12 -9q0 -4 -3 -9l-86 -153l-1 -6l49 -153q1 -2 1 -5zM400 119q0 -12 -13 -12h-120q-12 0 -15 12l-44 152q-1 2 -1 7q0 6 3 13l82 153q6 11 18 11h119
q12 0 12 -9q0 -4 -3 -9l-86 -153l-1 -6l48 -153q1 -2 1 -6z" />
    <glyph glyph-name="logicalnot" unicode="&#xac;" horiz-adv-x="423" 
d="M47.5 370q4.5 4 11.5 4h358q7 0 10.5 -4t2.5 -11l-23 -189q-1 -7 -5.5 -11t-10.5 -4h-107q-7 0 -10.5 4t-2.5 11l7 59q2 5 -4 5h-233q-6 0 -9.5 4t-2.5 11l13 110q1 7 5.5 11z" />
    <glyph glyph-name="uni00AD" unicode="&#xad;" horiz-adv-x="333" 
d="M27.5 209q-3.5 4 -2.5 11l16 130q1 7 5.5 11t10.5 4h269q7 0 10.5 -4t2.5 -11l-16 -130q-1 -7 -5.5 -11t-11.5 -4h-268q-7 0 -10.5 4z" />
    <glyph glyph-name="registered" unicode="&#xae;" horiz-adv-x="419" 
d="M370.5 685.5q40.5 -22.5 63 -62t22.5 -89.5q0 -9 -2 -27q-7 -61 -39 -109t-81.5 -75t-107.5 -27q-79 0 -128 49t-49 129q0 11 2 33q7 57 38.5 103t81 72t106.5 26q53 0 93.5 -22.5zM333.5 407.5q41.5 38.5 48.5 99.5q1 6 1 17q0 49 -32 80t-83 31q-40 0 -73.5 -20
t-53 -54t-19.5 -75q0 -52 31.5 -84.5t81.5 -32.5q57 0 98.5 38.5zM302 489q-2 -1 -3.5 -2.5t-0.5 -3.5l11 -55v-3q0 -14 -14 -14h-28q-14 0 -15 13l-8 50q0 4 -1 4t-3 -5l-5 -47q-1 -7 -5.5 -11t-11.5 -4h-26q-7 0 -10.5 4t-2.5 11l20 158q1 7 5 11t11 4h61q25 0 39.5 -15
t14.5 -39q0 -38 -28 -56zM255 551q-4 0 -6 -5l-2 -21q-2 -5 4 -5h7q6 0 10.5 5t5.5 11v2q0 6 -3.5 9.5t-8.5 3.5h-7z" />
    <glyph glyph-name="macron" unicode="&#xaf;" horiz-adv-x="224" 
d="M55.5 576q-3.5 4 -2.5 11l11 95q1 7 5.5 11t11.5 4h195q6 0 9.5 -4t2.5 -11l-11 -95q-1 -7 -5.5 -11t-11.5 -4h-195q-6 0 -9.5 4z" />
    <glyph glyph-name="degree" unicode="&#xb0;" horiz-adv-x="348" 
d="M106.5 503q-41.5 43 -41.5 109q0 53 26 98t69.5 71.5t92.5 26.5q64 0 105.5 -42.5t41.5 -107.5q0 -53 -26 -98.5t-70 -72.5t-93 -27q-63 0 -104.5 43zM267 598q18 19 18 45q0 21 -13 35t-33 14q-23 0 -41 -19t-18 -46q0 -20 13 -34t32 -14q24 0 42 19z" />
    <glyph glyph-name="plusminus" unicode="&#xb1;" horiz-adv-x="423" 
d="M440.5 479q3.5 -4 2.5 -11l-13 -110q-1 -7 -5.5 -11t-11.5 -4h-106q-4 0 -6 -5l-13 -110q-1 -7 -5.5 -11t-11.5 -4h-106q-7 0 -10.5 4t-2.5 11l14 110q0 5 -5 5h-106q-7 0 -10.5 4t-2.5 11l13 110q1 7 5.5 11t11.5 4h106q6 0 6 5l13 110q3 15 17 15h107q6 0 9.5 -4
t2.5 -11l-13 -110q-2 -5 4 -5h107q6 0 9.5 -4zM2.5 4q-3.5 4 -2.5 11l13 110q1 7 5.5 11t11.5 4h358q7 0 10.5 -4t2.5 -11l-13 -110q-1 -7 -5.5 -11t-11.5 -4h-359q-6 0 -9.5 4z" />
    <glyph glyph-name="uni00B2" unicode="&#xb2;" horiz-adv-x="272" 
d="M43.5 403q-3.5 4 -2.5 11l9 75q2 11 10 19l43 43l33 33t44 48q31 37 35 68v7q0 16 -10 16q-13 0 -16 -18l-2 -19q-1 -7 -5.5 -11t-10.5 -4h-87q-6 0 -9.5 4t-2.5 11l3 24q10 55 48.5 84.5t96.5 29.5q52 0 82 -24.5t30 -79.5q0 -7 -2 -27q-4 -31 -13 -53t-24 -44
q-9 -13 -24.5 -30t-21.5 -24q-22 -22 -34 -36q-2 -2 -1 -4t4 -2h78q7 0 10.5 -4t2.5 -11l-9 -71q-1 -7 -5 -11t-11 -4h-228q-7 0 -10.5 4z" />
    <glyph glyph-name="uni00B3" unicode="&#xb3;" horiz-adv-x="286" 
d="M279 423.5q-37 -30.5 -92 -30.5q-52 0 -83.5 26t-31.5 70q0 9 1 14l2 20q1 7 5.5 11t10.5 4h84q7 0 10.5 -4t2.5 -11l-1 -3q0 -2 -0.5 -3.5t0.5 -3.5q0 -19 12 -19q8 0 12 6.5t6 19.5l7 57l1 8q0 15 -12 15q-10 0 -18 -7q-7 -5 -12 -5t-8 5l-36 44q-3 5 -3 8q0 7 7 13
l65 54q2 2 2 4t-3 2h-84q-7 0 -10 4t-2 11l8 70q1 7 5.5 11t10.5 4h207q7 0 10.5 -4t2.5 -11l-9 -74q-1 -10 -9 -19l-42 -40q-3 -5 0 -7q16 -12 25 -34t9 -48q0 -12 -1 -18l-7 -60q-5 -49 -42 -79.5z" />
    <glyph glyph-name="acute" unicode="&#xb4;" horiz-adv-x="239" 
d="M68 587q0 2 4 10l65 93q7 10 19 10h118q12 0 12 -8q0 -3 -5 -10l-87 -94q-7 -9 -18 -9h-96q-12 0 -12 8z" />
    <glyph glyph-name="uni00B5" unicode="&#xb5;" horiz-adv-x="450" 
d="M294.5 516q4.5 4 10.5 4h154q6 0 9.5 -4t2.5 -11l-60 -490q-1 -7 -5 -11t-11 -4h-153q-7 0 -10.5 4t-2.5 11l1 6q0 3 -2 4t-4 -2q-14 -16 -36 -24q-3 -2 -5 -6l-21 -178q-3 -15 -17 -15h-153q-7 0 -10.5 4t-2.5 11l85 690q1 7 5.5 11t10.5 4h154q6 0 9.5 -4t2.5 -11
l-39 -320q-1 -4 -1 -10q0 -22 17 -22q22 0 27 32l39 320q1 7 5.5 11z" />
    <glyph glyph-name="paragraph" unicode="&#xb6;" horiz-adv-x="528" 
d="M554 700q7 0 10.5 -4t2.5 -11l-107 -870q-1 -7 -5 -11t-11 -4h-122q-7 0 -10.5 4t-2.5 11l90 729q0 5 -5 5h-25q-5 0 -5 -5l-90 -729q-1 -7 -5.5 -11t-10.5 -4h-123q-6 0 -9.5 4t-2.5 11l53 436q1 4 -3 5q-58 14 -91.5 61t-33.5 118q0 19 3 40q12 101 75 163t156 62h272z
" />
    <glyph glyph-name="periodcentered" unicode="&#xb7;" horiz-adv-x="237" 
d="M65 226.5q-22 22.5 -22 57.5q0 47 30 77.5t74 30.5q36 0 58 -22t22 -57q0 -46 -30 -77.5t-73 -31.5q-37 0 -59 22.5z" />
    <glyph glyph-name="cedilla" unicode="&#xb8;" horiz-adv-x="167" 
d="M-30 -169l14 62q2 11 17 11q9 0 16.5 7t7.5 21q0 20 -25 50q-6 4 -6 10q0 8 13 8h81q12 0 17 -8q31 -38 31 -80q0 -21 -8 -43q-23 -64 -96 -64q-25 0 -54 9q-13 3 -8 17z" />
    <glyph glyph-name="uni00B9" unicode="&#xb9;" horiz-adv-x="160" 
d="M127 819h90q7 0 10.5 -4t2.5 -11l-48 -390q-1 -7 -5.5 -11t-11.5 -4h-85q-7 0 -10.5 4t-2.5 11l37 299q0 5 -4 5h-8q-7 0 -10.5 4.5t-2.5 11.5l7 57q2 12 12 18l10 5q7 5 19 5z" />
    <glyph glyph-name="ordmasculine" unicode="&#xba;" horiz-adv-x="297" 
d="M82 380q-31 25 -31 72q0 13 1 19l15 121q6 53 45.5 84.5t102.5 31.5q57 0 88.5 -27t31.5 -73q0 -11 -1 -16l-15 -121q-7 -55 -45.5 -85.5t-101.5 -30.5q-59 0 -90 25zM198 463q6 7 7 17l13 102v5q0 9 -4 14.5t-11 5.5q-9 0 -15 -7t-8 -18l-12 -102v-5q0 -8 4.5 -13.5
t11.5 -5.5q8 0 14 7zM23.5 245q-3.5 4 -2.5 11l5 40q1 7 5 11t11 4h250q7 0 10.5 -4t2.5 -11l-5 -40q-1 -7 -5.5 -11t-10.5 -4h-251q-6 0 -9.5 4z" />
    <glyph glyph-name="guillemotright" unicode="&#xbb;" horiz-adv-x="437" 
d="M26 116q0 3 3 9l86 153q1 3 0 6l-48 153q-1 2 -1 6q0 12 14 12h119q14 0 15 -12l45 -152q1 -2 1 -7q0 -6 -4 -13l-81 -153q-5 -11 -18 -11h-120q-11 0 -11 9zM191 116q0 3 3 9l86 153q1 3 0 6l-48 153q-1 2 -1 6q0 12 14 12h119q14 0 15 -12l45 -152q1 -2 1 -7
q0 -6 -4 -13l-81 -153q-5 -11 -18 -11h-120q-11 0 -11 9z" />
    <glyph glyph-name="onequarter" unicode="&#xbc;" horiz-adv-x="729" 
d="M112 700h90q7 0 10.5 -4t2.5 -11l-48 -390q-1 -7 -5.5 -11t-11.5 -4h-85q-7 0 -10.5 4t-2.5 11l37 299q0 5 -4 5h-8q-7 0 -10.5 4.5t-2.5 11.5l7 57q2 12 12 18l10 5q7 5 19 5zM38 8q0 4 3 10l462 672q7 10 19 10h96q12 0 12 -8q0 -5 -4 -10l-461 -672q-7 -10 -19 -10
h-96q-12 0 -12 8zM727 202q3 -4 2 -11l-9 -77q-1 -7 -5.5 -11t-10.5 -4h-10q-4 0 -6 -5l-9 -79q-1 -7 -5.5 -11t-11.5 -4h-85q-7 0 -10.5 4t-2.5 11l10 79q0 5 -4 5h-143q-7 0 -10.5 4t-2.5 11l8 61q2 12 5 18l93 215q5 12 18 12h90q7 0 10 -4.5t0 -12.5l-77 -191
q-1 -6 3 -6h19q5 0 5 5l4 30q1 7 5.5 11t10.5 4h86q7 0 10.5 -4t2.5 -11l-4 -30q-2 -5 4 -5h10q7 0 10 -4z" />
    <glyph glyph-name="onehalf" unicode="&#xbd;" horiz-adv-x="688" 
d="M112 700h90q7 0 10.5 -4t2.5 -11l-48 -390q-1 -7 -5.5 -11t-11.5 -4h-85q-7 0 -10.5 4t-2.5 11l37 299q0 5 -4 5h-8q-7 0 -10.5 4.5t-2.5 11.5l7 57q2 12 12 18l10 5q7 5 19 5zM38 8q0 4 3 10l462 672q7 10 19 10h96q12 0 12 -8q0 -5 -4 -10l-461 -672q-7 -10 -19 -10
h-96q-12 0 -12 8zM410.5 4q-3.5 4 -2.5 11l9 75q2 11 10 19l43 43l33 33t44 48q31 37 35 68v7q0 16 -10 16q-13 0 -16 -18l-2 -19q-1 -7 -5.5 -11t-10.5 -4h-87q-6 0 -9.5 4t-2.5 11l3 24q10 55 48.5 84.5t96.5 29.5q52 0 82 -24.5t30 -79.5q0 -7 -2 -27q-4 -31 -13 -53
t-24 -44q-9 -13 -24.5 -30t-21.5 -24q-22 -22 -34 -36q-2 -2 -1 -4t4 -2h78q7 0 10.5 -4t2.5 -11l-9 -71q-1 -7 -5 -11t-11 -4h-228q-7 0 -10.5 4z" />
    <glyph glyph-name="threequarters" unicode="&#xbe;" horiz-adv-x="809" 
d="M264 305.5q-37 -30.5 -92 -30.5q-52 0 -83.5 26t-31.5 70q0 9 1 14l2 20q1 7 5.5 11t10.5 4h84q7 0 10.5 -4t2.5 -11l-1 -3q0 -2 -0.5 -3.5t0.5 -3.5q0 -19 12 -19q8 0 12 6.5t6 19.5l7 57l1 8q0 15 -12 15q-10 0 -18 -7q-7 -5 -12 -5t-8 5l-36 44q-3 5 -3 8q0 7 7 13
l65 54q2 2 2 4t-3 2h-84q-7 0 -10 4t-2 11l8 70q1 7 5.5 11t10.5 4h207q7 0 10.5 -4t2.5 -11l-9 -74q-1 -10 -9 -19l-42 -40q-3 -5 0 -7q16 -12 25 -34t9 -48q0 -12 -1 -18l-7 -60q-5 -49 -42 -79.5zM117 8q0 4 3 10l462 672q7 10 19 10h96q12 0 12 -8q0 -5 -4 -10
l-461 -672q-7 -10 -19 -10h-96q-12 0 -12 8zM807 202q3 -4 2 -11l-9 -77q-1 -7 -5.5 -11t-10.5 -4h-10q-4 0 -6 -5l-9 -79q-1 -7 -5.5 -11t-11.5 -4h-85q-7 0 -10.5 4t-2.5 11l10 79q0 5 -4 5h-143q-7 0 -10.5 4t-2.5 11l8 61q2 12 5 18l93 215q5 12 18 12h90q7 0 10 -4.5
t0 -12.5l-77 -191q-1 -6 3 -6h19q5 0 5 5l4 30q1 7 5.5 11t10.5 4h86q7 0 10.5 -4t2.5 -11l-4 -30q-2 -5 4 -5h10q7 0 10 -4z" />
    <glyph glyph-name="questiondown" unicode="&#xbf;" horiz-adv-x="469" 
d="M348.5 482q22.5 -23 22.5 -59q0 -46 -30.5 -76t-73.5 -30q-36 0 -58.5 22t-22.5 58q0 45 30.5 76.5t73.5 31.5q36 0 58.5 -23zM346.5 260q3.5 -4 2.5 -11l-2 -13q-5 -39 -21.5 -68t-36 -47t-50.5 -40q-33 -24 -48.5 -41t-15.5 -42q0 -18 8.5 -27.5t24.5 -9.5
q21 0 34.5 14t16.5 37v4q1 14 16 14l153 -7q6 0 10 -3t3 -8q-8 -65 -43.5 -115.5t-91.5 -78.5t-124 -28q-91 0 -142.5 47.5t-51.5 128.5q0 9 2 31q6 44 22.5 75.5t37 51t52.5 42.5t47.5 40t18.5 42v1q1 7 5.5 11t11.5 4h151q7 0 10.5 -4z" />
    <glyph glyph-name="Agrave" unicode="&#xc0;" horiz-adv-x="515" 
d="M298 14l-2 76q1 2 -1 3.5t-4 1.5h-87q-5 0 -7 -5l-19 -76q-3 -14 -17 -14h-152q-15 0 -11 16l220 671q4 13 18 13h177q14 0 15 -13l55 -671v-2q0 -14 -15 -14h-157q-14 0 -13 14zM241 239h47q3 0 5 5l-4 185q0 4 -2.5 3.5t-2.5 -3.5l-46 -185q-2 -5 3 -5zM390 769
q0 -10 -14 -10h-96q-10 0 -16 9l-63 94q-3 5 -3 8q0 4 4 7t10 3h118q12 0 16 -10l42 -93q2 -6 2 -8z" />
    <glyph glyph-name="Aacute" unicode="&#xc1;" horiz-adv-x="515" 
d="M298 14l-2 76q1 2 -1 3.5t-4 1.5h-87q-5 0 -7 -5l-19 -76q-3 -14 -17 -14h-152q-15 0 -11 16l220 671q4 13 18 13h177q14 0 15 -13l55 -671v-2q0 -14 -15 -14h-157q-14 0 -13 14zM241 239h47q3 0 5 5l-4 185q0 4 -2.5 3.5t-2.5 -3.5l-46 -185q-2 -5 3 -5zM257 767
q0 2 4 10l65 93q7 10 19 10h118q12 0 12 -8q0 -3 -5 -10l-87 -94q-7 -9 -18 -9h-96q-12 0 -12 8z" />
    <glyph glyph-name="Acircumflex" unicode="&#xc2;" horiz-adv-x="515" 
d="M298 14l-2 76q1 2 -1 3.5t-4 1.5h-87q-5 0 -7 -5l-19 -76q-3 -14 -17 -14h-152q-15 0 -11 16l220 671q4 13 18 13h177q14 0 15 -13l55 -671v-2q0 -14 -15 -14h-157q-14 0 -13 14zM241 239h47q3 0 5 5l-4 185q0 4 -2.5 3.5t-2.5 -3.5l-46 -185q-2 -5 3 -5zM167 759
q0 2 4 10l71 101q7 10 19 10h166q12 0 16 -10l48 -101q2 -6 2 -7q0 -11 -13 -11h-111q-12 0 -15 11l-15 45q-1 6 -6 0l-26 -45q-6 -11 -18 -11h-110q-12 0 -12 8z" />
    <glyph glyph-name="Atilde" unicode="&#xc3;" horiz-adv-x="515" 
d="M298 14l-2 76q1 2 -1 3.5t-4 1.5h-87q-5 0 -7 -5l-19 -76q-3 -14 -17 -14h-152q-15 0 -11 16l220 671q4 13 18 13h177q14 0 15 -13l55 -671v-2q0 -14 -15 -14h-157q-14 0 -13 14zM241 239h47q3 0 5 5l-4 185q0 4 -2.5 3.5t-2.5 -3.5l-46 -185q-2 -5 3 -5zM347 766
q-7 4 -17 10.5t-20 6.5q-17 0 -30 -18q-6 -8 -13 -8q-4 0 -8 3l-49 40q-6 5 -6 11q0 2 2 8q17 39 44.5 59t58.5 20q32 0 62 -22q3 -2 9 -7t12.5 -7.5t14.5 -2.5q18 0 32 15q11 13 20 5l47 -37q5 -3 5 -10q0 -8 -8 -19q-21 -33 -49 -47.5t-56 -14.5q-22 0 -51 15z" />
    <glyph glyph-name="Adieresis" unicode="&#xc4;" horiz-adv-x="515" 
d="M298 14l-2 76q1 2 -1 3.5t-4 1.5h-87q-5 0 -7 -5l-19 -76q-3 -14 -17 -14h-152q-15 0 -11 16l220 671q4 13 18 13h177q14 0 15 -13l55 -671v-2q0 -14 -15 -14h-157q-14 0 -13 14zM241 239h47q3 0 5 5l-4 185q0 4 -2.5 3.5t-2.5 -3.5l-46 -185q-2 -5 3 -5zM370 757.5
q-22 22.5 -22 57.5q0 47 30 77.5t74 30.5q36 0 58 -22t22 -57q0 -46 -30 -77.5t-73 -31.5q-37 0 -59 22.5zM169 757.5q-22 22.5 -22 57.5q0 47 30 77.5t74 30.5q36 0 58 -22t22 -57q0 -46 -30 -77.5t-73 -31.5q-37 0 -59 22.5z" />
    <glyph glyph-name="Aring" unicode="&#xc5;" horiz-adv-x="515" 
d="M298 14l-2 76q1 2 -1 3.5t-4 1.5h-87q-5 0 -7 -5l-19 -76q-3 -14 -17 -14h-152q-15 0 -11 16l220 671q4 13 18 13h177q14 0 15 -13l55 -671v-2q0 -14 -15 -14h-157q-14 0 -13 14zM241 239h47q3 0 5 5l-4 185q0 4 -2.5 3.5t-2.5 -3.5l-46 -185q-2 -5 3 -5zM245 764.5
q-32 32.5 -32 82.5q0 42 20 77.5t54 56t74 20.5q51 0 83.5 -32.5t32.5 -83.5q0 -42 -20 -77t-54.5 -55.5t-74.5 -20.5q-51 0 -83 32.5zM370 840.5q13 13.5 13 32.5q0 15 -9.5 25t-23.5 10q-18 0 -31 -14t-13 -33q0 -14 9.5 -24t24.5 -10q17 0 30 13.5z" />
    <glyph glyph-name="AE" unicode="&#xc6;" horiz-adv-x="769" 
d="M795 543q-4 -4 -11 -4h-186q-4 0 -6 -5l-12 -98q0 -5 4 -5h97q7 0 10.5 -4t2.5 -11l-16 -131q-1 -7 -5.5 -11t-10.5 -4h-97q-4 0 -6 -5l-12 -99q0 -5 4 -5h187q6 0 9.5 -4t2.5 -11l-16 -131q-1 -7 -5 -11t-11 -4h-359q-7 0 -10.5 4t-2.5 11l9 75q2 5 -4 5h-119
q-3 0 -5 -4l-37 -79q-5 -12 -18 -12h-161q-12 0 -12 9l2 8l343 671q6 12 19 12h441q6 0 9.5 -4t2.5 -11l-16 -131q-1 -7 -5 -11zM301 239h68q5 0 5 5l26 207q0 3 -2.5 3.5t-3.5 -2.5l-96 -207q-3 -6 3 -6z" />
    <glyph glyph-name="Ccedilla" unicode="&#xc7;" horiz-adv-x="462" 
d="M479.5 479q-4.5 -3 -10.5 -3l-154 -5q-15 0 -13 14l3 25q2 17 -5 27t-20 10q-14 0 -23.5 -10t-11.5 -27l-39 -321q-2 -16 4.5 -26t20.5 -10t23.5 9.5t11.5 26.5l3 27q1 7 5.5 10.5t10.5 3.5l153 -5q7 0 10.5 -4.5t2.5 -11.5l-1 -4q-10 -80 -57 -134.5t-119 -71.5
q-2 0 -3 -2t0 -4q25 -35 25 -73q0 -20 -8 -42q-24 -64 -97 -64q-25 0 -54 9q-11 3 -8 17l14 62q2 11 17 11q9 0 16.5 7t7.5 21q0 25 -31 56l-6 3q-59 16 -91.5 60.5t-32.5 110.5q0 10 2 34l36 292q12 97 77 154t161 57q87 0 138 -47.5t51 -130.5q0 -9 -2 -33l-1 -10
q-1 -5 -5.5 -8z" />
    <glyph glyph-name="Egrave" unicode="&#xc8;" horiz-adv-x="431" 
d="M456.5 543q-4.5 -4 -11.5 -4h-186q-5 0 -5 -5l-12 -98q-2 -5 4 -5h97q7 0 10.5 -4t2.5 -11l-16 -131q-3 -15 -17 -15h-97q-5 0 -5 -5l-12 -99q-2 -5 4 -5h186q7 0 10.5 -4t2.5 -11l-16 -131q-1 -7 -5.5 -11t-11.5 -4h-359q-6 0 -9.5 4t-2.5 11l82 670q1 7 5.5 11t10.5 4
h359q7 0 10.5 -4t2.5 -11l-16 -131q-1 -7 -5.5 -11zM352 769q0 -10 -14 -10h-96q-10 0 -16 9l-63 94q-3 5 -3 8q0 4 4 7t10 3h118q12 0 16 -10l42 -93q2 -6 2 -8z" />
    <glyph glyph-name="Eacute" unicode="&#xc9;" horiz-adv-x="431" 
d="M456.5 543q-4.5 -4 -11.5 -4h-186q-5 0 -5 -5l-12 -98q-2 -5 4 -5h97q7 0 10.5 -4t2.5 -11l-16 -131q-3 -15 -17 -15h-97q-5 0 -5 -5l-12 -99q-2 -5 4 -5h186q7 0 10.5 -4t2.5 -11l-16 -131q-1 -7 -5.5 -11t-11.5 -4h-359q-6 0 -9.5 4t-2.5 11l82 670q1 7 5.5 11t10.5 4
h359q7 0 10.5 -4t2.5 -11l-16 -131q-1 -7 -5.5 -11zM219 767q0 2 4 10l65 93q7 10 19 10h118q12 0 12 -8q0 -3 -5 -10l-87 -94q-7 -9 -18 -9h-96q-12 0 -12 8z" />
    <glyph glyph-name="Ecircumflex" unicode="&#xca;" horiz-adv-x="431" 
d="M456.5 543q-4.5 -4 -11.5 -4h-186q-5 0 -5 -5l-12 -98q-2 -5 4 -5h97q7 0 10.5 -4t2.5 -11l-16 -131q-3 -15 -17 -15h-97q-5 0 -5 -5l-12 -99q-2 -5 4 -5h186q7 0 10.5 -4t2.5 -11l-16 -131q-1 -7 -5.5 -11t-11.5 -4h-359q-6 0 -9.5 4t-2.5 11l82 670q1 7 5.5 11t10.5 4
h359q7 0 10.5 -4t2.5 -11l-16 -131q-1 -7 -5.5 -11zM129 759q0 2 4 10l71 101q7 10 19 10h166q12 0 16 -10l48 -101q2 -6 2 -7q0 -11 -13 -11h-111q-12 0 -15 11l-15 45q-1 6 -6 0l-26 -45q-6 -11 -18 -11h-110q-12 0 -12 8z" />
    <glyph glyph-name="Edieresis" unicode="&#xcb;" horiz-adv-x="431" 
d="M456.5 543q-4.5 -4 -11.5 -4h-186q-5 0 -5 -5l-12 -98q-2 -5 4 -5h97q7 0 10.5 -4t2.5 -11l-16 -131q-3 -15 -17 -15h-97q-5 0 -5 -5l-12 -99q-2 -5 4 -5h186q7 0 10.5 -4t2.5 -11l-16 -131q-1 -7 -5.5 -11t-11.5 -4h-359q-6 0 -9.5 4t-2.5 11l82 670q1 7 5.5 11t10.5 4
h359q7 0 10.5 -4t2.5 -11l-16 -131q-1 -7 -5.5 -11zM332 757.5q-22 22.5 -22 57.5q0 47 30 77.5t74 30.5q36 0 58 -22t22 -57q0 -46 -30 -77.5t-73 -31.5q-37 0 -59 22.5zM131 757.5q-22 22.5 -22 57.5q0 47 30 77.5t74 30.5q36 0 58 -22t22 -57q0 -46 -30 -77.5t-73 -31.5
q-37 0 -59 22.5z" />
    <glyph glyph-name="Igrave" unicode="&#xcc;" horiz-adv-x="233" 
d="M10.5 4q-3.5 4 -2.5 11l82 670q1 7 5.5 11t10.5 4h154q6 0 9.5 -4t2.5 -11l-82 -670q-1 -7 -5.5 -11t-10.5 -4h-154q-6 0 -9.5 4zM249 769q0 -10 -14 -10h-96q-10 0 -16 9l-63 94q-3 5 -3 8q0 4 4 7t10 3h118q12 0 16 -10l42 -93q2 -6 2 -8z" />
    <glyph glyph-name="Iacute" unicode="&#xcd;" horiz-adv-x="233" 
d="M10.5 4q-3.5 4 -2.5 11l82 670q1 7 5.5 11t10.5 4h154q6 0 9.5 -4t2.5 -11l-82 -670q-1 -7 -5.5 -11t-10.5 -4h-154q-6 0 -9.5 4zM115 767q0 2 4 10l65 93q7 10 19 10h118q12 0 12 -8q0 -3 -5 -10l-87 -94q-7 -9 -18 -9h-96q-12 0 -12 8z" />
    <glyph glyph-name="Icircumflex" unicode="&#xce;" horiz-adv-x="233" 
d="M10.5 4q-3.5 4 -2.5 11l82 670q1 7 5.5 11t10.5 4h154q6 0 9.5 -4t2.5 -11l-82 -670q-1 -7 -5.5 -11t-10.5 -4h-154q-6 0 -9.5 4zM25 759q0 2 4 10l71 101q7 10 19 10h166q12 0 16 -10l48 -101q2 -6 2 -7q0 -11 -13 -11h-111q-12 0 -15 11l-15 45q-1 6 -6 0l-26 -45
q-6 -11 -18 -11h-110q-12 0 -12 8z" />
    <glyph glyph-name="Idieresis" unicode="&#xcf;" horiz-adv-x="233" 
d="M10.5 4q-3.5 4 -2.5 11l82 670q1 7 5.5 11t10.5 4h154q6 0 9.5 -4t2.5 -11l-82 -670q-1 -7 -5.5 -11t-10.5 -4h-154q-6 0 -9.5 4zM228 757.5q-22 22.5 -22 57.5q0 47 30 77.5t74 30.5q36 0 58 -22t22 -57q0 -46 -30 -77.5t-73 -31.5q-37 0 -59 22.5zM27 757.5
q-22 22.5 -22 57.5q0 47 30 77.5t74 30.5q36 0 58 -22t22 -57q0 -46 -30 -77.5t-73 -31.5q-37 0 -59 22.5z" />
    <glyph glyph-name="Eth" unicode="&#xd0;" horiz-adv-x="490" 
d="M461 653q52 -47 52 -125q0 -10 -2 -28l-37 -300q-7 -59 -40 -104.5t-85 -70.5t-116 -25h-191q-7 0 -10.5 4t-2.5 11l36 294q0 5 -4 5h-2q-7 0 -10.5 4t-2.5 11l9 75q3 15 13 15h6q5 0 5 5l32 261q1 7 5.5 11t11.5 4h191q90 0 142 -47zM327 488q2 23 -7 37t-26 14h-13
q-6 0 -6 -5l-13 -110q-2 -5 4 -5h10q7 0 10.5 -4t2.5 -11l-9 -75q-1 -7 -5.5 -11t-10.5 -4h-11q-4 0 -6 -5l-17 -143q0 -5 4 -5l15 1q15 1 27.5 15t16.5 36z" />
    <glyph glyph-name="Ntilde" unicode="&#xd1;" horiz-adv-x="512" 
d="M376.5 696q4.5 4 11.5 4h151q7 0 10.5 -4t2.5 -11l-83 -670q-1 -7 -5 -11t-11 -4h-173q-12 0 -14 13l-38 307q0 3 -2 3t-2 -3l-36 -305q-1 -7 -5.5 -11t-10.5 -4h-152q-6 0 -9.5 4t-2.5 11l82 670q1 7 5.5 11t10.5 4h171q12 0 14 -13l39 -309q0 -3 2 -2t3 3l36 306
q1 7 5.5 11zM343 766q-7 4 -17 10.5t-20 6.5q-17 0 -30 -18q-6 -8 -13 -8q-4 0 -8 3l-49 40q-6 5 -6 11q0 2 2 8q17 39 44.5 59t58.5 20q32 0 62 -22q3 -2 9 -7t12.5 -7.5t14.5 -2.5q18 0 32 15q11 13 20 5l47 -37q5 -3 5 -10q0 -8 -8 -19q-21 -33 -49 -47.5t-56 -14.5
q-22 0 -51 15z" />
    <glyph glyph-name="Ograve" unicode="&#xd2;" horiz-adv-x="469" 
d="M74 40.5q-51 48.5 -51 131.5q0 10 2 34l36 288q12 98 77.5 156t163.5 58q88 0 139.5 -48.5t51.5 -131.5q0 -10 -2 -34l-35 -288q-12 -98 -78 -156t-164 -58q-89 0 -140 48.5zM259.5 165q10.5 12 13.5 33l37 304q2 21 -5 33t-22 12q-16 0 -26.5 -12t-12.5 -33l-37 -304
q-1 -4 -1 -11q0 -16 7.5 -25t20.5 -9q15 0 25.5 12zM367 769q0 -10 -14 -10h-96q-10 0 -16 9l-63 94q-3 5 -3 8q0 4 4 7t10 3h118q12 0 16 -10l42 -93q2 -6 2 -8z" />
    <glyph glyph-name="Oacute" unicode="&#xd3;" horiz-adv-x="469" 
d="M74 40.5q-51 48.5 -51 131.5q0 10 2 34l36 288q12 98 77.5 156t163.5 58q88 0 139.5 -48.5t51.5 -131.5q0 -10 -2 -34l-35 -288q-12 -98 -78 -156t-164 -58q-89 0 -140 48.5zM259.5 165q10.5 12 13.5 33l37 304q2 21 -5 33t-22 12q-16 0 -26.5 -12t-12.5 -33l-37 -304
q-1 -4 -1 -11q0 -16 7.5 -25t20.5 -9q15 0 25.5 12zM234 767q0 2 4 10l65 93q7 10 19 10h118q12 0 12 -8q0 -3 -5 -10l-87 -94q-7 -9 -18 -9h-96q-12 0 -12 8z" />
    <glyph glyph-name="Ocircumflex" unicode="&#xd4;" horiz-adv-x="469" 
d="M74 40.5q-51 48.5 -51 131.5q0 10 2 34l36 288q12 98 77.5 156t163.5 58q88 0 139.5 -48.5t51.5 -131.5q0 -10 -2 -34l-35 -288q-12 -98 -78 -156t-164 -58q-89 0 -140 48.5zM259.5 165q10.5 12 13.5 33l37 304q2 21 -5 33t-22 12q-16 0 -26.5 -12t-12.5 -33l-37 -304
q-1 -4 -1 -11q0 -16 7.5 -25t20.5 -9q15 0 25.5 12zM143 759q0 2 4 10l71 101q7 10 19 10h166q12 0 16 -10l48 -101q2 -6 2 -7q0 -11 -13 -11h-111q-12 0 -15 11l-15 45q-1 6 -6 0l-26 -45q-6 -11 -18 -11h-110q-12 0 -12 8z" />
    <glyph glyph-name="Otilde" unicode="&#xd5;" horiz-adv-x="469" 
d="M74 40.5q-51 48.5 -51 131.5q0 10 2 34l36 288q12 98 77.5 156t163.5 58q88 0 139.5 -48.5t51.5 -131.5q0 -10 -2 -34l-35 -288q-12 -98 -78 -156t-164 -58q-89 0 -140 48.5zM259.5 165q10.5 12 13.5 33l37 304q2 21 -5 33t-22 12q-16 0 -26.5 -12t-12.5 -33l-37 -304
q-1 -4 -1 -11q0 -16 7.5 -25t20.5 -9q15 0 25.5 12zM324 766q-7 4 -17 10.5t-20 6.5q-17 0 -30 -18q-6 -8 -13 -8q-4 0 -8 3l-49 40q-6 5 -6 11q0 2 2 8q17 39 44.5 59t58.5 20q32 0 62 -22q3 -2 9 -7t12.5 -7.5t14.5 -2.5q18 0 32 15q11 13 20 5l47 -37q5 -3 5 -10
q0 -8 -8 -19q-21 -33 -49 -47.5t-56 -14.5q-22 0 -51 15z" />
    <glyph glyph-name="Odieresis" unicode="&#xd6;" horiz-adv-x="469" 
d="M74 40.5q-51 48.5 -51 131.5q0 10 2 34l36 288q12 98 77.5 156t163.5 58q88 0 139.5 -48.5t51.5 -131.5q0 -10 -2 -34l-35 -288q-12 -98 -78 -156t-164 -58q-89 0 -140 48.5zM259.5 165q10.5 12 13.5 33l37 304q2 21 -5 33t-22 12q-16 0 -26.5 -12t-12.5 -33l-37 -304
q-1 -4 -1 -11q0 -16 7.5 -25t20.5 -9q15 0 25.5 12zM347 757.5q-22 22.5 -22 57.5q0 47 30 77.5t74 30.5q36 0 58 -22t22 -57q0 -46 -30 -77.5t-73 -31.5q-37 0 -59 22.5zM146 757.5q-22 22.5 -22 57.5q0 47 30 77.5t74 30.5q36 0 58 -22t22 -57q0 -46 -30 -77.5t-73 -31.5
q-37 0 -59 22.5z" />
    <glyph glyph-name="multiply" unicode="&#xd7;" horiz-adv-x="405" 
d="M412 403q0 -7 -6 -13l-84 -76q-4 -4 -1 -8l65 -77q4 -4 4 -9q0 -7 -7 -13l-84 -77q-5 -5 -11 -5q-5 0 -10 5l-65 77q-2 2 -4 2t-4 -2l-84 -77q-7 -5 -12 -5t-10 5l-65 77q-4 4 -4 9q0 7 7 13l84 77q5 5 1 8l-65 76q-4 4 -4 10t6 12l84 77q5 5 12 5q6 0 10 -5l65 -77
q2 -2 4 -2t4 2l84 77q5 5 11 5t10 -5l66 -77q3 -4 3 -9z" />
    <glyph glyph-name="Oslash" unicode="&#xd8;" horiz-adv-x="469" 
d="M530 694q0 -6 -4 -11l-47 -68q-1 -2 -1 -6q15 -36 15 -82q0 -22 -2 -33l-35 -288q-12 -98 -78 -156t-164 -58q-50 0 -84 14q-4 1 -6 -2l-38 -56q-6 -8 -13 -8q-3 0 -8 3l-73 53q-6 5 -6 11q0 4 3 10l48 70q1 2 1 6q-15 34 -15 79q0 10 2 34l36 288q12 98 77.5 156
t163.5 58q47 0 82 -13q4 -1 6 2l37 55q6 8 13 8q3 0 8 -3l76 -53q6 -4 6 -10zM310 502q2 21 -5 33t-22 12q-16 0 -26.5 -12t-12.5 -33l-37 -304q-1 -4 -1 -11q0 -16 7.5 -25t20.5 -9q15 0 25.5 12t13.5 33z" />
    <glyph glyph-name="Ugrave" unicode="&#xd9;" horiz-adv-x="467" 
d="M77 41q-50 49 -50 132q0 11 2 35l59 477q1 7 5.5 11t10.5 4h154q6 0 9.5 -4t2.5 -11l-60 -495q-2 -17 4 -27t19 -10t21.5 10t10.5 27l61 495q1 7 5 11t11 4h153q7 0 10.5 -4t2.5 -11l-59 -477q-8 -64 -40 -113t-83 -76t-113 -27q-86 0 -136 49zM366 769q0 -10 -14 -10
h-96q-10 0 -16 9l-63 94q-3 5 -3 8q0 4 4 7t10 3h118q12 0 16 -10l42 -93q2 -6 2 -8z" />
    <glyph glyph-name="Uacute" unicode="&#xda;" horiz-adv-x="467" 
d="M77 41q-50 49 -50 132q0 11 2 35l59 477q1 7 5.5 11t10.5 4h154q6 0 9.5 -4t2.5 -11l-60 -495q-2 -17 4 -27t19 -10t21.5 10t10.5 27l61 495q1 7 5 11t11 4h153q7 0 10.5 -4t2.5 -11l-59 -477q-8 -64 -40 -113t-83 -76t-113 -27q-86 0 -136 49zM233 767q0 2 4 10l65 93
q7 10 19 10h118q12 0 12 -8q0 -3 -5 -10l-87 -94q-7 -9 -18 -9h-96q-12 0 -12 8z" />
    <glyph glyph-name="Ucircumflex" unicode="&#xdb;" horiz-adv-x="467" 
d="M77 41q-50 49 -50 132q0 11 2 35l59 477q1 7 5.5 11t10.5 4h154q6 0 9.5 -4t2.5 -11l-60 -495q-2 -17 4 -27t19 -10t21.5 10t10.5 27l61 495q1 7 5 11t11 4h153q7 0 10.5 -4t2.5 -11l-59 -477q-8 -64 -40 -113t-83 -76t-113 -27q-86 0 -136 49zM142 759q0 2 4 10l71 101
q7 10 19 10h166q12 0 16 -10l48 -101q2 -6 2 -7q0 -11 -13 -11h-111q-12 0 -15 11l-15 45q-1 6 -6 0l-26 -45q-6 -11 -18 -11h-110q-12 0 -12 8z" />
    <glyph glyph-name="Udieresis" unicode="&#xdc;" horiz-adv-x="467" 
d="M77 41q-50 49 -50 132q0 11 2 35l59 477q1 7 5.5 11t10.5 4h154q6 0 9.5 -4t2.5 -11l-60 -495q-2 -17 4 -27t19 -10t21.5 10t10.5 27l61 495q1 7 5 11t11 4h153q7 0 10.5 -4t2.5 -11l-59 -477q-8 -64 -40 -113t-83 -76t-113 -27q-86 0 -136 49zM346 757.5
q-22 22.5 -22 57.5q0 47 30 77.5t74 30.5q36 0 58 -22t22 -57q0 -46 -30 -77.5t-73 -31.5q-37 0 -59 22.5zM145 757.5q-22 22.5 -22 57.5q0 47 30 77.5t74 30.5q36 0 58 -22t22 -57q0 -46 -30 -77.5t-73 -31.5q-37 0 -59 22.5z" />
    <glyph glyph-name="Yacute" unicode="&#xdd;" horiz-adv-x="493" 
d="M139.5 6q-3.5 4 -2.5 11l28 231q1 2 0 6l-83 429v4q0 13 14 13h161q14 0 15 -13l12 -201q0 -3 2.5 -3t3.5 3l61 201q4 13 18 13h161q8 0 10.5 -4.5t-0.5 -12.5l-191 -429l-1 -6l-29 -231q-1 -7 -5 -11t-11 -4h-153q-7 0 -10.5 4zM245 767q0 2 4 10l65 93q7 10 19 10h118
q12 0 12 -8q0 -3 -5 -10l-87 -94q-7 -9 -18 -9h-96q-12 0 -12 8z" />
    <glyph glyph-name="Thorn" unicode="&#xde;" horiz-adv-x="466" 
d="M432.5 519.5q46.5 -51.5 46.5 -136.5q0 -24 -2 -37q-8 -65 -37.5 -114t-76 -76t-102.5 -27h-54q-4 0 -6 -5l-13 -109q-1 -7 -5.5 -11t-10.5 -4h-154q-6 0 -9.5 4t-2.5 11l82 670q1 7 5.5 11t10.5 4h154q6 0 9.5 -4t2.5 -11l-13 -109q0 -5 4 -5h45q80 0 126.5 -51.5z
M279 297q16 21 16 62q0 25 -11 38t-30 13h-13q-2 0 -3.5 -1.5t-1.5 -3.5l-15 -124q-2 -5 4 -5h13q25 0 41 21z" />
    <glyph glyph-name="germandbls" unicode="&#xdf;" horiz-adv-x="467" 
d="M6.5 5q-3.5 4 -2.5 11l55 451q14 115 75.5 178t159.5 63q88 0 137.5 -44t49.5 -119q0 -10 -2 -30q-5 -45 -24 -75.5t-51 -51.5q-5 -4 -1 -7q55 -43 55 -133q0 -10 -2 -36q-13 -101 -77.5 -156.5t-169.5 -55.5q-1 6 0 15l17 131l2 14q19 0 33.5 19t18.5 54q1 7 1 20
q0 25 -9.5 39t-25.5 14l1 14l15 127q2 5 5 6q8 2 14 7q19 17 19 53q0 16 -6.5 25.5t-17.5 9.5q-12 0 -20 -13t-11 -37l-59 -483q-1 -7 -5.5 -11t-10.5 -4l-153 1q-7 0 -10.5 4z" />
    <glyph glyph-name="agrave" unicode="&#xe0;" horiz-adv-x="453" 
d="M290.5 516q4.5 4 10.5 4h154q6 0 9.5 -4t2.5 -11l-60 -490q-1 -7 -5 -11t-11 -4h-153q-7 0 -10.5 4t-2.5 11l3 22q0 4 -2 4t-4 -3q-34 -46 -92 -46q-60 0 -87 33t-27 96q0 24 3 49l22 180q11 89 48.5 133.5t106.5 44.5q58 0 80 -47q2 -3 4 -2.5t2 4.5l3 22q1 7 5.5 11z
M237 162q7 9 9 23l18 150q2 14 -3 23t-15 9t-16 -9t-8 -23l-19 -150q-2 -15 2.5 -23.5t14.5 -8.5t17 9zM337 589q0 -10 -14 -10h-96q-10 0 -16 9l-63 94q-3 5 -3 8q0 4 4 7t10 3h118q12 0 16 -10l42 -93q2 -6 2 -8z" />
    <glyph glyph-name="aacute" unicode="&#xe1;" horiz-adv-x="453" 
d="M290.5 516q4.5 4 10.5 4h154q6 0 9.5 -4t2.5 -11l-60 -490q-1 -7 -5 -11t-11 -4h-153q-7 0 -10.5 4t-2.5 11l3 22q0 4 -2 4t-4 -3q-34 -46 -92 -46q-60 0 -87 33t-27 96q0 24 3 49l22 180q11 89 48.5 133.5t106.5 44.5q58 0 80 -47q2 -3 4 -2.5t2 4.5l3 22q1 7 5.5 11z
M237 162q7 9 9 23l18 150q2 14 -3 23t-15 9t-16 -9t-8 -23l-19 -150q-2 -15 2.5 -23.5t14.5 -8.5t17 9zM204 587q0 2 4 10l65 93q7 10 19 10h118q12 0 12 -8q0 -3 -5 -10l-87 -94q-7 -9 -18 -9h-96q-12 0 -12 8z" />
    <glyph glyph-name="acircumflex" unicode="&#xe2;" horiz-adv-x="453" 
d="M290.5 516q4.5 4 10.5 4h154q6 0 9.5 -4t2.5 -11l-60 -490q-1 -7 -5 -11t-11 -4h-153q-7 0 -10.5 4t-2.5 11l3 22q0 4 -2 4t-4 -3q-34 -46 -92 -46q-60 0 -87 33t-27 96q0 24 3 49l22 180q11 89 48.5 133.5t106.5 44.5q58 0 80 -47q2 -3 4 -2.5t2 4.5l3 22q1 7 5.5 11z
M237 162q7 9 9 23l18 150q2 14 -3 23t-15 9t-16 -9t-8 -23l-19 -150q-2 -15 2.5 -23.5t14.5 -8.5t17 9zM114 579q0 2 4 10l71 101q7 10 19 10h166q12 0 16 -10l48 -101q2 -6 2 -7q0 -11 -13 -11h-111q-12 0 -15 11l-15 45q-1 6 -6 0l-26 -45q-6 -11 -18 -11h-110
q-12 0 -12 8z" />
    <glyph glyph-name="atilde" unicode="&#xe3;" horiz-adv-x="453" 
d="M290.5 516q4.5 4 10.5 4h154q6 0 9.5 -4t2.5 -11l-60 -490q-1 -7 -5 -11t-11 -4h-153q-7 0 -10.5 4t-2.5 11l3 22q0 4 -2 4t-4 -3q-34 -46 -92 -46q-60 0 -87 33t-27 96q0 24 3 49l22 180q11 89 48.5 133.5t106.5 44.5q58 0 80 -47q2 -3 4 -2.5t2 4.5l3 22q1 7 5.5 11z
M237 162q7 9 9 23l18 150q2 14 -3 23t-15 9t-16 -9t-8 -23l-19 -150q-2 -15 2.5 -23.5t14.5 -8.5t17 9zM294 586q-7 4 -17 10.5t-20 6.5q-17 0 -30 -18q-6 -8 -13 -8q-4 0 -8 3l-49 40q-6 5 -6 11q0 2 2 8q17 39 44.5 59t58.5 20q32 0 62 -22q3 -2 9 -7t12.5 -7.5t14.5 -2.5
q18 0 32 15q11 13 20 5l47 -37q5 -3 5 -10q0 -8 -8 -19q-21 -33 -49 -47.5t-56 -14.5q-22 0 -51 15z" />
    <glyph glyph-name="adieresis" unicode="&#xe4;" horiz-adv-x="453" 
d="M290.5 516q4.5 4 10.5 4h154q6 0 9.5 -4t2.5 -11l-60 -490q-1 -7 -5 -11t-11 -4h-153q-7 0 -10.5 4t-2.5 11l3 22q0 4 -2 4t-4 -3q-34 -46 -92 -46q-60 0 -87 33t-27 96q0 24 3 49l22 180q11 89 48.5 133.5t106.5 44.5q58 0 80 -47q2 -3 4 -2.5t2 4.5l3 22q1 7 5.5 11z
M237 162q7 9 9 23l18 150q2 14 -3 23t-15 9t-16 -9t-8 -23l-19 -150q-2 -15 2.5 -23.5t14.5 -8.5t17 9zM317 577.5q-22 22.5 -22 57.5q0 47 30 77.5t74 30.5q36 0 58 -22t22 -57q0 -46 -30 -77.5t-73 -31.5q-37 0 -59 22.5zM116 577.5q-22 22.5 -22 57.5q0 47 30 77.5
t74 30.5q36 0 58 -22t22 -57q0 -46 -30 -77.5t-73 -31.5q-37 0 -59 22.5z" />
    <glyph glyph-name="aring" unicode="&#xe5;" horiz-adv-x="453" 
d="M290.5 516q4.5 4 10.5 4h154q6 0 9.5 -4t2.5 -11l-60 -490q-1 -7 -5 -11t-11 -4h-153q-7 0 -10.5 4t-2.5 11l3 22q0 4 -2 4t-4 -3q-34 -46 -92 -46q-60 0 -87 33t-27 96q0 24 3 49l22 180q11 89 48.5 133.5t106.5 44.5q58 0 80 -47q2 -3 4 -2.5t2 4.5l3 22q1 7 5.5 11z
M237 162q7 9 9 23l18 150q2 14 -3 23t-15 9t-16 -9t-8 -23l-19 -150q-2 -15 2.5 -23.5t14.5 -8.5t17 9zM192 584.5q-32 32.5 -32 82.5q0 42 20 77.5t54 56t74 20.5q51 0 83.5 -32.5t32.5 -83.5q0 -42 -20 -77t-54.5 -55.5t-74.5 -20.5q-51 0 -83 32.5zM317 660.5
q13 13.5 13 32.5q0 15 -9.5 25t-23.5 10q-18 0 -31 -14t-13 -33q0 -14 9.5 -24t24.5 -10q17 0 30 13.5z" />
    <glyph glyph-name="ae" unicode="&#xe6;" horiz-adv-x="688" 
d="M50.5 16.5q-41.5 24.5 -41.5 102.5q0 10 2 34q8 65 36.5 98t72 43.5t112.5 10.5h34q4 0 6 5l3 27q1 13 -5.5 21.5t-17.5 8.5q-17 0 -27 -16q-3 -7 -7 -10.5t-10 -3.5l-154 4q-14 0 -13 15q15 80 77.5 126t147.5 46q35 0 62 -9t52 -28q4 -1 8 0q57 37 133 37
q82 0 129.5 -41.5t47.5 -111.5q0 -7 -2 -25l-17 -137q-1 -7 -5.5 -11t-10.5 -4h-207q-4 0 -6 -5v-8l-1 -8q0 -11 5 -17.5t14 -6.5q13 0 23 16q7 13 17 12l149 -9q15 -2 12 -16q-16 -80 -68 -122t-137 -42q-55 0 -92 16t-42 35q0 3 -1 3q-8 -20 -58.5 -37t-117.5 -17
q-61 0 -102.5 24.5zM469 305h34q4 0 6 5l3 25q2 14 -3 23t-15 9t-17.5 -9t-8.5 -23l-3 -25q-2 -5 4 -5zM240 132.5q11 7.5 12 19.5l5 41q2 5 -4 5h-20q-16 0 -26 -13t-10 -35q0 -13 6 -19t15 -6q11 0 22 7.5z" />
    <glyph glyph-name="ccedilla" unicode="&#xe7;" horiz-adv-x="441" 
d="M441.5 316.5q-4.5 -4.5 -11.5 -4.5l-154 -5q-6 0 -10 3.5t-3 10.5l2 14l1 8q0 10 -5 17t-13 7q-10 0 -17 -9t-9 -23l-19 -150q-2 -14 3.5 -23t15.5 -9q9 0 16 9t9 23l2 15q1 7 5 11t11 4l153 -2q7 0 10.5 -4t2.5 -11l-4 -28q-8 -70 -50 -114t-111 -58q-7 -2 -4 -6
q24 -35 24 -72q0 -20 -8 -42q-12 -35 -38 -49.5t-58 -14.5q-25 0 -54 9q-12 3 -9 17l14 62q4 11 18 11q15 0 22 17q2 6 2 10q0 23 -30 55l-6 3q-59 12 -90.5 49t-31.5 95q0 8 2 28l22 180q10 81 70.5 129.5t156.5 48.5q88 0 135.5 -41t47.5 -111q0 -8 -2 -26l-2 -22
q-1 -7 -5.5 -11.5z" />
    <glyph glyph-name="egrave" unicode="&#xe8;" horiz-adv-x="441" 
d="M429 217q-4 -4 -11 -4h-207q-2 0 -3.5 -1.5t-1.5 -3.5l-3 -23q-2 -14 3.5 -23t15.5 -9q17 0 25 25q6 14 18 13l147 -10q15 -2 12 -16q-16 -88 -70 -130.5t-152 -42.5q-89 0 -137 39t-48 111q0 8 2 28l22 180q10 81 70.5 129.5t156.5 48.5q88 0 135.5 -41t47.5 -111
q0 -8 -2 -26l-15 -122q-1 -7 -5 -11zM231 358q-7 -9 -9 -23l-4 -25q0 -5 5 -5h34q5 0 5 5l3 25l1 8q0 10 -5 17t-13 7q-10 0 -17 -9zM331 589q0 -10 -14 -10h-96q-10 0 -16 9l-63 94q-3 5 -3 8q0 4 4 7t10 3h118q12 0 16 -10l42 -93q2 -6 2 -8z" />
    <glyph glyph-name="eacute" unicode="&#xe9;" horiz-adv-x="441" 
d="M429 217q-4 -4 -11 -4h-207q-2 0 -3.5 -1.5t-1.5 -3.5l-3 -23q-2 -14 3.5 -23t15.5 -9q17 0 25 25q6 14 18 13l147 -10q15 -2 12 -16q-16 -88 -70 -130.5t-152 -42.5q-89 0 -137 39t-48 111q0 8 2 28l22 180q10 81 70.5 129.5t156.5 48.5q88 0 135.5 -41t47.5 -111
q0 -8 -2 -26l-15 -122q-1 -7 -5 -11zM231 358q-7 -9 -9 -23l-4 -25q0 -5 5 -5h34q5 0 5 5l3 25l1 8q0 10 -5 17t-13 7q-10 0 -17 -9zM198 587q0 2 4 10l65 93q7 10 19 10h118q12 0 12 -8q0 -3 -5 -10l-87 -94q-7 -9 -18 -9h-96q-12 0 -12 8z" />
    <glyph glyph-name="ecircumflex" unicode="&#xea;" horiz-adv-x="441" 
d="M429 217q-4 -4 -11 -4h-207q-2 0 -3.5 -1.5t-1.5 -3.5l-3 -23q-2 -14 3.5 -23t15.5 -9q17 0 25 25q6 14 18 13l147 -10q15 -2 12 -16q-16 -88 -70 -130.5t-152 -42.5q-89 0 -137 39t-48 111q0 8 2 28l22 180q10 81 70.5 129.5t156.5 48.5q88 0 135.5 -41t47.5 -111
q0 -8 -2 -26l-15 -122q-1 -7 -5 -11zM231 358q-7 -9 -9 -23l-4 -25q0 -5 5 -5h34q5 0 5 5l3 25l1 8q0 10 -5 17t-13 7q-10 0 -17 -9zM108 579q0 2 4 10l71 101q7 10 19 10h166q12 0 16 -10l48 -101q2 -6 2 -7q0 -11 -13 -11h-111q-12 0 -15 11l-15 45q-1 6 -6 0l-26 -45
q-6 -11 -18 -11h-110q-12 0 -12 8z" />
    <glyph glyph-name="edieresis" unicode="&#xeb;" horiz-adv-x="441" 
d="M429 217q-4 -4 -11 -4h-207q-2 0 -3.5 -1.5t-1.5 -3.5l-3 -23q-2 -14 3.5 -23t15.5 -9q17 0 25 25q6 14 18 13l147 -10q15 -2 12 -16q-16 -88 -70 -130.5t-152 -42.5q-89 0 -137 39t-48 111q0 8 2 28l22 180q10 81 70.5 129.5t156.5 48.5q88 0 135.5 -41t47.5 -111
q0 -8 -2 -26l-15 -122q-1 -7 -5 -11zM231 358q-7 -9 -9 -23l-4 -25q0 -5 5 -5h34q5 0 5 5l3 25l1 8q0 10 -5 17t-13 7q-10 0 -17 -9zM311 577.5q-22 22.5 -22 57.5q0 47 30 77.5t74 30.5q36 0 58 -22t22 -57q0 -46 -30 -77.5t-73 -31.5q-37 0 -59 22.5zM110 577.5
q-22 22.5 -22 57.5q0 47 30 77.5t74 30.5q36 0 58 -22t22 -57q0 -46 -30 -77.5t-73 -31.5q-37 0 -59 22.5z" />
    <glyph glyph-name="igrave" unicode="&#xec;" horiz-adv-x="198" 
d="M-7.5 4q-3.5 4 -2.5 11l60 490q1 7 5.5 11t11.5 4h153q7 0 10.5 -4t2.5 -11l-60 -490q-3 -15 -17 -15h-153q-7 0 -10.5 4zM209 589q0 -10 -14 -10h-96q-10 0 -16 9l-63 94q-3 5 -3 8q0 4 4 7t10 3h118q12 0 16 -10l42 -93q2 -6 2 -8z" />
    <glyph glyph-name="iacute" unicode="&#xed;" horiz-adv-x="198" 
d="M-7.5 4q-3.5 4 -2.5 11l60 490q1 7 5.5 11t11.5 4h153q7 0 10.5 -4t2.5 -11l-60 -490q-3 -15 -17 -15h-153q-7 0 -10.5 4zM76 587q0 2 4 10l65 93q7 10 19 10h118q12 0 12 -8q0 -3 -5 -10l-87 -94q-7 -9 -18 -9h-96q-12 0 -12 8z" />
    <glyph glyph-name="icircumflex" unicode="&#xee;" horiz-adv-x="198" 
d="M-7.5 4q-3.5 4 -2.5 11l60 490q1 7 5.5 11t11.5 4h153q7 0 10.5 -4t2.5 -11l-60 -490q-3 -15 -17 -15h-153q-7 0 -10.5 4zM-14 579q0 2 4 10l71 101q7 10 19 10h166q12 0 16 -10l48 -101q2 -6 2 -7q0 -11 -13 -11h-111q-12 0 -15 11l-15 45q-1 6 -6 0l-26 -45
q-6 -11 -18 -11h-110q-12 0 -12 8z" />
    <glyph glyph-name="idieresis" unicode="&#xef;" horiz-adv-x="198" 
d="M-7.5 4q-3.5 4 -2.5 11l60 490q1 7 5.5 11t11.5 4h153q7 0 10.5 -4t2.5 -11l-60 -490q-3 -15 -17 -15h-153q-7 0 -10.5 4zM189 577.5q-22 22.5 -22 57.5q0 47 30 77.5t74 30.5q36 0 58 -22t22 -57q0 -46 -30 -77.5t-73 -31.5q-37 0 -59 22.5zM-12 577.5
q-22 22.5 -22 57.5q0 47 30 77.5t74 30.5q36 0 58 -22t22 -57q0 -46 -30 -77.5t-73 -31.5q-37 0 -59 22.5z" />
    <glyph glyph-name="eth" unicode="&#xf0;" horiz-adv-x="447" 
d="M420 563q33 -96 33 -183q0 -30 -5 -70l-17 -140q-11 -85 -69.5 -131.5t-157.5 -46.5q-90 0 -138.5 39t-48.5 111q0 8 2 28l17 140q6 52 34.5 92.5t71.5 63t90 22.5q21 0 34 -5q7 -2 4 4q-4 16 -12 40q-1 4 -6 3l-76 -17l-4 -1q-10 0 -12 12l-5 46q0 16 13 19l53 13
q7 2 4 6q-13 31 -35 74q-2 4 -2 7q0 5 4 8t10 3h143q11 0 17 -10l24 -45q0 -2 1.5 -3t3.5 0l67 16h4q11 0 12 -12l5 -49v-2q0 -6 -4 -10t-10 -6l-41 -10q-5 -2 -4 -6zM260.5 318q-5.5 9 -15.5 9q-11 0 -18.5 -9t-9.5 -23l-14 -110q-2 -14 4 -23t16 -9t18 9t10 23l13 110
q2 14 -3.5 23z" />
    <glyph glyph-name="ntilde" unicode="&#xf1;" horiz-adv-x="448" 
d="M455 394q0 -22 -3 -46l-41 -333q-1 -7 -5 -11t-11 -4h-153q-7 0 -10.5 4t-2.5 11l39 320q1 4 1 10q0 22 -17 22q-22 0 -27 -32l-39 -320q-1 -7 -5.5 -11t-10.5 -4h-154q-6 0 -9.5 4t-2.5 11l60 490q1 7 5.5 11t10.5 4h154q6 0 9.5 -4t2.5 -11l-2 -16q0 -2 2 -2q4 0 10 7
q33 34 80 34q119 0 119 -134zM293 586q-7 4 -17 10.5t-20 6.5q-17 0 -30 -18q-6 -8 -13 -8q-4 0 -8 3l-49 40q-6 5 -6 11q0 2 2 8q17 39 44.5 59t58.5 20q32 0 62 -22q3 -2 9 -7t12.5 -7.5t14.5 -2.5q18 0 32 15q11 13 20 5l47 -37q5 -3 5 -10q0 -8 -8 -19
q-21 -33 -49 -47.5t-56 -14.5q-22 0 -51 15z" />
    <glyph glyph-name="ograve" unicode="&#xf2;" horiz-adv-x="447" 
d="M65.5 31q-48.5 39 -48.5 111q0 8 2 28l22 180q10 81 71 129.5t158 48.5q89 0 137 -41t48 -111q0 -8 -2 -26l-22 -180q-11 -85 -69.5 -131.5t-157.5 -46.5q-90 0 -138.5 39zM241 162q8 9 10 23l18 150q1 14 -4 23t-15 9q-11 0 -18.5 -9t-9.5 -23l-19 -150q-2 -14 4 -23
t16 -9t18 9zM334 589q0 -10 -14 -10h-96q-10 0 -16 9l-63 94q-3 5 -3 8q0 4 4 7t10 3h118q12 0 16 -10l42 -93q2 -6 2 -8z" />
    <glyph glyph-name="oacute" unicode="&#xf3;" horiz-adv-x="447" 
d="M65.5 31q-48.5 39 -48.5 111q0 8 2 28l22 180q10 81 71 129.5t158 48.5q89 0 137 -41t48 -111q0 -8 -2 -26l-22 -180q-11 -85 -69.5 -131.5t-157.5 -46.5q-90 0 -138.5 39zM241 162q8 9 10 23l18 150q1 14 -4 23t-15 9q-11 0 -18.5 -9t-9.5 -23l-19 -150q-2 -14 4 -23
t16 -9t18 9zM201 587q0 2 4 10l65 93q7 10 19 10h118q12 0 12 -8q0 -3 -5 -10l-87 -94q-7 -9 -18 -9h-96q-12 0 -12 8z" />
    <glyph glyph-name="ocircumflex" unicode="&#xf4;" horiz-adv-x="447" 
d="M65.5 31q-48.5 39 -48.5 111q0 8 2 28l22 180q10 81 71 129.5t158 48.5q89 0 137 -41t48 -111q0 -8 -2 -26l-22 -180q-11 -85 -69.5 -131.5t-157.5 -46.5q-90 0 -138.5 39zM241 162q8 9 10 23l18 150q1 14 -4 23t-15 9q-11 0 -18.5 -9t-9.5 -23l-19 -150q-2 -14 4 -23
t16 -9t18 9zM111 579q0 2 4 10l71 101q7 10 19 10h166q12 0 16 -10l48 -101q2 -6 2 -7q0 -11 -13 -11h-111q-12 0 -15 11l-15 45q-1 6 -6 0l-26 -45q-6 -11 -18 -11h-110q-12 0 -12 8z" />
    <glyph glyph-name="otilde" unicode="&#xf5;" horiz-adv-x="447" 
d="M65.5 31q-48.5 39 -48.5 111q0 8 2 28l22 180q10 81 71 129.5t158 48.5q89 0 137 -41t48 -111q0 -8 -2 -26l-22 -180q-11 -85 -69.5 -131.5t-157.5 -46.5q-90 0 -138.5 39zM241 162q8 9 10 23l18 150q1 14 -4 23t-15 9q-11 0 -18.5 -9t-9.5 -23l-19 -150q-2 -14 4 -23
t16 -9t18 9zM291 586q-7 4 -17 10.5t-20 6.5q-17 0 -30 -18q-6 -8 -13 -8q-4 0 -8 3l-49 40q-6 5 -6 11q0 2 2 8q17 39 44.5 59t58.5 20q32 0 62 -22q3 -2 9 -7t12.5 -7.5t14.5 -2.5q18 0 32 15q11 13 20 5l47 -37q5 -3 5 -10q0 -8 -8 -19q-21 -33 -49 -47.5t-56 -14.5
q-22 0 -51 15z" />
    <glyph glyph-name="odieresis" unicode="&#xf6;" horiz-adv-x="447" 
d="M65.5 31q-48.5 39 -48.5 111q0 8 2 28l22 180q10 81 71 129.5t158 48.5q89 0 137 -41t48 -111q0 -8 -2 -26l-22 -180q-11 -85 -69.5 -131.5t-157.5 -46.5q-90 0 -138.5 39zM241 162q8 9 10 23l18 150q1 14 -4 23t-15 9q-11 0 -18.5 -9t-9.5 -23l-19 -150q-2 -14 4 -23
t16 -9t18 9zM314 577.5q-22 22.5 -22 57.5q0 47 30 77.5t74 30.5q36 0 58 -22t22 -57q0 -46 -30 -77.5t-73 -31.5q-37 0 -59 22.5zM113 577.5q-22 22.5 -22 57.5q0 47 30 77.5t74 30.5q36 0 58 -22t22 -57q0 -46 -30 -77.5t-73 -31.5q-37 0 -59 22.5z" />
    <glyph glyph-name="divide" unicode="&#xf7;" horiz-adv-x="423" 
d="M193.5 422q-19.5 20 -19.5 49q0 36 26.5 63t61.5 27q29 0 48.5 -20.5t19.5 -49.5q0 -36 -27 -62.5t-61 -26.5q-29 0 -48.5 20zM30.5 236q-3.5 4 -2.5 11l14 110q1 7 5.5 11t10.5 4h359q7 0 10.5 -4t2.5 -11l-14 -110q-1 -7 -5 -11t-11 -4h-359q-7 0 -10.5 4zM149.5 68
q-19.5 20 -19.5 50q0 36 27 62.5t61 26.5q29 0 48.5 -19.5t19.5 -48.5q0 -36 -26.5 -63.5t-60.5 -27.5q-30 0 -49.5 20z" />
    <glyph glyph-name="oslash" unicode="&#xf8;" horiz-adv-x="447" 
d="M490 524q0 -6 -4 -11l-44 -64q-1 -2 -1 -6q14 -31 14 -66q0 -9 -2 -27l-22 -180q-11 -85 -69.5 -131.5t-157.5 -46.5q-38 0 -73 8q-4 2 -6 -3l-44 -65q-6 -8 -13 -8q-3 0 -8 3l-73 53q-6 4 -6 10t4 11l46 66q2 4 0 7q-14 30 -14 66q0 10 2 30l22 180q10 81 71 129.5
t158 48.5q36 0 70 -8q5 -1 6 3l41 59q6 8 13 8q4 0 8 -3l76 -53q6 -4 6 -10zM265 358q-5 9 -15 9q-11 0 -18.5 -9t-9.5 -23l-19 -150q-2 -14 4 -23t16 -9t18 9t10 23l18 150q1 14 -4 23z" />
    <glyph glyph-name="ugrave" unicode="&#xf9;" horiz-adv-x="448" 
d="M292.5 516q4.5 4 10.5 4h154q6 0 9.5 -4t2.5 -11l-60 -490q-1 -7 -5 -11t-11 -4h-153q-7 0 -10.5 4t-2.5 11l1 6q0 3 -2 4t-4 -2q-16 -18 -37 -24.5t-48 -6.5q-52 0 -86.5 29.5t-34.5 92.5q0 10 2 30l44 361q1 7 5.5 11t10.5 4h154q6 0 9.5 -4t2.5 -11l-39 -320
q-1 -4 -1 -10q0 -22 18 -22q21 0 26 32l39 320q1 7 5.5 11zM332 589q0 -10 -14 -10h-96q-10 0 -16 9l-63 94q-3 5 -3 8q0 4 4 7t10 3h118q12 0 16 -10l42 -93q2 -6 2 -8z" />
    <glyph glyph-name="uacute" unicode="&#xfa;" horiz-adv-x="448" 
d="M292.5 516q4.5 4 10.5 4h154q6 0 9.5 -4t2.5 -11l-60 -490q-1 -7 -5 -11t-11 -4h-153q-7 0 -10.5 4t-2.5 11l1 6q0 3 -2 4t-4 -2q-16 -18 -37 -24.5t-48 -6.5q-52 0 -86.5 29.5t-34.5 92.5q0 10 2 30l44 361q1 7 5.5 11t10.5 4h154q6 0 9.5 -4t2.5 -11l-39 -320
q-1 -4 -1 -10q0 -22 18 -22q21 0 26 32l39 320q1 7 5.5 11zM199 587q0 2 4 10l65 93q7 10 19 10h118q12 0 12 -8q0 -3 -5 -10l-87 -94q-7 -9 -18 -9h-96q-12 0 -12 8z" />
    <glyph glyph-name="ucircumflex" unicode="&#xfb;" horiz-adv-x="448" 
d="M292.5 516q4.5 4 10.5 4h154q6 0 9.5 -4t2.5 -11l-60 -490q-1 -7 -5 -11t-11 -4h-153q-7 0 -10.5 4t-2.5 11l1 6q0 3 -2 4t-4 -2q-16 -18 -37 -24.5t-48 -6.5q-52 0 -86.5 29.5t-34.5 92.5q0 10 2 30l44 361q1 7 5.5 11t10.5 4h154q6 0 9.5 -4t2.5 -11l-39 -320
q-1 -4 -1 -10q0 -22 18 -22q21 0 26 32l39 320q1 7 5.5 11zM109 579q0 2 4 10l71 101q7 10 19 10h166q12 0 16 -10l48 -101q2 -6 2 -7q0 -11 -13 -11h-111q-12 0 -15 11l-15 45q-1 6 -6 0l-26 -45q-6 -11 -18 -11h-110q-12 0 -12 8z" />
    <glyph glyph-name="udieresis" unicode="&#xfc;" horiz-adv-x="448" 
d="M292.5 516q4.5 4 10.5 4h154q6 0 9.5 -4t2.5 -11l-60 -490q-1 -7 -5 -11t-11 -4h-153q-7 0 -10.5 4t-2.5 11l1 6q0 3 -2 4t-4 -2q-16 -18 -37 -24.5t-48 -6.5q-52 0 -86.5 29.5t-34.5 92.5q0 10 2 30l44 361q1 7 5.5 11t10.5 4h154q6 0 9.5 -4t2.5 -11l-39 -320
q-1 -4 -1 -10q0 -22 18 -22q21 0 26 32l39 320q1 7 5.5 11zM312 577.5q-22 22.5 -22 57.5q0 47 30 77.5t74 30.5q36 0 58 -22t22 -57q0 -46 -30 -77.5t-73 -31.5q-37 0 -59 22.5zM111 577.5q-22 22.5 -22 57.5q0 47 30 77.5t74 30.5q36 0 58 -22t22 -57q0 -46 -30 -77.5
t-73 -31.5q-37 0 -59 22.5z" />
    <glyph glyph-name="yacute" unicode="&#xfd;" horiz-adv-x="445" 
d="M-15 -184l15 124q2 15 11 15q55 0 78.5 8.5t22.5 36.5l-60 503v2q0 7 4 11t11 4h165q13 0 12 -14l-9 -224q1 1 2.5 1t2.5 -1l45 224q3 14 16 14l166 -2q7 0 10 -4.5t1 -12.5l-184 -503q-31 -77 -61 -117t-85 -60t-153 -20h-6q-6 0 -4 15zM199 587q0 2 4 10l65 93
q7 10 19 10h118q12 0 12 -8q0 -3 -5 -10l-87 -94q-7 -9 -18 -9h-96q-12 0 -12 8z" />
    <glyph glyph-name="thorn" unicode="&#xfe;" horiz-adv-x="445" 
d="M426 496q28 -32 28 -96q0 -23 -3 -50l-22 -180q-10 -86 -47.5 -132t-107.5 -46q-58 0 -81 48q-2 3 -3.5 2.5t-2.5 -4.5l-27 -223q-1 -7 -5.5 -11t-11.5 -4h-153q-7 0 -10.5 4t-2.5 11l107 870q1 7 5.5 11t10.5 4h154q6 0 9.5 -4t2.5 -11l-25 -204q0 -2 1 -2q4 0 12 10
q32 39 86 39q58 0 86 -32zM267 342q0 11 -4.5 18t-11.5 7q-10 0 -17.5 -8.5t-9.5 -23.5l-18 -150q-2 -14 3 -23t15 -9t16.5 8.5t8.5 23.5l18 150v7z" />
    <glyph glyph-name="ydieresis" unicode="&#xff;" horiz-adv-x="445" 
d="M-15 -184l15 124q2 15 11 15q55 0 78.5 8.5t22.5 36.5l-60 503v2q0 7 4 11t11 4h165q13 0 12 -14l-9 -224q1 1 2.5 1t2.5 -1l45 224q3 14 16 14l166 -2q7 0 10 -4.5t1 -12.5l-184 -503q-31 -77 -61 -117t-85 -60t-153 -20h-6q-6 0 -4 15zM312 577.5q-22 22.5 -22 57.5
q0 47 30 77.5t74 30.5q36 0 58 -22t22 -57q0 -46 -30 -77.5t-73 -31.5q-37 0 -59 22.5zM111 577.5q-22 22.5 -22 57.5q0 47 30 77.5t74 30.5q36 0 58 -22t22 -57q0 -46 -30 -77.5t-73 -31.5q-37 0 -59 22.5z" />
    <glyph glyph-name="Amacron" unicode="&#x100;" horiz-adv-x="515" 
d="M298 14l-2 76q1 2 -1 3.5t-4 1.5h-87q-5 0 -7 -5l-19 -76q-3 -14 -17 -14h-152q-15 0 -11 16l220 671q4 13 18 13h177q14 0 15 -13l55 -671v-2q0 -14 -15 -14h-157q-14 0 -13 14zM241 239h47q3 0 5 5l-4 185q0 4 -2.5 3.5t-2.5 -3.5l-46 -185q-2 -5 3 -5zM218.5 756
q-3.5 4 -2.5 11l11 95q1 7 5.5 11t11.5 4h195q6 0 9.5 -4t2.5 -11l-11 -95q-1 -7 -5.5 -11t-11.5 -4h-195q-6 0 -9.5 4z" />
    <glyph glyph-name="amacron" unicode="&#x101;" horiz-adv-x="453" 
d="M290.5 516q4.5 4 10.5 4h154q6 0 9.5 -4t2.5 -11l-60 -490q-1 -7 -5 -11t-11 -4h-153q-7 0 -10.5 4t-2.5 11l3 22q0 4 -2 4t-4 -3q-34 -46 -92 -46q-60 0 -87 33t-27 96q0 24 3 49l22 180q11 89 48.5 133.5t106.5 44.5q58 0 80 -47q2 -3 4 -2.5t2 4.5l3 22q1 7 5.5 11z
M237 162q7 9 9 23l18 150q2 14 -3 23t-15 9t-16 -9t-8 -23l-19 -150q-2 -15 2.5 -23.5t14.5 -8.5t17 9zM165.5 576q-3.5 4 -2.5 11l11 95q1 7 5.5 11t11.5 4h195q6 0 9.5 -4t2.5 -11l-11 -95q-1 -7 -5.5 -11t-11.5 -4h-195q-6 0 -9.5 4z" />
    <glyph glyph-name="Abreve" unicode="&#x102;" horiz-adv-x="515" 
d="M298 14l-2 76q1 2 -1 3.5t-4 1.5h-87q-5 0 -7 -5l-19 -76q-3 -14 -17 -14h-152q-15 0 -11 16l220 671q4 13 18 13h177q14 0 15 -13l55 -671v-2q0 -14 -15 -14h-157q-14 0 -13 14zM241 239h47q3 0 5 5l-4 185q0 4 -2.5 3.5t-2.5 -3.5l-46 -185q-2 -5 3 -5zM245 751
q-30 28 -30 77q0 11 3 16t12 5h64q13 0 13 -14q1 -16 9 -25t21 -9t23 9t15 25q3 14 16 14h64q15 0 12 -15q-11 -51 -48.5 -81t-91.5 -30q-52 0 -82 28z" />
    <glyph glyph-name="abreve" unicode="&#x103;" horiz-adv-x="453" 
d="M290.5 516q4.5 4 10.5 4h154q6 0 9.5 -4t2.5 -11l-60 -490q-1 -7 -5 -11t-11 -4h-153q-7 0 -10.5 4t-2.5 11l3 22q0 4 -2 4t-4 -3q-34 -46 -92 -46q-60 0 -87 33t-27 96q0 24 3 49l22 180q11 89 48.5 133.5t106.5 44.5q58 0 80 -47q2 -3 4 -2.5t2 4.5l3 22q1 7 5.5 11z
M237 162q7 9 9 23l18 150q2 14 -3 23t-15 9t-16 -9t-8 -23l-19 -150q-2 -15 2.5 -23.5t14.5 -8.5t17 9zM192 571q-30 28 -30 77q0 11 3 16t12 5h64q13 0 13 -14q1 -16 9 -25t21 -9t23 9t15 25q3 14 16 14h64q15 0 12 -15q-11 -51 -48.5 -81t-91.5 -30q-52 0 -82 28z" />
    <glyph glyph-name="Aogonek" unicode="&#x104;" horiz-adv-x="515" 
d="M298 14l-2 76q1 2 -1 3.5t-4 1.5h-87q-5 0 -7 -5l-19 -76q-3 -14 -17 -14h-152q-15 0 -11 16l220 671q4 13 18 13h177q14 0 15 -13l55 -671v-2q0 -14 -15 -14h-157q-14 0 -13 14zM241 239h47q3 0 5 5l-4 185q0 4 -2.5 3.5t-2.5 -3.5l-46 -185q-2 -5 3 -5zM442 -186
q-31 -9 -57 -9q-35 0 -58.5 17.5t-23.5 59.5q0 57 54 110q9 8 20 8h81q11 0 11 -7q0 -5 -8 -11q-39 -34 -39 -58q0 -20 19 -20q14 0 14 -11l-1 -62q0 -14 -12 -17z" />
    <glyph glyph-name="aogonek" unicode="&#x105;" horiz-adv-x="446" 
d="M400 -7q-53 -41 -53 -69q0 -20 19 -20q14 0 14 -11l-1 -62q0 -14 -13 -17q-32 -9 -56 -9q-35 0 -58.5 17.5t-23.5 60.5q0 57 56 111q3 2 2 4t-4 2h-40q-7 0 -10.5 4t-2.5 11l3 22q0 4 -2 4t-4 -3q-34 -46 -92 -46q-60 0 -87 33t-27 96q0 24 3 49l22 180q11 89 48.5 133.5
t106.5 44.5q58 0 80 -47q2 -3 4 -2.5t2 4.5l3 22q1 7 5.5 11t10.5 4h154q6 0 9.5 -4t2.5 -11l-60 -494q-1 -10 -11 -18zM240.5 161.5q7.5 8.5 9.5 23.5l18 150q2 14 -3 23t-15 9t-16.5 -8.5t-8.5 -23.5l-18 -150v-7q0 -11 4.5 -18t11.5 -7q10 0 17.5 8.5z" />
    <glyph glyph-name="Cacute" unicode="&#x106;" horiz-adv-x="462" 
d="M73.5 40q-50.5 48 -50.5 131q0 10 2 34l36 292q12 97 77 154t161 57q87 0 138 -47.5t51 -130.5q0 -9 -2 -33l-1 -5q-1 -7 -5.5 -11.5t-10.5 -4.5l-154 -5q-15 0 -13 14l3 25q2 17 -5 27t-20 10q-14 0 -23.5 -10t-11.5 -27l-39 -321q-2 -16 4.5 -26t20.5 -10t23.5 9.5
t11.5 26.5l3 27q1 7 5.5 10.5t10.5 3.5l153 -5q7 0 10.5 -4.5t2.5 -11.5l-1 -4q-12 -97 -77.5 -155t-161.5 -58q-87 0 -137.5 48zM231 767q0 2 4 10l65 93q7 10 19 10h118q12 0 12 -8q0 -3 -5 -10l-87 -94q-7 -9 -18 -9h-96q-12 0 -12 8z" />
    <glyph glyph-name="cacute" unicode="&#x107;" horiz-adv-x="441" 
d="M65 31q-48 39 -48 111q0 8 2 28l22 180q10 81 70.5 129.5t156.5 48.5q88 0 135.5 -41t47.5 -111q0 -8 -2 -26l-2 -22q-1 -7 -5.5 -11.5t-11.5 -4.5l-154 -5q-6 0 -10 3.5t-3 10.5l2 14l1 8q0 10 -5 17t-13 7q-10 0 -17 -9t-9 -23l-19 -150q-2 -14 3.5 -23t15.5 -9
q9 0 16 9t9 23l2 15q1 7 5 11t11 4l153 -2q7 0 10.5 -4t2.5 -11l-4 -28q-11 -85 -69.5 -131.5t-155.5 -46.5q-89 0 -137 39zM199 587q0 2 4 10l65 93q7 10 19 10h118q12 0 12 -8q0 -3 -5 -10l-87 -94q-7 -9 -18 -9h-96q-12 0 -12 8z" />
    <glyph glyph-name="Ccircumflex" unicode="&#x108;" horiz-adv-x="462" 
d="M73.5 40q-50.5 48 -50.5 131q0 10 2 34l36 292q12 97 77 154t161 57q87 0 138 -47.5t51 -130.5q0 -9 -2 -33l-1 -5q-1 -7 -5.5 -11.5t-10.5 -4.5l-154 -5q-15 0 -13 14l3 25q2 17 -5 27t-20 10q-14 0 -23.5 -10t-11.5 -27l-39 -321q-2 -16 4.5 -26t20.5 -10t23.5 9.5
t11.5 26.5l3 27q1 7 5.5 10.5t10.5 3.5l153 -5q7 0 10.5 -4.5t2.5 -11.5l-1 -4q-12 -97 -77.5 -155t-161.5 -58q-87 0 -137.5 48zM141 759q0 2 4 10l71 101q7 10 19 10h166q12 0 16 -10l48 -101q2 -6 2 -7q0 -11 -13 -11h-111q-12 0 -15 11l-15 45q-1 6 -6 0l-26 -45
q-6 -11 -18 -11h-110q-12 0 -12 8z" />
    <glyph glyph-name="ccircumflex" unicode="&#x109;" horiz-adv-x="441" 
d="M65 31q-48 39 -48 111q0 8 2 28l22 180q10 81 70.5 129.5t156.5 48.5q88 0 135.5 -41t47.5 -111q0 -8 -2 -26l-2 -22q-1 -7 -5.5 -11.5t-11.5 -4.5l-154 -5q-6 0 -10 3.5t-3 10.5l2 14l1 8q0 10 -5 17t-13 7q-10 0 -17 -9t-9 -23l-19 -150q-2 -14 3.5 -23t15.5 -9
q9 0 16 9t9 23l2 15q1 7 5 11t11 4l153 -2q7 0 10.5 -4t2.5 -11l-4 -28q-11 -85 -69.5 -131.5t-155.5 -46.5q-89 0 -137 39zM109 579q0 2 4 10l71 101q7 10 19 10h166q12 0 16 -10l48 -101q2 -6 2 -7q0 -11 -13 -11h-111q-12 0 -15 11l-15 45q-1 6 -6 0l-26 -45
q-6 -11 -18 -11h-110q-12 0 -12 8z" />
    <glyph glyph-name="Cdotaccent" unicode="&#x10a;" horiz-adv-x="462" 
d="M73.5 40q-50.5 48 -50.5 131q0 10 2 34l36 292q12 97 77 154t161 57q87 0 138 -47.5t51 -130.5q0 -9 -2 -33l-1 -5q-1 -7 -5.5 -11.5t-10.5 -4.5l-154 -5q-15 0 -13 14l3 25q2 17 -5 27t-20 10q-14 0 -23.5 -10t-11.5 -27l-39 -321q-2 -16 4.5 -26t20.5 -10t23.5 9.5
t11.5 26.5l3 27q1 7 5.5 10.5t10.5 3.5l153 -5q7 0 10.5 -4.5t2.5 -11.5l-1 -4q-12 -97 -77.5 -155t-161.5 -58q-87 0 -137.5 48zM244 757.5q-22 22.5 -22 57.5q0 47 30 77.5t74 30.5q36 0 58 -22t22 -57q0 -46 -30 -77.5t-73 -31.5q-37 0 -59 22.5z" />
    <glyph glyph-name="cdotaccent" unicode="&#x10b;" horiz-adv-x="441" 
d="M65 31q-48 39 -48 111q0 8 2 28l22 180q10 81 70.5 129.5t156.5 48.5q88 0 135.5 -41t47.5 -111q0 -8 -2 -26l-2 -22q-1 -7 -5.5 -11.5t-11.5 -4.5l-154 -5q-6 0 -10 3.5t-3 10.5l2 14l1 8q0 10 -5 17t-13 7q-10 0 -17 -9t-9 -23l-19 -150q-2 -14 3.5 -23t15.5 -9
q9 0 16 9t9 23l2 15q1 7 5 11t11 4l153 -2q7 0 10.5 -4t2.5 -11l-4 -28q-11 -85 -69.5 -131.5t-155.5 -46.5q-89 0 -137 39zM212 577.5q-22 22.5 -22 57.5q0 47 30 77.5t74 30.5q36 0 58 -22t22 -57q0 -46 -30 -77.5t-73 -31.5q-37 0 -59 22.5z" />
    <glyph glyph-name="Ccaron" unicode="&#x10c;" horiz-adv-x="462" 
d="M73.5 40q-50.5 48 -50.5 131q0 10 2 34l36 292q12 97 77 154t161 57q87 0 138 -47.5t51 -130.5q0 -9 -2 -33l-1 -5q-1 -7 -5.5 -11.5t-10.5 -4.5l-154 -5q-15 0 -13 14l3 25q2 17 -5 27t-20 10q-14 0 -23.5 -10t-11.5 -27l-39 -321q-2 -16 4.5 -26t20.5 -10t23.5 9.5
t11.5 26.5l3 27q1 7 5.5 10.5t10.5 3.5l153 -5q7 0 10.5 -4.5t2.5 -11.5l-1 -4q-12 -97 -77.5 -155t-161.5 -58q-87 0 -137.5 48zM161 870q0 10 14 10h110q12 0 15 -11l15 -45q3 -6 6 0l26 45q6 11 18 11h110q12 0 12 -8q0 -2 -4 -10l-74 -101q-6 -10 -18 -10h-166
q-12 0 -16 10l-46 101q-2 6 -2 8z" />
    <glyph glyph-name="ccaron" unicode="&#x10d;" horiz-adv-x="441" 
d="M65 31q-48 39 -48 111q0 8 2 28l22 180q10 81 70.5 129.5t156.5 48.5q88 0 135.5 -41t47.5 -111q0 -8 -2 -26l-2 -22q-1 -7 -5.5 -11.5t-11.5 -4.5l-154 -5q-6 0 -10 3.5t-3 10.5l2 14l1 8q0 10 -5 17t-13 7q-10 0 -17 -9t-9 -23l-19 -150q-2 -14 3.5 -23t15.5 -9
q9 0 16 9t9 23l2 15q1 7 5 11t11 4l153 -2q7 0 10.5 -4t2.5 -11l-4 -28q-11 -85 -69.5 -131.5t-155.5 -46.5q-89 0 -137 39zM130 690q0 10 14 10h110q12 0 15 -11l15 -45q3 -6 6 0l26 45q6 11 18 11h110q12 0 12 -8q0 -2 -4 -10l-74 -101q-6 -10 -18 -10h-166q-12 0 -16 10
l-46 101q-2 6 -2 8z" />
    <glyph glyph-name="Dcaron" unicode="&#x10e;" horiz-adv-x="469" 
d="M10.5 4q-3.5 4 -2.5 11l82 670q1 7 5.5 11t10.5 4h191q89 0 141.5 -46.5t52.5 -124.5q0 -9 -2 -29l-37 -300q-7 -59 -39.5 -104.5t-85 -70.5t-116.5 -25h-191q-6 0 -9.5 4zM213 161l14 1q16 1 28.5 15t16.5 36l33 275l1 11q0 19 -9 29.5t-24 10.5h-14q-5 0 -5 -5
l-45 -368q-2 -5 4 -5zM154 870q0 10 14 10h110q12 0 15 -11l15 -45q3 -6 6 0l26 45q6 11 18 11h110q12 0 12 -8q0 -2 -4 -10l-74 -101q-6 -10 -18 -10h-166q-12 0 -16 10l-46 101q-2 6 -2 8z" />
    <glyph glyph-name="dcaron" unicode="&#x10f;" horiz-adv-x="446" 
d="M312.5 696q4.5 4 11.5 4h153q7 0 10.5 -4t2.5 -11l-83 -670q-1 -7 -5 -11t-11 -4h-153q-7 0 -10.5 4t-2.5 11l3 22q0 4 -2 4t-4 -3q-34 -46 -92 -46q-60 0 -87 33t-27 96q0 24 3 49l22 180q11 89 48.5 133.5t106.5 44.5q58 0 80 -47q2 -3 4 -2.5t2 4.5l25 202q1 7 5.5 11
zM237 162q7 9 9 23l18 150q2 14 -3 23t-15 9t-16 -9t-8 -23l-19 -150q-2 -15 2.5 -23.5t14.5 -8.5t17 9zM505 587q0 2 4 10l65 93q7 10 19 10h118q12 0 12 -8q0 -3 -5 -10l-87 -94q-7 -9 -18 -9h-96q-12 0 -12 8z" />
    <glyph glyph-name="Dcroat" unicode="&#x110;" horiz-adv-x="490" 
d="M461 653q52 -47 52 -125q0 -10 -2 -28l-37 -300q-7 -59 -40 -104.5t-85 -70.5t-116 -25h-191q-7 0 -10.5 4t-2.5 11l36 294q0 5 -4 5h-2q-7 0 -10.5 4t-2.5 11l9 75q3 15 13 15h6q5 0 5 5l32 261q1 7 5.5 11t11.5 4h191q90 0 142 -47zM327 488q2 23 -7 37t-26 14h-13
q-6 0 -6 -5l-13 -110q-2 -5 4 -5h10q7 0 10.5 -4t2.5 -11l-9 -75q-1 -7 -5.5 -11t-10.5 -4h-11q-4 0 -6 -5l-17 -143q0 -5 4 -5l15 1q15 1 27.5 15t16.5 36z" />
    <glyph glyph-name="dcroat" unicode="&#x111;" horiz-adv-x="446" 
d="M515.5 653q3.5 -4 2.5 -11l-10 -80q-1 -7 -5 -11t-11 -4h-15q-2 0 -3.5 -1.5t-1.5 -3.5l-65 -527q-1 -7 -5 -11t-11 -4h-153q-7 0 -10.5 4t-2.5 11l3 22q0 4 -2 4t-4 -3q-34 -46 -92 -46q-60 0 -87 33t-27 96q0 24 3 49l22 180q11 89 48.5 133.5t106.5 44.5q58 0 80 -47
q2 -3 4 -2.5t2 4.5l8 59q0 5 -5 5h-53q-7 0 -10.5 4t-2.5 11l10 80q1 7 5.5 11t11.5 4h53q5 0 5 5l3 23q1 7 5.5 11t11.5 4h153q7 0 10.5 -4t2.5 -11l-3 -23q-2 -5 4 -5h15q6 0 9.5 -4zM237 162q7 9 9 23l18 150q2 14 -3 23t-15 9t-16 -9t-8 -23l-19 -150q-2 -15 2.5 -23.5
t14.5 -8.5t17 9z" />
    <glyph glyph-name="Emacron" unicode="&#x112;" horiz-adv-x="431" 
d="M456.5 543q-4.5 -4 -11.5 -4h-186q-5 0 -5 -5l-12 -98q-2 -5 4 -5h97q7 0 10.5 -4t2.5 -11l-16 -131q-3 -15 -17 -15h-97q-5 0 -5 -5l-12 -99q-2 -5 4 -5h186q7 0 10.5 -4t2.5 -11l-16 -131q-1 -7 -5.5 -11t-11.5 -4h-359q-6 0 -9.5 4t-2.5 11l82 670q1 7 5.5 11t10.5 4
h359q7 0 10.5 -4t2.5 -11l-16 -131q-1 -7 -5.5 -11zM180.5 756q-3.5 4 -2.5 11l11 95q1 7 5.5 11t11.5 4h195q6 0 9.5 -4t2.5 -11l-11 -95q-1 -7 -5.5 -11t-11.5 -4h-195q-6 0 -9.5 4z" />
    <glyph glyph-name="emacron" unicode="&#x113;" horiz-adv-x="441" 
d="M429 217q-4 -4 -11 -4h-207q-2 0 -3.5 -1.5t-1.5 -3.5l-3 -23q-2 -14 3.5 -23t15.5 -9q17 0 25 25q6 14 18 13l147 -10q15 -2 12 -16q-16 -88 -70 -130.5t-152 -42.5q-89 0 -137 39t-48 111q0 8 2 28l22 180q10 81 70.5 129.5t156.5 48.5q88 0 135.5 -41t47.5 -111
q0 -8 -2 -26l-15 -122q-1 -7 -5 -11zM231 358q-7 -9 -9 -23l-4 -25q0 -5 5 -5h34q5 0 5 5l3 25l1 8q0 10 -5 17t-13 7q-10 0 -17 -9zM159.5 579q-3.5 4 -2.5 11l12 95q1 7 5 11t11 4h195q7 0 10.5 -4t2.5 -11l-12 -95q-1 -7 -5.5 -11t-10.5 -4h-195q-7 0 -10.5 4z" />
    <glyph glyph-name="Edotaccent" unicode="&#x116;" horiz-adv-x="431" 
d="M456.5 543q-4.5 -4 -11.5 -4h-186q-5 0 -5 -5l-12 -98q-2 -5 4 -5h97q7 0 10.5 -4t2.5 -11l-16 -131q-3 -15 -17 -15h-97q-5 0 -5 -5l-12 -99q-2 -5 4 -5h186q7 0 10.5 -4t2.5 -11l-16 -131q-1 -7 -5.5 -11t-11.5 -4h-359q-6 0 -9.5 4t-2.5 11l82 670q1 7 5.5 11t10.5 4
h359q7 0 10.5 -4t2.5 -11l-16 -131q-1 -7 -5.5 -11zM232 757.5q-22 22.5 -22 57.5q0 47 30 77.5t74 30.5q36 0 58 -22t22 -57q0 -46 -30 -77.5t-73 -31.5q-37 0 -59 22.5z" />
    <glyph glyph-name="edotaccent" unicode="&#x117;" horiz-adv-x="441" 
d="M429 217q-4 -4 -11 -4h-207q-2 0 -3.5 -1.5t-1.5 -3.5l-3 -23q-2 -14 3.5 -23t15.5 -9q17 0 25 25q6 14 18 13l147 -10q15 -2 12 -16q-16 -88 -70 -130.5t-152 -42.5q-89 0 -137 39t-48 111q0 8 2 28l22 180q10 81 70.5 129.5t156.5 48.5q88 0 135.5 -41t47.5 -111
q0 -8 -2 -26l-15 -122q-1 -7 -5 -11zM231 358q-7 -9 -9 -23l-4 -25q0 -5 5 -5h34q5 0 5 5l3 25l1 8q0 10 -5 17t-13 7q-10 0 -17 -9zM211 577.5q-22 22.5 -22 57.5q0 47 30 77.5t74 30.5q36 0 58 -22t22 -57q0 -46 -30 -77.5t-73 -31.5q-37 0 -59 22.5z" />
    <glyph glyph-name="Eogonek" unicode="&#x118;" horiz-adv-x="431" 
d="M456.5 543q-4.5 -4 -11.5 -4h-186q-5 0 -5 -5l-12 -98q-2 -5 4 -5h97q7 0 10.5 -4t2.5 -11l-16 -131q-3 -15 -17 -15h-97q-5 0 -5 -5l-12 -99q-2 -5 4 -5h186q7 0 10.5 -4t2.5 -11l-16 -131q-1 -7 -5.5 -11t-11.5 -4h-122q-3 0 -7 -2q-46 -38 -46 -64q0 -20 18 -20
q15 0 14 -11v-62q-2 -14 -13 -17q-31 -9 -56 -9q-35 0 -58.5 17.5t-23.5 60.5q0 54 46 101q4 6 -2 6h-109q-6 0 -9.5 4t-2.5 11l82 670q1 7 5.5 11t10.5 4h359q7 0 10.5 -4t2.5 -11l-16 -131q-1 -7 -5.5 -11z" />
    <glyph glyph-name="eogonek" unicode="&#x119;" horiz-adv-x="441" 
d="M429 217q-4 -4 -11 -4h-207q-2 0 -3.5 -1.5t-1.5 -3.5l-3 -23q-2 -14 3.5 -23t15.5 -9q17 0 25 25q6 14 18 13l147 -10q15 -2 12 -16q-14 -74 -53.5 -116t-109.5 -52l-6 -3q-20 -16 -30.5 -32t-10.5 -28q0 -20 18 -20q7 0 10.5 -2.5t3.5 -8.5l-1 -62q0 -14 -12 -17
q-32 -9 -56 -9q-82 0 -82 79q0 51 44 98q3 4 -2 6q-59 13 -89.5 49.5t-30.5 94.5q0 8 2 28l22 180q10 81 70.5 129.5t156.5 48.5q88 0 135.5 -41t47.5 -111q0 -8 -2 -26l-15 -122q-1 -7 -5 -11zM231 358q-7 -9 -9 -23l-4 -25q0 -5 5 -5h34q5 0 5 5l3 25l1 8q0 10 -5 17
t-13 7q-10 0 -17 -9z" />
    <glyph glyph-name="Ecaron" unicode="&#x11a;" horiz-adv-x="431" 
d="M456.5 543q-4.5 -4 -11.5 -4h-186q-5 0 -5 -5l-12 -98q-2 -5 4 -5h97q7 0 10.5 -4t2.5 -11l-16 -131q-3 -15 -17 -15h-97q-5 0 -5 -5l-12 -99q-2 -5 4 -5h186q7 0 10.5 -4t2.5 -11l-16 -131q-1 -7 -5.5 -11t-11.5 -4h-359q-6 0 -9.5 4t-2.5 11l82 670q1 7 5.5 11t10.5 4
h359q7 0 10.5 -4t2.5 -11l-16 -131q-1 -7 -5.5 -11zM150 870q0 10 14 10h110q12 0 15 -11l15 -45q3 -6 6 0l26 45q6 11 18 11h110q12 0 12 -8q0 -2 -4 -10l-74 -101q-6 -10 -18 -10h-166q-12 0 -16 10l-46 101q-2 6 -2 8z" />
    <glyph glyph-name="ecaron" unicode="&#x11b;" horiz-adv-x="441" 
d="M429 217q-4 -4 -11 -4h-207q-2 0 -3.5 -1.5t-1.5 -3.5l-3 -23q-2 -14 3.5 -23t15.5 -9q17 0 25 25q6 14 18 13l147 -10q15 -2 12 -16q-16 -88 -70 -130.5t-152 -42.5q-89 0 -137 39t-48 111q0 8 2 28l22 180q10 81 70.5 129.5t156.5 48.5q88 0 135.5 -41t47.5 -111
q0 -8 -2 -26l-15 -122q-1 -7 -5 -11zM231 358q-7 -9 -9 -23l-4 -25q0 -5 5 -5h34q5 0 5 5l3 25l1 8q0 10 -5 17t-13 7q-10 0 -17 -9zM126 690q0 10 14 10h110q12 0 15 -11l15 -45q3 -6 6 0l26 45q6 11 18 11h110q12 0 12 -8q0 -2 -4 -10l-74 -101q-6 -10 -18 -10h-166
q-12 0 -16 10l-46 101q-2 6 -2 8z" />
    <glyph glyph-name="Gcircumflex" unicode="&#x11c;" horiz-adv-x="464" 
d="M72.5 38.5q-50.5 46.5 -50.5 126.5q0 9 2 31l38 309q11 93 76 148t161 55q87 0 138.5 -47t51.5 -127q0 -11 -2 -31l-4 -33q-3 -15 -17 -15h-153q-7 0 -10.5 4t-2.5 11l5 35q2 19 -5 30.5t-20 11.5q-14 0 -24 -11.5t-12 -30.5l-38 -310q-2 -19 5 -30.5t20 -11.5
q14 0 23.5 11.5t11.5 30.5l7 50q0 5 -5 5h-8q-7 0 -10.5 4t-2.5 11l14 115q1 7 5.5 11t10.5 4h182q7 0 10.5 -4t2.5 -11l-23 -184q-11 -93 -76.5 -148.5t-161.5 -55.5q-88 0 -138.5 46.5zM141 759q0 2 4 10l71 101q7 10 19 10h166q12 0 16 -10l48 -101q2 -6 2 -7
q0 -11 -13 -11h-111q-12 0 -15 11l-15 45q-1 6 -6 0l-26 -45q-6 -11 -18 -11h-110q-12 0 -12 8z" />
    <glyph glyph-name="gcircumflex" unicode="&#x11d;" horiz-adv-x="446" 
d="M290.5 516q4.5 4 10.5 4h154q6 0 9.5 -4t2.5 -11l-57 -471q-9 -75 -36.5 -128t-88 -84.5t-162.5 -31.5q-37 0 -58 2q-15 0 -13 15l16 133q3 15 18 14q72 -4 101 13.5t38 56.5q1 3 -3 4t-6 -2q-34 -34 -86 -34q-60 0 -87 33t-27 96q0 24 3 49l22 180q11 89 48.5 133.5
t106.5 44.5q58 0 80 -46q2 -3 4 -3t2 4l3 22q1 7 5.5 11zM237 162q7 9 9 23l18 150q2 14 -3 23t-15 9t-16 -9t-8 -23l-19 -150q-2 -15 2.5 -23.5t14.5 -8.5t17 9zM112 579q0 2 4 10l71 101q7 10 19 10h166q12 0 16 -10l48 -101q2 -6 2 -7q0 -11 -13 -11h-111q-12 0 -15 11
l-15 45q-1 6 -6 0l-26 -45q-6 -11 -18 -11h-110q-12 0 -12 8z" />
    <glyph glyph-name="Gbreve" unicode="&#x11e;" horiz-adv-x="464" 
d="M72.5 38.5q-50.5 46.5 -50.5 126.5q0 9 2 31l38 309q11 93 76 148t161 55q87 0 138.5 -47t51.5 -127q0 -11 -2 -31l-4 -33q-3 -15 -17 -15h-153q-7 0 -10.5 4t-2.5 11l5 35q2 19 -5 30.5t-20 11.5q-14 0 -24 -11.5t-12 -30.5l-38 -310q-2 -19 5 -30.5t20 -11.5
q14 0 23.5 11.5t11.5 30.5l7 50q0 5 -5 5h-8q-7 0 -10.5 4t-2.5 11l14 115q1 7 5.5 11t10.5 4h182q7 0 10.5 -4t2.5 -11l-23 -184q-11 -93 -76.5 -148.5t-161.5 -55.5q-88 0 -138.5 46.5zM219 751q-30 28 -30 77q0 11 3 16t12 5h64q13 0 13 -14q1 -16 9 -25t21 -9t23 9
t15 25q3 14 16 14h64q15 0 12 -15q-11 -51 -48.5 -81t-91.5 -30q-52 0 -82 28z" />
    <glyph glyph-name="gbreve" unicode="&#x11f;" horiz-adv-x="446" 
d="M290.5 516q4.5 4 10.5 4h154q6 0 9.5 -4t2.5 -11l-57 -471q-9 -75 -36.5 -128t-88 -84.5t-162.5 -31.5q-37 0 -58 2q-15 0 -13 15l16 133q3 15 18 14q72 -4 101 13.5t38 56.5q1 3 -3 4t-6 -2q-34 -34 -86 -34q-60 0 -87 33t-27 96q0 24 3 49l22 180q11 89 48.5 133.5
t106.5 44.5q58 0 80 -46q2 -3 4 -3t2 4l3 22q1 7 5.5 11zM237 162q7 9 9 23l18 150q2 14 -3 23t-15 9t-16 -9t-8 -23l-19 -150q-2 -15 2.5 -23.5t14.5 -8.5t17 9zM190 571q-30 28 -30 77q0 11 3 16t12 5h64q13 0 13 -14q1 -16 9 -25t21 -9t23 9t15 25q3 14 16 14h64
q15 0 12 -15q-11 -51 -48.5 -81t-91.5 -30q-52 0 -82 28z" />
    <glyph glyph-name="Gdotaccent" unicode="&#x120;" horiz-adv-x="464" 
d="M72.5 38.5q-50.5 46.5 -50.5 126.5q0 9 2 31l38 309q11 93 76 148t161 55q87 0 138.5 -47t51.5 -127q0 -11 -2 -31l-4 -33q-3 -15 -17 -15h-153q-7 0 -10.5 4t-2.5 11l5 35q2 19 -5 30.5t-20 11.5q-14 0 -24 -11.5t-12 -30.5l-38 -310q-2 -19 5 -30.5t20 -11.5
q14 0 23.5 11.5t11.5 30.5l7 50q0 5 -5 5h-8q-7 0 -10.5 4t-2.5 11l14 115q1 7 5.5 11t10.5 4h182q7 0 10.5 -4t2.5 -11l-23 -184q-11 -93 -76.5 -148.5t-161.5 -55.5q-88 0 -138.5 46.5zM244 757.5q-22 22.5 -22 57.5q0 47 30 77.5t74 30.5q36 0 58 -22t22 -57
q0 -46 -30 -77.5t-73 -31.5q-37 0 -59 22.5z" />
    <glyph glyph-name="gdotaccent" unicode="&#x121;" horiz-adv-x="446" 
d="M290.5 516q4.5 4 10.5 4h154q6 0 9.5 -4t2.5 -11l-57 -471q-9 -75 -36.5 -128t-88 -84.5t-162.5 -31.5q-37 0 -58 2q-15 0 -13 15l16 133q3 15 18 14q72 -4 101 13.5t38 56.5q1 3 -3 4t-6 -2q-34 -34 -86 -34q-60 0 -87 33t-27 96q0 24 3 49l22 180q11 89 48.5 133.5
t106.5 44.5q58 0 80 -46q2 -3 4 -3t2 4l3 22q1 7 5.5 11zM237 162q7 9 9 23l18 150q2 14 -3 23t-15 9t-16 -9t-8 -23l-19 -150q-2 -15 2.5 -23.5t14.5 -8.5t17 9zM215 577.5q-22 22.5 -22 57.5q0 47 30 77.5t74 30.5q36 0 58 -22t22 -57q0 -46 -30 -77.5t-73 -31.5
q-37 0 -59 22.5z" />
    <glyph glyph-name="uni0122" unicode="&#x122;" horiz-adv-x="464" 
d="M72.5 38.5q-50.5 46.5 -50.5 126.5q0 9 2 31l38 309q11 93 76 148t161 55q87 0 138.5 -47t51.5 -127q0 -11 -2 -31l-4 -33q-3 -15 -17 -15h-153q-7 0 -10.5 4t-2.5 11l5 35q2 19 -5 30.5t-20 11.5q-14 0 -24 -11.5t-12 -30.5l-38 -310q-2 -19 5 -30.5t20 -11.5
q14 0 23.5 11.5t11.5 30.5l7 50q0 5 -5 5h-8q-7 0 -10.5 4t-2.5 11l14 115q1 7 5.5 11t10.5 4h182q7 0 10.5 -4t2.5 -11l-23 -184q-11 -93 -76.5 -148.5t-161.5 -55.5q-88 0 -138.5 46.5zM76 -163q0 2 4 10l65 93q7 10 19 10h118q12 0 12 -8q0 -3 -5 -10l-87 -94
q-7 -9 -18 -9h-96q-12 0 -12 8z" />
    <glyph glyph-name="uni0123" unicode="&#x123;" horiz-adv-x="446" 
d="M402 675q0 -2 -4 -10l-65 -93q-7 -10 -19 -10h-118q-11 0 -11 7q0 6 5 11l86 94q8 9 18 9h96q12 0 12 -8zM290.5 516q4.5 4 10.5 4h154q6 0 9.5 -4t2.5 -11l-57 -471q-9 -75 -36.5 -128t-88 -84.5t-162.5 -31.5q-37 0 -58 2q-15 0 -13 15l16 133q3 15 18 14
q72 -4 101 13.5t38 56.5q1 3 -3 4t-6 -2q-34 -34 -86 -34q-60 0 -87 33t-27 96q0 24 3 49l22 180q11 89 48.5 133.5t106.5 44.5q58 0 80 -46q2 -3 4 -3t2 4l3 22q1 7 5.5 11zM237 162q7 9 9 23l18 150q2 14 -3 23t-15 9t-16 -9t-8 -23l-19 -150q-2 -15 2.5 -23.5t14.5 -8.5
t17 9z" />
    <glyph glyph-name="Hcircumflex" unicode="&#x124;" horiz-adv-x="471" 
d="M334 696q4 4 11 4h153q7 0 10.5 -4t2.5 -11l-82 -670q-1 -7 -5.5 -11t-11.5 -4h-153q-7 0 -10.5 4t-2.5 11l31 250q0 5 -4 5h-47q-5 0 -5 -5l-31 -250q-1 -7 -5.5 -11t-10.5 -4h-154q-6 0 -9.5 4t-2.5 11l82 670q1 7 5.5 11t10.5 4h154q6 0 9.5 -4t2.5 -11l-30 -249
q-2 -5 4 -5h47q2 0 3.5 1.5t1.5 3.5l31 249q1 7 5 11zM145 760q0 2 4 10l71 101q7 10 19 10h166q12 0 16 -10l48 -101q2 -6 2 -7q0 -11 -13 -11h-111q-12 0 -15 11l-15 45q-1 6 -6 0l-26 -45q-6 -11 -18 -11h-110q-12 0 -12 8z" />
    <glyph glyph-name="hcircumflex" unicode="&#x125;" horiz-adv-x="448" 
d="M455 394q0 -22 -3 -46l-41 -333q-1 -7 -5 -11t-11 -4h-153q-7 0 -10.5 4t-2.5 11l39 320q1 4 1 10q0 22 -17 22q-22 0 -27 -32l-39 -320q-1 -7 -5.5 -11t-10.5 -4h-154q-6 0 -9.5 4t-2.5 11l82 670q1 7 5.5 11t10.5 4h154q6 0 9.5 -4t2.5 -11l-24 -196q0 -2 2 -2
q4 0 10 7q33 34 80 34q119 0 119 -134zM151 758q0 2 4 10l71 101q7 10 19 10h166q12 0 16 -10l48 -101q2 -6 2 -7q0 -11 -13 -11h-111q-12 0 -15 11l-15 45q-1 6 -6 0l-26 -45q-6 -11 -18 -11h-110q-12 0 -12 8z" />
    <glyph glyph-name="Hbar" unicode="&#x126;" horiz-adv-x="471" 
d="M546.5 628q3.5 -4 2.5 -11l-12 -95q-1 -7 -5 -11t-11 -4h-27q-4 0 -6 -5l-59 -487q-1 -7 -5.5 -11t-11.5 -4h-153q-7 0 -10.5 4t-2.5 11l31 250q0 5 -4 5h-47q-5 0 -5 -5l-31 -250q-1 -7 -5.5 -11t-10.5 -4h-154q-6 0 -9.5 4t-2.5 11l59 487q2 5 -4 5h-26q-7 0 -10.5 4
t-2.5 11l12 95q1 7 5.5 11t10.5 4h27q2 0 3.5 1.5t1.5 3.5l6 48q1 7 5.5 11t10.5 4h154q6 0 9.5 -4t2.5 -11l-6 -48q0 -5 5 -5h46q4 0 6 5l6 48q1 7 5 11t11 4h153q7 0 10.5 -4t2.5 -11l-6 -48q0 -5 4 -5h27q7 0 10.5 -4zM296.5 432.5q1.5 1.5 1.5 3.5l8 66q0 5 -4 5h-47
q-5 0 -5 -5l-8 -66q-2 -5 4 -5h47q2 0 3.5 1.5z" />
    <glyph glyph-name="hbar" unicode="&#x127;" horiz-adv-x="448" 
d="M455 394q0 -22 -3 -46l-41 -333q-1 -7 -5 -11t-11 -4h-153q-7 0 -10.5 4t-2.5 11l39 320q1 4 1 10q0 22 -17 22q-22 0 -27 -32l-39 -320q-1 -7 -5.5 -11t-10.5 -4h-154q-6 0 -9.5 4t-2.5 11l64 526q2 5 -4 5h-21q-7 0 -10.5 4t-2.5 11l10 80q1 7 5.5 11t10.5 4h22
q5 0 5 5l3 24q1 7 5.5 11t10.5 4h154q6 0 9.5 -4t2.5 -11l-3 -24q0 -5 5 -5h46q7 0 10.5 -4t2.5 -11l-10 -80q-1 -7 -5.5 -11t-10.5 -4h-47q-5 0 -5 -5l-7 -52q0 -2 2 -2q4 0 10 7q33 34 80 34q119 0 119 -134z" />
    <glyph glyph-name="Itilde" unicode="&#x128;" horiz-adv-x="233" 
d="M10.5 4q-3.5 4 -2.5 11l82 670q1 7 5.5 11t10.5 4h154q6 0 9.5 -4t2.5 -11l-82 -670q-1 -7 -5.5 -11t-10.5 -4h-154q-6 0 -9.5 4zM206 766q-7 4 -17 10.5t-20 6.5q-17 0 -30 -18q-6 -8 -13 -8q-4 0 -8 3l-49 40q-6 5 -6 11q0 2 2 8q17 39 44.5 59t58.5 20q32 0 62 -22
q3 -2 9 -7t12.5 -7.5t14.5 -2.5q18 0 32 15q11 13 20 5l47 -37q5 -3 5 -10q0 -8 -8 -19q-21 -33 -49 -47.5t-56 -14.5q-22 0 -51 15z" />
    <glyph glyph-name="itilde" unicode="&#x129;" horiz-adv-x="198" 
d="M-7.5 4q-3.5 4 -2.5 11l60 490q1 7 5.5 11t11.5 4h153q7 0 10.5 -4t2.5 -11l-60 -490q-3 -15 -17 -15h-153q-7 0 -10.5 4zM166 586q-7 4 -17 10.5t-20 6.5q-17 0 -30 -18q-6 -8 -13 -8q-4 0 -8 3l-49 40q-6 5 -6 11q0 2 2 8q17 39 44.5 59t58.5 20q32 0 62 -22q3 -2 9 -7
t12.5 -7.5t14.5 -2.5q18 0 32 15q11 13 20 5l47 -37q5 -3 5 -10q0 -8 -8 -19q-21 -33 -49 -47.5t-56 -14.5q-22 0 -51 15z" />
    <glyph glyph-name="Imacron" unicode="&#x12a;" horiz-adv-x="233" 
d="M10.5 4q-3.5 4 -2.5 11l82 670q1 7 5.5 11t10.5 4h154q6 0 9.5 -4t2.5 -11l-82 -670q-1 -7 -5.5 -11t-10.5 -4h-154q-6 0 -9.5 4zM76.5 756q-3.5 4 -2.5 11l11 95q1 7 5.5 11t11.5 4h195q6 0 9.5 -4t2.5 -11l-11 -95q-1 -7 -5.5 -11t-11.5 -4h-195q-6 0 -9.5 4z" />
    <glyph glyph-name="imacron" unicode="&#x12b;" horiz-adv-x="198" 
d="M-7.5 4q-3.5 4 -2.5 11l60 490q1 7 5.5 11t11.5 4h153q7 0 10.5 -4t2.5 -11l-60 -490q-3 -15 -17 -15h-153q-7 0 -10.5 4zM37.5 576q-3.5 4 -2.5 11l11 95q1 7 5.5 11t11.5 4h195q6 0 9.5 -4t2.5 -11l-11 -95q-1 -7 -5.5 -11t-11.5 -4h-195q-6 0 -9.5 4z" />
    <glyph glyph-name="ibreve" unicode="&#x12d;" horiz-adv-x="198" 
d="M-7.5 4q-3.5 4 -2.5 11l60 490q1 7 5.5 11t11.5 4h153q7 0 10.5 -4t2.5 -11l-60 -490q-3 -15 -17 -15h-153q-7 0 -10.5 4zM65.5 583.5q-30.5 28.5 -30.5 77.5q0 20 16 20h64q13 0 13 -14q1 -16 8.5 -25t20.5 -9t23 9t15 25q3 14 17 14h64q15 0 12 -15q-11 -51 -49 -81
t-91 -30q-52 0 -82.5 28.5z" />
    <glyph glyph-name="Iogonek" unicode="&#x12e;" horiz-adv-x="233" 
d="M10.5 4q-3.5 4 -2.5 11l82 670q1 7 5.5 11t10.5 4h154q6 0 9.5 -4t2.5 -11l-82 -670q-1 -7 -5.5 -11t-10.5 -4h-154q-6 0 -9.5 4zM146 -186q-32 -9 -57 -9q-35 0 -58.5 17.5t-23.5 59.5q0 57 54 110q9 8 20 8h81q11 0 11 -7q0 -5 -8 -11q-39 -34 -39 -58q0 -20 19 -20
q14 0 14 -11l-1 -62q0 -14 -12 -17z" />
    <glyph glyph-name="iogonek" unicode="&#x12f;" horiz-adv-x="218" 
d="M2.5 4q-3.5 4 -2.5 11l60 490q1 7 5.5 11t11.5 4h153q7 0 10.5 -4t2.5 -11l-60 -490q-3 -15 -17 -15h-153q-7 0 -10.5 4zM99 577.5q-22 22.5 -22 57.5q0 47 30 77.5t74 30.5q36 0 58 -22t22 -57q0 -46 -30 -77.5t-73 -31.5q-37 0 -59 22.5zM139 -186q-32 -9 -57 -9
q-35 0 -58.5 17.5t-23.5 59.5q0 57 54 110q9 8 20 8h81q11 0 11 -7q0 -5 -8 -11q-39 -34 -39 -58q0 -20 19 -20q14 0 14 -11l-1 -62q0 -14 -12 -17z" />
    <glyph glyph-name="Idotaccent" unicode="&#x130;" horiz-adv-x="233" 
d="M10.5 4q-3.5 4 -2.5 11l82 670q1 7 5.5 11t10.5 4h154q6 0 9.5 -4t2.5 -11l-82 -670q-1 -7 -5.5 -11t-10.5 -4h-154q-6 0 -9.5 4zM129 757.5q-22 22.5 -22 57.5q0 47 30 77.5t74 30.5q36 0 58 -22t22 -57q0 -46 -30 -77.5t-73 -31.5q-37 0 -59 22.5z" />
    <glyph glyph-name="dotlessi" unicode="&#x131;" horiz-adv-x="198" 
d="M-7.5 4q-3.5 4 -2.5 11l60 490q1 7 5.5 11t11.5 4h153q7 0 10.5 -4t2.5 -11l-60 -490q-3 -15 -17 -15h-153q-7 0 -10.5 4z" />
    <glyph glyph-name="ij" unicode="&#x133;" horiz-adv-x="433" 
d="M99 577.5q-22 22.5 -22 57.5q0 47 30 77.5t73 30.5q37 0 59 -22t22 -57q0 -46 -30 -77.5t-74 -31.5q-36 0 -58 22.5zM4.5 4q-3.5 4 -2.5 11l60 490q1 7 5.5 11t10.5 4h154q6 0 9.5 -4t2.5 -11l-60 -490q-1 -7 -5 -11t-11 -4h-153q-7 0 -10.5 4zM314 577.5
q-22 22.5 -22 57.5q0 47 30 77.5t73 30.5q37 0 59 -22t22 -57q0 -46 -30 -77.5t-74 -31.5q-36 0 -58 22.5zM97 -186l16 129q1 15 17 15q45 -2 63.5 15.5t23.5 55.5l58 476q1 7 5.5 11t10.5 4h154q6 0 9.5 -4t2.5 -11l-58 -476q-11 -89 -30 -135t-78 -72t-180 -23
q-16 0 -14 15z" />
    <glyph glyph-name="Jcircumflex" unicode="&#x134;" horiz-adv-x="456" 
d="M61 38.5q-51 46.5 -51 123.5q0 10 2 30l7 58q1 7 5.5 11t10.5 4h154q6 0 9.5 -4t2.5 -11l-7 -60q-2 -16 4.5 -26.5t19.5 -10.5t23 10.5t11 26.5l61 495q1 7 5.5 11t10.5 4h154q6 0 9.5 -4t2.5 -11l-60 -493q-7 -59 -39.5 -104.5t-83.5 -70.5t-114 -25q-86 0 -137 46.5z
M244 760q0 2 4 10l71 101q7 10 19 10h166q12 0 16 -10l48 -101q2 -6 2 -7q0 -11 -13 -11h-111q-12 0 -15 11l-15 45q-1 6 -6 0l-26 -45q-6 -11 -18 -11h-110q-12 0 -12 8z" />
    <glyph glyph-name="jcircumflex" unicode="&#x135;" horiz-adv-x="226" 
d="M-114 -186l16 129q1 15 17 15q45 -2 63.5 15.5t23.5 55.5l58 476q1 7 5.5 11t10.5 4h154q6 0 9.5 -4t2.5 -11l-58 -476q-11 -89 -30 -135t-78 -72t-180 -23q-16 0 -14 15zM-1 579q0 2 4 10l71 101q7 10 19 10h166q12 0 16 -10l48 -101q2 -6 2 -7q0 -11 -13 -11h-111
q-12 0 -15 11l-15 45q-1 6 -6 0l-26 -45q-6 -11 -18 -11h-110q-12 0 -12 8z" />
    <glyph glyph-name="uni0136" unicode="&#x136;" horiz-adv-x="501" 
d="M10.5 4q-3.5 4 -2.5 11l82 670q1 7 5.5 11t10.5 4h154q6 0 9.5 -4t2.5 -11l-24 -201q-1 -4 1 -4t4 3l108 205q6 12 19 12h160q12 0 12 -9q0 -4 -3 -9l-173 -296q-1 -4 -1 -6l97 -363v-4q0 -13 -14 -13h-161q-13 0 -16 12l-51 206q0 3 -2 3.5t-3 -3.5l-12 -22l-1 -6
l-22 -175q-1 -7 -5.5 -11t-10.5 -4h-154q-6 0 -9.5 4zM116 -155q0 2 4 10l65 93q7 10 19 10h118q12 0 12 -8q0 -3 -5 -10l-87 -94q-7 -9 -18 -9h-96q-12 0 -12 8z" />
    <glyph glyph-name="uni0137" unicode="&#x137;" horiz-adv-x="465" 
d="M6.5 4q-3.5 4 -2.5 11l82 670q1 7 5.5 11t10.5 4h154q6 0 9.5 -4t2.5 -11l-34 -281q-1 -4 1.5 -4t4.5 3l58 106q6 11 18 11h157q12 0 12 -8q0 -2 -4 -10l-132 -184q-2 -4 -1 -7l83 -294v-4q0 -13 -14 -13h-157q-12 0 -15 12l-27 144q0 3 -2.5 3.5t-4.5 -3.5l-9 -17l-1 -6
l-15 -118q-1 -7 -5.5 -11t-10.5 -4h-154q-6 0 -9.5 4zM83 -155q0 2 4 10l65 93q7 10 19 10h118q12 0 12 -8q0 -3 -5 -10l-87 -94q-7 -9 -18 -9h-96q-12 0 -12 8z" />
    <glyph glyph-name="Lacute" unicode="&#x139;" horiz-adv-x="433" 
d="M10.5 4q-3.5 4 -2.5 11l82 670q1 7 5.5 11t10.5 4h154q6 0 9.5 -4t2.5 -11l-63 -519q-2 -5 4 -5h190q7 0 10.5 -4t2.5 -11l-16 -131q-3 -15 -17 -15h-363q-6 0 -9.5 4zM119 767q0 2 4 10l65 93q7 10 19 10h118q12 0 12 -8q0 -3 -5 -10l-87 -94q-7 -9 -18 -9h-96
q-12 0 -12 8z" />
    <glyph glyph-name="lacute" unicode="&#x13a;" horiz-adv-x="221" 
d="M4.5 4q-3.5 4 -2.5 11l82 670q1 7 5.5 11t10.5 4h154q6 0 9.5 -4t2.5 -11l-82 -670q-1 -7 -5 -11t-11 -4h-153q-7 0 -10.5 4zM112 767q0 2 4 10l65 93q7 10 19 10h118q12 0 12 -8q0 -3 -5 -10l-87 -94q-7 -9 -18 -9h-96q-12 0 -12 8z" />
    <glyph glyph-name="uni013B" unicode="&#x13b;" horiz-adv-x="433" 
d="M10.5 4q-3.5 4 -2.5 11l82 670q1 7 5.5 11t10.5 4h154q6 0 9.5 -4t2.5 -11l-63 -519q-2 -5 4 -5h190q7 0 10.5 -4t2.5 -11l-16 -131q-3 -15 -17 -15h-363q-6 0 -9.5 4zM49 -155q0 2 4 10l65 93q7 10 19 10h118q12 0 12 -8q0 -3 -5 -10l-87 -94q-7 -9 -18 -9h-96
q-12 0 -12 8z" />
    <glyph glyph-name="uni013C" unicode="&#x13c;" horiz-adv-x="221" 
d="M4.5 4q-3.5 4 -2.5 11l82 670q1 7 5.5 11t10.5 4h154q6 0 9.5 -4t2.5 -11l-82 -670q-1 -7 -5 -11t-11 -4h-153q-7 0 -10.5 4zM-81 -155q0 2 4 10l65 93q7 10 19 10h118q12 0 12 -8q0 -3 -5 -10l-87 -94q-7 -9 -18 -9h-96q-12 0 -12 8z" />
    <glyph glyph-name="Lcaron" unicode="&#x13d;" horiz-adv-x="437" 
d="M10.5 4q-3.5 4 -2.5 11l82 670q1 7 5.5 11t10.5 4h154q6 0 9.5 -4t2.5 -11l-63 -519q-2 -5 4 -5h190q7 0 10.5 -4t2.5 -11l-16 -131q-3 -15 -17 -15h-363q-6 0 -9.5 4zM278 587q0 2 4 10l65 93q7 10 19 10h118q12 0 12 -8q0 -3 -5 -10l-87 -94q-7 -9 -18 -9h-96
q-12 0 -12 8z" />
    <glyph glyph-name="lcaron" unicode="&#x13e;" horiz-adv-x="442" 
d="M4.5 4q-3.5 4 -2.5 11l82 670q1 7 5.5 11t10.5 4h154q6 0 9.5 -4t2.5 -11l-82 -670q-1 -7 -5 -11t-11 -4h-153q-7 0 -10.5 4zM268 588q0 2 4 10l65 93q7 10 19 10h118q12 0 12 -8q0 -3 -5 -10l-87 -94q-7 -9 -18 -9h-96q-12 0 -12 8z" />
    <glyph glyph-name="ldot" unicode="&#x140;" horiz-adv-x="223" 
d="M4.5 4q-3.5 4 -2.5 11l82 670q1 7 5.5 11t10.5 4h154q6 0 9.5 -4t2.5 -11l-82 -670q-1 -7 -5 -11t-11 -4h-153q-7 0 -10.5 4zM124 757.5q-22 22.5 -22 57.5q0 47 30 77.5t74 30.5q36 0 58 -22t22 -57q0 -46 -30 -77.5t-73 -31.5q-37 0 -59 22.5z" />
    <glyph glyph-name="Lslash" unicode="&#x141;" horiz-adv-x="522" 
d="M302 161h190q7 0 10.5 -4t2.5 -11l-16 -131q-1 -7 -5.5 -11t-11.5 -4h-362q-7 0 -10.5 4t-2.5 11l15 127q1 3 -1 4t-4 -1l-29 -24q-7 -5 -11 -5q-5 0 -9 6l-60 84q-3 5 -3 9q0 6 7 12l131 107q4 2 4 6l42 345q1 7 5.5 11t11.5 4h153q7 0 10.5 -4t2.5 -11l-22 -176
q-1 -3 1 -4t4 1l91 74q7 5 11 5q5 0 9 -6l60 -84q3 -4 3 -9q0 -6 -7 -12l-193 -157q-3 -1 -3 -6l-18 -145q-2 -5 4 -5z" />
    <glyph glyph-name="lslash" unicode="&#x142;" horiz-adv-x="437" 
d="M457 398q0 -9 -10 -14l-121 -63q-5 -2 -5 -6l-37 -300q-1 -7 -5.5 -11t-10.5 -4h-154q-6 0 -9.5 4t-2.5 11l24 196q0 7 -6 4l-37 -19q-6 -2 -8 -2q-8 0 -10 8l-36 93l-1 6q0 8 10 14l103 55q5 3 5 6l38 309q1 7 5.5 11t10.5 4h154q6 0 9.5 -4t2.5 -11l-25 -204q0 -3 2 -4
t4 0l51 27q6 2 7 2q6 0 11 -8l39 -94q2 -4 2 -6z" />
    <glyph glyph-name="Nacute" unicode="&#x143;" horiz-adv-x="512" 
d="M376.5 696q4.5 4 11.5 4h151q7 0 10.5 -4t2.5 -11l-83 -670q-1 -7 -5 -11t-11 -4h-173q-12 0 -14 13l-38 307q0 3 -2 3t-2 -3l-36 -305q-1 -7 -5.5 -11t-10.5 -4h-152q-6 0 -9.5 4t-2.5 11l82 670q1 7 5.5 11t10.5 4h171q12 0 14 -13l39 -309q0 -3 2 -2t3 3l36 306
q1 7 5.5 11zM253 767q0 2 4 10l65 93q7 10 19 10h118q12 0 12 -8q0 -3 -5 -10l-87 -94q-7 -9 -18 -9h-96q-12 0 -12 8z" />
    <glyph glyph-name="nacute" unicode="&#x144;" horiz-adv-x="448" 
d="M455 394q0 -22 -3 -46l-41 -333q-1 -7 -5 -11t-11 -4h-153q-7 0 -10.5 4t-2.5 11l39 320q1 4 1 10q0 22 -17 22q-22 0 -27 -32l-39 -320q-1 -7 -5.5 -11t-10.5 -4h-154q-6 0 -9.5 4t-2.5 11l60 490q1 7 5.5 11t10.5 4h154q6 0 9.5 -4t2.5 -11l-2 -16q0 -2 2 -2q4 0 10 7
q33 34 80 34q119 0 119 -134zM203 587q0 2 4 10l65 93q7 10 19 10h118q12 0 12 -8q0 -3 -5 -10l-87 -94q-7 -9 -18 -9h-96q-12 0 -12 8z" />
    <glyph glyph-name="uni0145" unicode="&#x145;" horiz-adv-x="512" 
d="M376.5 696q4.5 4 11.5 4h151q7 0 10.5 -4t2.5 -11l-83 -670q-1 -7 -5 -11t-11 -4h-173q-12 0 -14 13l-38 307q0 3 -2 3t-2 -3l-36 -305q-1 -7 -5.5 -11t-10.5 -4h-152q-6 0 -9.5 4t-2.5 11l82 670q1 7 5.5 11t10.5 4h171q12 0 14 -13l39 -309q0 -3 2 -2t3 3l36 306
q1 7 5.5 11zM114 -155q0 2 4 10l65 93q7 10 19 10h118q12 0 12 -8q0 -3 -5 -10l-87 -94q-7 -9 -18 -9h-96q-12 0 -12 8z" />
    <glyph glyph-name="uni0146" unicode="&#x146;" horiz-adv-x="448" 
d="M455 394q0 -22 -3 -46l-41 -333q-1 -7 -5 -11t-11 -4h-153q-7 0 -10.5 4t-2.5 11l39 320q1 4 1 10q0 22 -17 22q-22 0 -27 -32l-39 -320q-1 -7 -5.5 -11t-10.5 -4h-154q-6 0 -9.5 4t-2.5 11l60 490q1 7 5.5 11t10.5 4h154q6 0 9.5 -4t2.5 -11l-2 -16q0 -2 2 -2q4 0 10 7
q33 34 80 34q119 0 119 -134zM74 -155q0 2 4 10l65 93q7 10 19 10h118q12 0 12 -8q0 -3 -5 -10l-87 -94q-7 -9 -18 -9h-96q-12 0 -12 8z" />
    <glyph glyph-name="Ncaron" unicode="&#x147;" horiz-adv-x="512" 
d="M376.5 696q4.5 4 11.5 4h151q7 0 10.5 -4t2.5 -11l-83 -670q-1 -7 -5 -11t-11 -4h-173q-12 0 -14 13l-38 307q0 3 -2 3t-2 -3l-36 -305q-1 -7 -5.5 -11t-10.5 -4h-152q-6 0 -9.5 4t-2.5 11l82 670q1 7 5.5 11t10.5 4h171q12 0 14 -13l39 -309q0 -3 2 -2t3 3l36 306
q1 7 5.5 11zM184 870q0 10 14 10h110q12 0 15 -11l15 -45q3 -6 6 0l26 45q6 11 18 11h110q12 0 12 -8q0 -2 -4 -10l-74 -101q-6 -10 -18 -10h-166q-12 0 -16 10l-46 101q-2 6 -2 8z" />
    <glyph glyph-name="ncaron" unicode="&#x148;" horiz-adv-x="448" 
d="M455 394q0 -22 -3 -46l-41 -333q-1 -7 -5 -11t-11 -4h-153q-7 0 -10.5 4t-2.5 11l39 320q1 4 1 10q0 22 -17 22q-22 0 -27 -32l-39 -320q-1 -7 -5.5 -11t-10.5 -4h-154q-6 0 -9.5 4t-2.5 11l60 490q1 7 5.5 11t10.5 4h154q6 0 9.5 -4t2.5 -11l-2 -16q0 -2 2 -2q4 0 10 7
q33 34 80 34q119 0 119 -134zM133 690q0 10 14 10h110q12 0 15 -11l15 -45q3 -6 6 0l26 45q6 11 18 11h110q12 0 12 -8q0 -2 -4 -10l-74 -101q-6 -10 -18 -10h-166q-12 0 -16 10l-46 101q-2 6 -2 8z" />
    <glyph glyph-name="Eng" unicode="&#x14a;" horiz-adv-x="512" 
d="M376.5 696q4.5 4 11.5 4h151q7 0 10.5 -4t2.5 -11l-84 -685q-11 -80 -30.5 -123.5t-75.5 -67t-168 -20.5q-7 0 -11 4t-2 11l14 129q3 15 18 15q30 -1 40.5 10.5t13.5 38.5q1 2 0.5 3.5t-0.5 2.5l-39 317q0 3 -2 2.5t-3 -3.5l-35 -304q-1 -7 -5.5 -11t-10.5 -4h-152
q-6 0 -9.5 4t-2.5 11l82 670q1 7 5.5 11t10.5 4h171q12 0 14 -13l39 -309q0 -3 2 -2t3 3l36 306q1 7 5.5 11z" />
    <glyph glyph-name="eng" unicode="&#x14b;" horiz-adv-x="448" 
d="M387.5 -103q-14.5 -42 -69.5 -71t-174 -27q-16 0 -14 15l16 127q1 7 5.5 10.5t11.5 3.5q36 1 48.5 13t16.5 39l40 328q1 4 1 10q0 22 -17 22q-22 0 -27 -32l-39 -320q-1 -7 -5.5 -11t-10.5 -4h-154q-6 0 -9.5 4t-2.5 11l60 490q1 7 5.5 11t10.5 4h154q6 0 9.5 -4t2.5 -11
l-2 -16q0 -3 2 -4t4 2q33 41 86 41q119 0 119 -134q0 -22 -3 -46l-39 -319q-11 -90 -25.5 -132z" />
    <glyph glyph-name="Omacron" unicode="&#x14c;" horiz-adv-x="469" 
d="M74 40.5q-51 48.5 -51 131.5q0 10 2 34l36 288q12 98 77.5 156t163.5 58q88 0 139.5 -48.5t51.5 -131.5q0 -10 -2 -34l-35 -288q-12 -98 -78 -156t-164 -58q-89 0 -140 48.5zM259.5 165q10.5 12 13.5 33l37 304q2 21 -5 33t-22 12q-16 0 -26.5 -12t-12.5 -33l-37 -304
q-1 -4 -1 -11q0 -16 7.5 -25t20.5 -9q15 0 25.5 12zM194.5 756q-3.5 4 -2.5 11l11 95q1 7 5.5 11t11.5 4h195q6 0 9.5 -4t2.5 -11l-11 -95q-1 -7 -5.5 -11t-11.5 -4h-195q-6 0 -9.5 4z" />
    <glyph glyph-name="omacron" unicode="&#x14d;" horiz-adv-x="447" 
d="M65.5 31q-48.5 39 -48.5 111q0 8 2 28l22 180q10 81 71 129.5t158 48.5q89 0 137 -41t48 -111q0 -8 -2 -26l-22 -180q-11 -85 -69.5 -131.5t-157.5 -46.5q-90 0 -138.5 39zM241 162q8 9 10 23l18 150q1 14 -4 23t-15 9q-11 0 -18.5 -9t-9.5 -23l-19 -150q-2 -14 4 -23
t16 -9t18 9zM162.5 576q-3.5 4 -2.5 11l11 95q1 7 5.5 11t11.5 4h195q6 0 9.5 -4t2.5 -11l-11 -95q-1 -7 -5.5 -11t-11.5 -4h-195q-6 0 -9.5 4z" />
    <glyph glyph-name="obreve" unicode="&#x14f;" horiz-adv-x="447" 
d="M65.5 31q-48.5 39 -48.5 111q0 8 2 28l22 180q10 81 71 129.5t158 48.5q89 0 137 -41t48 -111q0 -8 -2 -26l-22 -180q-11 -85 -69.5 -131.5t-157.5 -46.5q-90 0 -138.5 39zM241 162q8 9 10 23l18 150q1 14 -4 23t-15 9q-11 0 -18.5 -9t-9.5 -23l-19 -150q-2 -14 4 -23
t16 -9t18 9zM190.5 583.5q-30.5 28.5 -30.5 77.5q0 20 16 20h64q13 0 13 -14q1 -16 8.5 -25t20.5 -9t23 9t15 25q3 14 17 14h64q15 0 12 -15q-11 -51 -49 -81t-91 -30q-52 0 -82.5 28.5z" />
    <glyph glyph-name="Ohungarumlaut" unicode="&#x150;" horiz-adv-x="469" 
d="M74 40.5q-51 48.5 -51 131.5q0 10 2 34l36 288q12 98 77.5 156t163.5 58q88 0 139.5 -48.5t51.5 -131.5q0 -10 -2 -34l-35 -288q-12 -98 -78 -156t-164 -58q-89 0 -140 48.5zM259.5 165q10.5 12 13.5 33l37 304q2 21 -5 33t-22 12q-16 0 -26.5 -12t-12.5 -33l-37 -304
q-1 -4 -1 -11q0 -16 7.5 -25t20.5 -9q15 0 25.5 12zM164 768q0 6 2 9l51 92q4 11 17 11h125q11 0 11 -9q0 -3 -3 -9l-57 -92q-8 -11 -18 -11h-117q-11 0 -11 9zM342 761.5q-3 2.5 -3 6.5q0 5 3 9l57 92q7 11 19 11h115q12 0 12 -9q0 -4 -3 -9l-57 -92q-8 -11 -18 -11h-117
q-5 0 -8 2.5z" />
    <glyph glyph-name="ohungarumlaut" unicode="&#x151;" horiz-adv-x="447" 
d="M65.5 31q-48.5 39 -48.5 111q0 8 2 28l22 180q10 81 71 129.5t158 48.5q89 0 137 -41t48 -111q0 -8 -2 -26l-22 -180q-11 -85 -69.5 -131.5t-157.5 -46.5q-90 0 -138.5 39zM241 162q8 9 10 23l18 150q1 14 -4 23t-15 9q-11 0 -18.5 -9t-9.5 -23l-19 -150q-2 -14 4 -23
t16 -9t18 9zM131 588q0 6 2 9l51 92q4 11 17 11h125q11 0 11 -9q0 -3 -3 -9l-57 -92q-8 -11 -18 -11h-117q-11 0 -11 9zM309 581.5q-3 2.5 -3 6.5q0 5 3 9l57 92q7 11 19 11h115q12 0 12 -9q0 -4 -3 -9l-57 -92q-8 -11 -18 -11h-117q-5 0 -8 2.5z" />
    <glyph glyph-name="OE" unicode="&#x152;" horiz-adv-x="673" 
d="M699 543q-4 -4 -11 -4h-186q-4 0 -6 -5l-12 -98q0 -5 4 -5h97q7 0 10.5 -4t2.5 -11l-16 -131q-1 -7 -5.5 -11t-10.5 -4h-97q-4 0 -6 -5l-12 -99q0 -5 4 -5h187q6 0 9.5 -4t2.5 -11l-16 -131q-1 -7 -5 -11t-11 -4h-359q-6 0 -10 2.5t-4 5.5q2 6 -5 3q-36 -19 -78 -19
q-38 0 -71 22t-52.5 62.5t-19.5 94.5q0 11 2 35l36 288q8 63 37.5 112t71.5 75.5t84 26.5q43 0 74 -20q4 -3 6 3q5 9 15 9h359q6 0 9.5 -4t2.5 -11l-16 -131q-1 -7 -5 -11zM259.5 165q10.5 12 13.5 33l37 304q2 21 -5 33t-22 12q-16 0 -26.5 -12t-12.5 -33l-37 -304
q-1 -4 -1 -11q0 -16 7.5 -25t20.5 -9q15 0 25.5 12z" />
    <glyph glyph-name="oe" unicode="&#x153;" horiz-adv-x="693" 
d="M680.5 217q-4.5 -4 -11.5 -4h-206q-4 0 -6 -5l-3 -23q-2 -14 3.5 -23t15.5 -9q17 0 25 25q6 14 18 13l148 -9q13 -2 12 -16q-33 -174 -223 -174q-74 0 -115 47q-3 4 -7 0q-52 -47 -127 -47q-90 0 -138.5 39t-48.5 111q0 8 2 28l22 180q10 81 71 129.5t158 48.5
q75 0 115 -50q3 -4 7 0q52 50 127 50q88 0 136 -41t48 -111q0 -8 -2 -26l-15 -122q-1 -7 -5.5 -11zM265 358q-5 9 -15 9q-11 0 -18.5 -9t-9.5 -23l-19 -150q-2 -14 4 -23t16 -9t18 9t10 23l18 150q1 14 -4 23zM482 358q-7 -9 -9 -23l-3 -25q-2 -5 4 -5h34q5 0 5 5l3 25l1 8
q0 11 -5 17.5t-13 6.5q-10 0 -17 -9z" />
    <glyph glyph-name="Racute" unicode="&#x154;" horiz-adv-x="475" 
d="M257 13l-29 252q0 4 -3 4q-4 0 -4 -5l-31 -249q-1 -7 -5.5 -11t-10.5 -4h-154q-6 0 -9.5 4t-2.5 11l82 670q1 7 5.5 11t10.5 4h219q80 0 126.5 -51t46.5 -135q0 -24 -2 -37q-7 -55 -31 -98.5t-62 -70.5q-5 -3 -3 -7l43 -284v-4q0 -6 -4 -9.5t-10 -3.5h-158q-12 0 -14 13z
M259 539q-5 0 -5 -5l-15 -117q0 -5 5 -5h13q24 0 40.5 21t16.5 58q0 23 -11 35.5t-30 12.5h-14zM225 767q0 2 4 10l65 93q7 10 19 10h118q12 0 12 -8q0 -3 -5 -10l-87 -94q-7 -9 -18 -9h-96q-12 0 -12 8z" />
    <glyph glyph-name="racute" unicode="&#x155;" horiz-adv-x="336" 
d="M368 517q8 -5 5 -19l-44 -157q-2 -8 -6 -10t-12 0q-9 3 -22 3q-20 0 -34 -7q-15 -7 -25 -22.5t-12 -31.5l-32 -257q-1 -7 -5 -11t-11 -4h-153q-7 0 -10.5 4t-2.5 11l60 489q1 7 5.5 11t10.5 4h154q6 0 9.5 -4t2.5 -11l-3 -23q0 -4 1.5 -4.5t3.5 2.5q30 47 82 47
q23 0 38 -10zM156 587q0 2 4 10l65 93q7 10 19 10h118q12 0 12 -8q0 -3 -5 -10l-87 -94q-7 -9 -18 -9h-96q-12 0 -12 8z" />
    <glyph glyph-name="uni0156" unicode="&#x156;" horiz-adv-x="475" 
d="M257 13l-29 252q0 4 -3 4q-4 0 -4 -5l-31 -249q-1 -7 -5.5 -11t-10.5 -4h-154q-6 0 -9.5 4t-2.5 11l82 670q1 7 5.5 11t10.5 4h219q80 0 126.5 -51t46.5 -135q0 -24 -2 -37q-7 -55 -31 -98.5t-62 -70.5q-5 -3 -3 -7l43 -284v-4q0 -6 -4 -9.5t-10 -3.5h-158q-12 0 -14 13z
M259 539q-5 0 -5 -5l-15 -117q0 -5 5 -5h13q24 0 40.5 21t16.5 58q0 23 -11 35.5t-30 12.5h-14zM86 -155q0 2 4 10l65 93q7 10 19 10h118q12 0 12 -8q0 -3 -5 -10l-87 -94q-7 -9 -18 -9h-96q-12 0 -12 8z" />
    <glyph glyph-name="uni0157" unicode="&#x157;" horiz-adv-x="336" 
d="M368 517q8 -5 5 -19l-44 -157q-2 -8 -6 -10t-12 0q-9 3 -22 3q-20 0 -34 -7q-15 -7 -25 -22.5t-12 -31.5l-32 -257q-1 -7 -5 -11t-11 -4h-153q-7 0 -10.5 4t-2.5 11l60 489q1 7 5.5 11t10.5 4h154q6 0 9.5 -4t2.5 -11l-3 -23q0 -4 1.5 -4.5t3.5 2.5q30 47 82 47
q23 0 38 -10zM-82 -155q0 2 4 10l65 93q7 10 19 10h118q12 0 12 -8q0 -3 -5 -10l-87 -94q-7 -9 -18 -9h-96q-12 0 -12 8z" />
    <glyph glyph-name="Rcaron" unicode="&#x158;" horiz-adv-x="475" 
d="M257 13l-29 252q0 4 -3 4q-4 0 -4 -5l-31 -249q-1 -7 -5.5 -11t-10.5 -4h-154q-6 0 -9.5 4t-2.5 11l82 670q1 7 5.5 11t10.5 4h219q80 0 126.5 -51t46.5 -135q0 -24 -2 -37q-7 -55 -31 -98.5t-62 -70.5q-5 -3 -3 -7l43 -284v-4q0 -6 -4 -9.5t-10 -3.5h-158q-12 0 -14 13z
M259 539q-5 0 -5 -5l-15 -117q0 -5 5 -5h13q24 0 40.5 21t16.5 58q0 23 -11 35.5t-30 12.5h-14zM155 870q0 10 14 10h110q12 0 15 -11l15 -45q3 -6 6 0l26 45q6 11 18 11h110q12 0 12 -8q0 -2 -4 -10l-74 -101q-6 -10 -18 -10h-166q-12 0 -16 10l-46 101q-2 6 -2 8z" />
    <glyph glyph-name="rcaron" unicode="&#x159;" horiz-adv-x="336" 
d="M368 517q8 -5 5 -19l-44 -157q-2 -8 -6 -10t-12 0q-9 3 -22 3q-20 0 -34 -7q-15 -7 -25 -22.5t-12 -31.5l-32 -257q-1 -7 -5 -11t-11 -4h-153q-7 0 -10.5 4t-2.5 11l60 489q1 7 5.5 11t10.5 4h154q6 0 9.5 -4t2.5 -11l-3 -23q0 -4 1.5 -4.5t3.5 2.5q30 47 82 47
q23 0 38 -10zM87 690q0 10 14 10h110q12 0 15 -11l15 -45q3 -6 6 0l26 45q6 11 18 11h110q12 0 12 -8q0 -2 -4 -10l-74 -101q-6 -10 -18 -10h-166q-12 0 -16 10l-46 101q-2 6 -2 8z" />
    <glyph glyph-name="Sacute" unicode="&#x15a;" horiz-adv-x="449" 
d="M72 36.5q-50 44.5 -50 118.5q0 7 2 25l4 31q1 7 5.5 11t10.5 4h152q6 0 9.5 -4t2.5 -11l-2 -22q-2 -16 4 -26t18 -10q13 0 22 11t9 27q0 15 -14.5 31t-55.5 49q-40 33 -66 58.5t-45 63t-19 85.5q0 9 2 31q11 89 74 144t157 55q86 0 135.5 -46t49.5 -124q0 -9 -2 -29
l-3 -22q-1 -7 -5.5 -11t-10.5 -4h-151q-6 0 -9.5 4t-2.5 11l3 26q1 15 -5.5 24.5t-18.5 9.5q-14 0 -23 -12t-9 -32q0 -17 14 -35t52 -50q51 -43 78 -69.5t42.5 -58t15.5 -71.5q0 -8 -2 -28q-12 -91 -75.5 -145t-156.5 -54q-86 0 -136 44.5zM223 767q0 2 4 10l65 93
q7 10 19 10h118q12 0 12 -8q0 -3 -5 -10l-87 -94q-7 -9 -18 -9h-96q-12 0 -12 8z" />
    <glyph glyph-name="sacute" unicode="&#x15b;" horiz-adv-x="425" 
d="M60 31q-50 39 -50 104q0 14 1 21l1 3q1 7 5 11t11 4h146q6 0 10 -3.5t3 -9.5q-2 -15 5.5 -23t18.5 -8q10 0 15.5 6t5.5 15q0 13 -14 20.5t-44 16.5l-27 9q-44 16 -74.5 48.5t-30.5 88.5q0 16 1 24q10 78 67.5 124t143.5 46q81 0 128.5 -42.5t47.5 -113.5q0 -8 -2 -26
q-2 -10 -16 -10h-141q-7 0 -10.5 4t-2.5 11l1 6v5q0 21 -18 21q-11 0 -17.5 -9.5t-6.5 -19.5q0 -18 17 -28.5t45 -19.5q62 -20 99.5 -49t37.5 -85q0 -83 -61.5 -131.5t-158.5 -48.5q-86 0 -136 39zM185 587q0 2 4 10l65 93q7 10 19 10h118q12 0 12 -8q0 -3 -5 -10l-87 -94
q-7 -9 -18 -9h-96q-12 0 -12 8z" />
    <glyph glyph-name="Scircumflex" unicode="&#x15c;" horiz-adv-x="449" 
d="M72 36.5q-50 44.5 -50 118.5q0 7 2 25l4 31q1 7 5.5 11t10.5 4h152q6 0 9.5 -4t2.5 -11l-2 -22q-2 -16 4 -26t18 -10q13 0 22 11t9 27q0 15 -14.5 31t-55.5 49q-40 33 -66 58.5t-45 63t-19 85.5q0 9 2 31q11 89 74 144t157 55q86 0 135.5 -46t49.5 -124q0 -9 -2 -29
l-3 -22q-1 -7 -5.5 -11t-10.5 -4h-151q-6 0 -9.5 4t-2.5 11l3 26q1 15 -5.5 24.5t-18.5 9.5q-14 0 -23 -12t-9 -32q0 -17 14 -35t52 -50q51 -43 78 -69.5t42.5 -58t15.5 -71.5q0 -8 -2 -28q-12 -91 -75.5 -145t-156.5 -54q-86 0 -136 44.5zM133 759q0 2 4 10l71 101
q7 10 19 10h166q12 0 16 -10l48 -101q2 -6 2 -7q0 -11 -13 -11h-111q-12 0 -15 11l-15 45q-1 6 -6 0l-26 -45q-6 -11 -18 -11h-110q-12 0 -12 8z" />
    <glyph glyph-name="scircumflex" unicode="&#x15d;" horiz-adv-x="425" 
d="M60 31q-50 39 -50 104q0 14 1 21l1 3q1 7 5 11t11 4h146q6 0 10 -3.5t3 -9.5q-2 -15 5.5 -23t18.5 -8q10 0 15.5 6t5.5 15q0 13 -14 20.5t-44 16.5l-27 9q-44 16 -74.5 48.5t-30.5 88.5q0 16 1 24q10 78 67.5 124t143.5 46q81 0 128.5 -42.5t47.5 -113.5q0 -8 -2 -26
q-2 -10 -16 -10h-141q-7 0 -10.5 4t-2.5 11l1 6v5q0 21 -18 21q-11 0 -17.5 -9.5t-6.5 -19.5q0 -18 17 -28.5t45 -19.5q62 -20 99.5 -49t37.5 -85q0 -83 -61.5 -131.5t-158.5 -48.5q-86 0 -136 39zM95 579q0 2 4 10l71 101q7 10 19 10h166q12 0 16 -10l48 -101q2 -6 2 -7
q0 -11 -13 -11h-111q-12 0 -15 11l-15 45q-1 6 -6 0l-26 -45q-6 -11 -18 -11h-110q-12 0 -12 8z" />
    <glyph glyph-name="Scedilla" unicode="&#x15e;" horiz-adv-x="449" 
d="M385 65.5q-45 -50.5 -114 -66.5q-3 0 -4 -2t0 -4q25 -35 25 -73q0 -20 -8 -42q-24 -64 -97 -64q-25 0 -54 9q-11 3 -8 17l14 62q1 6 5.5 8.5t12.5 2.5q15 0 22 17q2 6 2 11q0 24 -32 56l-6 3q-57 15 -89 55.5t-32 98.5q0 8 2 26l4 31q1 7 5.5 11t10.5 4h152q6 0 9.5 -4
t2.5 -11l-2 -22q-2 -16 4 -26t18 -10q13 0 22 11t9 27q0 15 -14.5 31t-55.5 49q-40 33 -66 58.5t-45 63t-19 85.5q0 9 2 31q11 89 74 144t157 55q86 0 135.5 -46t49.5 -124q0 -9 -2 -29l-3 -22q-1 -7 -5.5 -11t-10.5 -4h-151q-6 0 -9.5 4t-2.5 11l3 26q1 15 -5.5 24.5
t-18.5 9.5q-14 0 -23 -12t-9 -32q0 -17 14 -35t52 -50q51 -43 78 -69.5t42.5 -58t15.5 -71.5q0 -8 -2 -28q-10 -75 -55 -125.5z" />
    <glyph glyph-name="scedilla" unicode="&#x15f;" horiz-adv-x="425" 
d="M373.5 58.5q-42.5 -45.5 -113.5 -60.5q-7 -2 -3 -6q23 -33 23 -71q0 -21 -8 -43q-23 -64 -96 -64q-25 0 -54 9q-12 3 -9 17l15 62q2 11 17 11t22 17q2 6 2 10q0 23 -30 56l-6 3q-58 13 -90.5 49t-32.5 89q0 12 1 19l1 3q1 7 5 11t11 4h146q6 0 10 -3.5t3 -9.5
q-2 -15 5.5 -23t18.5 -8q10 0 15.5 6t5.5 15q0 13 -14 20.5t-44 16.5l-27 9q-44 16 -74.5 48.5t-30.5 88.5q0 16 1 24q10 78 67.5 124t143.5 46q81 0 128.5 -42.5t47.5 -113.5q0 -8 -2 -26q-2 -10 -16 -10h-141q-7 0 -10.5 4t-2.5 11l1 6v5q0 21 -18 21q-11 0 -17.5 -9.5
t-6.5 -19.5q0 -18 17 -28.5t45 -19.5q62 -20 99.5 -49t37.5 -85q0 -68 -42.5 -113.5z" />
    <glyph glyph-name="Scaron" unicode="&#x160;" horiz-adv-x="449" 
d="M72 36.5q-50 44.5 -50 118.5q0 7 2 25l4 31q1 7 5.5 11t10.5 4h152q6 0 9.5 -4t2.5 -11l-2 -22q-2 -16 4 -26t18 -10q13 0 22 11t9 27q0 15 -14.5 31t-55.5 49q-40 33 -66 58.5t-45 63t-19 85.5q0 9 2 31q11 89 74 144t157 55q86 0 135.5 -46t49.5 -124q0 -9 -2 -29
l-3 -22q-1 -7 -5.5 -11t-10.5 -4h-151q-6 0 -9.5 4t-2.5 11l3 26q1 15 -5.5 24.5t-18.5 9.5q-14 0 -23 -12t-9 -32q0 -17 14 -35t52 -50q51 -43 78 -69.5t42.5 -58t15.5 -71.5q0 -8 -2 -28q-12 -91 -75.5 -145t-156.5 -54q-86 0 -136 44.5zM154 870q0 10 14 10h110
q12 0 15 -11l15 -45q3 -6 6 0l26 45q6 11 18 11h110q12 0 12 -8q0 -2 -4 -10l-74 -101q-6 -10 -18 -10h-166q-12 0 -16 10l-46 101q-2 6 -2 8z" />
    <glyph glyph-name="scaron" unicode="&#x161;" horiz-adv-x="425" 
d="M60 31q-50 39 -50 104q0 14 1 21l1 3q1 7 5 11t11 4h146q6 0 10 -3.5t3 -9.5q-2 -15 5.5 -23t18.5 -8q10 0 15.5 6t5.5 15q0 13 -14 20.5t-44 16.5l-27 9q-44 16 -74.5 48.5t-30.5 88.5q0 16 1 24q10 78 67.5 124t143.5 46q81 0 128.5 -42.5t47.5 -113.5q0 -8 -2 -26
q-2 -10 -16 -10h-141q-7 0 -10.5 4t-2.5 11l1 6v5q0 21 -18 21q-11 0 -17.5 -9.5t-6.5 -19.5q0 -18 17 -28.5t45 -19.5q62 -20 99.5 -49t37.5 -85q0 -83 -61.5 -131.5t-158.5 -48.5q-86 0 -136 39zM116 690q0 10 14 10h110q12 0 15 -11l15 -45q3 -6 6 0l26 45q6 11 18 11
h110q12 0 12 -8q0 -2 -4 -10l-74 -101q-6 -10 -18 -10h-166q-12 0 -16 10l-46 101q-2 6 -2 8z" />
    <glyph glyph-name="uni0162" unicode="&#x162;" horiz-adv-x="484" 
d="M528.5 696q3.5 -4 2.5 -11l-16 -131q-1 -7 -5 -11t-11 -4h-116q-5 0 -5 -5l-64 -519q-1 -7 -5 -11t-11 -4h-153q-7 0 -10.5 4t-2.5 11l64 519q0 5 -5 5h-112q-7 0 -10.5 4t-2.5 11l16 131q1 7 5.5 11t11.5 4h420q6 0 9.5 -4zM183 -169l14 62q2 11 17 11q9 0 16.5 7
t7.5 21q0 20 -25 50q-6 4 -6 10q0 8 13 8h81q12 0 17 -8q31 -38 31 -80q0 -21 -8 -43q-23 -64 -96 -64q-25 0 -54 9q-13 3 -8 17z" />
    <glyph glyph-name="uni0163" unicode="&#x163;" horiz-adv-x="298" 
d="M311 394q-4 -4 -11 -4h-42q-5 0 -5 -5l-24 -193q-2 -18 5 -24.5t22 -5.5h2q6 0 9.5 -4t2.5 -11l-16 -132q-1 -7 -5.5 -11t-10.5 -4h-10q-3 0 -4 -2t0 -4q18 -32 18 -64q0 -21 -7 -41q-24 -64 -97 -64q-25 0 -54 9q-11 3 -8 17l14 62q2 11 17 11q16 0 23 17q2 6 2 10
q0 26 -35 59l-4 3q-49 21 -49 81q0 14 1 22l33 269q2 5 -4 5h-27q-7 0 -10.5 4t-2.5 11l12 100q3 15 17 15h27q4 0 6 5l13 108q1 7 5 11t11 4h146q6 0 9.5 -4t2.5 -11l-13 -108q0 -5 4 -5h42q7 0 10.5 -4t2.5 -11l-13 -100q-1 -7 -5 -11z" />
    <glyph glyph-name="Tcaron" unicode="&#x164;" horiz-adv-x="484" 
d="M528.5 696q3.5 -4 2.5 -11l-16 -131q-1 -7 -5 -11t-11 -4h-116q-5 0 -5 -5l-64 -519q-1 -7 -5 -11t-11 -4h-153q-7 0 -10.5 4t-2.5 11l64 519q0 5 -5 5h-112q-7 0 -10.5 4t-2.5 11l16 131q1 7 5.5 11t11.5 4h420q6 0 9.5 -4zM171 870q0 10 14 10h110q12 0 15 -11l15 -45
q3 -6 6 0l26 45q6 11 18 11h110q12 0 12 -8q0 -2 -4 -10l-74 -101q-6 -10 -18 -10h-166q-12 0 -16 10l-46 101q-2 6 -2 8z" />
    <glyph glyph-name="tcaron" unicode="&#x165;" horiz-adv-x="298" 
d="M311 394q-4 -4 -11 -4h-42q-5 0 -5 -5l-24 -193q-2 -18 5 -24.5t22 -5.5h2q6 0 9.5 -4t2.5 -11l-16 -132q-1 -7 -5.5 -11t-10.5 -4h-47q-73 0 -110 19t-37 74q0 15 1 23l33 269q2 5 -4 5h-27q-7 0 -10.5 4t-2.5 11l12 100q3 15 17 15h27q4 0 6 5l13 108q1 7 5 11t11 4
h146q6 0 9.5 -4t2.5 -11l-13 -108q0 -5 4 -5h42q7 0 10.5 -4t2.5 -11l-13 -100q-1 -7 -5 -11zM298 588q0 2 4 10l65 93q7 10 19 10h118q12 0 12 -8q0 -3 -5 -10l-87 -94q-7 -9 -18 -9h-96q-12 0 -12 8z" />
    <glyph glyph-name="Tbar" unicode="&#x166;" horiz-adv-x="484" 
d="M510 543q-4 -4 -11 -4h-116q-5 0 -5 -5l-16 -126q0 -5 5 -5h27q7 0 10.5 -4t2.5 -11l-10 -80q-1 -7 -5.5 -11t-11.5 -4h-27q-5 0 -5 -5l-34 -273q-1 -7 -5 -11t-11 -4h-153q-7 0 -10.5 4t-2.5 11l33 273q2 5 -4 5h-41q-6 0 -9.5 4t-2.5 11l9 80q3 15 17 15h41q5 0 5 5
l16 126q0 5 -5 5h-112q-7 0 -10.5 4t-2.5 11l16 131q1 7 5.5 11t11.5 4h420q6 0 9.5 -4t2.5 -11l-16 -131q-1 -7 -5 -11z" />
    <glyph glyph-name="tbar" unicode="&#x167;" horiz-adv-x="298" 
d="M301.5 251q-4.5 -4 -11.5 -4h-49q-4 0 -6 -5l-6 -50q-2 -18 5 -24.5t22 -5.5h2q6 0 9.5 -4t2.5 -11l-16 -132q-1 -7 -5.5 -11t-10.5 -4h-47q-73 0 -110 19t-37 74q0 15 1 23l16 126q0 5 -4 5h-27q-6 0 -9.5 4t-2.5 11l9 80q3 15 17 15h26q5 0 5 5l3 23q2 5 -4 5h-27
q-7 0 -10.5 4t-2.5 11l12 100q3 15 17 15h27q4 0 6 5l13 108q1 7 5 11t11 4h146q6 0 9.5 -4t2.5 -11l-13 -108q0 -5 4 -5h42q7 0 10.5 -4t2.5 -11l-13 -100q-1 -7 -5 -11t-11 -4h-42q-5 0 -5 -5l-3 -23q0 -5 4 -5h50q7 0 10.5 -4t2.5 -11l-10 -80q-1 -7 -5.5 -11z" />
    <glyph glyph-name="Utilde" unicode="&#x168;" horiz-adv-x="467" 
d="M77 41q-50 49 -50 132q0 11 2 35l59 477q1 7 5.5 11t10.5 4h154q6 0 9.5 -4t2.5 -11l-60 -495q-2 -17 4 -27t19 -10t21.5 10t10.5 27l61 495q1 7 5 11t11 4h153q7 0 10.5 -4t2.5 -11l-59 -477q-8 -64 -40 -113t-83 -76t-113 -27q-86 0 -136 49zM323 766q-7 4 -17 10.5
t-20 6.5q-17 0 -30 -18q-6 -8 -13 -8q-4 0 -8 3l-49 40q-6 5 -6 11q0 2 2 8q17 39 44.5 59t58.5 20q32 0 62 -22q3 -2 9 -7t12.5 -7.5t14.5 -2.5q18 0 32 15q11 13 20 5l47 -37q5 -3 5 -10q0 -8 -8 -19q-21 -33 -49 -47.5t-56 -14.5q-22 0 -51 15z" />
    <glyph glyph-name="utilde" unicode="&#x169;" horiz-adv-x="448" 
d="M292.5 516q4.5 4 10.5 4h154q6 0 9.5 -4t2.5 -11l-60 -490q-1 -7 -5 -11t-11 -4h-153q-7 0 -10.5 4t-2.5 11l1 6q0 3 -2 4t-4 -2q-16 -18 -37 -24.5t-48 -6.5q-52 0 -86.5 29.5t-34.5 92.5q0 10 2 30l44 361q1 7 5.5 11t10.5 4h154q6 0 9.5 -4t2.5 -11l-39 -320
q-1 -4 -1 -10q0 -22 18 -22q21 0 26 32l39 320q1 7 5.5 11zM289 586q-7 4 -17 10.5t-20 6.5q-17 0 -30 -18q-6 -8 -13 -8q-4 0 -8 3l-49 40q-6 5 -6 11q0 2 2 8q17 39 44.5 59t58.5 20q32 0 62 -22q3 -2 9 -7t12.5 -7.5t14.5 -2.5q18 0 32 15q11 13 20 5l47 -37q5 -3 5 -10
q0 -8 -8 -19q-21 -33 -49 -47.5t-56 -14.5q-22 0 -51 15z" />
    <glyph glyph-name="Umacron" unicode="&#x16a;" horiz-adv-x="467" 
d="M77 41q-50 49 -50 132q0 11 2 35l59 477q1 7 5.5 11t10.5 4h154q6 0 9.5 -4t2.5 -11l-60 -495q-2 -17 4 -27t19 -10t21.5 10t10.5 27l61 495q1 7 5 11t11 4h153q7 0 10.5 -4t2.5 -11l-59 -477q-8 -64 -40 -113t-83 -76t-113 -27q-86 0 -136 49zM194.5 756q-3.5 4 -2.5 11
l11 95q1 7 5.5 11t11.5 4h195q6 0 9.5 -4t2.5 -11l-11 -95q-1 -7 -5.5 -11t-11.5 -4h-195q-6 0 -9.5 4z" />
    <glyph glyph-name="umacron" unicode="&#x16b;" horiz-adv-x="448" 
d="M292.5 516q4.5 4 10.5 4h154q6 0 9.5 -4t2.5 -11l-60 -490q-1 -7 -5 -11t-11 -4h-153q-7 0 -10.5 4t-2.5 11l1 6q0 3 -2 4t-4 -2q-16 -18 -37 -24.5t-48 -6.5q-52 0 -86.5 29.5t-34.5 92.5q0 10 2 30l44 361q1 7 5.5 11t10.5 4h154q6 0 9.5 -4t2.5 -11l-39 -320
q-1 -4 -1 -10q0 -22 18 -22q21 0 26 32l39 320q1 7 5.5 11zM160.5 576q-3.5 4 -2.5 11l11 95q1 7 5.5 11t11.5 4h195q6 0 9.5 -4t2.5 -11l-11 -95q-1 -7 -5.5 -11t-11.5 -4h-195q-6 0 -9.5 4z" />
    <glyph glyph-name="Ubreve" unicode="&#x16c;" horiz-adv-x="467" 
d="M77 41q-50 49 -50 132q0 11 2 35l59 477q1 7 5.5 11t10.5 4h154q6 0 9.5 -4t2.5 -11l-60 -495q-2 -17 4 -27t19 -10t21.5 10t10.5 27l61 495q1 7 5 11t11 4h153q7 0 10.5 -4t2.5 -11l-59 -477q-8 -64 -40 -113t-83 -76t-113 -27q-86 0 -136 49zM222.5 763.5
q-30.5 28.5 -30.5 77.5q0 20 16 20h64q13 0 13 -14q1 -16 8.5 -25t20.5 -9t23 9t15 25q3 14 17 14h64q15 0 12 -15q-11 -51 -49 -81t-91 -30q-52 0 -82.5 28.5z" />
    <glyph glyph-name="ubreve" unicode="&#x16d;" horiz-adv-x="448" 
d="M292.5 516q4.5 4 10.5 4h154q6 0 9.5 -4t2.5 -11l-60 -490q-1 -7 -5 -11t-11 -4h-153q-7 0 -10.5 4t-2.5 11l1 6q0 3 -2 4t-4 -2q-16 -18 -37 -24.5t-48 -6.5q-52 0 -86.5 29.5t-34.5 92.5q0 10 2 30l44 361q1 7 5.5 11t10.5 4h154q6 0 9.5 -4t2.5 -11l-39 -320
q-1 -4 -1 -10q0 -22 18 -22q21 0 26 32l39 320q1 7 5.5 11zM188.5 583.5q-30.5 28.5 -30.5 77.5q0 20 16 20h64q13 0 13 -14q1 -16 8.5 -25t20.5 -9t23 9t15 25q3 14 17 14h64q15 0 12 -15q-11 -51 -49 -81t-91 -30q-52 0 -82.5 28.5z" />
    <glyph glyph-name="Uring" unicode="&#x16e;" horiz-adv-x="467" 
d="M77 41q-50 49 -50 132q0 11 2 35l59 477q1 7 5.5 11t10.5 4h154q6 0 9.5 -4t2.5 -11l-60 -495q-2 -17 4 -27t19 -10t21.5 10t10.5 27l61 495q1 7 5 11t11 4h153q7 0 10.5 -4t2.5 -11l-59 -477q-8 -64 -40 -113t-83 -76t-113 -27q-86 0 -136 49zM221 764.5
q-32 32.5 -32 82.5q0 42 20 77.5t54 56t74 20.5q51 0 83.5 -32.5t32.5 -83.5q0 -42 -20 -77t-54.5 -55.5t-74.5 -20.5q-51 0 -83 32.5zM346 840.5q13 13.5 13 32.5q0 15 -9.5 25t-23.5 10q-18 0 -31 -14t-13 -33q0 -14 9.5 -24t24.5 -10q17 0 30 13.5z" />
    <glyph glyph-name="uring" unicode="&#x16f;" horiz-adv-x="448" 
d="M292.5 516q4.5 4 10.5 4h154q6 0 9.5 -4t2.5 -11l-60 -490q-1 -7 -5 -11t-11 -4h-153q-7 0 -10.5 4t-2.5 11l1 6q0 3 -2 4t-4 -2q-16 -18 -37 -24.5t-48 -6.5q-52 0 -86.5 29.5t-34.5 92.5q0 10 2 30l44 361q1 7 5.5 11t10.5 4h154q6 0 9.5 -4t2.5 -11l-39 -320
q-1 -4 -1 -10q0 -22 18 -22q21 0 26 32l39 320q1 7 5.5 11zM187 584.5q-32 32.5 -32 82.5q0 42 20 77.5t54 56t74 20.5q51 0 83.5 -32.5t32.5 -83.5q0 -42 -20 -77t-54.5 -55.5t-74.5 -20.5q-51 0 -83 32.5zM312 660.5q13 13.5 13 32.5q0 15 -9.5 25t-23.5 10q-18 0 -31 -14
t-13 -33q0 -14 9.5 -24t24.5 -10q17 0 30 13.5z" />
    <glyph glyph-name="Uhungarumlaut" unicode="&#x170;" horiz-adv-x="467" 
d="M77 41q-50 49 -50 132q0 11 2 35l59 477q1 7 5.5 11t10.5 4h154q6 0 9.5 -4t2.5 -11l-60 -495q-2 -17 4 -27t19 -10t21.5 10t10.5 27l61 495q1 7 5 11t11 4h153q7 0 10.5 -4t2.5 -11l-59 -477q-8 -64 -40 -113t-83 -76t-113 -27q-86 0 -136 49zM163 768q0 6 2 9l51 92
q4 11 17 11h125q11 0 11 -9q0 -3 -3 -9l-57 -92q-8 -11 -18 -11h-117q-11 0 -11 9zM341 761.5q-3 2.5 -3 6.5q0 5 3 9l57 92q7 11 19 11h115q12 0 12 -9q0 -4 -3 -9l-57 -92q-8 -11 -18 -11h-117q-5 0 -8 2.5z" />
    <glyph glyph-name="uhungarumlaut" unicode="&#x171;" horiz-adv-x="448" 
d="M292.5 516q4.5 4 10.5 4h154q6 0 9.5 -4t2.5 -11l-60 -490q-1 -7 -5 -11t-11 -4h-153q-7 0 -10.5 4t-2.5 11l1 6q0 3 -2 4t-4 -2q-16 -18 -37 -24.5t-48 -6.5q-52 0 -86.5 29.5t-34.5 92.5q0 10 2 30l44 361q1 7 5.5 11t10.5 4h154q6 0 9.5 -4t2.5 -11l-39 -320
q-1 -4 -1 -10q0 -22 18 -22q21 0 26 32l39 320q1 7 5.5 11zM129 588q0 6 2 9l51 92q4 11 17 11h125q11 0 11 -9q0 -3 -3 -9l-57 -92q-8 -11 -18 -11h-117q-11 0 -11 9zM307 581.5q-3 2.5 -3 6.5q0 5 3 9l57 92q7 11 19 11h115q12 0 12 -9q0 -4 -3 -9l-57 -92q-8 -11 -18 -11
h-117q-5 0 -8 2.5z" />
    <glyph glyph-name="Uogonek" unicode="&#x172;" horiz-adv-x="467" 
d="M331 696q4 4 11 4h153q7 0 10.5 -4t2.5 -11l-59 -477q-10 -80 -56 -135t-116 -73l-5 -3q-46 -37 -46 -64q0 -19 19 -19q14 0 14 -11l-1 -62q0 -14 -13 -17q-31 -9 -56 -9q-35 0 -58.5 17.5t-23.5 59.5q0 52 46 101q2 2 1.5 4t-2.5 3q-59 15 -92 60.5t-33 112.5q0 11 2 35
l59 477q1 7 5.5 11t10.5 4h154q6 0 9.5 -4t2.5 -11l-60 -495q-2 -17 4 -27t19 -10t21.5 10t10.5 27l61 495q1 7 5 11z" />
    <glyph glyph-name="uogonek" unicode="&#x173;" horiz-adv-x="448" 
d="M398 -7q-53 -41 -53 -69q0 -20 19 -20q14 0 14 -11l-1 -62q0 -14 -12 -17q-31 -9 -57 -9q-35 0 -58.5 17.5t-23.5 60.5q0 57 57 111q2 2 1 4t-4 2h-40q-7 0 -10.5 4t-2.5 11l1 6q0 3 -2 4t-4 -2q-16 -18 -37 -24.5t-48 -6.5q-52 0 -86.5 29.5t-34.5 92.5q0 10 2 30
l44 361q1 7 5.5 11t10.5 4h154q6 0 9.5 -4t2.5 -11l-39 -320q-1 -4 -1 -10q0 -22 18 -22q21 0 26 32l39 320q1 7 5.5 11t10.5 4h154q6 0 9.5 -4t2.5 -11l-60 -494q-1 -10 -11 -18z" />
    <glyph glyph-name="Wcircumflex" unicode="&#x174;" horiz-adv-x="698" 
d="M129 13l-50 671q0 16 16 16h158q14 0 14 -14l-5 -310q-1 -3 2 -3t3 3l74 310q3 14 18 14h118q14 0 14 -14l3 -310q0 -2 2.5 -2.5t2.5 2.5l67 310q4 14 17 14h154q17 0 11 -16l-206 -671q-4 -13 -18 -13h-134q-14 0 -14 14l-2 326q1 3 -1.5 2.5t-3.5 -3.5l-73 -325
q-4 -14 -18 -14h-134q-14 0 -15 13zM253 759q0 2 4 10l71 101q7 10 19 10h166q12 0 16 -10l48 -101q2 -6 2 -7q0 -11 -13 -11h-111q-12 0 -15 11l-15 45q-1 6 -6 0l-26 -45q-6 -11 -18 -11h-110q-12 0 -12 8z" />
    <glyph glyph-name="wcircumflex" unicode="&#x175;" horiz-adv-x="633" 
d="M98 13l-44 491q0 16 15 16h145q14 0 14 -14l-5 -226q-1 -1 2 -1t3 1l52 226q4 14 18 14h129q14 0 13 -14l-1 -226q0 -2 2 -2t3 2l51 226q3 14 16 14l142 -2q15 0 11 -16l-162 -489q-5 -13 -18 -13h-148q-14 0 -14 14l-2 176q1 3 -2 3t-4 -3l-43 -176q-3 -14 -17 -14h-141
q-13 0 -15 13zM203 579q0 2 4 10l71 101q7 10 19 10h166q12 0 16 -10l48 -101q2 -6 2 -7q0 -11 -13 -11h-111q-12 0 -15 11l-15 45q-1 6 -6 0l-26 -45q-6 -11 -18 -11h-110q-12 0 -12 8z" />
    <glyph glyph-name="Ycircumflex" unicode="&#x176;" horiz-adv-x="493" 
d="M139.5 6q-3.5 4 -2.5 11l28 231q1 2 0 6l-83 429v4q0 13 14 13h161q14 0 15 -13l12 -201q0 -3 2.5 -3t3.5 3l61 201q4 13 18 13h161q8 0 10.5 -4.5t-0.5 -12.5l-191 -429l-1 -6l-29 -231q-1 -7 -5 -11t-11 -4h-153q-7 0 -10.5 4zM155 759q0 2 4 10l71 101q7 10 19 10h166
q12 0 16 -10l48 -101q2 -6 2 -7q0 -11 -13 -11h-111q-12 0 -15 11l-15 45q-1 6 -6 0l-26 -45q-6 -11 -18 -11h-110q-12 0 -12 8z" />
    <glyph glyph-name="ycircumflex" unicode="&#x177;" horiz-adv-x="445" 
d="M-15 -184l15 124q2 15 11 15q55 0 78.5 8.5t22.5 36.5l-60 503v2q0 7 4 11t11 4h165q13 0 12 -14l-9 -224q1 1 2.5 1t2.5 -1l45 224q3 14 16 14l166 -2q7 0 10 -4.5t1 -12.5l-184 -503q-31 -77 -61 -117t-85 -60t-153 -20h-6q-6 0 -4 15zM109 579q0 2 4 10l71 101
q7 10 19 10h166q12 0 16 -10l48 -101q2 -6 2 -7q0 -11 -13 -11h-111q-12 0 -15 11l-15 45q-1 6 -6 0l-26 -45q-6 -11 -18 -11h-110q-12 0 -12 8z" />
    <glyph glyph-name="Ydieresis" unicode="&#x178;" horiz-adv-x="493" 
d="M139.5 6q-3.5 4 -2.5 11l28 231q1 2 0 6l-83 429v4q0 13 14 13h161q14 0 15 -13l12 -201q0 -3 2.5 -3t3.5 3l61 201q4 13 18 13h161q8 0 10.5 -4.5t-0.5 -12.5l-191 -429l-1 -6l-29 -231q-1 -7 -5 -11t-11 -4h-153q-7 0 -10.5 4zM358 757.5q-22 22.5 -22 57.5
q0 47 30 77.5t74 30.5q36 0 58 -22t22 -57q0 -46 -30 -77.5t-73 -31.5q-37 0 -59 22.5zM157 757.5q-22 22.5 -22 57.5q0 47 30 77.5t74 30.5q36 0 58 -22t22 -57q0 -46 -30 -77.5t-73 -31.5q-37 0 -59 22.5z" />
    <glyph glyph-name="Zacute" unicode="&#x179;" horiz-adv-x="411" 
d="M-3.5 4q-3.5 4 -2.5 11l17 136q2 11 7 19l231 363q3 6 -3 6h-173q-7 0 -10.5 4t-2.5 11l16 131q1 7 5.5 11t11.5 4h357q6 0 9.5 -4t2.5 -11l-16 -136q-1 -7 -7 -19l-233 -363q-5 -6 3 -6h175q6 0 9.5 -4t2.5 -11l-16 -131q-1 -7 -5.5 -11t-10.5 -4h-357q-7 0 -10.5 4z
M203 767q0 2 4 10l65 93q7 10 19 10h118q12 0 12 -8q0 -3 -5 -10l-87 -94q-7 -9 -18 -9h-96q-12 0 -12 8z" />
    <glyph glyph-name="zacute" unicode="&#x17a;" horiz-adv-x="370" 
d="M-7.5 4q-3.5 4 -2.5 11l18 145q1 10 8 18l139 166q1 2 0 4t-3 2h-99q-7 0 -10.5 4t-2.5 11l17 140q1 7 5.5 11t11.5 4h309q7 0 10.5 -4t2.5 -11l-18 -145q-1 -8 -8 -18l-148 -166q-2 -2 -1 -4t4 -2h124q6 0 9.5 -4t2.5 -11l-17 -140q-1 -7 -5 -11t-11 -4h-325
q-7 0 -10.5 4zM160 587q0 2 4 10l65 93q7 10 19 10h118q12 0 12 -8q0 -3 -5 -10l-87 -94q-7 -9 -18 -9h-96q-12 0 -12 8z" />
    <glyph glyph-name="Zdotaccent" unicode="&#x17b;" horiz-adv-x="411" 
d="M-3.5 4q-3.5 4 -2.5 11l17 136q2 11 7 19l231 363q3 6 -3 6h-173q-7 0 -10.5 4t-2.5 11l16 131q1 7 5.5 11t11.5 4h357q6 0 9.5 -4t2.5 -11l-16 -136q-1 -7 -7 -19l-233 -363q-5 -6 3 -6h175q6 0 9.5 -4t2.5 -11l-16 -131q-1 -7 -5.5 -11t-10.5 -4h-357q-7 0 -10.5 4z
M216 757.5q-22 22.5 -22 57.5q0 47 30 77.5t74 30.5q36 0 58 -22t22 -57q0 -46 -30 -77.5t-73 -31.5q-37 0 -59 22.5z" />
    <glyph glyph-name="zdotaccent" unicode="&#x17c;" horiz-adv-x="370" 
d="M-7.5 4q-3.5 4 -2.5 11l18 145q1 10 8 18l139 166q1 2 0 4t-3 2h-99q-7 0 -10.5 4t-2.5 11l17 140q1 7 5.5 11t11.5 4h309q7 0 10.5 -4t2.5 -11l-18 -145q-1 -8 -8 -18l-148 -166q-2 -2 -1 -4t4 -2h124q6 0 9.5 -4t2.5 -11l-17 -140q-1 -7 -5 -11t-11 -4h-325
q-7 0 -10.5 4zM173 577.5q-22 22.5 -22 57.5q0 47 30 77.5t74 30.5q36 0 58 -22t22 -57q0 -46 -30 -77.5t-73 -31.5q-37 0 -59 22.5z" />
    <glyph glyph-name="Zcaron" unicode="&#x17d;" horiz-adv-x="411" 
d="M-3.5 4q-3.5 4 -2.5 11l17 136q2 11 7 19l231 363q3 6 -3 6h-173q-7 0 -10.5 4t-2.5 11l16 131q1 7 5.5 11t11.5 4h357q6 0 9.5 -4t2.5 -11l-16 -136q-1 -7 -7 -19l-233 -363q-5 -6 3 -6h175q6 0 9.5 -4t2.5 -11l-16 -131q-1 -7 -5.5 -11t-10.5 -4h-357q-7 0 -10.5 4z
M133 870q0 10 14 10h110q12 0 15 -11l15 -45q3 -6 6 0l26 45q6 11 18 11h110q12 0 12 -8q0 -2 -4 -10l-74 -101q-6 -10 -18 -10h-166q-12 0 -16 10l-46 101q-2 6 -2 8z" />
    <glyph glyph-name="zcaron" unicode="&#x17e;" horiz-adv-x="370" 
d="M-7.5 4q-3.5 4 -2.5 11l18 145q1 10 8 18l139 166q1 2 0 4t-3 2h-99q-7 0 -10.5 4t-2.5 11l17 140q1 7 5.5 11t11.5 4h309q7 0 10.5 -4t2.5 -11l-18 -145q-1 -8 -8 -18l-148 -166q-2 -2 -1 -4t4 -2h124q6 0 9.5 -4t2.5 -11l-17 -140q-1 -7 -5 -11t-11 -4h-325
q-7 0 -10.5 4zM91 690q0 10 14 10h110q12 0 15 -11l15 -45q3 -6 6 0l26 45q6 11 18 11h110q12 0 12 -8q0 -2 -4 -10l-74 -101q-6 -10 -18 -10h-166q-12 0 -16 10l-46 101q-2 6 -2 8z" />
    <glyph glyph-name="uni018F" unicode="&#x18f;" horiz-adv-x="541" 
d="M503.5 656q59.5 -52 59.5 -145q0 -12 -2 -36l-31 -253q-8 -69 -45 -121.5t-97.5 -82t-138.5 -29.5q-107 0 -166.5 53.5t-59.5 144.5q0 11 2 35l20 163q1 7 5.5 11t11.5 4h302q4 0 6 5l7 56q1 5 1 14q0 32 -16.5 51.5t-44.5 19.5q-27 0 -47.5 -18.5t-30.5 -47.5
q-5 -14 -17 -13l-148 9q-15 2 -12 15q21 106 90.5 161.5t184.5 55.5q107 0 166.5 -52zM322 174q23 24 27 62l5 38q0 5 -4 5h-131q-6 0 -6 -5l-5 -38q-1 -5 -1 -14q0 -32 17 -52t45 -20q30 0 53 24z" />
    <glyph glyph-name="florin" unicode="&#x192;" horiz-adv-x="469" 
d="M432 563q-12 -10 -16 -24l-28 -104q0 -5 3 -5h50q7 0 10.5 -4t2.5 -11l-15 -120q-1 -7 -5.5 -11t-11.5 -4h-72q-5 0 -7 -5l-91 -331q-16 -58 -45.5 -88.5t-81 -42.5t-142.5 -13q-7 0 -11 4t-2 11l11 95q1 7 5.5 11t11.5 4h31q17 2 29.5 12t16.5 24l86 314q0 5 -3 5h-33
q-7 0 -10.5 4t-2.5 11l15 120q1 7 5 11t11 4h56q5 0 7 5l33 121q16 58 45.5 88.5t81 42.5t142.5 13q16 0 14 -15l-12 -95q-1 -7 -5.5 -11t-10.5 -4h-32q-18 -2 -30 -12z" />
    <glyph glyph-name="Ohorn" unicode="&#x1a0;" horiz-adv-x="469" 
d="M455 646q38 -46 38 -116q0 -24 -2 -36l-35 -288q-12 -98 -78 -156t-164 -58q-89 0 -140 48.5t-51 131.5q0 10 2 34l36 288q12 98 77.5 156t163.5 58q29 0 62 -7q2 -1 6 -1q44 4 57 72q3 16 17 16h63q12 0 12 -15q0 -6 -1 -9q-15 -74 -62 -111q-5 -3 -1 -7zM310 502
q2 21 -5 33t-22 12q-16 0 -26.5 -12t-12.5 -33l-37 -304q-1 -4 -1 -11q0 -16 7.5 -25t20.5 -9q15 0 25.5 12t13.5 33z" />
    <glyph glyph-name="ohorn" unicode="&#x1a1;" horiz-adv-x="447" 
d="M489 592q-12 -78 -62 -118q-5 -3 -1 -7q29 -37 29 -90q0 -9 -2 -27l-22 -180q-11 -85 -69.5 -131.5t-157.5 -46.5q-90 0 -138.5 39t-48.5 111q0 8 2 28l22 180q10 81 71 129.5t158 48.5q31 0 66 -7q1 -1 5 -1q44 4 57 72q1 16 16 16h63q15 0 12 -16zM265 358q-5 9 -15 9
q-11 0 -18.5 -9t-9.5 -23l-19 -150q-2 -14 4 -23t16 -9t18 9t10 23l18 150q1 14 -4 23z" />
    <glyph glyph-name="Uhorn" unicode="&#x1af;" horiz-adv-x="467" 
d="M592.5 784q3.5 -4 2.5 -12q-16 -99 -89 -134q-2 -1 -5 -6l-52 -424q-8 -64 -40 -113t-83 -76t-113 -27q-86 0 -136 49t-50 132q0 11 2 35l59 477q1 7 5.5 11t10.5 4h154q6 0 9.5 -4t2.5 -11l-60 -495q-2 -17 4 -27t19 -10t21.5 10t10.5 27l61 495q1 7 5 11t11 4h98
q50 0 63 72q3 16 17 16h63q6 0 9.5 -4z" />
    <glyph glyph-name="uhorn" unicode="&#x1b0;" horiz-adv-x="448" 
d="M554 592q-17 -99 -86 -133q-5 -2 -5 -6l-54 -438q-1 -7 -5 -11t-11 -4h-153q-7 0 -10.5 4t-2.5 11l1 6q0 3 -2 4t-4 -2q-16 -18 -37 -24.5t-48 -6.5q-52 0 -86.5 29.5t-34.5 92.5q0 10 2 30l44 361q1 7 5.5 11t10.5 4h154q6 0 9.5 -4t2.5 -11l-39 -320q-1 -4 -1 -10
q0 -22 18 -22q21 0 26 32l39 320q1 7 5.5 11t10.5 4h96q49 0 64 72q1 16 16 16h63q15 0 12 -16z" />
    <glyph glyph-name="uni01CD" unicode="&#x1cd;" horiz-adv-x="515" 
d="M298 14l-2 76q1 2 -1 3.5t-4 1.5h-87q-5 0 -7 -5l-19 -76q-3 -14 -17 -14h-152q-15 0 -11 16l220 671q4 13 18 13h177q14 0 15 -13l55 -671v-2q0 -14 -15 -14h-157q-14 0 -13 14zM241 239h47q3 0 5 5l-4 185q0 4 -2.5 3.5t-2.5 -3.5l-46 -185q-2 -5 3 -5zM185 870
q0 10 14 10h110q12 0 15 -11l15 -45q3 -6 6 0l26 45q6 11 18 11h110q12 0 12 -8q0 -2 -4 -10l-74 -101q-6 -10 -18 -10h-166q-12 0 -16 10l-46 101q-2 6 -2 8z" />
    <glyph glyph-name="uni01CE" unicode="&#x1ce;" horiz-adv-x="453" 
d="M290.5 516q4.5 4 10.5 4h154q6 0 9.5 -4t2.5 -11l-60 -490q-1 -7 -5 -11t-11 -4h-153q-7 0 -10.5 4t-2.5 11l3 22q0 4 -2 4t-4 -3q-34 -46 -92 -46q-60 0 -87 33t-27 96q0 24 3 49l22 180q11 89 48.5 133.5t106.5 44.5q58 0 80 -47q2 -3 4 -2.5t2 4.5l3 22q1 7 5.5 11z
M237 162q7 9 9 23l18 150q2 14 -3 23t-15 9t-16 -9t-8 -23l-19 -150q-2 -15 2.5 -23.5t14.5 -8.5t17 9zM131 690q0 10 14 10h110q12 0 15 -11l15 -45q3 -6 6 0l26 45q6 11 18 11h110q12 0 12 -8q0 -2 -4 -10l-74 -101q-6 -10 -18 -10h-166q-12 0 -16 10l-46 101q-2 6 -2 8z
" />
    <glyph glyph-name="uni01D4" unicode="&#x1d4;" horiz-adv-x="448" 
d="M292.5 516q4.5 4 10.5 4h154q6 0 9.5 -4t2.5 -11l-60 -490q-1 -7 -5 -11t-11 -4h-153q-7 0 -10.5 4t-2.5 11l1 6q0 3 -2 4t-4 -2q-16 -18 -37 -24.5t-48 -6.5q-52 0 -86.5 29.5t-34.5 92.5q0 10 2 30l44 361q1 7 5.5 11t10.5 4h154q6 0 9.5 -4t2.5 -11l-39 -320
q-1 -4 -1 -10q0 -22 18 -22q21 0 26 32l39 320q1 7 5.5 11zM127 690q0 10 14 10h110q12 0 15 -11l15 -45q3 -6 6 0l26 45q6 11 18 11h110q12 0 12 -8q0 -2 -4 -10l-74 -101q-6 -10 -18 -10h-166q-12 0 -16 10l-46 101q-2 6 -2 8z" />
    <glyph glyph-name="uni01E5" unicode="&#x1e5;" horiz-adv-x="461" 
d="M466 313q3 -4 2 -11l-10 -80q-1 -7 -5 -11t-10 -4h-7q-4 0 -6 -5l-20 -168q-9 -75 -36.5 -128t-88 -84.5t-162.5 -31.5q-37 0 -58 2q-15 0 -13 15l16 133q3 15 18 14q72 -4 101 13.5t38 56.5q1 3 -3 4t-6 -2q-34 -34 -86 -34q-60 0 -87 33t-27 96q0 24 3 49l22 180
q11 89 48.5 133.5t106.5 44.5q58 0 80 -46q2 -3 4 -3t2 4l3 22q1 7 5.5 11t10.5 4h154q6 0 9.5 -4t2.5 -11l-22 -183q0 -5 4 -5h8q6 0 9 -4zM237 162q7 9 9 23l2 17q0 5 -4 5h-4q-7 0 -10.5 4t-2.5 11l10 80q1 7 4.5 11t8.5 4h7q4 0 6 5l1 13q2 14 -3 23t-15 9t-16 -9
t-8 -23l-19 -150q-2 -15 2.5 -23.5t14.5 -8.5t17 9z" />
    <glyph glyph-name="gcaron" unicode="&#x1e7;" horiz-adv-x="446" 
d="M290.5 516q4.5 4 10.5 4h154q6 0 9.5 -4t2.5 -11l-57 -471q-9 -75 -36.5 -128t-88 -84.5t-162.5 -31.5q-37 0 -58 2q-15 0 -13 15l16 133q3 15 18 14q72 -4 101 13.5t38 56.5q1 3 -3 4t-6 -2q-34 -34 -86 -34q-60 0 -87 33t-27 96q0 24 3 49l22 180q11 89 48.5 133.5
t106.5 44.5q58 0 80 -46q2 -3 4 -3t2 4l3 22q1 7 5.5 11zM237 162q7 9 9 23l18 150q2 14 -3 23t-15 9t-16 -9t-8 -23l-19 -150q-2 -15 2.5 -23.5t14.5 -8.5t17 9zM130 690q0 10 14 10h110q12 0 15 -11l15 -45q3 -6 6 0l26 45q6 11 18 11h110q12 0 12 -8q0 -2 -4 -10
l-74 -101q-6 -10 -18 -10h-166q-12 0 -16 10l-46 101q-2 6 -2 8z" />
    <glyph glyph-name="uni01E9" unicode="&#x1e9;" horiz-adv-x="465" 
d="M6.5 4q-3.5 4 -2.5 11l82 670q1 7 5.5 11t10.5 4h154q6 0 9.5 -4t2.5 -11l-34 -281q-1 -4 1.5 -4t4.5 3l58 106q6 11 18 11h157q12 0 12 -8q0 -2 -4 -10l-132 -184q-2 -4 -1 -7l83 -294v-4q0 -13 -14 -13h-157q-12 0 -15 12l-27 144q0 3 -2.5 3.5t-4.5 -3.5l-9 -17l-1 -6
l-15 -118q-1 -7 -5.5 -11t-10.5 -4h-154q-6 0 -9.5 4zM155 870q0 10 14 10h110q12 0 15 -11l15 -45q3 -6 6 0l26 45q6 11 18 11h110q12 0 12 -8q0 -2 -4 -10l-74 -101q-6 -10 -18 -10h-166q-12 0 -16 10l-46 101q-2 6 -2 8z" />
    <glyph glyph-name="uni01EF" unicode="&#x1ef;" horiz-adv-x="387" 
d="M250.5 252q0.5 -2 2.5 -3q51 -23 81 -68.5t30 -105.5q0 -68 -36.5 -130t-99.5 -99.5t-139 -37.5q-48 0 -91 14q-13 4 -11 17l19 134q3 18 18 11q29 -12 57 -12q39 0 66.5 21.5t33.5 68.5q1 5 1 16q0 32 -15 53.5t-39 21.5q-18 0 -41 -15q-4 -3 -9 -3q-7 0 -10 8l-32 95
q-1 2 -1 6q0 8 8 14l115 86q2 2 1.5 4t-3.5 2h-100q-7 0 -10.5 4t-2.5 11l17 140q1 7 5.5 11t10.5 4h301q7 0 10.5 -4t2.5 -11l-18 -144q-2 -12 -10 -18l-110 -88q-2 -1 -1.5 -3zM82 690q0 10 14 10h110q12 0 15 -11l15 -45q3 -6 6 0l26 45q6 11 18 11h110q12 0 12 -8
q0 -2 -4 -10l-74 -101q-6 -10 -18 -10h-166q-12 0 -16 10l-46 101q-2 6 -2 8z" />
    <glyph glyph-name="oslashacute" unicode="&#x1ff;" horiz-adv-x="447" 
d="M490 524q0 -6 -4 -11l-44 -64q-1 -2 -1 -6q14 -31 14 -66q0 -9 -2 -27l-22 -180q-11 -85 -69.5 -131.5t-157.5 -46.5q-38 0 -73 8q-4 2 -6 -3l-44 -65q-6 -8 -13 -8q-3 0 -8 3l-73 53q-6 4 -6 10t4 11l46 66q2 4 0 7q-14 30 -14 66q0 10 2 30l22 180q10 81 71 129.5
t158 48.5q36 0 70 -8q5 -1 6 3l41 59q6 8 13 8q4 0 8 -3l76 -53q6 -4 6 -10zM265 358q-5 9 -15 9q-11 0 -18.5 -9t-9.5 -23l-19 -150q-2 -14 4 -23t16 -9t18 9t10 23l18 150q1 14 -4 23zM201 587q0 2 4 10l65 93q7 10 19 10h118q12 0 12 -8q0 -3 -5 -10l-87 -94
q-7 -9 -18 -9h-96q-12 0 -12 8z" />
    <glyph glyph-name="uni0218" unicode="&#x218;" horiz-adv-x="449" 
d="M72 36.5q-50 44.5 -50 118.5q0 7 2 25l4 31q1 7 5.5 11t10.5 4h152q6 0 9.5 -4t2.5 -11l-2 -22q-2 -16 4 -26t18 -10q13 0 22 11t9 27q0 15 -14.5 31t-55.5 49q-40 33 -66 58.5t-45 63t-19 85.5q0 9 2 31q11 89 74 144t157 55q86 0 135.5 -46t49.5 -124q0 -9 -2 -29
l-3 -22q-1 -7 -5.5 -11t-10.5 -4h-151q-6 0 -9.5 4t-2.5 11l3 26q1 15 -5.5 24.5t-18.5 9.5q-14 0 -23 -12t-9 -32q0 -17 14 -35t52 -50q51 -43 78 -69.5t42.5 -58t15.5 -71.5q0 -8 -2 -28q-12 -91 -75.5 -145t-156.5 -54q-86 0 -136 44.5zM75 -163q0 2 4 10l65 93
q7 10 19 10h118q12 0 12 -8q0 -3 -5 -10l-87 -94q-7 -9 -18 -9h-96q-12 0 -12 8z" />
    <glyph glyph-name="uni0219" unicode="&#x219;" horiz-adv-x="425" 
d="M60 31q-50 39 -50 104q0 14 1 21l1 3q1 7 5 11t11 4h146q6 0 10 -3.5t3 -9.5q-2 -15 5.5 -23t18.5 -8q10 0 15.5 6t5.5 15q0 13 -14 20.5t-44 16.5l-27 9q-44 16 -74.5 48.5t-30.5 88.5q0 16 1 24q10 78 67.5 124t143.5 46q81 0 128.5 -42.5t47.5 -113.5q0 -8 -2 -26
q-2 -10 -16 -10h-141q-7 0 -10.5 4t-2.5 11l1 6v5q0 21 -18 21q-11 0 -17.5 -9.5t-6.5 -19.5q0 -18 17 -28.5t45 -19.5q62 -20 99.5 -49t37.5 -85q0 -83 -61.5 -131.5t-158.5 -48.5q-86 0 -136 39zM63 -163q0 2 4 10l65 93q7 10 19 10h118q12 0 12 -8q0 -3 -5 -10l-87 -94
q-7 -9 -18 -9h-96q-12 0 -12 8z" />
    <glyph glyph-name="uni021A" unicode="&#x21a;" horiz-adv-x="484" 
d="M528.5 696q3.5 -4 2.5 -11l-16 -131q-1 -7 -5 -11t-11 -4h-116q-5 0 -5 -5l-64 -519q-1 -7 -5 -11t-11 -4h-153q-7 0 -10.5 4t-2.5 11l64 519q0 5 -5 5h-112q-7 0 -10.5 4t-2.5 11l16 131q1 7 5.5 11t11.5 4h420q6 0 9.5 -4zM43 -155q0 2 4 10l65 93q7 10 19 10h118
q12 0 12 -8q0 -3 -5 -10l-87 -94q-7 -9 -18 -9h-96q-12 0 -12 8z" />
    <glyph glyph-name="uni021B" unicode="&#x21b;" horiz-adv-x="298" 
d="M311 394q-4 -4 -11 -4h-42q-5 0 -5 -5l-24 -193q-2 -18 5 -24.5t22 -5.5h2q6 0 9.5 -4t2.5 -11l-16 -132q-1 -7 -5.5 -11t-10.5 -4h-47q-73 0 -110 19t-37 74q0 15 1 23l33 269q2 5 -4 5h-27q-7 0 -10.5 4t-2.5 11l12 100q3 15 17 15h27q4 0 6 5l13 108q1 7 5 11t11 4
h146q6 0 9.5 -4t2.5 -11l-13 -108q0 -5 4 -5h42q7 0 10.5 -4t2.5 -11l-13 -100q-1 -7 -5 -11zM26 -152q0 2 4 10l65 93q7 10 19 10h118q12 0 12 -8q0 -3 -5 -10l-87 -94q-7 -9 -18 -9h-96q-12 0 -12 8z" />
    <glyph glyph-name="uni021F" unicode="&#x21f;" horiz-adv-x="448" 
d="M455 394q0 -22 -3 -46l-41 -333q-1 -7 -5 -11t-11 -4h-153q-7 0 -10.5 4t-2.5 11l39 320q1 4 1 10q0 22 -17 22q-22 0 -27 -32l-39 -320q-1 -7 -5.5 -11t-10.5 -4h-154q-6 0 -9.5 4t-2.5 11l82 670q1 7 5.5 11t10.5 4h154q6 0 9.5 -4t2.5 -11l-24 -196q0 -2 2 -2
q4 0 10 7q33 34 80 34q119 0 119 -134zM154 870q0 10 14 10h110q12 0 15 -11l15 -45q3 -6 6 0l26 45q6 11 18 11h110q12 0 12 -8q0 -2 -4 -10l-74 -101q-6 -10 -18 -10h-166q-12 0 -16 10l-46 101q-2 6 -2 8z" />
    <glyph glyph-name="uni0228" unicode="&#x228;" horiz-adv-x="431" 
d="M456.5 543q-4.5 -4 -11.5 -4h-186q-5 0 -5 -5l-12 -98q-2 -5 4 -5h97q7 0 10.5 -4t2.5 -11l-16 -131q-3 -15 -17 -15h-97q-5 0 -5 -5l-12 -99q-2 -5 4 -5h186q7 0 10.5 -4t2.5 -11l-16 -131q-1 -7 -5.5 -11t-11.5 -4h-119q-3 0 -4 -2t0 -4q20 -32 20 -66q0 -20 -8 -42
q-23 -64 -96 -64q-25 0 -54 9q-12 3 -9 17l15 62q2 11 17 11t22 17q2 6 2 11q0 20 -25 48q-1 3 -6 3h-114q-6 0 -9.5 4t-2.5 11l82 670q1 7 5.5 11t10.5 4h359q7 0 10.5 -4t2.5 -11l-16 -131q-1 -7 -5.5 -11z" />
    <glyph glyph-name="uni0229" unicode="&#x229;" horiz-adv-x="441" 
d="M429 217q-4 -4 -11 -4h-207q-2 0 -3.5 -1.5t-1.5 -3.5l-3 -23q-2 -14 3.5 -23t15.5 -9q17 0 25 25q6 14 18 13l147 -10q15 -2 12 -16q-13 -71 -50.5 -112.5t-103.5 -54.5q-6 -2 -3 -6q19 -31 19 -64q0 -20 -8 -42q-12 -35 -38 -49.5t-58 -14.5q-25 0 -54 9q-12 3 -9 17
l14 62q4 11 18 11q15 0 22 17q2 6 2 10q0 22 -22 45q0 2 -4 4q-64 10 -98 47.5t-34 97.5q0 8 2 28l22 180q10 81 70.5 129.5t156.5 48.5q88 0 135.5 -41t47.5 -111q0 -8 -2 -26l-15 -122q-1 -7 -5 -11zM231 358q-7 -9 -9 -23l-4 -25q0 -5 5 -5h34q5 0 5 5l3 25l1 8
q0 10 -5 17t-13 7q-10 0 -17 -9z" />
    <glyph glyph-name="uni0237" unicode="&#x237;" horiz-adv-x="226" 
d="M-114 -186l16 129q1 15 17 15q45 -2 63.5 15.5t23.5 55.5l58 476q1 7 5.5 11t10.5 4h154q6 0 9.5 -4t2.5 -11l-58 -476q-11 -89 -30 -135t-78 -72t-180 -23q-16 0 -14 15z" />
    <glyph glyph-name="uni0259" unicode="&#x259;" horiz-adv-x="441" 
d="M401.5 489.5q47.5 -38.5 47.5 -110.5q0 -9 -2 -29l-22 -180q-10 -81 -70 -129.5t-156 -48.5q-88 0 -136 41t-48 111q0 8 2 26l15 122q1 7 5.5 11t10.5 4h207q5 0 5 5l3 23q2 14 -3 23t-15 9q-9 0 -16 -7.5t-9 -17.5q-8 -14 -19 -13l-147 10q-6 1 -9.5 5t-2.5 10
q16 88 70.5 131t152.5 43q89 0 136.5 -38.5zM236.5 162q7.5 9 8.5 23l3 25q0 5 -4 5h-34q-4 0 -6 -5l-3 -25q-2 -14 3 -23t15 -9t17.5 9z" />
    <glyph glyph-name="uni0292" unicode="&#x292;" horiz-adv-x="387" 
d="M250.5 252q0.5 -2 2.5 -3q51 -23 81 -68.5t30 -105.5q0 -68 -36.5 -130t-99.5 -99.5t-139 -37.5q-48 0 -91 14q-13 4 -11 17l19 134q3 18 18 11q29 -12 57 -12q39 0 66.5 21.5t33.5 68.5q1 5 1 16q0 32 -15 53.5t-39 21.5q-18 0 -41 -15q-4 -3 -9 -3q-7 0 -10 8l-32 95
q-1 2 -1 6q0 8 8 14l115 86q2 2 1.5 4t-3.5 2h-100q-7 0 -10.5 4t-2.5 11l17 140q1 7 5.5 11t10.5 4h301q7 0 10.5 -4t2.5 -11l-18 -144q-2 -12 -10 -18l-110 -88q-2 -1 -1.5 -3z" />
    <glyph glyph-name="uni02BB" unicode="&#x2bb;" horiz-adv-x="224" 
d="M70 686q0 14 14 14h151q12 0 14 -14l11 -210v-2q0 -14 -15 -14h-115q-12 0 -15 12l-45 211v3z" />
    <glyph glyph-name="uni02BC" unicode="&#x2bc;" horiz-adv-x="224" 
d="M283.5 695.5q2.5 -4.5 -0.5 -12.5l-97 -211q-5 -12 -18 -12h-114q-16 0 -12 16l63 210q5 14 17 14h151q8 0 10.5 -4.5z" />
    <glyph glyph-name="circumflex" unicode="&#x2c6;" horiz-adv-x="340" 
d="M65 579q0 2 4 10l71 101q7 10 19 10h166q12 0 16 -10l48 -101q2 -6 2 -7q0 -11 -13 -11h-111q-12 0 -15 11l-15 45q-1 6 -6 0l-26 -45q-6 -11 -18 -11h-110q-12 0 -12 8z" />
    <glyph glyph-name="caron" unicode="&#x2c7;" horiz-adv-x="357" 
d="M81 690q0 10 14 10h110q12 0 15 -11l15 -45q3 -6 6 0l26 45q6 11 18 11h110q12 0 12 -8q0 -2 -4 -10l-74 -101q-6 -10 -18 -10h-166q-12 0 -16 10l-46 101q-2 6 -2 8z" />
    <glyph glyph-name="uni02C9" unicode="&#x2c9;" horiz-adv-x="224" 
d="M55.5 579q-3.5 4 -2.5 11l12 95q1 7 5 11t11 4h195q7 0 10.5 -4t2.5 -11l-12 -95q-1 -7 -5.5 -11t-10.5 -4h-195q-7 0 -10.5 4z" />
    <glyph glyph-name="breve" unicode="&#x2d8;" horiz-adv-x="270" 
d="M100 571q-30 28 -30 77q0 11 3 16t12 5h64q13 0 13 -14q1 -16 9 -25t21 -9t23 9t15 25q3 14 16 14h64q15 0 12 -15q-11 -51 -48.5 -81t-91.5 -30q-52 0 -82 28z" />
    <glyph glyph-name="dotaccent" unicode="&#x2d9;" horiz-adv-x="198" 
d="M89 577.5q-22 22.5 -22 57.5q0 47 30 77.5t74 30.5q36 0 58 -22t22 -57q0 -46 -30 -77.5t-73 -31.5q-37 0 -59 22.5z" />
    <glyph glyph-name="ring" unicode="&#x2da;" horiz-adv-x="277" 
d="M104 584.5q-32 32.5 -32 82.5q0 42 20 77.5t54 56t74 20.5q51 0 83.5 -32.5t32.5 -83.5q0 -42 -20 -77t-54.5 -55.5t-74.5 -20.5q-51 0 -83 32.5zM229 660.5q13 13.5 13 32.5q0 15 -9.5 25t-23.5 10q-18 0 -31 -14t-13 -33q0 -14 9.5 -24t24.5 -10q17 0 30 13.5z" />
    <glyph glyph-name="ogonek" unicode="&#x2db;" horiz-adv-x="167" 
d="M105 -186q-31 -9 -57 -9q-35 0 -58.5 17.5t-23.5 59.5q0 57 54 110q9 8 20 8h81q11 0 11 -7q0 -5 -8 -11q-39 -34 -39 -58q0 -20 19 -20q14 0 14 -11l-1 -62q0 -14 -12 -17z" />
    <glyph glyph-name="tilde" unicode="&#x2dc;" horiz-adv-x="326" 
d="M211 586q-7 4 -17 10.5t-20 6.5q-17 0 -30 -18q-6 -8 -13 -8q-4 0 -8 3l-49 40q-6 5 -6 11q0 2 2 8q17 39 44.5 59t58.5 20q32 0 62 -22q3 -2 9 -7t12.5 -7.5t14.5 -2.5q18 0 32 15q11 13 20 5l47 -37q5 -3 5 -10q0 -8 -8 -19q-21 -33 -49 -47.5t-56 -14.5q-22 0 -51 15z
" />
    <glyph glyph-name="hungarumlaut" unicode="&#x2dd;" horiz-adv-x="409" 
d="M69 595q0 4 3 10l64 93q7 10 19 10h115q12 0 12 -8q0 -3 -5 -10l-85 -94q-6 -9 -18 -9h-93q-12 0 -12 8zM245 595q0 4 3 10l64 93q6 10 18 10h116q11 0 11 -8q0 -3 -5 -10l-84 -94q-8 -9 -19 -9h-93q-11 0 -11 8z" />
    <glyph glyph-name="gravecomb" unicode="&#x300;" 
d="M35 589q0 -10 -14 -10h-96q-10 0 -16 9l-63 94q-3 5 -3 8q0 4 4 7t10 3h118q12 0 16 -10l42 -93q2 -6 2 -8z" />
    <glyph glyph-name="acutecomb" unicode="&#x301;" 
d="M-173 587q0 2 4 10l65 93q7 10 19 10h118q12 0 12 -8q0 -3 -5 -10l-87 -94q-7 -9 -18 -9h-96q-12 0 -12 8z" />
    <glyph glyph-name="uni0302" unicode="&#x302;" 
d="M-290 579q0 2 4 10l71 101q7 10 19 10h166q12 0 16 -10l48 -101q2 -6 2 -7q0 -11 -13 -11h-111q-12 0 -15 11l-15 45q-1 6 -6 0l-26 -45q-6 -11 -18 -11h-110q-12 0 -12 8z" />
    <glyph glyph-name="tildecomb" unicode="&#x303;" 
d="M-107 586q-7 4 -17 10.5t-20 6.5q-17 0 -30 -18q-6 -8 -13 -8q-4 0 -8 3l-49 40q-6 5 -6 11q0 2 2 8q17 39 44.5 59t58.5 20q32 0 62 -22q3 -2 9 -7t12.5 -7.5t14.5 -2.5q18 0 32 15q11 13 20 5l47 -37q5 -3 5 -10q0 -8 -8 -19q-21 -33 -49 -47.5t-56 -14.5q-22 0 -51 15
z" />
    <glyph glyph-name="uni0304" unicode="&#x304;" 
d="M-168.5 579q-3.5 4 -2.5 11l12 95q1 7 5 11t11 4h195q7 0 10.5 -4t2.5 -11l-12 -95q-1 -7 -5.5 -11t-10.5 -4h-195q-7 0 -10.5 4z" />
    <glyph glyph-name="uni0306" unicode="&#x306;" 
d="M-168.5 583.5q-30.5 28.5 -30.5 77.5q0 20 16 20h64q13 0 13 -14q1 -16 8.5 -25t20.5 -9t23 9t15 25q3 14 17 14h64q15 0 12 -15q-11 -51 -49 -81t-91 -30q-52 0 -82.5 28.5z" />
    <glyph glyph-name="uni0307" unicode="&#x307;" 
d="M-112 577.5q-22 22.5 -22 57.5q0 47 30 77.5t74 30.5q36 0 58 -22t22 -57q0 -46 -30 -77.5t-73 -31.5q-37 0 -59 22.5z" />
    <glyph glyph-name="uni0308" unicode="&#x308;" 
d="M-101 577.5q-22 22.5 -22 57.5q0 47 30 77.5t74 30.5q36 0 58 -22t22 -57q0 -46 -30 -77.5t-73 -31.5q-37 0 -59 22.5zM-302 577.5q-22 22.5 -22 57.5q0 47 30 77.5t74 30.5q36 0 58 -22t22 -57q0 -46 -30 -77.5t-73 -31.5q-37 0 -59 22.5z" />
    <glyph glyph-name="hookabovecomb" unicode="&#x309;" 
d="M-274 570q0 6 2 9q13 26 35 50q10 11 14.5 18t5.5 19v2q0 6 -5 10t-11 4q-10 0 -18.5 -5t-22.5 -20q-6 -6 -13 -6q-5 0 -9 3l-38 32q-5 5 -5 11q0 5 4 10q28 33 54.5 47t62.5 14q45 0 69.5 -22t24.5 -63q0 -32 -11.5 -51t-35.5 -42q-18 -16 -28 -30q-8 -11 -19 -9l-47 9
q-9 2 -9 10z" />
    <glyph glyph-name="uni030A" unicode="&#x30a;" 
d="M-142 584.5q-32 32.5 -32 82.5q0 42 20 77.5t54 56t74 20.5q51 0 83.5 -32.5t32.5 -83.5q0 -42 -20 -77t-54.5 -55.5t-74.5 -20.5q-51 0 -83 32.5zM-17 660.5q13 13.5 13 32.5q0 15 -9.5 25t-23.5 10q-18 0 -31 -14t-13 -33q0 -14 9.5 -24t24.5 -10q17 0 30 13.5z" />
    <glyph glyph-name="uni030B" unicode="&#x30b;" 
d="M-330 588q0 6 2 9l51 92q4 11 17 11h125q11 0 11 -9q0 -3 -3 -9l-57 -92q-8 -11 -18 -11h-117q-11 0 -11 9zM-152 581.5q-3 2.5 -3 6.5q0 5 3 9l57 92q7 11 19 11h115q12 0 12 -9q0 -4 -3 -9l-57 -92q-8 -11 -18 -11h-117q-5 0 -8 2.5z" />
    <glyph glyph-name="uni030C" unicode="&#x30c;" 
d="M-276 690q0 10 14 10h110q12 0 15 -11l15 -45q3 -6 6 0l26 45q6 11 18 11h110q12 0 12 -8q0 -2 -4 -10l-74 -101q-6 -10 -18 -10h-166q-12 0 -16 10l-46 101q-2 6 -2 8z" />
    <glyph glyph-name="uni0312" unicode="&#x312;" 
d="M50 692q0 -2 -4 -10l-65 -93q-7 -10 -19 -10h-118q-12 0 -12 8q0 3 5 10l86 94q9 9 19 9h96q12 0 12 -8z" />
    <glyph glyph-name="uni0313" unicode="&#x313;" 
d="M-173 587q0 2 4 10l65 93q7 10 19 10h118q12 0 12 -8q0 -3 -5 -10l-87 -94q-7 -9 -18 -9h-96q-12 0 -12 8z" />
    <glyph glyph-name="uni031B" unicode="&#x31b;" 
d="M-88 443q-6 0 -9 4t-1 10l6 49q1 12 15 15q38 11 49 71q3 16 17 16h63q12 0 12 -15q0 -5 -1 -8q-14 -71 -53.5 -104.5t-95.5 -37.5h-2z" />
    <glyph glyph-name="dotbelowcomb" unicode="&#x323;" 
d="M-211 -252.5q-21 21.5 -21 55.5q0 45 28.5 75t70.5 30q35 0 56.5 -21t21.5 -56q0 -43 -29.5 -74t-70.5 -31q-35 0 -56 21.5z" />
    <glyph glyph-name="uni0326" unicode="&#x326;" 
d="M-281 -155q0 2 4 10l65 93q7 10 19 10h118q12 0 12 -8q0 -3 -5 -10l-87 -94q-7 -9 -18 -9h-96q-12 0 -12 8z" />
    <glyph glyph-name="uni0327" unicode="&#x327;" 
d="M-197 -169l14 62q2 11 17 11q9 0 16.5 7t7.5 21q0 20 -25 50q-6 4 -6 10q0 8 13 8h81q12 0 17 -8q31 -38 31 -80q0 -21 -8 -43q-23 -64 -96 -64q-25 0 -54 9q-13 3 -8 17z" />
    <glyph glyph-name="uni0328" unicode="&#x328;" 
d="M-62 -186q-32 -9 -57 -9q-35 0 -58.5 17.5t-23.5 59.5q0 57 54 110q9 8 20 8h81q11 0 11 -7q0 -5 -8 -11q-39 -34 -39 -58q0 -20 19 -20q14 0 14 -11l-1 -62q0 -14 -12 -17z" />
    <glyph glyph-name="uni0335" unicode="&#x335;" 
d="M-237.5 653q4.5 4 11.5 4h260q6 0 9.5 -4t2.5 -11l-9 -80q-3 -15 -17 -15h-260q-7 0 -10.5 4t-2.5 11l10 80q1 7 5.5 11z" />
    <glyph glyph-name="uni0336" unicode="&#x336;" 
d="M-466.5 509q-3.5 4 -2.5 11l12 95q1 7 5.5 11t11.5 4h484q6 0 9.5 -4t2.5 -11l-11 -95q-3 -15 -17 -15h-484q-7 0 -10.5 4z" />
    <glyph glyph-name="uni0337" unicode="&#x337;" 
d="M-365 116q-6 0 -10 6l-59 84q-3 5 -3 9q0 6 6 12l434 353q7 5 11 5q6 0 10 -6l59 -84q3 -4 3 -9q0 -6 -6 -12l-435 -353q-7 -5 -10 -5z" />
    <glyph glyph-name="uni0338" unicode="&#x338;" 
d="M-424 -21q0 3 3 9l411 731q5 11 18 11h44q12 0 12 -9q0 -4 -3 -9l-412 -731q-6 -11 -18 -11h-44q-11 0 -11 9z" />
    <glyph glyph-name="uni0394" unicode="&#x394;" horiz-adv-x="551" 
d="M-3.5 4q-3.5 4 -2.5 11l17 135q2 11 5 19l256 519q6 12 19 12h101q6 0 10.5 -3t5.5 -9l130 -520q1 -3 1 -9t-1 -10l-16 -134q-1 -7 -5.5 -11t-11.5 -4h-498q-7 0 -10.5 4zM195 162h161q2 0 4 1.5t1 4.5l-47 281q0 4 -2 4t-4 -4l-116 -281q-1 -6 3 -6z" />
    <glyph glyph-name="uni03A9" unicode="&#x3a9;" horiz-adv-x="491" 
d="M4.5 4q-3.5 4 -2.5 11l16 131q1 7 5.5 11t10.5 4h20q6 0 4 6q-15 35 -15 74q0 17 3 35l26 218q12 98 78 156t164 58q88 0 139.5 -48.5t51.5 -131.5q0 -10 -2 -34l-27 -218q-7 -61 -39 -109q-4 -6 2 -6h18q7 0 10.5 -4t2.5 -11l-16 -131q-1 -7 -5.5 -11t-11.5 -4h-186
q-7 0 -10 4t-2 11l16 134q1 9 12 18q15 10 18 38l37 297q2 21 -5 33t-23 12t-26 -12t-12 -33l-37 -297l-1 -10q0 -18 9 -27q4 -4 6.5 -8.5t1.5 -9.5l-17 -135q-1 -7 -5.5 -11t-10.5 -4h-187q-7 0 -10.5 4z" />
    <glyph glyph-name="uni03BC" unicode="&#x3bc;" horiz-adv-x="450" 
d="M294.5 516q4.5 4 10.5 4h154q6 0 9.5 -4t2.5 -11l-60 -490q-1 -7 -5 -11t-11 -4h-153q-7 0 -10.5 4t-2.5 11l1 6q0 3 -2 4t-4 -2q-14 -16 -36 -24q-3 -2 -5 -6l-21 -178q-3 -15 -17 -15h-153q-7 0 -10.5 4t-2.5 11l85 690q1 7 5.5 11t10.5 4h154q6 0 9.5 -4t2.5 -11
l-39 -320q-1 -4 -1 -10q0 -22 17 -22q22 0 27 32l39 320q1 7 5.5 11z" />
    <glyph glyph-name="pi" unicode="&#x3c0;" horiz-adv-x="541" 
d="M545 364q-4 -4 -11 -4h-32q-5 0 -5 -5l-17 -132q-2 -22 -2 -29q0 -39 22 -37q15 0 14 -14l-16 -128q-2 -15 -16 -16q-60 -3 -71 -3q-58 0 -93.5 19.5t-35.5 75.5q0 7 2 25l29 239q2 5 -4 5h-30q-4 0 -6 -5l-41 -340q-1 -7 -5.5 -11t-11.5 -4h-153q-7 0 -10.5 4t-2.5 11
l42 340q0 5 -4 5h-30q-7 0 -10.5 4t-2.5 11l16 130q1 7 5.5 11t10.5 4h478q6 0 9.5 -4t2.5 -11l-16 -130q-1 -7 -5 -11z" />
    <glyph glyph-name="Wgrave" unicode="&#x1e80;" horiz-adv-x="698" 
d="M129 13l-50 671q0 16 16 16h158q14 0 14 -14l-5 -310q-1 -3 2 -3t3 3l74 310q3 14 18 14h118q14 0 14 -14l3 -310q0 -2 2.5 -2.5t2.5 2.5l67 310q4 14 17 14h154q17 0 11 -16l-206 -671q-4 -13 -18 -13h-134q-14 0 -14 14l-2 326q1 3 -1.5 2.5t-3.5 -3.5l-73 -325
q-4 -14 -18 -14h-134q-14 0 -15 13zM477 769q0 -10 -14 -10h-96q-10 0 -16 9l-63 94q-3 5 -3 8q0 4 4 7t10 3h118q12 0 16 -10l42 -93q2 -6 2 -8z" />
    <glyph glyph-name="wgrave" unicode="&#x1e81;" horiz-adv-x="633" 
d="M98 13l-44 491q0 16 15 16h145q14 0 14 -14l-5 -226q-1 -1 2 -1t3 1l52 226q4 14 18 14h129q14 0 13 -14l-1 -226q0 -2 2 -2t3 2l51 226q3 14 16 14l142 -2q15 0 11 -16l-162 -489q-5 -13 -18 -13h-148q-14 0 -14 14l-2 176q1 3 -2 3t-4 -3l-43 -176q-3 -14 -17 -14h-141
q-13 0 -15 13zM426 589q0 -10 -14 -10h-96q-10 0 -16 9l-63 94q-3 5 -3 8q0 4 4 7t10 3h118q12 0 16 -10l42 -93q2 -6 2 -8z" />
    <glyph glyph-name="Wacute" unicode="&#x1e82;" horiz-adv-x="698" 
d="M129 13l-50 671q0 16 16 16h158q14 0 14 -14l-5 -310q-1 -3 2 -3t3 3l74 310q3 14 18 14h118q14 0 14 -14l3 -310q0 -2 2.5 -2.5t2.5 2.5l67 310q4 14 17 14h154q17 0 11 -16l-206 -671q-4 -13 -18 -13h-134q-14 0 -14 14l-2 326q1 3 -1.5 2.5t-3.5 -3.5l-73 -325
q-4 -14 -18 -14h-134q-14 0 -15 13zM343 767q0 2 4 10l65 93q7 10 19 10h118q12 0 12 -8q0 -3 -5 -10l-87 -94q-7 -9 -18 -9h-96q-12 0 -12 8z" />
    <glyph glyph-name="wacute" unicode="&#x1e83;" horiz-adv-x="633" 
d="M98 13l-44 491q0 16 15 16h145q14 0 14 -14l-5 -226q-1 -1 2 -1t3 1l52 226q4 14 18 14h129q14 0 13 -14l-1 -226q0 -2 2 -2t3 2l51 226q3 14 16 14l142 -2q15 0 11 -16l-162 -489q-5 -13 -18 -13h-148q-14 0 -14 14l-2 176q1 3 -2 3t-4 -3l-43 -176q-3 -14 -17 -14h-141
q-13 0 -15 13zM293 587q0 2 4 10l65 93q7 10 19 10h118q12 0 12 -8q0 -3 -5 -10l-87 -94q-7 -9 -18 -9h-96q-12 0 -12 8z" />
    <glyph glyph-name="Wdieresis" unicode="&#x1e84;" horiz-adv-x="698" 
d="M129 13l-50 671q0 16 16 16h158q14 0 14 -14l-5 -310q-1 -3 2 -3t3 3l74 310q3 14 18 14h118q14 0 14 -14l3 -310q0 -2 2.5 -2.5t2.5 2.5l67 310q4 14 17 14h154q17 0 11 -16l-206 -671q-4 -13 -18 -13h-134q-14 0 -14 14l-2 326q1 3 -1.5 2.5t-3.5 -3.5l-73 -325
q-4 -14 -18 -14h-134q-14 0 -15 13zM456 757.5q-22 22.5 -22 57.5q0 47 30 77.5t74 30.5q36 0 58 -22t22 -57q0 -46 -30 -77.5t-73 -31.5q-37 0 -59 22.5zM255 757.5q-22 22.5 -22 57.5q0 47 30 77.5t74 30.5q36 0 58 -22t22 -57q0 -46 -30 -77.5t-73 -31.5q-37 0 -59 22.5z
" />
    <glyph glyph-name="wdieresis" unicode="&#x1e85;" horiz-adv-x="633" 
d="M98 13l-44 491q0 16 15 16h145q14 0 14 -14l-5 -226q-1 -1 2 -1t3 1l52 226q4 14 18 14h129q14 0 13 -14l-1 -226q0 -2 2 -2t3 2l51 226q3 14 16 14l142 -2q15 0 11 -16l-162 -489q-5 -13 -18 -13h-148q-14 0 -14 14l-2 176q1 3 -2 3t-4 -3l-43 -176q-3 -14 -17 -14h-141
q-13 0 -15 13zM406 577.5q-22 22.5 -22 57.5q0 47 30 77.5t74 30.5q36 0 58 -22t22 -57q0 -46 -30 -77.5t-73 -31.5q-37 0 -59 22.5zM205 577.5q-22 22.5 -22 57.5q0 47 30 77.5t74 30.5q36 0 58 -22t22 -57q0 -46 -30 -77.5t-73 -31.5q-37 0 -59 22.5z" />
    <glyph glyph-name="uni1EA0" unicode="&#x1ea0;" horiz-adv-x="515" 
d="M298 14l-2 76q1 2 -1 3.5t-4 1.5h-87q-5 0 -7 -5l-19 -76q-3 -14 -17 -14h-152q-15 0 -11 16l220 671q4 13 18 13h177q14 0 15 -13l55 -671v-2q0 -14 -15 -14h-157q-14 0 -13 14zM241 239h47q3 0 5 5l-4 185q0 4 -2.5 3.5t-2.5 -3.5l-46 -185q-2 -5 3 -5zM149 -252.5
q-21 21.5 -21 55.5q0 45 28.5 75t70.5 30q35 0 56.5 -21t21.5 -56q0 -43 -29.5 -74t-70.5 -31q-35 0 -56 21.5z" />
    <glyph glyph-name="uni1EA1" unicode="&#x1ea1;" horiz-adv-x="453" 
d="M290.5 516q4.5 4 10.5 4h154q6 0 9.5 -4t2.5 -11l-60 -490q-1 -7 -5 -11t-11 -4h-153q-7 0 -10.5 4t-2.5 11l3 22q0 4 -2 4t-4 -3q-34 -46 -92 -46q-60 0 -87 33t-27 96q0 24 3 49l22 180q11 89 48.5 133.5t106.5 44.5q58 0 80 -47q2 -3 4 -2.5t2 4.5l3 22q1 7 5.5 11z
M237 162q7 9 9 23l18 150q2 14 -3 23t-15 9t-16 -9t-8 -23l-19 -150q-2 -15 2.5 -23.5t14.5 -8.5t17 9zM118 -252.5q-21 21.5 -21 55.5q0 45 28.5 75t70.5 30q35 0 56.5 -21t21.5 -56q0 -43 -29.5 -74t-70.5 -31q-35 0 -56 21.5z" />
    <glyph glyph-name="uni1EA2" unicode="&#x1ea2;" horiz-adv-x="515" 
d="M298 14l-2 76q1 2 -1 3.5t-4 1.5h-87q-5 0 -7 -5l-19 -76q-3 -14 -17 -14h-152q-15 0 -11 16l220 671q4 13 18 13h177q14 0 15 -13l55 -671v-2q0 -14 -15 -14h-157q-14 0 -13 14zM241 239h47q3 0 5 5l-4 185q0 4 -2.5 3.5t-2.5 -3.5l-46 -185q-2 -5 3 -5zM305 750
q0 6 2 9q13 26 35 50q10 11 14.5 18t5.5 19v2q0 6 -5 10t-11 4q-10 0 -18.5 -5t-22.5 -20q-6 -6 -13 -6q-5 0 -9 3l-38 32q-5 5 -5 11q0 5 4 10q28 33 54.5 47t62.5 14q45 0 69.5 -22t24.5 -63q0 -32 -11.5 -51t-35.5 -42q-18 -16 -28 -30q-8 -11 -19 -9l-47 9q-9 2 -9 10z
" />
    <glyph glyph-name="uni1EA3" unicode="&#x1ea3;" horiz-adv-x="453" 
d="M290.5 516q4.5 4 10.5 4h154q6 0 9.5 -4t2.5 -11l-60 -490q-1 -7 -5 -11t-11 -4h-153q-7 0 -10.5 4t-2.5 11l3 22q0 4 -2 4t-4 -3q-34 -46 -92 -46q-60 0 -87 33t-27 96q0 24 3 49l22 180q11 89 48.5 133.5t106.5 44.5q58 0 80 -47q2 -3 4 -2.5t2 4.5l3 22q1 7 5.5 11z
M237 162q7 9 9 23l18 150q2 14 -3 23t-15 9t-16 -9t-8 -23l-19 -150q-2 -15 2.5 -23.5t14.5 -8.5t17 9zM252 570q0 6 2 9q13 26 35 50q10 11 14.5 18t5.5 19v2q0 6 -5 10t-11 4q-10 0 -18.5 -5t-22.5 -20q-6 -6 -13 -6q-5 0 -9 3l-38 32q-5 5 -5 11q0 5 4 10q28 33 54.5 47
t62.5 14q45 0 69.5 -22t24.5 -63q0 -32 -11.5 -51t-35.5 -42q-18 -16 -28 -30q-8 -11 -19 -9l-47 9q-9 2 -9 10z" />
    <glyph glyph-name="uni1EA4" unicode="&#x1ea4;" horiz-adv-x="515" 
d="M298 14l-2 76q1 2 -1 3.5t-4 1.5h-87q-5 0 -7 -5l-19 -76q-3 -14 -17 -14h-152q-15 0 -11 16l220 671q4 13 18 13h177q14 0 15 -13l55 -671v-2q0 -14 -15 -14h-157q-14 0 -13 14zM241 239h47q3 0 5 5l-4 185q0 4 -2.5 3.5t-2.5 -3.5l-46 -185q-2 -5 3 -5zM167 759
q0 2 4 10l71 101q7 10 19 10h166q12 0 16 -10l48 -101q2 -6 2 -7q0 -11 -13 -11h-111q-12 0 -15 11l-15 45q-1 6 -6 0l-26 -45q-6 -11 -18 -11h-110q-12 0 -12 8zM491 851q0 2 4 10l65 93q7 10 19 10h118q12 0 12 -8q0 -3 -5 -10l-87 -94q-7 -9 -18 -9h-96q-12 0 -12 8z" />
    <glyph glyph-name="uni1EA5" unicode="&#x1ea5;" horiz-adv-x="453" 
d="M290.5 516q4.5 4 10.5 4h154q6 0 9.5 -4t2.5 -11l-60 -490q-1 -7 -5 -11t-11 -4h-153q-7 0 -10.5 4t-2.5 11l3 22q0 4 -2 4t-4 -3q-34 -46 -92 -46q-60 0 -87 33t-27 96q0 24 3 49l22 180q11 89 48.5 133.5t106.5 44.5q58 0 80 -47q2 -3 4 -2.5t2 4.5l3 22q1 7 5.5 11z
M237 162q7 9 9 23l18 150q2 14 -3 23t-15 9t-16 -9t-8 -23l-19 -150q-2 -15 2.5 -23.5t14.5 -8.5t17 9zM114 579q0 2 4 10l71 101q7 10 19 10h166q12 0 16 -10l48 -101q2 -6 2 -7q0 -11 -13 -11h-111q-12 0 -15 11l-15 45q-1 6 -6 0l-26 -45q-6 -11 -18 -11h-110
q-12 0 -12 8zM438 671q0 2 4 10l65 93q7 10 19 10h118q12 0 12 -8q0 -3 -5 -10l-87 -94q-7 -9 -18 -9h-96q-12 0 -12 8z" />
    <glyph glyph-name="uni1EA6" unicode="&#x1ea6;" horiz-adv-x="515" 
d="M298 14l-2 76q1 2 -1 3.5t-4 1.5h-87q-5 0 -7 -5l-19 -76q-3 -14 -17 -14h-152q-15 0 -11 16l220 671q4 13 18 13h177q14 0 15 -13l55 -671v-2q0 -14 -15 -14h-157q-14 0 -13 14zM241 239h47q3 0 5 5l-4 185q0 4 -2.5 3.5t-2.5 -3.5l-46 -185q-2 -5 3 -5zM167 759
q0 2 4 10l71 101q7 10 19 10h166q12 0 16 -10l48 -101q2 -6 2 -7q0 -11 -13 -11h-111q-12 0 -15 11l-15 45q-1 6 -6 0l-26 -45q-6 -11 -18 -11h-110q-12 0 -12 8zM581 888q0 -10 -14 -10h-96q-10 0 -16 9l-63 94q-3 5 -3 8q0 4 4 7t10 3h118q12 0 16 -10l42 -93q2 -6 2 -8z
" />
    <glyph glyph-name="uni1EA7" unicode="&#x1ea7;" horiz-adv-x="453" 
d="M290.5 516q4.5 4 10.5 4h154q6 0 9.5 -4t2.5 -11l-60 -490q-1 -7 -5 -11t-11 -4h-153q-7 0 -10.5 4t-2.5 11l3 22q0 4 -2 4t-4 -3q-34 -46 -92 -46q-60 0 -87 33t-27 96q0 24 3 49l22 180q11 89 48.5 133.5t106.5 44.5q58 0 80 -47q2 -3 4 -2.5t2 4.5l3 22q1 7 5.5 11z
M237 162q7 9 9 23l18 150q2 14 -3 23t-15 9t-16 -9t-8 -23l-19 -150q-2 -15 2.5 -23.5t14.5 -8.5t17 9zM114 579q0 2 4 10l71 101q7 10 19 10h166q12 0 16 -10l48 -101q2 -6 2 -7q0 -11 -13 -11h-111q-12 0 -15 11l-15 45q-1 6 -6 0l-26 -45q-6 -11 -18 -11h-110
q-12 0 -12 8zM528 708q0 -10 -14 -10h-96q-10 0 -16 9l-63 94q-3 5 -3 8q0 4 4 7t10 3h118q12 0 16 -10l42 -93q2 -6 2 -8z" />
    <glyph glyph-name="uni1EA8" unicode="&#x1ea8;" horiz-adv-x="515" 
d="M298 14l-2 76q1 2 -1 3.5t-4 1.5h-87q-5 0 -7 -5l-19 -76q-3 -14 -17 -14h-152q-15 0 -11 16l220 671q4 13 18 13h177q14 0 15 -13l55 -671v-2q0 -14 -15 -14h-157q-14 0 -13 14zM241 239h47q3 0 5 5l-4 185q0 4 -2.5 3.5t-2.5 -3.5l-46 -185q-2 -5 3 -5zM487 870
q0 6 2 9q12 23 32 43q9 9 13.5 16t5.5 18v2q0 6 -5 9.5t-11 3.5q-8 0 -15.5 -4.5t-20.5 -17.5q-6 -7 -12 -7q-5 0 -9 4l-33 28q-5 5 -5 11q0 5 4 10q25 29 49 41.5t56 12.5q41 0 63.5 -20t22.5 -57q0 -29 -11 -46.5t-33 -38.5q-19 -19 -24 -26q-9 -10 -19 -9l-40 8
q-10 1 -10 10zM167 759q0 2 4 10l71 101q7 10 19 10h166q12 0 16 -10l48 -101q2 -6 2 -7q0 -11 -13 -11h-111q-12 0 -15 11l-15 45q-2 6 -6 0l-26 -45q-6 -11 -18 -11h-110q-12 0 -12 8z" />
    <glyph glyph-name="uni1EA9" unicode="&#x1ea9;" horiz-adv-x="453" 
d="M290.5 516q4.5 4 10.5 4h154q6 0 9.5 -4t2.5 -11l-60 -490q-1 -7 -5 -11t-11 -4h-153q-7 0 -10.5 4t-2.5 11l3 22q0 4 -2 4t-4 -3q-34 -46 -92 -46q-60 0 -87 33t-27 96q0 24 3 49l22 180q11 89 48.5 133.5t106.5 44.5q58 0 80 -47q2 -3 4 -2.5t2 4.5l3 22q1 7 5.5 11z
M237 162q7 9 9 23l18 150q2 14 -3 23t-15 9t-16 -9t-8 -23l-19 -150q-2 -15 2.5 -23.5t14.5 -8.5t17 9zM434 690q0 6 2 9q12 23 32 43q9 9 13.5 16t5.5 18v2q0 6 -5 9.5t-11 3.5q-8 0 -15.5 -4.5t-20.5 -17.5q-6 -7 -12 -7q-5 0 -9 4l-33 28q-5 5 -5 11q0 5 4 10
q25 29 49 41.5t56 12.5q41 0 63.5 -20t22.5 -57q0 -29 -11 -46.5t-33 -38.5q-19 -19 -24 -26q-9 -10 -19 -9l-40 8q-10 1 -10 10zM114 579q0 2 4 10l71 101q7 10 19 10h166q12 0 16 -10l48 -101q2 -6 2 -7q0 -11 -13 -11h-111q-12 0 -15 11l-15 45q-2 6 -6 0l-26 -45
q-6 -11 -18 -11h-110q-12 0 -12 8z" />
    <glyph glyph-name="uni1EAA" unicode="&#x1eaa;" horiz-adv-x="515" 
d="M298 14l-2 76q1 2 -1 3.5t-4 1.5h-87q-5 0 -7 -5l-19 -76q-3 -14 -17 -14h-152q-15 0 -11 16l220 671q4 13 18 13h177q14 0 15 -13l55 -671v-2q0 -14 -15 -14h-157q-14 0 -13 14zM241 239h47q3 0 5 5l-4 185q0 4 -2.5 3.5t-2.5 -3.5l-46 -185q-2 -5 3 -5zM167 759
q0 2 4 10l71 101q7 10 19 10h166q12 0 16 -10l48 -101q2 -6 2 -7q0 -11 -13 -11h-111q-12 0 -15 11l-15 45q-1 6 -6 0l-26 -45q-6 -11 -18 -11h-110q-12 0 -12 8zM344 934q-7 4 -17 10.5t-20 6.5q-17 0 -30 -18q-6 -8 -13 -8q-4 0 -8 3l-49 40q-6 5 -6 11q0 2 2 8
q17 39 44.5 59t58.5 20q32 0 62 -22q3 -2 9 -7t12.5 -7.5t14.5 -2.5q18 0 32 15q11 13 20 5l47 -37q5 -3 5 -10q0 -8 -8 -19q-21 -33 -49 -47.5t-56 -14.5q-22 0 -51 15z" />
    <glyph glyph-name="uni1EAB" unicode="&#x1eab;" horiz-adv-x="453" 
d="M290.5 516q4.5 4 10.5 4h154q6 0 9.5 -4t2.5 -11l-60 -490q-1 -7 -5 -11t-11 -4h-153q-7 0 -10.5 4t-2.5 11l3 22q0 4 -2 4t-4 -3q-34 -46 -92 -46q-60 0 -87 33t-27 96q0 24 3 49l22 180q11 89 48.5 133.5t106.5 44.5q58 0 80 -47q2 -3 4 -2.5t2 4.5l3 22q1 7 5.5 11z
M237 162q7 9 9 23l18 150q2 14 -3 23t-15 9t-16 -9t-8 -23l-19 -150q-2 -15 2.5 -23.5t14.5 -8.5t17 9zM114 579q0 2 4 10l71 101q7 10 19 10h166q12 0 16 -10l48 -101q2 -6 2 -7q0 -11 -13 -11h-111q-12 0 -15 11l-15 45q-1 6 -6 0l-26 -45q-6 -11 -18 -11h-110
q-12 0 -12 8zM291 754q-7 4 -17 10.5t-20 6.5q-17 0 -30 -18q-6 -8 -13 -8q-4 0 -8 3l-49 40q-6 5 -6 11q0 2 2 8q17 39 44.5 59t58.5 20q32 0 62 -22q3 -2 9 -7t12.5 -7.5t14.5 -2.5q18 0 32 15q11 13 20 5l47 -37q5 -3 5 -10q0 -8 -8 -19q-21 -33 -49 -47.5t-56 -14.5
q-22 0 -51 15z" />
    <glyph glyph-name="uni1EAC" unicode="&#x1eac;" horiz-adv-x="515" 
d="M298 14l-2 76q1 2 -1 3.5t-4 1.5h-87q-5 0 -7 -5l-19 -76q-3 -14 -17 -14h-152q-15 0 -11 16l220 671q4 13 18 13h177q14 0 15 -13l55 -671v-2q0 -14 -15 -14h-157q-14 0 -13 14zM241 239h47q3 0 5 5l-4 185q0 4 -2.5 3.5t-2.5 -3.5l-46 -185q-2 -5 3 -5zM149 -252.5
q-21 21.5 -21 55.5q0 45 28.5 75t70.5 30q35 0 56.5 -21t21.5 -56q0 -43 -29.5 -74t-70.5 -31q-35 0 -56 21.5zM167 759q0 2 4 10l71 101q7 10 19 10h166q12 0 16 -10l48 -101q2 -6 2 -7q0 -11 -13 -11h-111q-12 0 -15 11l-15 45q-1 6 -6 0l-26 -45q-6 -11 -18 -11h-110
q-12 0 -12 8z" />
    <glyph glyph-name="uni1EAD" unicode="&#x1ead;" horiz-adv-x="453" 
d="M290.5 516q4.5 4 10.5 4h154q6 0 9.5 -4t2.5 -11l-60 -490q-1 -7 -5 -11t-11 -4h-153q-7 0 -10.5 4t-2.5 11l3 22q0 4 -2 4t-4 -3q-34 -46 -92 -46q-60 0 -87 33t-27 96q0 24 3 49l22 180q11 89 48.5 133.5t106.5 44.5q58 0 80 -47q2 -3 4 -2.5t2 4.5l3 22q1 7 5.5 11z
M237 162q7 9 9 23l18 150q2 14 -3 23t-15 9t-16 -9t-8 -23l-19 -150q-2 -15 2.5 -23.5t14.5 -8.5t17 9zM118 -252.5q-21 21.5 -21 55.5q0 45 28.5 75t70.5 30q35 0 56.5 -21t21.5 -56q0 -43 -29.5 -74t-70.5 -31q-35 0 -56 21.5zM114 579q0 2 4 10l71 101q7 10 19 10h166
q12 0 16 -10l48 -101q2 -6 2 -7q0 -11 -13 -11h-111q-12 0 -15 11l-15 45q-1 6 -6 0l-26 -45q-6 -11 -18 -11h-110q-12 0 -12 8z" />
    <glyph glyph-name="uni1EAE" unicode="&#x1eae;" horiz-adv-x="515" 
d="M298 14l-2 76q1 2 -1 3.5t-4 1.5h-87q-5 0 -7 -5l-19 -76q-3 -14 -17 -14h-152q-15 0 -11 16l220 671q4 13 18 13h177q14 0 15 -13l55 -671v-2q0 -14 -15 -14h-157q-14 0 -13 14zM241 239h47q3 0 5 5l-4 185q0 4 -2.5 3.5t-2.5 -3.5l-46 -185q-2 -5 3 -5zM246.5 763.5
q-30.5 28.5 -30.5 77.5q0 20 16 20h64q13 0 13 -14q1 -16 8.5 -25t20.5 -9t23 9t15 25q3 14 17 14h64q15 0 12 -15q-11 -51 -49 -81t-91 -30q-52 0 -82.5 28.5zM276 928q0 2 4 10l65 93q7 10 19 10h118q12 0 12 -8q0 -3 -5 -10l-87 -94q-7 -9 -18 -9h-96q-12 0 -12 8z" />
    <glyph glyph-name="uni1EAF" unicode="&#x1eaf;" horiz-adv-x="453" 
d="M290.5 516q4.5 4 10.5 4h154q6 0 9.5 -4t2.5 -11l-60 -490q-1 -7 -5 -11t-11 -4h-153q-7 0 -10.5 4t-2.5 11l3 22q0 4 -2 4t-4 -3q-34 -46 -92 -46q-60 0 -87 33t-27 96q0 24 3 49l22 180q11 89 48.5 133.5t106.5 44.5q58 0 80 -47q2 -3 4 -2.5t2 4.5l3 22q1 7 5.5 11z
M237 162q7 9 9 23l18 150q2 14 -3 23t-15 9t-16 -9t-8 -23l-19 -150q-2 -15 2.5 -23.5t14.5 -8.5t17 9zM193.5 583.5q-30.5 28.5 -30.5 77.5q0 20 16 20h64q13 0 13 -14q1 -16 8.5 -25t20.5 -9t23 9t15 25q3 14 17 14h64q15 0 12 -15q-11 -51 -49 -81t-91 -30
q-52 0 -82.5 28.5zM223 748q0 2 4 10l65 93q7 10 19 10h118q12 0 12 -8q0 -3 -5 -10l-87 -94q-7 -9 -18 -9h-96q-12 0 -12 8z" />
    <glyph glyph-name="uni1EB0" unicode="&#x1eb0;" horiz-adv-x="515" 
d="M298 14l-2 76q1 2 -1 3.5t-4 1.5h-87q-5 0 -7 -5l-19 -76q-3 -14 -17 -14h-152q-15 0 -11 16l220 671q4 13 18 13h177q14 0 15 -13l55 -671v-2q0 -14 -15 -14h-157q-14 0 -13 14zM241 239h47q3 0 5 5l-4 185q0 4 -2.5 3.5t-2.5 -3.5l-46 -185q-2 -5 3 -5zM246.5 763.5
q-30.5 28.5 -30.5 77.5q0 20 16 20h64q13 0 13 -14q1 -16 8.5 -25t20.5 -9t23 9t15 25q3 14 17 14h64q15 0 12 -15q-11 -51 -49 -81t-91 -30q-52 0 -82.5 28.5zM410 930q0 -10 -14 -10h-96q-10 0 -16 9l-63 94q-3 5 -3 8q0 4 4 7t10 3h118q12 0 16 -10l42 -93q2 -6 2 -8z
" />
    <glyph glyph-name="uni1EB1" unicode="&#x1eb1;" horiz-adv-x="453" 
d="M290.5 516q4.5 4 10.5 4h154q6 0 9.5 -4t2.5 -11l-60 -490q-1 -7 -5 -11t-11 -4h-153q-7 0 -10.5 4t-2.5 11l3 22q0 4 -2 4t-4 -3q-34 -46 -92 -46q-60 0 -87 33t-27 96q0 24 3 49l22 180q11 89 48.5 133.5t106.5 44.5q58 0 80 -47q2 -3 4 -2.5t2 4.5l3 22q1 7 5.5 11z
M237 162q7 9 9 23l18 150q2 14 -3 23t-15 9t-16 -9t-8 -23l-19 -150q-2 -15 2.5 -23.5t14.5 -8.5t17 9zM193.5 583.5q-30.5 28.5 -30.5 77.5q0 20 16 20h64q13 0 13 -14q1 -16 8.5 -25t20.5 -9t23 9t15 25q3 14 17 14h64q15 0 12 -15q-11 -51 -49 -81t-91 -30
q-52 0 -82.5 28.5zM357 750q0 -10 -14 -10h-96q-10 0 -16 9l-63 94q-3 5 -3 8q0 4 4 7t10 3h118q12 0 16 -10l42 -93q2 -6 2 -8z" />
    <glyph glyph-name="uni1EB2" unicode="&#x1eb2;" horiz-adv-x="515" 
d="M298 14l-2 76q1 2 -1 3.5t-4 1.5h-87q-5 0 -7 -5l-19 -76q-3 -14 -17 -14h-152q-15 0 -11 16l220 671q4 13 18 13h177q14 0 15 -13l55 -671v-2q0 -14 -15 -14h-157q-14 0 -13 14zM241 239h47q3 0 5 5l-4 185q0 4 -2.5 3.5t-2.5 -3.5l-46 -185q-2 -5 3 -5zM329 904
q0 5 2 9q10 20 28 38q8 9 11.5 14.5t4.5 15.5v2q0 5 -4.5 8.5t-9.5 3.5q-7 0 -13.5 -4t-17.5 -15q-6 -6 -13 -6q-4 0 -9 3l-28 23q-5 4 -5 10t4 11q23 26 45 37.5t50 11.5q37 0 57.5 -19t20.5 -53q0 -26 -10 -41.5t-30 -34.5l-21 -22q-8 -11 -20 -9l-33 6q-9 2 -9 11z
M246.5 763.5q-30.5 28.5 -30.5 77.5q0 20 16 20h64q13 0 13 -14q1 -16 8.5 -25t20.5 -9t23 9t15 25q3 14 17 14h64q15 0 12 -15q-11 -51 -49 -81t-91 -30q-52 0 -82.5 28.5z" />
    <glyph glyph-name="uni1EB3" unicode="&#x1eb3;" horiz-adv-x="453" 
d="M290.5 516q4.5 4 10.5 4h154q6 0 9.5 -4t2.5 -11l-60 -490q-1 -7 -5 -11t-11 -4h-153q-7 0 -10.5 4t-2.5 11l3 22q0 4 -2 4t-4 -3q-34 -46 -92 -46q-60 0 -87 33t-27 96q0 24 3 49l22 180q11 89 48.5 133.5t106.5 44.5q58 0 80 -47q2 -3 4 -2.5t2 4.5l3 22q1 7 5.5 11z
M237 162q7 9 9 23l18 150q2 14 -3 23t-15 9t-16 -9t-8 -23l-19 -150q-2 -15 2.5 -23.5t14.5 -8.5t17 9zM276 724q0 5 2 9q10 20 28 38q8 9 11.5 14.5t4.5 15.5v2q0 5 -4.5 8.5t-9.5 3.5q-7 0 -13.5 -4t-17.5 -15q-6 -6 -13 -6q-4 0 -9 3l-28 23q-5 4 -5 10t4 11
q23 26 45 37.5t50 11.5q37 0 57.5 -19t20.5 -53q0 -26 -10 -41.5t-30 -34.5l-21 -22q-8 -11 -20 -9l-33 6q-9 2 -9 11zM193.5 583.5q-30.5 28.5 -30.5 77.5q0 20 16 20h64q13 0 13 -14q1 -16 8.5 -25t20.5 -9t23 9t15 25q3 14 17 14h64q15 0 12 -15q-11 -51 -49 -81t-91 -30
q-52 0 -82.5 28.5z" />
    <glyph glyph-name="uni1EB4" unicode="&#x1eb4;" horiz-adv-x="515" 
d="M298 14l-2 76q1 2 -1 3.5t-4 1.5h-87q-5 0 -7 -5l-19 -76q-3 -14 -17 -14h-152q-15 0 -11 16l220 671q4 13 18 13h177q14 0 15 -13l55 -671v-2q0 -14 -15 -14h-157q-14 0 -13 14zM241 239h47q3 0 5 5l-4 185q0 4 -2.5 3.5t-2.5 -3.5l-46 -185q-2 -5 3 -5zM246.5 763.5
q-30.5 28.5 -30.5 77.5q0 20 16 20h64q13 0 13 -14q1 -16 8.5 -25t20.5 -9t23 9t15 25q3 14 17 14h64q15 0 12 -15q-11 -51 -49 -81t-91 -30q-52 0 -82.5 28.5zM367 927q-7 4 -17 10.5t-20 6.5q-17 0 -30 -18q-6 -8 -13 -8q-4 0 -8 3l-49 40q-6 5 -6 11q0 2 2 8
q17 39 44.5 59t58.5 20q32 0 62 -22q3 -2 9 -7t12.5 -7.5t14.5 -2.5q18 0 32 15q11 13 20 5l47 -37q5 -3 5 -10q0 -8 -8 -19q-21 -33 -49 -47.5t-56 -14.5q-22 0 -51 15z" />
    <glyph glyph-name="uni1EB5" unicode="&#x1eb5;" horiz-adv-x="453" 
d="M290.5 516q4.5 4 10.5 4h154q6 0 9.5 -4t2.5 -11l-60 -490q-1 -7 -5 -11t-11 -4h-153q-7 0 -10.5 4t-2.5 11l3 22q0 4 -2 4t-4 -3q-34 -46 -92 -46q-60 0 -87 33t-27 96q0 24 3 49l22 180q11 89 48.5 133.5t106.5 44.5q58 0 80 -47q2 -3 4 -2.5t2 4.5l3 22q1 7 5.5 11z
M237 162q7 9 9 23l18 150q2 14 -3 23t-15 9t-16 -9t-8 -23l-19 -150q-2 -15 2.5 -23.5t14.5 -8.5t17 9zM193.5 583.5q-30.5 28.5 -30.5 77.5q0 20 16 20h64q13 0 13 -14q1 -16 8.5 -25t20.5 -9t23 9t15 25q3 14 17 14h64q15 0 12 -15q-11 -51 -49 -81t-91 -30
q-52 0 -82.5 28.5zM314 747q-7 4 -17 10.5t-20 6.5q-17 0 -30 -18q-6 -8 -13 -8q-4 0 -8 3l-49 40q-6 5 -6 11q0 2 2 8q17 39 44.5 59t58.5 20q32 0 62 -22q3 -2 9 -7t12.5 -7.5t14.5 -2.5q18 0 32 15q11 13 20 5l47 -37q5 -3 5 -10q0 -8 -8 -19q-21 -33 -49 -47.5
t-56 -14.5q-22 0 -51 15z" />
    <glyph glyph-name="uni1EB6" unicode="&#x1eb6;" horiz-adv-x="515" 
d="M298 14l-2 76q1 2 -1 3.5t-4 1.5h-87q-5 0 -7 -5l-19 -76q-3 -14 -17 -14h-152q-15 0 -11 16l220 671q4 13 18 13h177q14 0 15 -13l55 -671v-2q0 -14 -15 -14h-157q-14 0 -13 14zM241 239h47q3 0 5 5l-4 185q0 4 -2.5 3.5t-2.5 -3.5l-46 -185q-2 -5 3 -5zM149 -252.5
q-21 21.5 -21 55.5q0 45 28.5 75t70.5 30q35 0 56.5 -21t21.5 -56q0 -43 -29.5 -74t-70.5 -31q-35 0 -56 21.5zM246.5 763.5q-30.5 28.5 -30.5 77.5q0 20 16 20h64q13 0 13 -14q1 -16 8.5 -25t20.5 -9t23 9t15 25q3 14 17 14h64q15 0 12 -15q-11 -51 -49 -81t-91 -30
q-52 0 -82.5 28.5z" />
    <glyph glyph-name="uni1EB7" unicode="&#x1eb7;" horiz-adv-x="453" 
d="M290.5 516q4.5 4 10.5 4h154q6 0 9.5 -4t2.5 -11l-60 -490q-1 -7 -5 -11t-11 -4h-153q-7 0 -10.5 4t-2.5 11l3 22q0 4 -2 4t-4 -3q-34 -46 -92 -46q-60 0 -87 33t-27 96q0 24 3 49l22 180q11 89 48.5 133.5t106.5 44.5q58 0 80 -47q2 -3 4 -2.5t2 4.5l3 22q1 7 5.5 11z
M237 162q7 9 9 23l18 150q2 14 -3 23t-15 9t-16 -9t-8 -23l-19 -150q-2 -15 2.5 -23.5t14.5 -8.5t17 9zM118 -252.5q-21 21.5 -21 55.5q0 45 28.5 75t70.5 30q35 0 56.5 -21t21.5 -56q0 -43 -29.5 -74t-70.5 -31q-35 0 -56 21.5zM193.5 583.5q-30.5 28.5 -30.5 77.5
q0 20 16 20h64q13 0 13 -14q1 -16 8.5 -25t20.5 -9t23 9t15 25q3 14 17 14h64q15 0 12 -15q-11 -51 -49 -81t-91 -30q-52 0 -82.5 28.5z" />
    <glyph glyph-name="uni1EB8" unicode="&#x1eb8;" horiz-adv-x="431" 
d="M456.5 543q-4.5 -4 -11.5 -4h-186q-5 0 -5 -5l-12 -98q-2 -5 4 -5h97q7 0 10.5 -4t2.5 -11l-16 -131q-3 -15 -17 -15h-97q-5 0 -5 -5l-12 -99q-2 -5 4 -5h186q7 0 10.5 -4t2.5 -11l-16 -131q-1 -7 -5.5 -11t-11.5 -4h-359q-6 0 -9.5 4t-2.5 11l82 670q1 7 5.5 11t10.5 4
h359q7 0 10.5 -4t2.5 -11l-16 -131q-1 -7 -5.5 -11zM103 -252.5q-21 21.5 -21 55.5q0 45 28.5 75t70.5 30q35 0 56.5 -21t21.5 -56q0 -43 -29.5 -74t-70.5 -31q-35 0 -56 21.5z" />
    <glyph glyph-name="uni1EB9" unicode="&#x1eb9;" horiz-adv-x="441" 
d="M429 217q-4 -4 -11 -4h-207q-2 0 -3.5 -1.5t-1.5 -3.5l-3 -23q-2 -14 3.5 -23t15.5 -9q17 0 25 25q6 14 18 13l147 -10q15 -2 12 -16q-16 -88 -70 -130.5t-152 -42.5q-89 0 -137 39t-48 111q0 8 2 28l22 180q10 81 70.5 129.5t156.5 48.5q88 0 135.5 -41t47.5 -111
q0 -8 -2 -26l-15 -122q-1 -7 -5 -11zM231 358q-7 -9 -9 -23l-4 -25q0 -5 5 -5h34q5 0 5 5l3 25l1 8q0 10 -5 17t-13 7q-10 0 -17 -9zM112 -252.5q-21 21.5 -21 55.5q0 45 28.5 75t70.5 30q35 0 56.5 -21t21.5 -56q0 -43 -29.5 -74t-70.5 -31q-35 0 -56 21.5z" />
    <glyph glyph-name="uni1EBA" unicode="&#x1eba;" horiz-adv-x="431" 
d="M456.5 543q-4.5 -4 -11.5 -4h-186q-5 0 -5 -5l-12 -98q-2 -5 4 -5h97q7 0 10.5 -4t2.5 -11l-16 -131q-3 -15 -17 -15h-97q-5 0 -5 -5l-12 -99q-2 -5 4 -5h186q7 0 10.5 -4t2.5 -11l-16 -131q-1 -7 -5.5 -11t-11.5 -4h-359q-6 0 -9.5 4t-2.5 11l82 670q1 7 5.5 11t10.5 4
h359q7 0 10.5 -4t2.5 -11l-16 -131q-1 -7 -5.5 -11zM267 750q0 6 2 9q13 26 35 50q10 11 14.5 18t5.5 19v2q0 6 -5 10t-11 4q-10 0 -18.5 -5t-22.5 -20q-6 -6 -13 -6q-5 0 -9 3l-38 32q-5 5 -5 11q0 5 4 10q28 33 54.5 47t62.5 14q45 0 69.5 -22t24.5 -63q0 -32 -11.5 -51
t-35.5 -42q-18 -16 -28 -30q-8 -11 -19 -9l-47 9q-9 2 -9 10z" />
    <glyph glyph-name="uni1EBB" unicode="&#x1ebb;" horiz-adv-x="441" 
d="M429 217q-4 -4 -11 -4h-207q-2 0 -3.5 -1.5t-1.5 -3.5l-3 -23q-2 -14 3.5 -23t15.5 -9q17 0 25 25q6 14 18 13l147 -10q15 -2 12 -16q-16 -88 -70 -130.5t-152 -42.5q-89 0 -137 39t-48 111q0 8 2 28l22 180q10 81 70.5 129.5t156.5 48.5q88 0 135.5 -41t47.5 -111
q0 -8 -2 -26l-15 -122q-1 -7 -5 -11zM231 358q-7 -9 -9 -23l-4 -25q0 -5 5 -5h34q5 0 5 5l3 25l1 8q0 10 -5 17t-13 7q-10 0 -17 -9zM246 570q0 6 2 9q13 26 35 50q10 11 14.5 18t5.5 19v2q0 6 -5 10t-11 4q-10 0 -18.5 -5t-22.5 -20q-6 -6 -13 -6q-5 0 -9 3l-38 32
q-5 5 -5 11q0 5 4 10q28 33 54.5 47t62.5 14q45 0 69.5 -22t24.5 -63q0 -32 -11.5 -51t-35.5 -42q-18 -16 -28 -30q-8 -11 -19 -9l-47 9q-9 2 -9 10z" />
    <glyph glyph-name="uni1EBC" unicode="&#x1ebc;" horiz-adv-x="431" 
d="M456.5 543q-4.5 -4 -11.5 -4h-186q-5 0 -5 -5l-12 -98q-2 -5 4 -5h97q7 0 10.5 -4t2.5 -11l-16 -131q-3 -15 -17 -15h-97q-5 0 -5 -5l-12 -99q-2 -5 4 -5h186q7 0 10.5 -4t2.5 -11l-16 -131q-1 -7 -5.5 -11t-11.5 -4h-359q-6 0 -9.5 4t-2.5 11l82 670q1 7 5.5 11t10.5 4
h359q7 0 10.5 -4t2.5 -11l-16 -131q-1 -7 -5.5 -11zM309 766q-7 4 -17 10.5t-20 6.5q-17 0 -30 -18q-6 -8 -13 -8q-4 0 -8 3l-49 40q-6 5 -6 11q0 2 2 8q17 39 44.5 59t58.5 20q32 0 62 -22q3 -2 9 -7t12.5 -7.5t14.5 -2.5q18 0 32 15q11 13 20 5l47 -37q5 -3 5 -10
q0 -8 -8 -19q-21 -33 -49 -47.5t-56 -14.5q-22 0 -51 15z" />
    <glyph glyph-name="uni1EBD" unicode="&#x1ebd;" horiz-adv-x="441" 
d="M429 217q-4 -4 -11 -4h-207q-2 0 -3.5 -1.5t-1.5 -3.5l-3 -23q-2 -14 3.5 -23t15.5 -9q17 0 25 25q6 14 18 13l147 -10q15 -2 12 -16q-16 -88 -70 -130.5t-152 -42.5q-89 0 -137 39t-48 111q0 8 2 28l22 180q10 81 70.5 129.5t156.5 48.5q88 0 135.5 -41t47.5 -111
q0 -8 -2 -26l-15 -122q-1 -7 -5 -11zM231 358q-7 -9 -9 -23l-4 -25q0 -5 5 -5h34q5 0 5 5l3 25l1 8q0 10 -5 17t-13 7q-10 0 -17 -9zM288 586q-7 4 -17 10.5t-20 6.5q-17 0 -30 -18q-6 -8 -13 -8q-4 0 -8 3l-49 40q-6 5 -6 11q0 2 2 8q17 39 44.5 59t58.5 20q32 0 62 -22
q3 -2 9 -7t12.5 -7.5t14.5 -2.5q18 0 32 15q11 13 20 5l47 -37q5 -3 5 -10q0 -8 -8 -19q-21 -33 -49 -47.5t-56 -14.5q-22 0 -51 15z" />
    <glyph glyph-name="uni1EBE" unicode="&#x1ebe;" horiz-adv-x="431" 
d="M456.5 543q-4.5 -4 -11.5 -4h-186q-5 0 -5 -5l-12 -98q-2 -5 4 -5h97q7 0 10.5 -4t2.5 -11l-16 -131q-3 -15 -17 -15h-97q-5 0 -5 -5l-12 -99q-2 -5 4 -5h186q7 0 10.5 -4t2.5 -11l-16 -131q-1 -7 -5.5 -11t-11.5 -4h-359q-6 0 -9.5 4t-2.5 11l82 670q1 7 5.5 11t10.5 4
h359q7 0 10.5 -4t2.5 -11l-16 -131q-1 -7 -5.5 -11zM129 759q0 2 4 10l71 101q7 10 19 10h166q12 0 16 -10l48 -101q2 -6 2 -7q0 -11 -13 -11h-111q-12 0 -15 11l-15 45q-1 6 -6 0l-26 -45q-6 -11 -18 -11h-110q-12 0 -12 8zM453 851q0 2 4 10l65 93q7 10 19 10h118
q12 0 12 -8q0 -3 -5 -10l-87 -94q-7 -9 -18 -9h-96q-12 0 -12 8z" />
    <glyph glyph-name="uni1EBF" unicode="&#x1ebf;" horiz-adv-x="441" 
d="M429 217q-4 -4 -11 -4h-207q-2 0 -3.5 -1.5t-1.5 -3.5l-3 -23q-2 -14 3.5 -23t15.5 -9q17 0 25 25q6 14 18 13l147 -10q15 -2 12 -16q-16 -88 -70 -130.5t-152 -42.5q-89 0 -137 39t-48 111q0 8 2 28l22 180q10 81 70.5 129.5t156.5 48.5q88 0 135.5 -41t47.5 -111
q0 -8 -2 -26l-15 -122q-1 -7 -5 -11zM231 358q-7 -9 -9 -23l-4 -25q0 -5 5 -5h34q5 0 5 5l3 25l1 8q0 10 -5 17t-13 7q-10 0 -17 -9zM108 579q0 2 4 10l71 101q7 10 19 10h166q12 0 16 -10l48 -101q2 -6 2 -7q0 -11 -13 -11h-111q-12 0 -15 11l-15 45q-1 6 -6 0l-26 -45
q-6 -11 -18 -11h-110q-12 0 -12 8zM432 671q0 2 4 10l65 93q7 10 19 10h118q12 0 12 -8q0 -3 -5 -10l-87 -94q-7 -9 -18 -9h-96q-12 0 -12 8z" />
    <glyph glyph-name="uni1EC0" unicode="&#x1ec0;" horiz-adv-x="431" 
d="M456.5 543q-4.5 -4 -11.5 -4h-186q-5 0 -5 -5l-12 -98q-2 -5 4 -5h97q7 0 10.5 -4t2.5 -11l-16 -131q-3 -15 -17 -15h-97q-5 0 -5 -5l-12 -99q-2 -5 4 -5h186q7 0 10.5 -4t2.5 -11l-16 -131q-1 -7 -5.5 -11t-11.5 -4h-359q-6 0 -9.5 4t-2.5 11l82 670q1 7 5.5 11t10.5 4
h359q7 0 10.5 -4t2.5 -11l-16 -131q-1 -7 -5.5 -11zM129 759q0 2 4 10l71 101q7 10 19 10h166q12 0 16 -10l48 -101q2 -6 2 -7q0 -11 -13 -11h-111q-12 0 -15 11l-15 45q-1 6 -6 0l-26 -45q-6 -11 -18 -11h-110q-12 0 -12 8zM543 888q0 -10 -14 -10h-96q-10 0 -16 9l-63 94
q-3 5 -3 8q0 4 4 7t10 3h118q12 0 16 -10l42 -93q2 -6 2 -8z" />
    <glyph glyph-name="uni1EC1" unicode="&#x1ec1;" horiz-adv-x="441" 
d="M429 217q-4 -4 -11 -4h-207q-2 0 -3.5 -1.5t-1.5 -3.5l-3 -23q-2 -14 3.5 -23t15.5 -9q17 0 25 25q6 14 18 13l147 -10q15 -2 12 -16q-16 -88 -70 -130.5t-152 -42.5q-89 0 -137 39t-48 111q0 8 2 28l22 180q10 81 70.5 129.5t156.5 48.5q88 0 135.5 -41t47.5 -111
q0 -8 -2 -26l-15 -122q-1 -7 -5 -11zM231 358q-7 -9 -9 -23l-4 -25q0 -5 5 -5h34q5 0 5 5l3 25l1 8q0 10 -5 17t-13 7q-10 0 -17 -9zM108 579q0 2 4 10l71 101q7 10 19 10h166q12 0 16 -10l48 -101q2 -6 2 -7q0 -11 -13 -11h-111q-12 0 -15 11l-15 45q-1 6 -6 0l-26 -45
q-6 -11 -18 -11h-110q-12 0 -12 8zM522 708q0 -10 -14 -10h-96q-10 0 -16 9l-63 94q-3 5 -3 8q0 4 4 7t10 3h118q12 0 16 -10l42 -93q2 -6 2 -8z" />
    <glyph glyph-name="uni1EC2" unicode="&#x1ec2;" horiz-adv-x="431" 
d="M456.5 543q-4.5 -4 -11.5 -4h-186q-5 0 -5 -5l-12 -98q-2 -5 4 -5h97q7 0 10.5 -4t2.5 -11l-16 -131q-3 -15 -17 -15h-97q-5 0 -5 -5l-12 -99q-2 -5 4 -5h186q7 0 10.5 -4t2.5 -11l-16 -131q-1 -7 -5.5 -11t-11.5 -4h-359q-6 0 -9.5 4t-2.5 11l82 670q1 7 5.5 11t10.5 4
h359q7 0 10.5 -4t2.5 -11l-16 -131q-1 -7 -5.5 -11zM449 870q0 6 2 9q12 23 32 43q9 9 13.5 16t5.5 18v2q0 6 -5 9.5t-11 3.5q-8 0 -15.5 -4.5t-20.5 -17.5q-6 -7 -12 -7q-5 0 -9 4l-33 28q-5 5 -5 11q0 5 4 10q25 29 49 41.5t56 12.5q41 0 63.5 -20t22.5 -57
q0 -29 -11 -46.5t-33 -38.5q-19 -19 -24 -26q-9 -10 -19 -9l-40 8q-10 1 -10 10zM129 759q0 2 4 10l71 101q7 10 19 10h166q12 0 16 -10l48 -101q2 -6 2 -7q0 -11 -13 -11h-111q-12 0 -15 11l-15 45q-2 6 -6 0l-26 -45q-6 -11 -18 -11h-110q-12 0 -12 8z" />
    <glyph glyph-name="uni1EC3" unicode="&#x1ec3;" horiz-adv-x="441" 
d="M429 217q-4 -4 -11 -4h-207q-2 0 -3.5 -1.5t-1.5 -3.5l-3 -23q-2 -14 3.5 -23t15.5 -9q17 0 25 25q6 14 18 13l147 -10q15 -2 12 -16q-16 -88 -70 -130.5t-152 -42.5q-89 0 -137 39t-48 111q0 8 2 28l22 180q10 81 70.5 129.5t156.5 48.5q88 0 135.5 -41t47.5 -111
q0 -8 -2 -26l-15 -122q-1 -7 -5 -11zM231 358q-7 -9 -9 -23l-4 -25q0 -5 5 -5h34q5 0 5 5l3 25l1 8q0 10 -5 17t-13 7q-10 0 -17 -9zM428 690q0 6 2 9q12 23 32 43q9 9 13.5 16t5.5 18v2q0 6 -5 9.5t-11 3.5q-8 0 -15.5 -4.5t-20.5 -17.5q-6 -7 -12 -7q-5 0 -9 4l-33 28
q-5 5 -5 11q0 5 4 10q25 29 49 41.5t56 12.5q41 0 63.5 -20t22.5 -57q0 -29 -11 -46.5t-33 -38.5q-19 -19 -24 -26q-9 -10 -19 -9l-40 8q-10 1 -10 10zM108 579q0 2 4 10l71 101q7 10 19 10h166q12 0 16 -10l48 -101q2 -6 2 -7q0 -11 -13 -11h-111q-12 0 -15 11l-15 45
q-2 6 -6 0l-26 -45q-6 -11 -18 -11h-110q-12 0 -12 8z" />
    <glyph glyph-name="uni1EC4" unicode="&#x1ec4;" horiz-adv-x="431" 
d="M456.5 543q-4.5 -4 -11.5 -4h-186q-5 0 -5 -5l-12 -98q-2 -5 4 -5h97q7 0 10.5 -4t2.5 -11l-16 -131q-3 -15 -17 -15h-97q-5 0 -5 -5l-12 -99q-2 -5 4 -5h186q7 0 10.5 -4t2.5 -11l-16 -131q-1 -7 -5.5 -11t-11.5 -4h-359q-6 0 -9.5 4t-2.5 11l82 670q1 7 5.5 11t10.5 4
h359q7 0 10.5 -4t2.5 -11l-16 -131q-1 -7 -5.5 -11zM129 759q0 2 4 10l71 101q7 10 19 10h166q12 0 16 -10l48 -101q2 -6 2 -7q0 -11 -13 -11h-111q-12 0 -15 11l-15 45q-1 6 -6 0l-26 -45q-6 -11 -18 -11h-110q-12 0 -12 8zM306 934q-7 4 -17 10.5t-20 6.5q-17 0 -30 -18
q-6 -8 -13 -8q-4 0 -8 3l-49 40q-6 5 -6 11q0 2 2 8q17 39 44.5 59t58.5 20q32 0 62 -22q3 -2 9 -7t12.5 -7.5t14.5 -2.5q18 0 32 15q11 13 20 5l47 -37q5 -3 5 -10q0 -8 -8 -19q-21 -33 -49 -47.5t-56 -14.5q-22 0 -51 15z" />
    <glyph glyph-name="uni1EC5" unicode="&#x1ec5;" horiz-adv-x="441" 
d="M429 217q-4 -4 -11 -4h-207q-2 0 -3.5 -1.5t-1.5 -3.5l-3 -23q-2 -14 3.5 -23t15.5 -9q17 0 25 25q6 14 18 13l147 -10q15 -2 12 -16q-16 -88 -70 -130.5t-152 -42.5q-89 0 -137 39t-48 111q0 8 2 28l22 180q10 81 70.5 129.5t156.5 48.5q88 0 135.5 -41t47.5 -111
q0 -8 -2 -26l-15 -122q-1 -7 -5 -11zM231 358q-7 -9 -9 -23l-4 -25q0 -5 5 -5h34q5 0 5 5l3 25l1 8q0 10 -5 17t-13 7q-10 0 -17 -9zM108 579q0 2 4 10l71 101q7 10 19 10h166q12 0 16 -10l48 -101q2 -6 2 -7q0 -11 -13 -11h-111q-12 0 -15 11l-15 45q-1 6 -6 0l-26 -45
q-6 -11 -18 -11h-110q-12 0 -12 8zM285 754q-7 4 -17 10.5t-20 6.5q-17 0 -30 -18q-6 -8 -13 -8q-4 0 -8 3l-49 40q-6 5 -6 11q0 2 2 8q17 39 44.5 59t58.5 20q32 0 62 -22q3 -2 9 -7t12.5 -7.5t14.5 -2.5q18 0 32 15q11 13 20 5l47 -37q5 -3 5 -10q0 -8 -8 -19
q-21 -33 -49 -47.5t-56 -14.5q-22 0 -51 15z" />
    <glyph glyph-name="uni1EC6" unicode="&#x1ec6;" horiz-adv-x="431" 
d="M456.5 543q-4.5 -4 -11.5 -4h-186q-5 0 -5 -5l-12 -98q-2 -5 4 -5h97q7 0 10.5 -4t2.5 -11l-16 -131q-3 -15 -17 -15h-97q-5 0 -5 -5l-12 -99q-2 -5 4 -5h186q7 0 10.5 -4t2.5 -11l-16 -131q-1 -7 -5.5 -11t-11.5 -4h-359q-6 0 -9.5 4t-2.5 11l82 670q1 7 5.5 11t10.5 4
h359q7 0 10.5 -4t2.5 -11l-16 -131q-1 -7 -5.5 -11zM103 -252.5q-21 21.5 -21 55.5q0 45 28.5 75t70.5 30q35 0 56.5 -21t21.5 -56q0 -43 -29.5 -74t-70.5 -31q-35 0 -56 21.5zM129 759q0 2 4 10l71 101q7 10 19 10h166q12 0 16 -10l48 -101q2 -6 2 -7q0 -11 -13 -11h-111
q-12 0 -15 11l-15 45q-1 6 -6 0l-26 -45q-6 -11 -18 -11h-110q-12 0 -12 8z" />
    <glyph glyph-name="uni1EC7" unicode="&#x1ec7;" horiz-adv-x="441" 
d="M429 217q-4 -4 -11 -4h-207q-2 0 -3.5 -1.5t-1.5 -3.5l-3 -23q-2 -14 3.5 -23t15.5 -9q17 0 25 25q6 14 18 13l147 -10q15 -2 12 -16q-16 -88 -70 -130.5t-152 -42.5q-89 0 -137 39t-48 111q0 8 2 28l22 180q10 81 70.5 129.5t156.5 48.5q88 0 135.5 -41t47.5 -111
q0 -8 -2 -26l-15 -122q-1 -7 -5 -11zM231 358q-7 -9 -9 -23l-4 -25q0 -5 5 -5h34q5 0 5 5l3 25l1 8q0 10 -5 17t-13 7q-10 0 -17 -9zM112 -252.5q-21 21.5 -21 55.5q0 45 28.5 75t70.5 30q35 0 56.5 -21t21.5 -56q0 -43 -29.5 -74t-70.5 -31q-35 0 -56 21.5zM108 579
q0 2 4 10l71 101q7 10 19 10h166q12 0 16 -10l48 -101q2 -6 2 -7q0 -11 -13 -11h-111q-12 0 -15 11l-15 45q-1 6 -6 0l-26 -45q-6 -11 -18 -11h-110q-12 0 -12 8z" />
    <glyph glyph-name="uni1EC8" unicode="&#x1ec8;" horiz-adv-x="233" 
d="M10.5 4q-3.5 4 -2.5 11l82 670q1 7 5.5 11t10.5 4h154q6 0 9.5 -4t2.5 -11l-82 -670q-1 -7 -5.5 -11t-10.5 -4h-154q-6 0 -9.5 4zM163 750q0 6 2 9q13 26 35 50q10 11 14.5 18t5.5 19v2q0 6 -5 10t-11 4q-10 0 -18.5 -5t-22.5 -20q-6 -6 -13 -6q-5 0 -9 3l-38 32
q-5 5 -5 11q0 5 4 10q28 33 54.5 47t62.5 14q45 0 69.5 -22t24.5 -63q0 -32 -11.5 -51t-35.5 -42q-18 -16 -28 -30q-8 -11 -19 -9l-47 9q-9 2 -9 10z" />
    <glyph glyph-name="uni1EC9" unicode="&#x1ec9;" horiz-adv-x="198" 
d="M-7.5 4q-3.5 4 -2.5 11l60 490q1 7 5.5 11t11.5 4h153q7 0 10.5 -4t2.5 -11l-60 -490q-3 -15 -17 -15h-153q-7 0 -10.5 4zM124 570q0 6 2 9q13 26 35 50q10 11 14.5 18t5.5 19v2q0 6 -5 10t-11 4q-10 0 -18.5 -5t-22.5 -20q-6 -6 -13 -6q-5 0 -9 3l-38 32q-5 5 -5 11
q0 5 4 10q28 33 54.5 47t62.5 14q45 0 69.5 -22t24.5 -63q0 -32 -11.5 -51t-35.5 -42q-18 -16 -28 -30q-8 -11 -19 -9l-47 9q-9 2 -9 10z" />
    <glyph glyph-name="uni1ECA" unicode="&#x1eca;" horiz-adv-x="233" 
d="M10.5 4q-3.5 4 -2.5 11l82 670q1 7 5.5 11t10.5 4h154q6 0 9.5 -4t2.5 -11l-82 -670q-1 -7 -5.5 -11t-10.5 -4h-154q-6 0 -9.5 4zM8 -252.5q-21 21.5 -21 55.5q0 45 28.5 75t70.5 30q35 0 56.5 -21t21.5 -56q0 -43 -29.5 -74t-70.5 -31q-35 0 -56 21.5z" />
    </font>
</defs>
</svg>
